  0
SECTION
  2
HEADER
  9
$ACADVER
  1
AC1024
  9
$ACADMAINTVER
 70
   225
  9
$DWGCODEPAGE
  3
ANSI_932
  9
$LASTSAVEDBY
  1
takanashi
  9
$CUSTOMPROPERTYTAG
  1
AmdtFileType
  9
$CUSTOMPROPERTY
  1
84
  9
$INSBASE
 10
0.0
 20
0.0
 30
0.0
  9
$EXTMIN
 10
14.94110993778395
 20
10.96777401010854
 30
-0.0000000000112498
  9
$EXTMAX
 10
795.0121349921321
 20
561.0085625735382
 30
0.0000000000002956
  9
$LIMMIN
 10
-0.0791567889075395
 20
-0.0159211882485977
  9
$LIMMAX
 10
420.079168406405
 20
297.0159086457359
  9
$ORTHOMODE
 70
     0
  9
$REGENMODE
 70
     1
  9
$FILLMODE
 70
     1
  9
$QTEXTMODE
 70
     0
  9
$MIRRTEXT
 70
     1
  9
$LTSCALE
 40
0.2
  9
$ATTMODE
 70
     1
  9
$TEXTSIZE
 40
2.5
  9
$TRACEWID
 40
1.0
  9
$TEXTSTYLE
  7
STANDARD
  9
$CLAYER
  8
0
  9
$CELTYPE
  6
ByLayer
  9
$CECOLOR
 62
   256
  9
$CELTSCALE
 40
0.2
  9
$DISPSILH
 70
     0
  9
$DIMSCALE
 40
1.0
  9
$DIMASZ
 40
2.5
  9
$DIMEXO
 40
1.0
  9
$DIMDLI
 40
10.0
  9
$DIMRND
 40
0.0
  9
$DIMDLE
 40
0.0
  9
$DIMEXE
 40
1.0
  9
$DIMTP
 40
0.1
  9
$DIMTM
 40
0.1
  9
$DIMTXT
 40
3.5
  9
$DIMCEN
 40
0.0
  9
$DIMTSZ
 40
0.0
  9
$DIMTOL
 70
     0
  9
$DIMLIM
 70
     0
  9
$DIMTIH
 70
     0
  9
$DIMTOH
 70
     0
  9
$DIMSE1
 70
     0
  9
$DIMSE2
 70
     0
  9
$DIMTAD
 70
     1
  9
$DIMZIN
 70
     8
  9
$DIMBLK
  1

  9
$DIMASO
 70
     1
  9
$DIMSHO
 70
     1
  9
$DIMPOST
  1

  9
$DIMAPOST
  1
"
  9
$DIMALT
 70
     0
  9
$DIMALTD
 70
     2
  9
$DIMALTF
 40
0.0393701
  9
$DIMLFAC
 40
1.0
  9
$DIMTOFL
 70
     1
  9
$DIMTVP
 40
0.0
  9
$DIMTIX
 70
     0
  9
$DIMSOXD
 70
     0
  9
$DIMSAH
 70
     0
  9
$DIMBLK1
  1

  9
$DIMBLK2
  1

  9
$DIMSTYLE
  2
AM_ISO
  9
$DIMCLRD
 70
   256
  9
$DIMCLRE
 70
   256
  9
$DIMCLRT
 70
     2
  9
$DIMTFAC
 40
0.71
  9
$DIMGAP
 40
1.5
  9
$DIMJUST
 70
     0
  9
$DIMSD1
 70
     0
  9
$DIMSD2
 70
     0
  9
$DIMTOLJ
 70
     0
  9
$DIMTZIN
 70
     8
  9
$DIMALTZ
 70
     0
  9
$DIMALTTZ
 70
     0
  9
$DIMUPT
 70
     0
  9
$DIMDEC
 70
     2
  9
$DIMTDEC
 70
     3
  9
$DIMALTU
 70
     2
  9
$DIMALTTD
 70
     4
  9
$DIMTXSTY
  7
STANDARD
  9
$DIMAUNIT
 70
     0
  9
$DIMADEC
 70
     0
  9
$DIMALTRND
 40
0.0
  9
$DIMAZIN
 70
     2
  9
$DIMDSEP
 70
    46
  9
$DIMATFIT
 70
     3
  9
$DIMFRAC
 70
     0
  9
$DIMLDRBLK
  1

  9
$DIMLUNIT
 70
     2
  9
$DIMLWD
 70
    -1
  9
$DIMLWE
 70
    -1
  9
$DIMTMOVE
 70
     0
  9
$DIMFXL
 40
1.0
  9
$DIMFXLON
 70
     0
  9
$DIMJOGANG
 40
0.7853981633974483
  9
$DIMTFILL
 70
     0
  9
$DIMTFILLCLR
 70
     0
  9
$DIMARCSYM
 70
     0
  9
$DIMLTYPE
  6

  9
$DIMLTEX1
  6

  9
$DIMLTEX2
  6

  9
$DIMTXTDIRECTION
 70
     0
  9
$LUNITS
 70
     2
  9
$LUPREC
 70
     2
  9
$SKETCHINC
 40
1.0
  9
$FILLETRAD
 40
2.5
  9
$AUNITS
 70
     0
  9
$AUPREC
 70
     0
  9
$MENU
  1
.
  9
$ELEVATION
 40
0.0
  9
$PELEVATION
 40
0.0
  9
$THICKNESS
 40
0.0
  9
$LIMCHECK
 70
     0
  9
$CHAMFERA
 40
2.5
  9
$CHAMFERB
 40
2.5
  9
$CHAMFERC
 40
20.0
  9
$CHAMFERD
 40
0.0
  9
$SKPOLY
 70
     0
  9
$TDCREATE
 40
2457815.719687500
  9
$TDUCREATE
 40
2457815.344691123
  9
$TDUPDATE
 40
2459720.596921297
  9
$TDUUPDATE
 40
2459720.221921297
  9
$TDINDWG
 40
0.0358333796
  9
$TDUSRTIMER
 40
0.0358333796
  9
$USRTIMER
 70
     1
  9
$ANGBASE
 50
0.0
  9
$ANGDIR
 70
     0
  9
$PDMODE
 70
     0
  9
$PDSIZE
 40
0.0
  9
$PLINEWID
 40
0.0
  9
$SPLFRAME
 70
     0
  9
$SPLINETYPE
 70
     6
  9
$SPLINESEGS
 70
     8
  9
$HANDSEED
  5
669
  9
$SURFTAB1
 70
     6
  9
$SURFTAB2
 70
     6
  9
$SURFTYPE
 70
     6
  9
$SURFU
 70
     6
  9
$SURFV
 70
     6
  9
$UCSBASE
  2

  9
$UCSNAME
  2

  9
$UCSORG
 10
0.0
 20
0.0
 30
0.0
  9
$UCSXDIR
 10
1.0
 20
0.0
 30
0.0
  9
$UCSYDIR
 10
0.0
 20
1.0
 30
0.0
  9
$UCSORTHOREF
  2

  9
$UCSORTHOVIEW
 70
     0
  9
$UCSORGTOP
 10
0.0
 20
0.0
 30
0.0
  9
$UCSORGBOTTOM
 10
0.0
 20
0.0
 30
0.0
  9
$UCSORGLEFT
 10
0.0
 20
0.0
 30
0.0
  9
$UCSORGRIGHT
 10
0.0
 20
0.0
 30
0.0
  9
$UCSORGFRONT
 10
0.0
 20
0.0
 30
0.0
  9
$UCSORGBACK
 10
0.0
 20
0.0
 30
0.0
  9
$PUCSBASE
  2

  9
$PUCSNAME
  2

  9
$PUCSORG
 10
0.0
 20
0.0
 30
0.0
  9
$PUCSXDIR
 10
1.0
 20
0.0
 30
0.0
  9
$PUCSYDIR
 10
0.0
 20
1.0
 30
0.0
  9
$PUCSORTHOREF
  2

  9
$PUCSORTHOVIEW
 70
     0
  9
$PUCSORGTOP
 10
0.0
 20
0.0
 30
0.0
  9
$PUCSORGBOTTOM
 10
0.0
 20
0.0
 30
0.0
  9
$PUCSORGLEFT
 10
0.0
 20
0.0
 30
0.0
  9
$PUCSORGRIGHT
 10
0.0
 20
0.0
 30
0.0
  9
$PUCSORGFRONT
 10
0.0
 20
0.0
 30
0.0
  9
$PUCSORGBACK
 10
0.0
 20
0.0
 30
0.0
  9
$USERI1
 70
     0
  9
$USERI2
 70
     0
  9
$USERI3
 70
     0
  9
$USERI4
 70
     0
  9
$USERI5
 70
     0
  9
$USERR1
 40
0.0
  9
$USERR2
 40
0.0
  9
$USERR3
 40
0.0
  9
$USERR4
 40
0.0
  9
$USERR5
 40
0.0
  9
$WORLDVIEW
 70
     1
  9
$SHADEDGE
 70
     3
  9
$SHADEDIF
 70
    70
  9
$TILEMODE
 70
     1
  9
$MAXACTVP
 70
    64
  9
$PINSBASE
 10
0.0
 20
0.0
 30
0.0
  9
$PLIMCHECK
 70
     0
  9
$PEXTMIN
 10
1.000000000000000E+20
 20
1.000000000000000E+20
 30
1.000000000000000E+20
  9
$PEXTMAX
 10
-1.000000000000000E+20
 20
-1.000000000000000E+20
 30
-1.000000000000000E+20
  9
$PLIMMIN
 10
0.0
 20
0.0
  9
$PLIMMAX
 10
12.0
 20
9.0
  9
$UNITMODE
 70
     0
  9
$VISRETAIN
 70
     1
  9
$PLINEGEN
 70
     0
  9
$PSLTSCALE
 70
     0
  9
$TREEDEPTH
 70
  3020
  9
$CMLSTYLE
  2
Standard
  9
$CMLJUST
 70
     0
  9
$CMLSCALE
 40
20.0
  9
$PROXYGRAPHICS
 70
     1
  9
$MEASUREMENT
 70
     1
  9
$CELWEIGHT
370
    -1
  9
$ENDCAPS
280
     0
  9
$JOINSTYLE
280
     0
  9
$LWDISPLAY
290
     0
  9
$INSUNITS
 70
     4
  9
$HYPERLINKBASE
  1

  9
$STYLESHEET
  1

  9
$XEDIT
290
     1
  9
$CEPSNTYPE
380
     0
  9
$PSTYLEMODE
290
     1
  9
$FINGERPRINTGUID
  2
{7B8723D2-3601-4360-97E5-54AFB3873AE7}
  9
$VERSIONGUID
  2
{D42FC8CF-7312-0F4A-B03A-49D1D6F6F9BF}
  9
$EXTNAMES
290
     1
  9
$PSVPSCALE
 40
0.0
  9
$OLESTARTUP
290
     0
  9
$SORTENTS
280
   127
  9
$INDEXCTL
280
     0
  9
$HIDETEXT
280
     1
  9
$XCLIPFRAME
280
     2
  9
$HALOGAP
280
     0
  9
$OBSCOLOR
 70
   257
  9
$OBSLTYPE
280
     0
  9
$INTERSECTIONDISPLAY
280
     0
  9
$INTERSECTIONCOLOR
 70
   257
  9
$DIMASSOC
280
     2
  9
$PROJECTNAME
  1

  9
$CAMERADISPLAY
290
     0
  9
$LENSLENGTH
 40
50.0
  9
$CAMERAHEIGHT
 40
0.0
  9
$STEPSPERSEC
 40
2.0
  9
$STEPSIZE
 40
6.0
  9
$3DDWFPREC
 40
2.0
  9
$PSOLWIDTH
 40
0.25
  9
$PSOLHEIGHT
 40
4.0
  9
$LOFTANG1
 40
1.570796326794896
  9
$LOFTANG2
 40
1.570796326794896
  9
$LOFTMAG1
 40
0.0
  9
$LOFTMAG2
 40
0.0
  9
$LOFTPARAM
 70
     7
  9
$LOFTNORMALS
280
     1
  9
$LATITUDE
 40
37.795
  9
$LONGITUDE
 40
-122.394
  9
$NORTHDIRECTION
 40
0.0
  9
$TIMEZONE
 70
 -8000
  9
$LIGHTGLYPHDISPLAY
280
     1
  9
$TILEMODELIGHTSYNCH
280
     1
  9
$CMATERIAL
347
11
  9
$SOLIDHIST
280
     0
  9
$SHOWHIST
280
     1
  9
$DWFFRAME
280
     2
  9
$DGNFRAME
280
     0
  9
$REALWORLDSCALE
290
     1
  9
$INTERFERECOLOR
 62
     1
  9
$INTERFEREOBJVS
345
33
  9
$INTERFEREVPVS
346
30
  9
$CSHADOW
280
     0
  9
$SHADOWPLANELOCATION
 40
0.0
  0
ENDSEC
  0
SECTION
  2
CLASSES
  0
CLASS
  1
ACDBDICTIONARYWDFLT
  2
AcDbDictionaryWithDefault
  3
ObjectDBX Classes
 90
        0
 91
        1
280
     0
281
     0
  0
CLASS
  1
MATERIAL
  2
AcDbMaterial
  3
ObjectDBX Classes
 90
     1153
 91
        3
280
     0
281
     0
  0
CLASS
  1
VISUALSTYLE
  2
AcDbVisualStyle
  3
ObjectDBX Classes
 90
     4095
 91
       24
280
     0
281
     0
  0
CLASS
  1
SCALE
  2
AcDbScale
  3
ObjectDBX Classes
 90
     1153
 91
       17
280
     0
281
     0
  0
CLASS
  1
TABLESTYLE
  2
AcDbTableStyle
  3
ObjectDBX Classes
 90
     4095
 91
        1
280
     0
281
     0
  0
CLASS
  1
MLEADERSTYLE
  2
AcDbMLeaderStyle
  3
ACDB_MLEADERSTYLE_CLASS
 90
     4095
 91
        1
280
     0
281
     0
  0
CLASS
  1
ACDBSECTIONVIEWSTYLE
  2
AcDbSectionViewStyle
  3
ObjectDBX Classes
 90
     1025
 91
        2
280
     0
281
     0
  0
CLASS
  1
ACDBDETAILVIEWSTYLE
  2
AcDbDetailViewStyle
  3
ObjectDBX Classes
 90
     1025
 91
        2
280
     0
281
     0
  0
CLASS
  1
SORTENTSTABLE
  2
AcDbSortentsTable
  3
ObjectDBX Classes
 90
        0
 91
        3
280
     0
281
     0
  0
CLASS
  1
DICTIONARYVAR
  2
AcDbDictionaryVar
  3
ObjectDBX Classes
 90
        0
 91
       10
280
     0
281
     0
  0
CLASS
  1
CELLSTYLEMAP
  2
AcDbCellStyleMap
  3
ObjectDBX Classes
 90
     1152
 91
        1
280
     0
281
     0
  0
CLASS
  1
DIMASSOC
  2
AcDbDimAssoc
  3
"AcDbDimAssoc|Product Desc:     AcDim ARX App For Dimension|Company:          Autodesk, Inc.|WEB Address:      www.autodesk.com"
 90
        0
 91
        0
280
     0
281
     0
  0
ENDSEC
  0
SECTION
  2
TABLES
  0
TABLE
  2
VPORT
  5
8
102
{ACAD_XDICTIONARY
360
203
102
}
330
0
100
AcDbSymbolTable
 70
     1
  0
VPORT
  5
57
330
8
100
AcDbSymbolTableRecord
100
AcDbViewportTableRecord
  2
*Active
 70
     0
 10
0.0
 20
0.0
 11
1.0
 21
1.0
 12
397.4664891016123
 22
280.4963206926448
 13
0.0
 23
0.0
 14
10.0
 24
10.0
 15
10.0
 25
10.0
 16
0.0
 26
0.0
 36
1.0
 17
0.0
 27
0.0
 37
0.0
 40
564.9614976829221
 41
1.879391100702576
 42
50.0
 43
0.0
 44
0.0
 50
0.0
 51
0.0
 71
     0
 72
   100
 73
     1
 74
     1
 75
     0
 76
     0
 77
     0
 78
     0
281
     0
 65
     1
110
0.0
120
0.0
130
0.0
111
1.0
121
0.0
131
0.0
112
0.0
122
1.0
132
0.0
 79
     0
146
0.0
348
2F
 60
     0
 61
     5
292
     1
282
     1
141
0.0
142
0.0
 63
   250
421
  3355443
1001
ACAD_NAV_VCDISPLAY
1070
     3
  0
ENDTAB
  0
TABLE
  2
LTYPE
  5
5
330
0
100
AcDbSymbolTable
 70
     6
  0
LTYPE
  5
5B
330
5
100
AcDbSymbolTableRecord
100
AcDbLinetypeTableRecord
  2
ByBlock
 70
     0
  3

 72
    65
 73
     0
 40
0.0
  0
LTYPE
  5
5C
330
5
100
AcDbSymbolTableRecord
100
AcDbLinetypeTableRecord
  2
ByLayer
 70
     0
  3

 72
    65
 73
     0
 40
0.0
  0
LTYPE
  5
5D
330
5
100
AcDbSymbolTableRecord
100
AcDbLinetypeTableRecord
  2
Continuous
 70
     0
  3
Solid line
 72
    65
 73
     0
 40
0.0
  0
LTYPE
  5
7C
330
5
100
AcDbSymbolTableRecord
100
AcDbLinetypeTableRecord
  2
Amconstr
 70
     0
  3
_______________________
 72
    65
 73
     2
 40
9999.0
 49
9999.0
 74
     0
 49
0.0
 74
     0
  0
LTYPE
  5
7D
330
5
100
AcDbSymbolTableRecord
100
AcDbLinetypeTableRecord
  2
DASHED2
 70
     0
  3
Dashed (.5x) _ _ _ _ _ _ _ _ _ _ _ _ _ _ _ _ _
 72
    65
 73
     2
 40
9.524999999999996
 49
6.349999999999997
 74
     0
 49
-3.174999999999998
 74
     0
  0
LTYPE
  5
7E
330
5
100
AcDbSymbolTableRecord
100
AcDbLinetypeTableRecord
  2
CENTERX2
 70
     0
  3
Center (2x) ________  __  ________  __  _____
 72
    65
 73
     4
 40
101.6
 49
63.5
 74
     0
 49
-12.7
 74
     0
 49
12.7
 74
     0
 49
-12.7
 74
     0
  0
LTYPE
  5
7F
330
5
100
AcDbSymbolTableRecord
100
AcDbLinetypeTableRecord
  2
細い実線
 70
     0
  3
______________________________________________________________
 72
    65
 73
     0
 40
0.0
  0
LTYPE
  5
28D
330
5
100
AcDbSymbolTableRecord
100
AcDbLinetypeTableRecord
  2
CENTER2
 70
     0
  3
Center (.5x) ___ _ ___ _ ___ _ ___ _ ___ _ ___
 72
    65
 73
     4
 40
28.575
 49
19.05
 74
     0
 49
-3.174999999999998
 74
     0
 49
3.174999999999998
 74
     0
 49
-3.174999999999998
 74
     0
  0
ENDTAB
  0
TABLE
  2
LAYER
  5
2
102
{ACAD_XDICTIONARY
360
1F1
102
}
330
0
100
AcDbSymbolTable
 70
    15
  0
LAYER
  5
54
102
{ACAD_XDICTIONARY
360
1EA
102
}
330
2
100
AcDbSymbolTableRecord
100
AcDbLayerTableRecord
  2
0
 70
     0
 62
     7
  6
Continuous
370
    -3
390
F
347
21
1001
AcAecLayerStandard
1000

1000

  0
LAYER
  5
79
330
2
100
AcDbSymbolTableRecord
100
AcDbLayerTableRecord
  2
Defpoints
 70
     0
 62
     7
  6
Continuous
290
     0
370
    -3
390
F
347
21
1001
AcAecLayerStandard
1000

1000

  0
LAYER
  5
8E
102
{ACAD_XDICTIONARY
360
8F
102
}
330
2
100
AcDbSymbolTableRecord
100
AcDbLayerTableRecord
  2
WAKU
 70
     0
 62
     7
  6
Continuous
370
    -3
390
F
347
21
  0
LAYER
  5
93
102
{ACAD_XDICTIONARY
360
94
102
}
330
2
100
AcDbSymbolTableRecord
100
AcDbLayerTableRecord
  2
SEIHIN
 70
     0
 62
     4
  6
Continuous
370
    -3
390
F
347
21
  0
LAYER
  5
9A
102
{ACAD_XDICTIONARY
360
9B
102
}
330
2
100
AcDbSymbolTableRecord
100
AcDbLayerTableRecord
  2
YAKUMONO
 70
     0
 62
     3
  6
Continuous
370
    -3
390
F
347
21
  0
LAYER
  5
B9
102
{ACAD_XDICTIONARY
360
BA
102
}
330
2
100
AcDbSymbolTableRecord
100
AcDbLayerTableRecord
  2
YAKUMONO2
 70
     0
 62
    32
  6
Continuous
370
    -3
390
8B
347
21
  0
LAYER
  5
F7
102
{ACAD_XDICTIONARY
360
F8
102
}
330
2
100
AcDbSymbolTableRecord
100
AcDbLayerTableRecord
  2
BISUKUGI
 70
     0
 62
     6
  6
Continuous
370
    -3
390
F
347
21
  0
LAYER
  5
10D
102
{ACAD_XDICTIONARY
360
10E
102
}
330
2
100
AcDbSymbolTableRecord
100
AcDbLayerTableRecord
  2
SUNPO
 70
     0
 62
     2
  6
Continuous
370
    -3
390
F
347
21
  0
LAYER
  5
11C
102
{ACAD_XDICTIONARY
360
11D
102
}
330
2
100
AcDbSymbolTableRecord
100
AcDbLayerTableRecord
  2
KUTAI
 70
     0
 62
     2
  6
Continuous
370
    -3
390
8B
347
21
  0
LAYER
  5
140
102
{ACAD_XDICTIONARY
360
141
102
}
330
2
100
AcDbSymbolTableRecord
100
AcDbLayerTableRecord
  2
BOUSUISI
 70
     0
 62
     1
  6
Continuous
370
    -3
390
8B
347
21
  0
LAYER
  5
145
102
{ACAD_XDICTIONARY
360
146
102
}
330
2
100
AcDbSymbolTableRecord
100
AcDbLayerTableRecord
  2
BOUSUITE-PU
 70
     0
 62
     8
  6
Continuous
370
    -3
390
F
347
21
  0
LAYER
  5
14E
102
{ACAD_XDICTIONARY
360
14F
102
}
330
2
100
AcDbSymbolTableRecord
100
AcDbLayerTableRecord
  2
MOJI
 70
     0
 62
     7
  6
Continuous
370
    -3
390
F
347
21
  0
LAYER
  5
28E
102
{ACAD_XDICTIONARY
360
28F
102
}
330
2
100
AcDbSymbolTableRecord
100
AcDbLayerTableRecord
  2
部材01
 70
     0
 62
     3
  6
Continuous
370
    -3
390
F
347
21
  0
LAYER
  5
290
102
{ACAD_XDICTIONARY
360
291
102
}
330
2
100
AcDbSymbolTableRecord
100
AcDbLayerTableRecord
  2
HIKIDASI
 70
     0
 62
     7
  6
Continuous
370
     5
390
F
347
21
  0
LAYER
  5
292
102
{ACAD_XDICTIONARY
360
293
102
}
330
2
100
AcDbSymbolTableRecord
100
AcDbLayerTableRecord
  2
TEKUSU
 70
     0
 62
     7
  6
Continuous
370
    -3
390
F
347
21
  0
ENDTAB
  0
TABLE
  2
STYLE
  5
3
330
0
100
AcDbSymbolTable
 70
     4
  0
STYLE
  5
55
330
3
100
AcDbSymbolTableRecord
100
AcDbTextStyleTableRecord
  2
STANDARD
 70
     0
 40
0.0
 41
1.0
 50
0.0
 71
     0
 42
2.5
  3

  4

1001
ACAD
1000
MS Gothic
1071
    32817
  0
STYLE
  5
5A
330
3
100
AcDbSymbolTableRecord
100
AcDbTextStyleTableRecord
  2
Annotative
 70
     0
 40
0.0
 41
1.0
 50
0.0
 71
     0
 42
0.2
  3

  4

1001
AcadAnnotative
1000
AnnotativeData
1002
{
1070
     1
1070
     1
1002
}
1001
ACAD
1000
MS Gothic
1071
    32817
  0
STYLE
  5
7A
330
3
100
AcDbSymbolTableRecord
100
AcDbTextStyleTableRecord
  2
CAD-DL
 70
     0
 40
0.0
 41
1.0
 50
0.0
 71
     0
 42
5.0
  3

  4

1001
ACAD
1000
MS Gothic
1071
    32817
  0
STYLE
  5
7B
330
3
100
AcDbSymbolTableRecord
100
AcDbTextStyleTableRecord
  2
WAKU
 70
     0
 40
5.0
 41
1.0
 50
0.0
 71
     0
 42
5.0
  3

  4

1001
ACAD
1000
MS Gothic
1071
    32817
  0
ENDTAB
  0
TABLE
  2
VIEW
  5
6
330
0
100
AcDbSymbolTable
 70
     2
  0
ENDTAB
  0
TABLE
  2
UCS
  5
7
330
0
100
AcDbSymbolTable
 70
     0
  0
ENDTAB
  0
TABLE
  2
APPID
  5
9
330
0
100
AcDbSymbolTable
 70
    11
  0
APPID
  5
56
330
9
100
AcDbSymbolTableRecord
100
AcDbRegAppTableRecord
  2
ACAD
 70
     0
  0
APPID
  5
5E
330
9
100
AcDbSymbolTableRecord
100
AcDbRegAppTableRecord
  2
AcadAnnotative
 70
     0
  0
APPID
  5
78
330
9
100
AcDbSymbolTableRecord
100
AcDbRegAppTableRecord
  2
ACAD_PSEXT
 70
     0
  0
APPID
  5
1C3
330
9
100
AcDbSymbolTableRecord
100
AcDbRegAppTableRecord
  2
AcAecLayerStandard
 70
     0
  0
APPID
  5
1E8
330
9
100
AcDbSymbolTableRecord
100
AcDbRegAppTableRecord
  2
ACAD_EXEMPT_FROM_CAD_STANDARDS
 70
     0
  0
APPID
  5
1F7
330
9
100
AcDbSymbolTableRecord
100
AcDbRegAppTableRecord
  2
ACAD_NAV_VCDISPLAY
 70
     0
  0
APPID
  5
239
330
9
100
AcDbSymbolTableRecord
100
AcDbRegAppTableRecord
  2
ACAD_MLEADERVER
 70
     0
  0
APPID
  5
295
330
9
100
AcDbSymbolTableRecord
100
AcDbRegAppTableRecord
  2
ACAD_DSTYLE_DIMJAG
 70
     0
  0
APPID
  5
296
330
9
100
AcDbSymbolTableRecord
100
AcDbRegAppTableRecord
  2
ACAD_DSTYLE_DIMTALN
 70
     0
  0
APPID
  5
297
330
9
100
AcDbSymbolTableRecord
100
AcDbRegAppTableRecord
  2
AcDbDynamicBlockGUID
 70
     0
  0
APPID
  5
58A
330
9
100
AcDbSymbolTableRecord
100
AcDbRegAppTableRecord
  2
AcadAnnoPO
 70
     0
  0
ENDTAB
  0
TABLE
  2
DIMSTYLE
  5
A
330
0
100
AcDbSymbolTable
 70
     5
100
AcDbDimStyleTable
 71
     1
340
8A
  0
DIMSTYLE
105
58
330
A
100
AcDbSymbolTableRecord
100
AcDbDimStyleTableRecord
  2
Standard
 70
     0
340
55
  0
DIMSTYLE
105
59
330
A
100
AcDbSymbolTableRecord
100
AcDbDimStyleTableRecord
  2
Annotative
 70
     0
340
55
1001
AcadAnnotative
1000
AnnotativeData
1002
{
1070
     1
1070
     1
1002
}
  0
DIMSTYLE
105
80
102
{ACAD_REACTORS
330
369
330
3CB
330
3CC
330
401
102
}
330
A
100
AcDbSymbolTableRecord
100
AcDbDimStyleTableRecord
  2
CAD-DL
 70
     0
 41
2.0
 42
2.0
 43
10.0
 44
2.0
 73
     0
 74
     0
 77
     3
 78
     8
140
5.0
141
0.0
143
0.0394
145
1.0
147
2.0
176
   256
178
   256
271
     0
272
     0
279
     1
284
     8
285
     8
286
     8
340
7A
341
82
342
85
371
    -1
  0
DIMSTYLE
105
8A
330
A
100
AcDbSymbolTableRecord
100
AcDbDimStyleTableRecord
  2
AM_ISO
 70
     0
  4
"
 41
2.5
 42
1.0
 43
10.0
 44
1.0
 47
0.1
 48
0.1
 73
     0
 74
     0
 77
     1
 78
     8
 79
     2
140
3.5
141
0.0
143
0.0393701
146
0.71
147
1.5
172
     1
176
   256
177
   256
178
     2
271
     2
272
     3
274
     4
283
     0
284
     8
340
55
371
    -1
372
    -1
  0
DIMSTYLE
105
294
330
A
100
AcDbSymbolTableRecord
100
AcDbDimStyleTableRecord
  2
ISO-25
 70
     0
 41
2.5
 42
0.625
 43
3.75
 44
1.25
 73
     0
 74
     0
 77
     1
 78
     8
140
2.5
141
2.5
143
0.03937007874016
147
0.625
171
     3
172
     1
271
     2
272
     2
274
     3
278
    44
283
     0
284
     8
340
55
  0
ENDTAB
  0
TABLE
  2
BLOCK_RECORD
  5
1
330
0
100
AcDbSymbolTable
 70
    10
  0
BLOCK_RECORD
  5
70
102
{ACAD_XDICTIONARY
360
1C0
102
}
330
1
100
AcDbSymbolTableRecord
100
AcDbBlockTableRecord
  2
*Model_Space
340
73
 70
     0
280
     1
281
     0
  0
BLOCK_RECORD
  5
6C
330
1
100
AcDbSymbolTableRecord
100
AcDbBlockTableRecord
  2
*Paper_Space
340
6F
 70
     0
280
     1
281
     0
  0
BLOCK_RECORD
  5
74
330
1
100
AcDbSymbolTableRecord
100
AcDbBlockTableRecord
  2
*Paper_Space0
340
77
 70
     0
280
     1
281
     0
  0
BLOCK_RECORD
  5
82
330
1
100
AcDbSymbolTableRecord
100
AcDbBlockTableRecord
  2
_None
340
0
 70
     0
280
     1
281
     0
  0
BLOCK_RECORD
  5
85
330
1
100
AcDbSymbolTableRecord
100
AcDbBlockTableRecord
  2
_DOT
340
0
310
2800000020000000200000000100080000000000000400000000000000000000000000000000000000000000000080000080000000808000800000008000800080800000C0C0C000C0DCC000F0CAA6000020400000206000002080000020A0000020C0000020E00000400000004020000040400000406000004080000040A0
310
000040C0000040E00000600000006020000060400000606000006080000060A0000060C0000060E00000800000008020000080400000806000008080000080A0000080C0000080E00000A0000000A0200000A0400000A0600000A0800000A0A00000A0C00000A0E00000C0000000C0200000C0400000C0600000C0800000C0
310
A00000C0C00000C0E00000E0000000E0200000E0400000E0600000E0800000E0A00000E0C00000E0E00040000000400020004000400040006000400080004000A0004000C0004000E00040200000402020004020400040206000402080004020A0004020C0004020E000404000004040200040404000404060004040800040
310
40A0004040C0004040E00040600000406020004060400040606000406080004060A0004060C0004060E00040800000408020004080400040806000408080004080A0004080C0004080E00040A0000040A0200040A0400040A0600040A0800040A0A00040A0C00040A0E00040C0000040C0200040C0400040C0600040C08000
310
40C0A00040C0C00040C0E00040E0000040E0200040E0400040E0600040E0800040E0A00040E0C00040E0E00080000000800020008000400080006000800080008000A0008000C0008000E00080200000802020008020400080206000802080008020A0008020C0008020E00080400000804020008040400080406000804080
310
008040A0008040C0008040E00080600000806020008060400080606000806080008060A0008060C0008060E00080800000808020008080400080806000808080008080A0008080C0008080E00080A0000080A0200080A0400080A0600080A0800080A0A00080A0C00080A0E00080C0000080C0200080C0400080C0600080C0
310
800080C0A00080C0C00080C0E00080E0000080E0200080E0400080E0600080E0800080E0A00080E0C00080E0E000C0000000C0002000C0004000C0006000C0008000C000A000C000C000C000E000C0200000C0202000C0204000C0206000C0208000C020A000C020C000C020E000C0400000C0402000C0404000C0406000C0
310
408000C040A000C040C000C040E000C0600000C0602000C0604000C0606000C0608000C060A000C060C000C060E000C0800000C0802000C0804000C0806000C0808000C080A000C080C000C080E000C0A00000C0A02000C0A04000C0A06000C0A08000C0A0A000C0A0C000C0A0E000C0C00000C0C02000C0C04000C0C06000
310
C0C08000C0C0A000F0FBFF00A4A0A000808080000000FF0000FF000000FFFF00FF000000FF00FF00FFFF0000FFFFFF0000000000000000000000000000000000000000000000000000000000000000000000000000000000000000000000000000000000000000000000000000000000000000000000000000000000000000
310
000000000000000000000000000000000000000000000000000000000000000000000000000000000000000000000000000000000000000000000000000000000000000000000000000000000000000000000000000000000000000000000000000000FFFFFFFFFFFFFFFFFFFFFFFFFF000000000000000000000000000000
310
000000FF00FF000000000000000000FF00FF0000000000000000000000000000000000FF00FF000000000000000000FF00FF00000000000000000000000000000000FF000000FF00000000000000FF00000000000000000000000000000000000000FF000000FF00000000000000FF00000000000000000000000000000000
310
0000FF0000000000FF0000000000FF00000000000000000000000000000000000000FF0000000000FF0000000000FF000000000000000000000000000000000000FF00000000000000FF000000FF00000000000000000000000000000000000000FF00000000000000FF000000FF0000000000000000000000000000000000
310
00FF000000000000000000FF00FF00000000000000000000000000000000000000FF000000000000000000FFFFFF00000000FFFF00FFFFFFFFFFFFFFFFFFFFFFFFFFFFFFFFFFFFFFFFFFFFFFFFFFFFFFFFFF000000000000000000000000000000FF000000000000000000FF00FF0000000000000000000000000000000000
310
0000FF0000000000000000FF000000FF00000000000000000000000000000000000000FF00000000000000FF000000FF00000000000000000000000000000000000000FF000000000000FF0000000000FF00000000000000000000000000000000000000FF0000000000FF0000000000FF0000000000000000000000000000
310
000000000000FF000000FF00000000000000FF00000000000000000000000000000000000000FF000000FF00000000000000FF0000000000000000000000000000000000000000FF00FF000000000000000000FF00FF0000000000000000000000000000000000FF00FF000000000000000000FF00FF000000000000000000
310
000000000000000000FFFFFFFFFFFFFFFFFFFFFFFFFF000000000000000000000000000000000000000000000000000000000000000000000000000000000000000000000000000000000000000000000000000000000000000000000000000000000000000000000000000000000000000000000000000000000000000000
310
0000000000000000000000000000000000000000000000000000000000000000000000000000000000000000000000000000000000000000
102
{BLKREFS
331
4EF
331
4F0
331
4F7
331
4F8
331
500
331
501
331
509
331
50A
102
}
 70
     0
280
     1
281
     0
  0
BLOCK_RECORD
  5
9D
330
1
100
AcDbSymbolTableRecord
100
AcDbBlockTableRecord
  2
02水切15S
340
0
310
2800000020000000200000000100080000000000000400000000000000000000000000000000000000000000000080000080000000808000800000008000800080800000C0C0C000C0DCC000F0CAA6000020400000206000002080000020A0000020C0000020E00000400000004020000040400000406000004080000040A0
310
000040C0000040E00000600000006020000060400000606000006080000060A0000060C0000060E00000800000008020000080400000806000008080000080A0000080C0000080E00000A0000000A0200000A0400000A0600000A0800000A0A00000A0C00000A0E00000C0000000C0200000C0400000C0600000C0800000C0
310
A00000C0C00000C0E00000E0000000E0200000E0400000E0600000E0800000E0A00000E0C00000E0E00040000000400020004000400040006000400080004000A0004000C0004000E00040200000402020004020400040206000402080004020A0004020C0004020E000404000004040200040404000404060004040800040
310
40A0004040C0004040E00040600000406020004060400040606000406080004060A0004060C0004060E00040800000408020004080400040806000408080004080A0004080C0004080E00040A0000040A0200040A0400040A0600040A0800040A0A00040A0C00040A0E00040C0000040C0200040C0400040C0600040C08000
310
40C0A00040C0C00040C0E00040E0000040E0200040E0400040E0600040E0800040E0A00040E0C00040E0E00080000000800020008000400080006000800080008000A0008000C0008000E00080200000802020008020400080206000802080008020A0008020C0008020E00080400000804020008040400080406000804080
310
008040A0008040C0008040E00080600000806020008060400080606000806080008060A0008060C0008060E00080800000808020008080400080806000808080008080A0008080C0008080E00080A0000080A0200080A0400080A0600080A0800080A0A00080A0C00080A0E00080C0000080C0200080C0400080C0600080C0
310
800080C0A00080C0C00080C0E00080E0000080E0200080E0400080E0600080E0800080E0A00080E0C00080E0E000C0000000C0002000C0004000C0006000C0008000C000A000C000C000C000E000C0200000C0202000C0204000C0206000C0208000C020A000C020C000C020E000C0400000C0402000C0404000C0406000C0
310
408000C040A000C040C000C040E000C0600000C0602000C0604000C0606000C0608000C060A000C060C000C060E000C0800000C0802000C0804000C0806000C0808000C080A000C080C000C080E000C0A00000C0A02000C0A04000C0A06000C0A08000C0A0A000C0A0C000C0A0E000C0C00000C0C02000C0C04000C0C06000
310
C0C08000C0C0A000F0FBFF00A4A0A000808080000000FF0000FF000000FFFF00FF000000FF00FF00FFFF0000FFFFFF00000000000000000000000000000000000000000000000000000000000000000000000000000000000000000000000000000000FA000000000000000000000000000000000000000000000000000000
310
0000FAFAFA00000000000000000000000000000000000000000000000000000000FAFA00FA0000000000000000000000000000000000000000000000000000000000FA00FA00000000000000000000000000000000000000000000000000000000000000FA0000000000000000000000000000000000000000000000000000
310
0000000000FA00000000000000000000000000000000000000000000000000000000000000FA00000000000000000000000000000000000000000000000000000000000000FA00000000000000000000000000000000000000000000000000000000000000FA00000000000000000000000000000000000000000000000000
310
000000000000FA00000000000000000000000000000000000000000000000000000000FAFAFAFA000000000000000000000000000000000000000000000000FAFAFAFA00000000000000000000000000000000000000000000000000000000FA00000000000000000000000000000000000000000000000000000000000000
310
FA00000000000000000000000000000000000000000000000000000000000000FA00000000000000000000000000000000000000000000000000000000000000FA00000000000000000000000000000000000000000000000000000000000000FA000000000000000000000000000000000000000000000000000000000000
310
00FA00000000000000000000000000000000000000000000000000000000000000FA00000000000000000000000000000000000000000000000000000000000000FA00000000000000000000000000000000000000000000000000000000000000FA0000000000000000000000000000000000000000000000000000000000
310
0000FA00000000000000000000000000000000000000000000000000000000000000FA00000000000000000000000000000000000000000000000000000000000000FA00000000000000000000000000000000000000000000000000000000000000FA00000000000000000000000000000000000000000000000000000000
310
000000FA00000000000000000000000000000000000000000000000000000000000000FA00000000000000000000000000000000000000000000000000000000000000FA00000000000000000000000000000000000000000000000000000000000000FA000000000000000000000000000000000000000000000000000000
310
0000000000000000000000000000000000000000000000000000000000000000000000000000000000000000000000000000000000000000
102
{BLKREFS
331
3A0
102
}
 70
     4
280
     1
281
     0
  0
BLOCK_RECORD
  5
BB
102
{ACAD_XDICTIONARY
360
BC
102
}
330
1
100
AcDbSymbolTableRecord
100
AcDbBlockTableRecord
  2
01縦用スターター15
340
0
310
2800000020000000200000000100080000000000000400000000000000000000000000000000000000000000000080000080000000808000800000008000800080800000C0C0C000C0DCC000F0CAA6000020400000206000002080000020A0000020C0000020E00000400000004020000040400000406000004080000040A0
310
000040C0000040E00000600000006020000060400000606000006080000060A0000060C0000060E00000800000008020000080400000806000008080000080A0000080C0000080E00000A0000000A0200000A0400000A0600000A0800000A0A00000A0C00000A0E00000C0000000C0200000C0400000C0600000C0800000C0
310
A00000C0C00000C0E00000E0000000E0200000E0400000E0600000E0800000E0A00000E0C00000E0E00040000000400020004000400040006000400080004000A0004000C0004000E00040200000402020004020400040206000402080004020A0004020C0004020E000404000004040200040404000404060004040800040
310
40A0004040C0004040E00040600000406020004060400040606000406080004060A0004060C0004060E00040800000408020004080400040806000408080004080A0004080C0004080E00040A0000040A0200040A0400040A0600040A0800040A0A00040A0C00040A0E00040C0000040C0200040C0400040C0600040C08000
310
40C0A00040C0C00040C0E00040E0000040E0200040E0400040E0600040E0800040E0A00040E0C00040E0E00080000000800020008000400080006000800080008000A0008000C0008000E00080200000802020008020400080206000802080008020A0008020C0008020E00080400000804020008040400080406000804080
310
008040A0008040C0008040E00080600000806020008060400080606000806080008060A0008060C0008060E00080800000808020008080400080806000808080008080A0008080C0008080E00080A0000080A0200080A0400080A0600080A0800080A0A00080A0C00080A0E00080C0000080C0200080C0400080C0600080C0
310
800080C0A00080C0C00080C0E00080E0000080E0200080E0400080E0600080E0800080E0A00080E0C00080E0E000C0000000C0002000C0004000C0006000C0008000C000A000C000C000C000E000C0200000C0202000C0204000C0206000C0208000C020A000C020C000C020E000C0400000C0402000C0404000C0406000C0
310
408000C040A000C040C000C040E000C0600000C0602000C0604000C0606000C0608000C060A000C060C000C060E000C0800000C0802000C0804000C0806000C0808000C080A000C080C000C080E000C0A00000C0A02000C0A04000C0A06000C0A08000C0A0A000C0A0C000C0A0E000C0C00000C0C02000C0C04000C0C06000
310
C0C08000C0C0A000F0FBFF00A4A0A000808080000000FF0000FF000000FFFF00FF000000FF00FF00FFFF0000FFFFFF0000000000000000000000000000000000000000000000000000000000000000000000000000000000000000000000001E1E00000000000000000000000000000000000000000000000000000000001E
310
1E1E1E1E1E000000000000000000000000000000000000000000000000001E1E0000001E1E1E1E00000000000000000000000000000000000000000000001E1E000000000000001E000000000000000000000000000000000000000000001E1E000000000000001E000000000000000000000000000000000000000000001E
310
1E000000000000001E000000000000000000000000000000000000001E1E1E1E00000000000000001E0000000000000000000000000000000000001E0000000000000000000000001E0000000000000000000000000000000000001E0000000000000000000000001E0000000000000000000000000000000000001E000000
310
0000000000000000001E0000000000000000000000000000000000001E0000000000000000000000001E0000000000000000000000000000000000001E0000000000000000000000001E0000000000000000000000000000000000001E00000000000000000000001E1E0000000000000000000000000000000000001E0000
310
0000000000000000001E1E0000000000000000000000000000000000001E00000000000000000000001E1E0000000000000000000000000000000000001E000000000000000000000000000000000000000000000000000000000000001E000000000000000000000000000000000000000000000000000000000000001E00
310
0000000000000000000000000000000000000000000000000000000000001E000000000000000000000000000000000000000000000000000000000000001E000000000000000000000000000000000000000000000000000000000000001E000000000000000000000000000000000000000000000000000000000000001E
310
000000000000000000000000000000000000000000000000000000000000001E000000000000000000000000000000000000000000000000000000000000001E000000000000000000000000000000000000000000000000000000000000001E00000000000000000000000000000000000000000000000000000000000000
310
1E1E0000000000000000000000000000000000000000000000000000000000001E1E0000000000000000000000000000000000000000000000000000000000001E1E0000000000000000000000000000000000000000000000000000000000001E1E0000000000000000000000000000000000000000000000000000000000
310
0000000000000000000000000000000000000000000000000000000000000000000000000000000000000000000000000000000000000000
 70
     4
280
     1
281
     0
  0
BLOCK_RECORD
  5
FA
330
1
100
AcDbSymbolTableRecord
100
AcDbBlockTableRecord
  2
S　φ4.2×25
340
0
310
2800000020000000200000000100080000000000000400000000000000000000000000000000000000000000000080000080000000808000800000008000800080800000C0C0C000C0DCC000F0CAA6000020400000206000002080000020A0000020C0000020E00000400000004020000040400000406000004080000040A0
310
000040C0000040E00000600000006020000060400000606000006080000060A0000060C0000060E00000800000008020000080400000806000008080000080A0000080C0000080E00000A0000000A0200000A0400000A0600000A0800000A0A00000A0C00000A0E00000C0000000C0200000C0400000C0600000C0800000C0
310
A00000C0C00000C0E00000E0000000E0200000E0400000E0600000E0800000E0A00000E0C00000E0E00040000000400020004000400040006000400080004000A0004000C0004000E00040200000402020004020400040206000402080004020A0004020C0004020E000404000004040200040404000404060004040800040
310
40A0004040C0004040E00040600000406020004060400040606000406080004060A0004060C0004060E00040800000408020004080400040806000408080004080A0004080C0004080E00040A0000040A0200040A0400040A0600040A0800040A0A00040A0C00040A0E00040C0000040C0200040C0400040C0600040C08000
310
40C0A00040C0C00040C0E00040E0000040E0200040E0400040E0600040E0800040E0A00040E0C00040E0E00080000000800020008000400080006000800080008000A0008000C0008000E00080200000802020008020400080206000802080008020A0008020C0008020E00080400000804020008040400080406000804080
310
008040A0008040C0008040E00080600000806020008060400080606000806080008060A0008060C0008060E00080800000808020008080400080806000808080008080A0008080C0008080E00080A0000080A0200080A0400080A0600080A0800080A0A00080A0C00080A0E00080C0000080C0200080C0400080C0600080C0
310
800080C0A00080C0C00080C0E00080E0000080E0200080E0400080E0600080E0800080E0A00080E0C00080E0E000C0000000C0002000C0004000C0006000C0008000C000A000C000C000C000E000C0200000C0202000C0204000C0206000C0208000C020A000C020C000C020E000C0400000C0402000C0404000C0406000C0
310
408000C040A000C040C000C040E000C0600000C0602000C0604000C0606000C0608000C060A000C060C000C060E000C0800000C0802000C0804000C0806000C0808000C080A000C080C000C080E000C0A00000C0A02000C0A04000C0A06000C0A08000C0A0A000C0A0C000C0A0E000C0C00000C0C02000C0C04000C0C06000
310
C0C08000C0C0A000F0FBFF00A4A0A000808080000000FF0000FF000000FFFF00FF000000FF00FF00FFFF0000FFFFFF0000000000000000000000000000000000000000000000000000000000000000000000000000000000000000000000000000000000000000000000000000000000000000000000000000000000000000
310
00000000000000000000000000000000000000000000000000000000000000000000000000000000000000000000000000000000000000000000000000000000000000000000000000000000000000000000000000000000000000000000000000000000000000000000000000000000000000000000000000000000000000
310
00000000000000000000000000000000000000000000000000000000000000000000000000000000000000000000000000000000000000000000000000000000000000000000000000000000000000000000000000000000000000000000000000000000000000000000000000000000000000000000000000000000000000
310
00000000000000000000000000000000000000000000000000000000000000000000000000000000000000000000000000000000000000000000000000000000000000000000000000000000FDFD000000000000000000000000000000000000000000000000000000000000FDFD00000000000000000000FDFDFDFDFDFDFD
310
FDFDFDFDFDFDFDFDFDFDFDFDFDFDFD000000000000FDFDFDFDFDFDFDFDFDFDFDFDFDFDFD000000000000000000FDFD00000000000000000000FDFD00FD00000000000000FDFDFDFDFDFDFDFDFDFDFDFDFDFDFD000000000000FDFDFDFDFDFDFDFDFDFDFDFDFDFDFDFDFDFDFDFDFDFD00000000000000000000000000000000
310
0000000000000000000000000000FDFD000000000000000000000000000000000000000000000000000000000000FDFD00000000000000000000000000000000000000000000000000000000000000000000000000000000000000000000000000000000000000000000000000000000000000000000000000000000000000
310
00000000000000000000000000000000000000000000000000000000000000000000000000000000000000000000000000000000000000000000000000000000000000000000000000000000000000000000000000000000000000000000000000000000000000000000000000000000000000000000000000000000000000
310
00000000000000000000000000000000000000000000000000000000000000000000000000000000000000000000000000000000000000000000000000000000000000000000000000000000000000000000000000000000000000000000000000000000000000000000000000000000000000000000000000000000000000
310
0000000000000000000000000000000000000000000000000000000000000000000000000000000000000000000000000000000000000000
 70
     4
280
     1
281
     0
  0
BLOCK_RECORD
  5
402
330
1
100
AcDbSymbolTableRecord
100
AcDbBlockTableRecord
  2
*D6
340
0
 70
     0
280
     1
281
     0
  0
BLOCK_RECORD
  5
40E
330
1
100
AcDbSymbolTableRecord
100
AcDbBlockTableRecord
  2
*D7
340
0
 70
     0
280
     1
281
     0
  0
BLOCK_RECORD
  5
41A
330
1
100
AcDbSymbolTableRecord
100
AcDbBlockTableRecord
  2
*D8
340
0
 70
     0
280
     1
281
     0
  0
BLOCK_RECORD
  5
426
330
1
100
AcDbSymbolTableRecord
100
AcDbBlockTableRecord
  2
*D9
340
0
 70
     0
280
     1
281
     0
  0
ENDTAB
  0
ENDSEC
  0
SECTION
  2
BLOCKS
  0
BLOCK
  5
71
330
70
100
AcDbEntity
  8
0
100
AcDbBlockBegin
  2
*Model_Space
 70
     0
 10
0.0
 20
0.0
 30
0.0
  3
*Model_Space
  1

  0
ENDBLK
  5
72
330
70
100
AcDbEntity
  8
0
100
AcDbBlockEnd
  0
BLOCK
  5
6D
330
6C
100
AcDbEntity
 67
     1
  8
0
100
AcDbBlockBegin
  2
*Paper_Space
 70
     0
 10
0.0
 20
0.0
 30
0.0
  3
*Paper_Space
  1

  0
ENDBLK
  5
6E
330
6C
100
AcDbEntity
 67
     1
  8
0
100
AcDbBlockEnd
  0
BLOCK
  5
75
330
74
100
AcDbEntity
 67
     1
  8
0
100
AcDbBlockBegin
  2
*Paper_Space0
 70
     0
 10
0.0
 20
0.0
 30
0.0
  3
*Paper_Space0
  1

  0
ENDBLK
  5
76
330
74
100
AcDbEntity
 67
     1
  8
0
100
AcDbBlockEnd
  0
BLOCK
  5
83
330
82
100
AcDbEntity
  8
0
100
AcDbBlockBegin
  2
_None
 70
     0
 10
0.0
 20
0.0
 30
0.0
  3
_None
  1

  0
ENDBLK
  5
84
330
82
100
AcDbEntity
  8
0
100
AcDbBlockEnd
  0
BLOCK
  5
86
330
85
100
AcDbEntity
  8
0
100
AcDbBlockBegin
  2
_DOT
 70
     0
 10
0.0
 20
0.0
 30
0.0
  3
_DOT
  1

  0
LWPOLYLINE
  5
87
330
85
100
AcDbEntity
  8
0
  6
ByBlock
 62
     0
100
AcDbPolyline
 90
        2
 70
     1
 43
0.5
 10
-0.25
 20
0.0
 42
1.0
 10
0.25
 20
0.0
 42
1.0
  0
LINE
  5
88
330
85
100
AcDbEntity
  8
0
  6
ByBlock
 62
     0
100
AcDbLine
 10
-0.5
 20
0.0
 30
0.0
 11
-1.0
 21
0.0
 31
0.0
  0
ENDBLK
  5
89
330
85
100
AcDbEntity
  8
0
100
AcDbBlockEnd
  0
BLOCK
  5
9E
330
9D
100
AcDbEntity
  8
0
 62
     6
100
AcDbBlockBegin
  2
02水切15S
 70
     0
 10
0.0
 20
0.0
 30
0.0
  3
02水切15S
  1

  0
LINE
  5
9F
330
9D
100
AcDbEntity
  8
YAKUMONO
100
AcDbLine
 10
0.3499999999985448
 20
-26.27299445020765
 30
0.0
 11
0.3499999999985448
 21
26.51232949999997
 31
0.0
  0
LINE
  5
A0
330
9D
100
AcDbEntity
  8
YAKUMONO
100
AcDbLine
 10
0.0
 20
26.51232949999997
 30
0.0
 11
0.0
 21
-26.27299445020765
 31
0.0
  0
ARC
  5
A1
330
9D
100
AcDbEntity
  8
YAKUMONO
100
AcDbCircle
 10
1.0
 20
26.51232949999997
 30
0.0
 40
1.0
100
AcDbArc
 50
0.0
 51
180.0
  0
LINE
  5
A2
330
9D
100
AcDbEntity
  8
YAKUMONO
100
AcDbLine
 10
1.0
 20
20.51232949999997
 30
0.0
 11
2.0
 21
26.51232949999997
 31
0.0
  0
LINE
  5
A3
330
9D
100
AcDbEntity
  8
YAKUMONO
100
AcDbLine
 10
0.659459459458958
 20
20.56908625675658
 30
0.0
 11
1.0
 21
20.51232949999997
 31
0.0
  0
LINE
  5
A4
330
9D
100
AcDbEntity
  8
YAKUMONO
100
AcDbLine
 10
1.649999999999636
 20
26.51232949999997
 30
0.0
 11
0.659459459458958
 21
20.56908625675658
 31
0.0
  0
ARC
  5
A5
330
9D
100
AcDbEntity
  8
YAKUMONO
100
AcDbCircle
 10
1.0
 20
26.51232949999997
 30
0.0
 40
0.6500000000000341
100
AcDbArc
 50
0.0
 51
180.0
  0
ARC
  5
A6
330
9D
100
AcDbEntity
  8
YAKUMONO
100
AcDbCircle
 10
1.849999999998543
 20
-26.27299445020765
 30
0.0
 40
1.500000000000024
100
AcDbArc
 50
180.0
 51
258.0000000000366
  0
LINE
  5
A7
330
9D
100
AcDbEntity
  8
YAKUMONO
100
AcDbLine
 10
24.16186753622606
 20
-32.54903919044239
 30
0.0
 11
1.538132463772853
 21
-27.74021585130834
 31
0.0
  0
LINE
  5
A8
330
9D
100
AcDbEntity
  8
YAKUMONO
100
AcDbLine
 10
1.465363371986313
 20
-28.08256751156513
 30
0.0
 11
24.08909844443952
 21
-32.89139085069918
 31
0.0
  0
ARC
  5
A9
330
9D
100
AcDbEntity
  8
YAKUMONO
100
AcDbCircle
 10
1.849999999998543
 20
-26.27299445020765
 30
0.0
 40
1.85000000000005
100
AcDbArc
 50
180.0
 51
258.0000000000366
  0
ARC
  5
AA
330
9D
100
AcDbEntity
  8
YAKUMONO
100
AcDbCircle
 10
23.84999999999855
 20
-34.01626059154307
 30
0.0
 40
1.500000000000014
100
AcDbArc
 50
0.0
 51
78.0000000000366
  0
LINE
  5
AB
330
9D
100
AcDbEntity
  8
YAKUMONO
100
AcDbLine
 10
25.35000000000037
 20
-60.84674648248881
 30
0.0
 11
25.34999999999854
 21
-34.01626059154307
 31
0.0
  0
LINE
  5
AC
330
9D
100
AcDbEntity
  8
YAKUMONO
100
AcDbLine
 10
25.0
 20
-34.01626059154307
 30
0.0
 11
25.0
 21
-60.84674648248881
 31
0.0
  0
ARC
  5
AD
330
9D
100
AcDbEntity
  8
YAKUMONO
100
AcDbCircle
 10
23.85000000000037
 20
-34.01626059154307
 30
0.0
 40
1.149999999999995
100
AcDbArc
 50
0.0
 51
78.0000000000366
  0
ARC
  5
AE
330
9D
100
AcDbEntity
  8
YAKUMONO
100
AcDbCircle
 10
23.85000000000037
 20
-60.84674648248881
 30
0.0
 40
1.50000000000001
100
AcDbArc
 50
255.0000000000056
 51
0.0
  0
LINE
  5
AF
330
9D
100
AcDbEntity
  8
YAKUMONO
100
AcDbLine
 10
16.67766191962437
 20
-60.47783855662475
 30
0.0
 11
23.46177143234672
 21
-62.29563522192245
 31
0.0
  0
ARC
  5
B0
330
9D
100
AcDbEntity
  8
YAKUMONO
100
AcDbCircle
 10
17.06589048727983
 20
-59.02894981719111
 30
0.0
 40
1.500000000000026
100
AcDbArc
 50
169.9999999999806
 51
255.0000000000056
  0
LINE
  5
B1
330
9D
100
AcDbEntity
  8
YAKUMONO
100
AcDbLine
 10
16.58428886495858
 20
-53.1220926174393
 30
0.0
 11
15.5886788577609
 21
-58.76847755069059
 31
0.0
  0
LINE
  5
B2
330
9D
100
AcDbEntity
  8
YAKUMONO
100
AcDbLine
 10
16.92897157851257
 20
-53.18286947962281
 30
0.0
 11
16.58428886495858
 21
-53.1220926174393
 31
0.0
  0
LINE
  5
B3
330
9D
100
AcDbEntity
  8
YAKUMONO
100
AcDbLine
 10
15.93336157131489
 20
-58.8292544128741
 30
0.0
 11
16.92897157851257
 21
-53.18286947962281
 31
0.0
  0
ARC
  5
B4
330
9D
100
AcDbEntity
  8
YAKUMONO
100
AcDbCircle
 10
17.06589048727983
 20
-59.02894981719111
 30
0.0
 40
1.149999999999997
100
AcDbArc
 50
169.9999999999806
 51
255.0000000000056
  0
LINE
  5
B5
330
9D
100
AcDbEntity
  8
YAKUMONO
100
AcDbLine
 10
23.55235809813166
 20
-61.95756118272118
 30
0.0
 11
16.76824858541113
 21
-60.13976451742347
 31
0.0
  0
ARC
  5
B6
330
9D
100
AcDbEntity
  8
YAKUMONO
100
AcDbCircle
 10
23.85000000000037
 20
-60.84674648248881
 30
0.0
 40
1.14999999999999
100
AcDbArc
 50
255.0000000000056
 51
0.0
  0
ENDBLK
  5
B7
330
9D
100
AcDbEntity
  8
0
 62
     6
100
AcDbBlockEnd
  0
BLOCK
  5
BE
330
BB
100
AcDbEntity
  8
0
100
AcDbBlockBegin
  2
01縦用スターター15
 70
     0
 10
0.0
 20
0.0
 30
0.0
  3
01縦用スターター15
  1

  0
LINE
  5
BF
330
BB
100
AcDbEntity
  8
YAKUMONO2
100
AcDbLine
 10
0.0
 20
-1.25
 30
0.0
 11
0.0
 21
1.25
 31
0.0
  0
ARC
  5
C0
330
BB
100
AcDbEntity
  8
YAKUMONO2
100
AcDbCircle
 10
1.850000000002182
 20
1.25
 30
0.0
 40
1.85
100
AcDbArc
 50
153.0390399999795
 51
180.0
  0
ARC
  5
C1
330
BB
100
AcDbEntity
  8
YAKUMONO2
100
AcDbCircle
 10
1.850000000002182
 20
-1.25
 30
0.0
 40
1.85
100
AcDbArc
 50
180.0
 51
206.9609600000205
  0
ARC
  5
C2
330
BB
100
AcDbEntity
  8
YAKUMONO2
100
AcDbCircle
 10
1.850000000002182
 20
-1.25
 30
0.0
 40
1.5
100
AcDbArc
 50
180.0
 51
206.9609600000205
  0
LINE
  5
C3
330
BB
100
AcDbEntity
  8
YAKUMONO2
100
AcDbLine
 10
0.3500000000021828
 20
1.25
 30
0.0
 11
0.3500000000021828
 21
-1.25
 31
0.0
  0
LINE
  5
C4
330
BB
100
AcDbEntity
  8
YAKUMONO2
100
AcDbLine
 10
0.8455770000000484
 20
-3.355817999999999
 30
0.0
 11
0.2010660000014468
 21
-2.088759000000209
 31
0.0
  0
LINE
  5
C5
330
BB
100
AcDbEntity
  8
YAKUMONO2
100
AcDbLine
 10
1.157538000003114
 20
-3.197132999999666
 30
0.0
 11
0.5130260000005365
 21
-1.930075000000215
 31
0.0
  0
LINE
  5
C6
330
BB
100
AcDbEntity
  8
YAKUMONO2
100
AcDbLine
 10
1.157538000003114
 20
-4.802865999999994
 30
0.0
 11
0.5130260000005365
 21
-6.069925000001603
 31
0.0
  0
LINE
  5
C7
330
BB
100
AcDbEntity
  8
YAKUMONO2
100
AcDbLine
 10
0.8455770000000484
 20
-4.644182
 30
0.0
 11
0.2010660000014468
 21
-5.91124099999979
 31
0.0
  0
ARC
  5
C8
330
BB
100
AcDbEntity
  8
YAKUMONO2
100
AcDbCircle
 10
1.850000000002182
 20
-6.75
 30
0.0
 40
1.85
100
AcDbArc
 50
153.0390399999795
 51
180.0
  0
ARC
  5
C9
330
BB
100
AcDbEntity
  8
YAKUMONO2
100
AcDbCircle
 10
1.850000000002182
 20
-6.75
 30
0.0
 40
1.5
100
AcDbArc
 50
153.0390399999795
 51
180.0
  0
LINE
  5
CA
330
BB
100
AcDbEntity
  8
YAKUMONO2
100
AcDbLine
 10
0.3500000000021828
 20
-6.75
 30
0.0
 11
0.3500000000021828
 21
-14.5
 31
0.0
  0
LINE
  5
CB
330
BB
100
AcDbEntity
  8
YAKUMONO2
100
AcDbLine
 10
0.0
 20
-14.5
 30
0.0
 11
0.0
 21
-6.75
 31
0.0
  0
ARC
  5
CC
330
BB
100
AcDbEntity
  8
YAKUMONO2
100
AcDbCircle
 10
-0.4208339999968303
 20
-4.0
 30
0.0
 40
1.420833
100
AcDbArc
 50
333.0390399999795
 51
26.96096000002049
  0
ARC
  5
CD
330
BB
100
AcDbEntity
  8
YAKUMONO2
100
AcDbCircle
 10
-0.4208339999968303
 20
-4.0
 30
0.0
 40
1.770833
100
AcDbArc
 50
333.0390399999795
 51
26.96096000002049
  0
ARC
  5
CE
330
BB
100
AcDbEntity
  8
YAKUMONO2
100
AcDbCircle
 10
1.850000000002182
 20
-14.5
 30
0.0
 40
1.85
100
AcDbArc
 50
180.0
 51
270.0
  0
ARC
  5
CF
330
BB
100
AcDbEntity
  8
YAKUMONO2
100
AcDbCircle
 10
1.850000000002182
 20
-14.5
 30
0.0
 40
1.5
100
AcDbArc
 50
180.0
 51
270.0
  0
LINE
  5
D0
330
BB
100
AcDbEntity
  8
YAKUMONO2
100
AcDbLine
 10
1.850000000002182
 20
-16.35000000000036
 30
0.0
 11
6.150000000001455
 21
-16.35000000000036
 31
0.0
  0
LINE
  5
D1
330
BB
100
AcDbEntity
  8
YAKUMONO2
100
AcDbLine
 10
6.150000000001455
 20
-16.0
 30
0.0
 11
1.850000000002182
 21
-16.0
 31
0.0
  0
ARC
  5
D2
330
BB
100
AcDbEntity
  8
YAKUMONO2
100
AcDbCircle
 10
6.150000000001455
 20
-17.85000000000036
 30
0.0
 40
1.85
100
AcDbArc
 50
0.0
 51
90.0
  0
ARC
  5
D3
330
BB
100
AcDbEntity
  8
YAKUMONO2
100
AcDbCircle
 10
6.150000000001455
 20
-17.85000000000036
 30
0.0
 40
1.5
100
AcDbArc
 50
0.0
 51
90.0
  0
ARC
  5
D4
330
BB
100
AcDbEntity
  8
YAKUMONO2
100
AcDbCircle
 10
9.5
 20
-22.14999999999964
 30
0.0
 40
1.85
100
AcDbArc
 50
180.0
 51
277.0000000000315
  0
ARC
  5
D5
330
BB
100
AcDbEntity
  8
YAKUMONO2
100
AcDbCircle
 10
9.5
 20
-22.14999999999964
 30
0.0
 40
1.5
100
AcDbArc
 50
180.0
 51
277.0000000000315
  0
LINE
  5
D6
330
BB
100
AcDbEntity
  8
YAKUMONO2
100
AcDbLine
 10
7.650000000001455
 20
-17.85000000000036
 30
0.0
 11
7.650000000001455
 21
-22.14999999999964
 31
0.0
  0
LINE
  5
D7
330
BB
100
AcDbEntity
  8
YAKUMONO2
100
AcDbLine
 10
8.0
 20
-22.14999999999964
 30
0.0
 11
8.0
 21
-17.85000000000036
 31
0.0
  0
LINE
  5
D8
330
BB
100
AcDbEntity
  8
YAKUMONO2
100
AcDbLine
 10
18.87545800000225
 20
-22.86273100000108
 30
0.0
 11
9.725458000000799
 21
-23.98621000000094
 31
0.0
  0
ARC
  5
D9
330
BB
100
AcDbEntity
  8
YAKUMONO2
100
AcDbCircle
 10
18.65000000000145
 20
-21.0265210000016
 30
0.0
 40
1.85
100
AcDbArc
 50
277.0000000000315
 51
0.0
  0
ARC
  5
DA
330
BB
100
AcDbEntity
  8
YAKUMONO2
100
AcDbCircle
 10
18.65000000000145
 20
-21.0265210000016
 30
0.0
 40
1.5
100
AcDbArc
 50
277.0000000000315
 51
0.0
  0
LINE
  5
DB
330
BB
100
AcDbEntity
  8
YAKUMONO2
100
AcDbLine
 10
18.83280400000149
 20
-22.51533999999992
 30
0.0
 11
9.682804000000032
 21
-23.6388190000016
 31
0.0
  0
LINE
  5
DC
330
BB
100
AcDbEntity
  8
YAKUMONO2
100
AcDbLine
 10
20.5
 20
-21.0265210000016
 30
0.0
 11
20.5
 21
-3.91326300000037
 31
0.0
  0
LINE
  5
DD
330
BB
100
AcDbEntity
  8
YAKUMONO2
100
AcDbLine
 10
20.15000000000146
 20
-21.0265210000016
 30
0.0
 11
20.15000000000146
 21
-3.91326300000037
 31
0.0
  0
LINE
  5
DE
330
BB
100
AcDbEntity
  8
YAKUMONO2
100
AcDbLine
 10
18.35000000000218
 20
-7.66326300000037
 30
0.0
 11
18.0
 21
-7.66326300000037
 31
0.0
  0
ARC
  5
DF
330
BB
100
AcDbEntity
  8
YAKUMONO2
100
AcDbCircle
 10
19.25
 20
-3.91326300000037
 30
0.0
 40
0.9
100
AcDbArc
 50
0.0
 51
180.0
  0
ARC
  5
E0
330
BB
100
AcDbEntity
  8
YAKUMONO2
100
AcDbCircle
 10
19.25
 20
-3.91326300000037
 30
0.0
 40
1.25
100
AcDbArc
 50
0.0
 51
180.0
  0
LINE
  5
E1
330
BB
100
AcDbEntity
  8
YAKUMONO2
100
AcDbLine
 10
18.35000000000218
 20
-7.66326300000037
 30
0.0
 11
18.35000000000218
 21
-3.91326300000037
 31
0.0
  0
LINE
  5
E2
330
BB
100
AcDbEntity
  8
YAKUMONO2
100
AcDbLine
 10
18.0
 20
-7.66326300000037
 30
0.0
 11
18.0
 21
-3.91326300000037
 31
0.0
  0
LINE
  5
E3
330
BB
100
AcDbEntity
  8
YAKUMONO2
100
AcDbLine
 10
0.8455770000000484
 20
3.355817999999999
 30
0.0
 11
0.2010660000014468
 21
2.088759000000209
 31
0.0
  0
ARC
  5
E4
330
BB
100
AcDbEntity
  8
YAKUMONO2
100
AcDbCircle
 10
-0.4208339999968303
 20
4.0
 30
0.0
 40
1.420833
100
AcDbArc
 50
333.0390399999795
 51
26.96096000002049
  0
LINE
  5
E5
330
BB
100
AcDbEntity
  8
YAKUMONO2
100
AcDbLine
 10
1.157538000003114
 20
3.197134000000005
 30
0.0
 11
0.5130260000005365
 21
1.930074999998396
 31
0.0
  0
ARC
  5
E6
330
BB
100
AcDbEntity
  8
YAKUMONO2
100
AcDbCircle
 10
1.850000000002182
 20
1.25
 30
0.0
 40
1.5
100
AcDbArc
 50
153.0390399999795
 51
180.0
  0
LINE
  5
E7
330
BB
100
AcDbEntity
  8
YAKUMONO2
100
AcDbLine
 10
0.8455770000000484
 20
4.644182
 30
0.0
 11
0.2010660000014468
 21
5.91124099999979
 31
0.0
  0
LINE
  5
E8
330
BB
100
AcDbEntity
  8
YAKUMONO2
100
AcDbLine
 10
1.157538000003114
 20
4.802867000000333
 30
0.0
 11
0.5130260000005365
 21
6.069924999999784
 31
0.0
  0
ARC
  5
E9
330
BB
100
AcDbEntity
  8
YAKUMONO2
100
AcDbCircle
 10
-0.4208339999968303
 20
4.0
 30
0.0
 40
1.770833
100
AcDbArc
 50
333.0390399999795
 51
26.96096000002049
  0
LINE
  5
EA
330
BB
100
AcDbEntity
  8
YAKUMONO2
100
AcDbLine
 10
0.0
 20
6.75
 30
0.0
 11
0.0
 21
10.75
 31
0.0
  0
LINE
  5
EB
330
BB
100
AcDbEntity
  8
YAKUMONO2
100
AcDbLine
 10
0.3500000000021828
 20
10.75
 30
0.0
 11
0.3500000000021828
 21
6.75
 31
0.0
  0
ARC
  5
EC
330
BB
100
AcDbEntity
  8
YAKUMONO2
100
AcDbCircle
 10
1.850000000002182
 20
6.75
 30
0.0
 40
1.85
100
AcDbArc
 50
180.0
 51
206.9609600000205
  0
ARC
  5
ED
330
BB
100
AcDbEntity
  8
YAKUMONO2
100
AcDbCircle
 10
1.850000000002182
 20
6.75
 30
0.0
 40
1.5
100
AcDbArc
 50
180.0
 51
206.9609600000205
  0
ARC
  5
EE
330
BB
100
AcDbEntity
  8
YAKUMONO2
100
AcDbCircle
 10
1.25
 20
15.75
 30
0.0
 40
0.9
100
AcDbArc
 50
0.0
 51
180.0
  0
ARC
  5
EF
330
BB
100
AcDbEntity
  8
YAKUMONO2
100
AcDbCircle
 10
1.25
 20
15.75
 30
0.0
 40
1.25
100
AcDbArc
 50
0.0
 51
180.0
  0
LINE
  5
F0
330
BB
100
AcDbEntity
  8
YAKUMONO2
100
AcDbLine
 10
2.150000000001455
 20
12.0
 30
0.0
 11
2.150000000001455
 21
15.75
 31
0.0
  0
LINE
  5
F1
330
BB
100
AcDbEntity
  8
YAKUMONO2
100
AcDbLine
 10
0.0
 20
10.75
 30
0.0
 11
0.0
 21
15.75
 31
0.0
  0
LINE
  5
F2
330
BB
100
AcDbEntity
  8
YAKUMONO2
100
AcDbLine
 10
2.5
 20
12.0
 30
0.0
 11
2.5
 21
15.75
 31
0.0
  0
LINE
  5
F3
330
BB
100
AcDbEntity
  8
YAKUMONO2
100
AcDbLine
 10
0.3500000000021828
 20
10.75
 30
0.0
 11
0.3500000000021828
 21
15.75
 31
0.0
  0
LINE
  5
F4
330
BB
100
AcDbEntity
  8
YAKUMONO2
100
AcDbLine
 10
2.150000000001455
 20
12.0
 30
0.0
 11
2.5
 21
12.0
 31
0.0
  0
ENDBLK
  5
F5
330
BB
100
AcDbEntity
  8
0
100
AcDbBlockEnd
  0
BLOCK
  5
FB
330
FA
100
AcDbEntity
  8
0
100
AcDbBlockBegin
  2
S　φ4.2×25
 70
     0
 10
0.0
 20
0.0
 30
0.0
  3
S　φ4.2×25
  1

  0
ARC
  5
FC
330
FA
100
AcDbEntity
  8
BISUKUGI
100
AcDbCircle
 10
0.8792705549419679
 20
-2.103647225290159
 30
0.0
 40
2.0
100
AcDbArc
 50
243.919387275907
 51
273.460747776051
  0
ARC
  5
FD
330
FA
100
AcDbEntity
  8
BISUKUGI
100
AcDbCircle
 10
-24.97643152934086
 20
0.5066408256054729
 30
0.0
 40
2.0
100
AcDbArc
 50
345.3259155108848
 51
44.161210162238
  0
LINE
  5
FE
330
FA
100
AcDbEntity
  8
BISUKUGI
100
AcDbLine
 10
-20.50000000000057
 20
-2.100000000003546
 30
0.0
 11
-20.50000000000057
 21
2.099999999995815
 31
0.0
  0
LINE
  5
FF
330
FA
100
AcDbEntity
  8
BISUKUGI
100
AcDbLine
 10
-25.0
 20
-0.0000000000056843
 30
0.0
 11
-23.54166666667321
 21
1.899999999994406
 31
0.0
  0
LINE
  5
100
330
FA
100
AcDbEntity
  8
BISUKUGI
100
AcDbLine
 10
-25.0
 20
-0.0000000000056843
 30
0.0
 11
-23.49190363349658
 21
-1.90000000000532
 31
0.0
  0
LINE
  5
101
330
FA
100
AcDbEntity
  8
BISUKUGI
100
AcDbLine
 10
0.0
 20
2.099999999994223
 30
0.0
 11
-20.50000000000046
 21
2.099999999994223
 31
0.0
  0
LINE
  5
102
330
FA
100
AcDbEntity
  8
BISUKUGI
100
AcDbLine
 10
0.0
 20
-2.100000000005592
 30
0.0
 11
-20.50000000000046
 21
-2.100000000005138
 31
0.0
  0
LINE
  5
103
330
FA
100
AcDbEntity
  8
BISUKUGI
100
AcDbLine
 10
0.0
 20
3.900000000001114
 30
0.0
 11
-0.0000000000002274
 21
-3.900000000001114
 31
0.0
  0
LINE
  5
104
330
FA
100
AcDbEntity
  8
BISUKUGI
  6
CENTERX2
100
AcDbLine
 10
-28.00000000000057
 20
-0.0000000000050022
 30
0.0
 11
5.899999999999861
 21
0.0000000000010232
 31
0.0
  0
LINE
  5
105
330
FA
100
AcDbEntity
  8
BISUKUGI
100
AcDbLine
 10
-20.50000000000057
 20
1.899999999994406
 30
0.0
 11
-23.54166666667321
 21
1.899999999994406
 31
0.0
  0
LINE
  5
106
330
FA
100
AcDbEntity
  8
BISUKUGI
100
AcDbLine
 10
-20.50000000000046
 20
-1.900000000005206
 30
0.0
 11
-23.49190363349658
 21
-1.90000000000532
 31
0.0
  0
ARC
  5
107
330
FA
100
AcDbEntity
  8
BISUKUGI
100
AcDbCircle
 10
-24.60979482408436
 20
-4.747733573205778
 30
0.0
 40
5.0
100
AcDbArc
 50
34.71862283375607
 51
71.72213565281452
  0
LINE
  5
108
330
FA
100
AcDbEntity
  8
BISUKUGI
100
AcDbLine
 10
1.0
 20
4.100000000001158
 30
0.0
 11
1.0
 21
-4.099999999998884
 31
0.0
  0
ARC
  5
109
330
FA
100
AcDbEntity
  8
BISUKUGI
100
AcDbCircle
 10
-2.473684210526243
 20
0.0000000000010232
 30
0.0
 40
5.373684210526199
100
AcDbArc
 50
310.2726068564893
 51
49.72739314351061
  0
ARC
  5
10A
330
FA
100
AcDbEntity
  8
BISUKUGI
100
AcDbCircle
 10
0.8792705549419679
 20
2.103647225290159
 30
0.0
 40
2.0
100
AcDbArc
 50
86.53925222394901
 51
116.080612724093
  0
ENDBLK
  5
10B
330
FA
100
AcDbEntity
  8
0
100
AcDbBlockEnd
  0
BLOCK
  5
403
330
402
100
AcDbEntity
  8
0
 48
0.2
100
AcDbBlockBegin
  2
*D6
 70
     1
 10
0.0
 20
0.0
 30
0.0
  3
*D6
  1

  0
LINE
  5
4EB
330
402
100
AcDbEntity
  8
SUNPO
 62
     0
440
 16777216
 48
0.1
370
    -2
100
AcDbLine
 10
374.1525892089083
 20
233.4936732623922
 30
0.0
 11
357.4006302874598
 21
233.4936732623922
 31
0.0
  0
LINE
  5
4EC
330
402
100
AcDbEntity
  8
SUNPO
 62
     0
440
 16777216
 48
0.1
370
    -2
100
AcDbLine
 10
374.1525892089083
 20
223.4936331653847
 30
0.0
 11
357.4006302874598
 21
223.4936331653847
 31
0.0
  0
LINE
  5
4ED
330
402
100
AcDbEntity
  8
SUNPO
 62
     0
440
 16777216
 48
0.1
100
AcDbLine
 10
357.4006302874598
 20
232.4936732623922
 30
0.0
 11
357.4006302874598
 21
224.4936331653847
 31
0.0
  0
MTEXT
  5
4EE
330
402
100
AcDbEntity
  8
SUNPO
440
 16777216
 48
0.1
100
AcDbMText
 10
352.9006302874551
 20
228.4936532138879
 30
0.0
 40
5.0
 41
0.0
 46
0.0
 71
     5
 72
     1
  1
\A1;10
  7
CAD-DL
 11
0.0000000000000001
 21
1.0
 31
0.0
 73
     1
 44
1.0
  0
INSERT
  5
4EF
330
402
100
AcDbEntity
  8
SUNPO
 62
     0
440
 16777216
 48
0.1
100
AcDbBlockReference
  2
_DOT
 10
357.4006302874598
 20
233.4936732623922
 30
0.0
 50
90.0
  0
INSERT
  5
4F0
330
402
100
AcDbEntity
  8
SUNPO
 62
     0
440
 16777216
 48
0.1
100
AcDbBlockReference
  2
_DOT
 10
357.4006302874598
 20
223.4936331653847
 30
0.0
 50
270.0
  0
POINT
  5
4F1
330
402
100
AcDbEntity
  8
Defpoints
 62
     0
440
 16777216
 48
0.1
100
AcDbPoint
 10
379.1525892089083
 20
233.4936732623922
 30
0.0
  0
POINT
  5
4F2
330
402
100
AcDbEntity
  8
Defpoints
 62
     0
440
 16777216
 48
0.1
100
AcDbPoint
 10
379.1525892089083
 20
223.4936331653847
 30
0.0
  0
POINT
  5
4F3
330
402
100
AcDbEntity
  8
Defpoints
 62
     0
440
 16777216
 48
0.1
100
AcDbPoint
 10
357.4006302874598
 20
223.4936331653847
 30
0.0
  0
ENDBLK
  5
404
330
402
100
AcDbEntity
  8
0
 48
0.2
100
AcDbBlockEnd
  0
BLOCK
  5
40F
330
40E
100
AcDbEntity
  8
0
 48
0.2
100
AcDbBlockBegin
  2
*D7
 70
     1
 10
0.0
 20
0.0
 30
0.0
  3
*D7
  1

  0
LINE
  5
4F4
330
40E
100
AcDbEntity
  8
SUNPO
 62
     0
440
 16777216
 48
0.1
370
    -2
100
AcDbLine
 10
370.652589208901
 20
447.2324485700826
 30
0.0
 11
370.652589208901
 21
461.9630562099508
 31
0.0
  0
LINE
  5
4F5
330
40E
100
AcDbEntity
  8
SUNPO
 62
     0
440
 16777216
 48
0.1
370
    -2
100
AcDbLine
 10
385.6525892088992
 20
447.2324485700826
 30
0.0
 11
385.6525892088992
 21
461.9630562099508
 31
0.0
  0
LINE
  5
4F6
330
40E
100
AcDbEntity
  8
SUNPO
 62
     0
440
 16777216
 48
0.1
100
AcDbLine
 10
371.652589208901
 20
461.9630562099508
 30
0.0
 11
384.6525892088992
 21
461.9630562099508
 31
0.0
  0
INSERT
  5
4F7
330
40E
100
AcDbEntity
  8
SUNPO
 62
     0
440
 16777216
 48
0.1
100
AcDbBlockReference
  2
_DOT
 10
370.652589208901
 20
461.9630562099508
 30
0.0
 50
180.0
  0
INSERT
  5
4F8
330
40E
100
AcDbEntity
  8
SUNPO
 62
     0
440
 16777216
 48
0.1
100
AcDbBlockReference
  2
_DOT
 10
385.6525892088992
 20
461.9630562099508
 30
0.0
  0
MTEXT
  5
4F9
330
40E
100
AcDbEntity
  8
SUNPO
440
 16777216
 48
0.1
100
AcDbMText
 10
378.1525892089001
 20
466.4630562099508
 30
0.0
 40
5.0
 41
0.0
 46
0.0
 71
     5
 72
     1
  1
\A1;15
  7
CAD-DL
 73
     1
 44
1.0
  0
POINT
  5
4FA
330
40E
100
AcDbEntity
  8
Defpoints
 62
     0
440
 16777216
 48
0.1
100
AcDbPoint
 10
370.652589208901
 20
442.2324485700825
 30
0.0
  0
POINT
  5
4FB
330
40E
100
AcDbEntity
  8
Defpoints
 62
     0
440
 16777216
 48
0.1
100
AcDbPoint
 10
385.6525892088992
 20
442.2324485700825
 30
0.0
  0
POINT
  5
4FC
330
40E
100
AcDbEntity
  8
Defpoints
 62
     0
440
 16777216
 48
0.1
100
AcDbPoint
 10
385.6525892088992
 20
461.9630562099508
 30
0.0
  0
ENDBLK
  5
410
330
40E
100
AcDbEntity
  8
0
 48
0.2
100
AcDbBlockEnd
  0
BLOCK
  5
41B
330
41A
100
AcDbEntity
  8
0
 48
0.2
100
AcDbBlockBegin
  2
*D8
 70
     1
 10
0.0
 20
0.0
 30
0.0
  3
*D8
  1

  0
LINE
  5
4FD
330
41A
100
AcDbEntity
  8
SUNPO
 62
     0
440
 16777216
 48
0.1
370
    -2
100
AcDbLine
 10
390.5025892088901
 20
447.2324485700826
 30
0.0
 11
390.5025892088901
 21
461.9630562099508
 31
0.0
  0
LINE
  5
4FE
330
41A
100
AcDbEntity
  8
SUNPO
 62
     0
440
 16777216
 48
0.1
370
    -2
100
AcDbLine
 10
490.5025892088901
 20
447.2324485700826
 30
0.0
 11
490.5025892088901
 21
461.9630562099508
 31
0.0
  0
LINE
  5
4FF
330
41A
100
AcDbEntity
  8
SUNPO
 62
     0
440
 16777216
 48
0.1
100
AcDbLine
 10
391.5025892088901
 20
461.9630562099508
 30
0.0
 11
489.5025892088901
 21
461.9630562099508
 31
0.0
  0
INSERT
  5
500
330
41A
100
AcDbEntity
  8
SUNPO
 62
     0
440
 16777216
 48
0.1
100
AcDbBlockReference
  2
_DOT
 10
390.5025892088901
 20
461.9630562099508
 30
0.0
 50
180.0
  0
INSERT
  5
501
330
41A
100
AcDbEntity
  8
SUNPO
 62
     0
440
 16777216
 48
0.1
100
AcDbBlockReference
  2
_DOT
 10
490.5025892088901
 20
461.9630562099508
 30
0.0
  0
MTEXT
  5
502
330
41A
100
AcDbEntity
  8
SUNPO
 62
     0
440
 16777216
 48
0.1
100
AcDbMText
 10
440.5025892088901
 20
466.4630562099508
 30
0.0
 40
5.0
 41
0.0
 46
0.0
 71
     5
 72
     1
  1
\A1;100
  7
CAD-DL
 73
     1
 44
1.0
  0
POINT
  5
503
330
41A
100
AcDbEntity
  8
Defpoints
 62
     0
440
 16777216
 48
0.1
100
AcDbPoint
 10
390.5025892088901
 20
442.2324485700825
 30
0.0
  0
POINT
  5
504
330
41A
100
AcDbEntity
  8
Defpoints
 62
     0
440
 16777216
 48
0.1
100
AcDbPoint
 10
490.5025892088901
 20
442.2324485700825
 30
0.0
  0
POINT
  5
505
330
41A
100
AcDbEntity
  8
Defpoints
 62
     0
440
 16777216
 48
0.1
100
AcDbPoint
 10
490.5025892088901
 20
461.9630562099508
 30
0.0
  0
ENDBLK
  5
41C
330
41A
100
AcDbEntity
  8
0
 48
0.2
100
AcDbBlockEnd
  0
BLOCK
  5
427
330
426
100
AcDbEntity
  8
0
 48
0.2
100
AcDbBlockBegin
  2
*D9
 70
     1
 10
0.0
 20
0.0
 30
0.0
  3
*D9
  1

  0
LINE
  5
506
330
426
100
AcDbEntity
  8
SUNPO
 62
     0
440
 16777216
 48
0.1
370
    -2
100
AcDbLine
 10
394.5025892088913
 20
280.831755343751
 30
0.0
 11
439.4575704008661
 21
280.831755343751
 31
0.0
  0
LINE
  5
507
330
426
100
AcDbEntity
  8
SUNPO
 62
     0
440
 16777216
 48
0.1
370
    -2
100
AcDbLine
 10
400.5025892088921
 20
222.2324485700879
 30
0.0
 11
439.4575704008661
 21
222.2324485700879
 31
0.0
  0
LINE
  5
508
330
426
100
AcDbEntity
  8
SUNPO
 62
     0
440
 16777216
 48
0.1
100
AcDbLine
 10
439.4575704008661
 20
279.8317553437509
 30
0.0
 11
439.4575704008661
 21
223.2324485700879
 31
0.0
  0
INSERT
  5
509
330
426
100
AcDbEntity
  8
SUNPO
 62
     0
440
 16777216
 48
0.1
100
AcDbBlockReference
  2
_DOT
 10
439.4575704008661
 20
280.831755343751
 30
0.0
 50
90.0
  0
INSERT
  5
50A
330
426
100
AcDbEntity
  8
SUNPO
 62
     0
440
 16777216
 48
0.1
100
AcDbBlockReference
  2
_DOT
 10
439.4575704008661
 20
222.2324485700879
 30
0.0
 50
270.0
  0
MTEXT
  5
50B
330
426
100
AcDbEntity
  8
SUNPO
440
 16777216
 48
0.1
100
AcDbMText
 10
434.957570400866
 20
251.5321019569193
 30
0.0
 40
5.0
 41
0.0
 46
0.0
 71
     5
 72
     1
  1
\A1;59
  7
CAD-DL
 11
0.0000000000000001
 21
1.0
 31
0.0
 73
     1
 44
1.0
  0
POINT
  5
50C
330
426
100
AcDbEntity
  8
Defpoints
 62
     0
440
 16777216
 48
0.1
100
AcDbPoint
 10
389.5025892088913
 20
280.831755343751
 30
0.0
  0
POINT
  5
50D
330
426
100
AcDbEntity
  8
Defpoints
 62
     0
440
 16777216
 48
0.1
100
AcDbPoint
 10
395.5025892088922
 20
222.2324485700879
 30
0.0
  0
POINT
  5
50E
330
426
100
AcDbEntity
  8
Defpoints
 62
     0
440
 16777216
 48
0.1
100
AcDbPoint
 10
439.4575704008661
 20
222.2324485700879
 30
0.0
  0
ENDBLK
  5
428
330
426
100
AcDbEntity
  8
0
 48
0.2
100
AcDbBlockEnd
  0
ENDSEC
  0
SECTION
  2
ENTITIES
  0
MTEXT
  5
8D
330
70
100
AcDbEntity
  8
WAKU
 48
0.4999999993549407
100
AcDbMText
 10
374.9999995162057
 20
15.99999997935811
 30
0.0
 40
4.999999993549406
 41
200.2574173176324
 46
0.0
 71
     5
 72
     5
  1
土台02（水切15S・縦用スターター15）
  7
WAKU
 73
     1
 44
1.0
  0
MTEXT
  5
91
330
70
100
AcDbEntity
  8
WAKU
 48
0.4999999993549407
100
AcDbMText
 10
584.9999992452806
 20
20.99999997290752
 30
0.0
 40
4.999999993549406
 41
40.37504605146475
 46
0.0
 71
     5
 72
     5
  1
st003-01-0{\H0.9333x;2}
  7
WAKU
 73
     1
 44
1.0
  0
MTEXT
  5
170
330
70
100
AcDbEntity
  8
WAKU
 48
0.4999999993549407
100
AcDbMText
 10
374.9999995162057
 20
25.99999996645693
 30
0.0
 40
4.999999993549406
 41
200.2574173176324
 46
0.0
 71
     5
 72
     5
  1
銘壁　新築
  7
WAKU
 73
     1
 44
1.0
  0
LINE
  5
171
330
70
100
AcDbEntity
  8
WAKU
 48
0.4999999993549407
100
AcDbLine
 10
14.99999998064845
 20
30.99999996000633
 30
0.0
 11
794.9999989743558
 21
30.99999996000633
 31
0.0
  0
LINE
  5
172
330
70
100
AcDbEntity
  8
WAKU
 48
0.4999999993549407
100
AcDbLine
 10
14.99999998064845
 20
10.9999999858087
 30
0.0
 11
794.9999989743558
 21
10.9999999858087
 31
0.0
  0
LINE
  5
173
330
70
100
AcDbEntity
  8
WAKU
 48
0.4999999993549407
100
AcDbLine
 10
14.99999998064845
 20
560.9999992762434
 30
0.0
 11
14.99999998064845
 21
10.9999999858087
 31
0.0
  0
LINE
  5
174
330
70
100
AcDbEntity
  8
WAKU
 48
0.4999999993549407
100
AcDbLine
 10
794.9999989743558
 20
560.9999992762434
 30
0.0
 11
14.99999998064845
 21
560.9999992762434
 31
0.0
  0
LINE
  5
175
330
70
100
AcDbEntity
  8
WAKU
 48
0.4999999993549407
100
AcDbLine
 10
794.9999989743558
 20
10.9999999858087
 30
0.0
 11
794.9999989743558
 21
560.9999992762434
 31
0.0
  0
MTEXT
  5
176
330
70
100
AcDbEntity
  8
WAKU
 48
0.4999999993549407
100
AcDbMText
 10
189.9999997548775
 20
20.99999997290752
 30
0.0
 40
4.999999993549406
 41
128.4454165366397
 46
0.0
 71
     5
 72
     5
  1
アイジーサイディング参考ディテール
  7
WAKU
 73
     1
 44
1.0
  0
LINE
  5
177
330
70
100
AcDbEntity
  8
WAKU
 48
0.4999999993549407
100
AcDbLine
 10
112.9999998542167
 20
28.99999996258657
 30
0.0
 11
112.9999998542167
 21
12.99999998322846
 31
0.0
  0
LINE
  5
178
330
70
100
AcDbEntity
  8
WAKU
 48
0.4999999993549407
100
AcDbLine
 10
16.99999997806822
 20
12.99999998322846
 30
0.0
 11
112.9999998542167
 21
12.99999998322846
 31
0.0
  0
LINE
  5
179
330
70
100
AcDbEntity
  8
WAKU
 48
0.4999999993549407
100
AcDbLine
 10
16.99999997806822
 20
28.99999996258657
 30
0.0
 11
112.9999998542167
 21
28.99999996258657
 31
0.0
  0
LINE
  5
17A
330
70
100
AcDbEntity
  8
WAKU
 48
0.4999999993549407
100
AcDbLine
 10
114.9999998516365
 20
30.99999996000633
 30
0.0
 11
114.9999998516365
 21
10.9999999858087
 31
0.0
  0
MTEXT
  5
17B
330
70
100
AcDbEntity
  8
WAKU
 48
0.4999999993549407
100
AcDbMText
 10
64.99999991614243
 20
20.99999997290752
 30
0.0
 40
5.999999992259287
 41
87.09146916313393
 46
0.0
 71
     5
 72
     5
  1
アイジー工業株式会社
  7
WAKU
 73
     1
 44
1.0
  0
LINE
  5
17C
330
70
100
AcDbEntity
  8
WAKU
 48
0.4999999993549407
100
AcDbLine
 10
16.99999997806822
 20
28.99999996258657
 30
0.0
 11
16.99999997806822
 21
12.99999998322846
 31
0.0
  0
MTEXT
  5
17D
330
70
100
AcDbEntity
  8
WAKU
 48
0.4999999993549407
100
AcDbMText
 10
269.9999996516681
 20
20.99999997290752
 30
0.0
 40
4.999999993549406
 41
6.55080958184702
 46
0.0
 71
     5
 72
     5
  1
名称
  7
WAKU
 73
     1
 44
1.0
  0
LINE
  5
17E
330
70
100
AcDbEntity
  8
WAKU
 48
0.4999999993549407
100
AcDbLine
 10
274.9999996452175
 20
30.99999996000633
 30
0.0
 11
274.9999996452175
 21
10.9999999858087
 31
0.0
  0
LINE
  5
17F
330
70
100
AcDbEntity
  8
WAKU
 48
0.4999999993549407
100
AcDbLine
 10
264.9999996581187
 20
30.99999996000633
 30
0.0
 11
264.9999996581187
 21
10.9999999858087
 31
0.0
  0
LINE
  5
180
330
70
100
AcDbEntity
  8
WAKU
 48
0.4999999993549407
100
AcDbLine
 10
484.9999993742926
 20
30.99999996000633
 30
0.0
 11
484.9999993742926
 21
10.9999999858087
 31
0.0
  0
LINE
  5
181
330
70
100
AcDbEntity
  8
WAKU
 48
0.4999999993549407
100
AcDbLine
 10
474.9999993871938
 20
10.9999999858087
 30
0.0
 11
474.9999993871938
 21
30.99999996000633
 31
0.0
  0
MTEXT
  5
182
330
70
100
AcDbEntity
  8
WAKU
 48
0.4999999993549407
100
AcDbMText
 10
494.9999993613914
 20
20.99999997290752
 30
0.0
 40
4.999999993549406
 41
23.63255305418644
 46
0.0
 71
     5
 72
     5
  1
mm
  7
WAKU
 73
     1
 44
1.0
  0
MTEXT
  5
183
330
70
100
AcDbEntity
  8
WAKU
 48
0.4999999993549407
100
AcDbMText
 10
534.9999993097867
 20
20.99999997290752
 30
0.0
 40
4.999999993549406
 41
39.84429658334918
 46
0.0
 71
     5
 72
     5
  1
1/2（A3）
  7
WAKU
 73
     1
 44
1.0
  0
LINE
  5
184
330
70
100
AcDbEntity
  8
WAKU
 48
0.4999999993549407
100
AcDbLine
 10
514.9999993355891
 20
30.99999996000633
 30
0.0
 11
514.9999993355891
 21
10.9999999858087
 31
0.0
  0
LINE
  5
185
330
70
100
AcDbEntity
  8
WAKU
 48
0.4999999993549407
100
AcDbLine
 10
504.9999993484902
 20
30.99999996000633
 30
0.0
 11
504.9999993484902
 21
10.9999999858087
 31
0.0
  0
LINE
  5
186
330
70
100
AcDbEntity
  8
WAKU
 48
0.4999999993549407
100
AcDbLine
 10
554.9999992839842
 20
30.99999996000633
 30
0.0
 11
554.9999992839842
 21
10.9999999858087
 31
0.0
  0
LINE
  5
187
330
70
100
AcDbEntity
  8
WAKU
 48
0.4999999993549407
100
AcDbLine
 10
564.999999271083
 20
30.99999996000633
 30
0.0
 11
564.999999271083
 21
10.9999999858087
 31
0.0
  0
LINE
  5
188
330
70
100
AcDbEntity
  8
WAKU
  6
DASHED2
 48
0.2499999996774703
100
AcDbLine
 10
614.9999992065771
 20
20.99999997290752
 30
0.0
 11
794.9999989743558
 21
20.99999997290752
 31
0.0
  0
LINE
  5
189
330
70
100
AcDbEntity
  8
WAKU
 48
0.4999999993549407
100
AcDbLine
 10
614.9999992065771
 20
30.99999996000633
 30
0.0
 11
614.9999992065771
 21
10.9999999858087
 31
0.0
  0
LINE
  5
18A
330
70
100
AcDbEntity
  8
WAKU
 48
0.4999999993549407
100
AcDbLine
 10
604.9999992194782
 20
30.99999996000633
 30
0.0
 11
604.9999992194782
 21
10.9999999858087
 31
0.0
  0
MTEXT
  5
18B
330
70
100
AcDbEntity
  8
WAKU
 48
0.4999999993549407
100
AcDbMText
 10
479.9999993807432
 20
20.99999997290752
 30
0.0
 40
4.999999993549406
 41
6.55080958184702
 46
0.0
 71
     5
 72
     5
  1
単位
  7
WAKU
 73
     1
 44
1.0
  0
MTEXT
  5
18C
330
70
100
AcDbEntity
  8
WAKU
 48
0.4999999993549407
100
AcDbMText
 10
509.9999993420397
 20
20.99999997290752
 30
0.0
 40
4.999999993549406
 41
6.55080958184702
 46
0.0
 71
     5
 72
     5
  1
縮尺
  7
WAKU
 73
     1
 44
1.0
  0
MTEXT
  5
18D
330
70
100
AcDbEntity
  8
WAKU
 48
0.4999999993549407
100
AcDbMText
 10
556.7245944866099
 20
20.99999997290752
 30
0.0
 40
4.999999993549406
 41
6.55080958184702
 46
0.0
 71
     4
 72
     5
  1
図番
  7
WAKU
 73
     1
 44
1.0
  0
MTEXT
  5
18E
330
70
100
AcDbEntity
  8
WAKU
 48
0.4999999993549407
100
AcDbMText
 10
609.9999992130276
 20
20.99999997290752
 30
0.0
 40
4.999999993549406
 41
6.55080958184702
 46
0.0
 71
     5
 72
     5
  1
特記
  7
WAKU
 73
     1
 44
1.0
  0
LINE
  5
350
330
70
100
AcDbEntity
  8
KUTAI
100
AcDbLine
 10
500.5025892088912
 20
222.232448570074
 30
0.0
 11
374.9025892088809
 21
222.2324485700758
 31
0.0
  0
LINE
  5
351
330
70
100
AcDbEntity
  8
KUTAI
100
AcDbLine
 10
500.5025892088912
 20
212.232448570074
 30
0.0
 11
380.5025892088904
 21
212.2324485700749
 31
0.0
  0
LINE
  5
352
330
70
100
AcDbEntity
  8
KUTAI
100
AcDbLine
 10
500.5025892088912
 20
102.2324485700739
 30
0.0
 11
500.5025892088912
 21
222.2324485700749
 31
0.0
  0
LINE
  5
353
330
70
100
AcDbEntity
  8
KUTAI
100
AcDbLine
 10
380.5025892088913
 20
102.2324485700727
 30
0.0
 11
380.5025892088904
 21
212.2324485700749
 31
0.0
  0
LINE
  5
354
330
70
100
AcDbEntity
  8
KUTAI
100
AcDbLine
 10
374.9025892088854
 20
222.2324485700785
 30
0.0
 11
374.9025892088854
 21
102.2324485700726
 31
0.0
  0
ARC
  5
355
330
70
100
AcDbEntity
  8
BOUSUITE-PU
  6
DASHED2
100
AcDbCircle
 10
389.5025892088913
 20
279.8731366088998
 30
0.0
 40
2.0
100
AcDbArc
 50
180.0
 51
189.4623222080341
  0
LINE
  5
356
330
70
100
AcDbEntity
  8
BOUSUITE-PU
  6
DASHED2
100
AcDbLine
 10
387.5025892088913
 20
285.8317553437503
 30
0.0
 11
387.5025892088913
 21
279.8731366088998
 31
0.0
  0
TEXT
  5
357
330
70
100
AcDbEntity
  8
MOJI
100
AcDbText
 10
305.7672183967862
 20
185.6914017701003
 30
0.0
 40
8.0
  1
水切15S
 50
0.0000000000014388
  7
CAD-DL
 11
305.7672183967861
 21
189.6914017701003
 31
0.0
100
AcDbText
 73
     2
  0
TEXT
  5
358
330
70
100
AcDbEntity
  8
MOJI
100
AcDbText
 10
412.0066519226274
 20
309.1768543184937
 30
0.0
 40
8.0
  1
防水テープ
 50
0.0000000000014388
  7
CAD-DL
100
AcDbText
  0
TEXT
  5
359
330
70
100
AcDbEntity
  8
MOJI
100
AcDbText
 10
411.5967261507825
 20
344.1257333020033
 30
0.0
 40
8.0
  1
防水紙
 50
0.0000000000014388
  7
CAD-DL
100
AcDbText
  0
TEXT
  5
35A
330
70
100
AcDbEntity
  8
MOJI
100
AcDbText
 10
261.9281924576924
 20
263.0578001792676
 30
0.0
 40
8.0
  1
縦用スターター15
 50
0.0000000000014388
  7
CAD-DL
 11
261.9281924576923
 21
267.0578001792676
 31
0.0
100
AcDbText
 73
     2
  0
LINE
  5
35B
330
70
100
AcDbEntity
  8
MOJI
100
AcDbLine
 10
410.252589208891
 20
311.7713792096531
 30
0.0
 11
405.2525892088913
 21
311.7713792096531
 31
0.0
  0
LINE
  5
35C
330
70
100
AcDbEntity
  8
MOJI
100
AcDbLine
 10
405.2525892088913
 20
311.7713792096531
 30
0.0
 11
387.5025892088913
 21
281.0274773753327
 31
0.0
  0
LINE
  5
35D
330
70
100
AcDbEntity
  8
MOJI
100
AcDbLine
 10
405.2316479764256
 20
348.7383458143956
 30
0.0
 11
388.2491407701288
 21
319.3237804932103
 31
0.0
  0
LINE
  5
35E
330
70
100
AcDbEntity
  8
MOJI
100
AcDbLine
 10
355.7525892088849
 20
267.0578001792676
 30
0.0
 11
368.1525892089082
 21
245.5803701653833
 31
0.0
  0
LINE
  5
35F
330
70
100
AcDbEntity
  8
MOJI
100
AcDbLine
 10
355.7525892088849
 20
267.0578001792676
 30
0.0
 11
350.7525892088854
 21
267.0578001792676
 31
0.0
  0
LINE
  5
360
330
70
100
AcDbEntity
  8
MOJI
100
AcDbLine
 10
410.252589208891
 20
348.7383458143956
 30
0.0
 11
405.2525892088913
 21
348.7383458143956
 31
0.0
  0
LINE
  5
361
330
70
100
AcDbEntity
  8
MOJI
100
AcDbLine
 10
355.7525892088849
 20
189.6914017701003
 30
0.0
 11
350.7525892088851
 21
189.6914017701003
 31
0.0
  0
LINE
  5
362
330
70
100
AcDbEntity
  8
MOJI
100
AcDbLine
 10
355.7525892088849
 20
189.6914017701003
 30
0.0
 11
365.1525892088909
 21
205.972679361262
 31
0.0
  0
LINE
  5
363
330
70
100
AcDbEntity
  8
BOUSUITE-PU
  6
DASHED2
100
AcDbLine
 10
387.529801361227
 20
279.5443386342888
 30
0.0
 11
389.1525892089082
 21
269.807611548202
 31
0.0
  0
LINE
  5
364
330
70
100
AcDbEntity
  8
BOUSUISI
100
AcDbLine
 10
388.2491407701288
 20
279.8317553437503
 30
0.0
 11
389.9025892089
 21
269.9110647111213
 31
0.0
  0
LINE
  5
365
330
70
100
AcDbEntity
  8
BOUSUITE-PU
  6
DASHED2
100
AcDbLine
 10
389.1525892089082
 20
235.8317553437503
 30
0.0
 11
389.1525892089082
 21
269.8076115482038
 31
0.0
  0
LINE
  5
366
330
70
100
AcDbEntity
  8
BOUSUISI
100
AcDbLine
 10
389.9025892089
 20
269.9110647111213
 30
0.0
 11
389.9025892089
 21
250.8317553437503
 31
0.0
  0
LINE
  5
367
330
70
100
AcDbEntity
  8
BOUSUISI
100
AcDbLine
 10
388.2491407701288
 20
279.8317553437503
 30
0.0
 11
388.2491407701284
 21
442.2324485700825
 31
0.0
  0
LINE
  5
368
330
70
100
AcDbEntity
  8
KUTAI
100
AcDbLine
 10
390.5025892088913
 20
227.2324485700831
 30
0.0
 11
390.5025892088913
 21
267.2324485700831
 31
0.0
  0
DIMENSION
  5
369
330
70
100
AcDbEntity
  8
SUNPO
 48
0.1
100
AcDbDimension
280
     0
  2
*D6
 10
357.4006302874598
 20
223.4936331653847
 30
0.0
 11
357.4006302874551
 21
228.4936532138879
 31
0.0
 70
   160
 71
     5
 42
10.00004009700751
 73
     0
 74
     0
 75
     0
  3
CAD-DL
100
AcDbAlignedDimension
 13
379.1525892089082
 23
233.4936732623921
 33
0.0
 14
379.1525892089082
 24
223.4936331653846
 34
0.0
 50
90.0
100
AcDbRotatedDimension
1001
ACAD
1000
DSTYLE
1002
{
1070
   176
1070
     0
1070
    44
1040
0.0
1070
    42
1040
5.0
1070
    41
1040
1.0
1002
}
  0
LINE
  5
36A
330
70
100
AcDbEntity
  8
YAKUMONO2
100
AcDbLine
 10
388.6525892089082
 20
256.2436331653837
 30
0.0
 11
388.6525892089082
 21
258.7436331653837
 31
0.0
  0
ARC
  5
36B
330
70
100
AcDbEntity
  8
YAKUMONO2
100
AcDbCircle
 10
386.802589208906
 20
258.7436331653837
 30
0.0
 40
1.85
100
AcDbArc
 50
0.0
 51
26.96095999999061
  0
ARC
  5
36C
330
70
100
AcDbEntity
  8
YAKUMONO2
100
AcDbCircle
 10
386.802589208906
 20
256.2436331653837
 30
0.0
 40
1.85
100
AcDbArc
 50
333.0390400000094
 51
0.0
  0
ARC
  5
36D
330
70
100
AcDbEntity
  8
YAKUMONO2
100
AcDbCircle
 10
386.802589208906
 20
256.2436331653837
 30
0.0
 40
1.5
100
AcDbArc
 50
333.0390400000094
 51
0.0
  0
LINE
  5
36E
330
70
100
AcDbEntity
  8
YAKUMONO2
100
AcDbLine
 10
388.302589208906
 20
258.7436331653837
 30
0.0
 11
388.302589208906
 21
256.2436331653837
 31
0.0
  0
LINE
  5
36F
330
70
100
AcDbEntity
  8
YAKUMONO2
100
AcDbLine
 10
387.8070122089082
 20
254.1378151653837
 30
0.0
 11
388.4515232089067
 21
255.4048741653835
 31
0.0
  0
LINE
  5
370
330
70
100
AcDbEntity
  8
YAKUMONO2
100
AcDbLine
 10
387.4950512089051
 20
254.296500165384
 30
0.0
 11
388.1395632089077
 21
255.5635581653835
 31
0.0
  0
LINE
  5
371
330
70
100
AcDbEntity
  8
YAKUMONO2
100
AcDbLine
 10
387.4950512089051
 20
252.6907671653837
 30
0.0
 11
388.1395632089077
 21
251.4237081653821
 31
0.0
  0
LINE
  5
372
330
70
100
AcDbEntity
  8
YAKUMONO2
100
AcDbLine
 10
387.8070122089082
 20
252.8494511653837
 30
0.0
 11
388.4515232089067
 21
251.5823921653839
 31
0.0
  0
ARC
  5
373
330
70
100
AcDbEntity
  8
YAKUMONO2
100
AcDbCircle
 10
386.802589208906
 20
250.7436331653837
 30
0.0
 40
1.85
100
AcDbArc
 50
0.0
 51
26.96095999999061
  0
ARC
  5
374
330
70
100
AcDbEntity
  8
YAKUMONO2
100
AcDbCircle
 10
386.802589208906
 20
250.7436331653837
 30
0.0
 40
1.5
100
AcDbArc
 50
0.0
 51
26.96095999999061
  0
LINE
  5
375
330
70
100
AcDbEntity
  8
YAKUMONO2
100
AcDbLine
 10
388.302589208906
 20
250.7436331653837
 30
0.0
 11
388.302589208906
 21
242.9936331653837
 31
0.0
  0
LINE
  5
376
330
70
100
AcDbEntity
  8
YAKUMONO2
100
AcDbLine
 10
388.6525892089082
 20
242.9936331653837
 30
0.0
 11
388.6525892089082
 21
250.7436331653837
 31
0.0
  0
ARC
  5
377
330
70
100
AcDbEntity
  8
YAKUMONO2
100
AcDbCircle
 10
389.073423208905
 20
253.4936331653837
 30
0.0
 40
1.420833
100
AcDbArc
 50
153.0390400000094
 51
206.9609599999906
  0
ARC
  5
378
330
70
100
AcDbEntity
  8
YAKUMONO2
100
AcDbCircle
 10
389.073423208905
 20
253.4936331653837
 30
0.0
 40
1.770833
100
AcDbArc
 50
153.0390400000094
 51
206.9609599999906
  0
ARC
  5
379
330
70
100
AcDbEntity
  8
YAKUMONO2
100
AcDbCircle
 10
386.802589208906
 20
242.9936331653837
 30
0.0
 40
1.85
100
AcDbArc
 50
270.0
 51
0.0
  0
ARC
  5
37A
330
70
100
AcDbEntity
  8
YAKUMONO2
100
AcDbCircle
 10
386.802589208906
 20
242.9936331653837
 30
0.0
 40
1.5
100
AcDbArc
 50
270.0
 51
0.0
  0
LINE
  5
37B
330
70
100
AcDbEntity
  8
YAKUMONO2
100
AcDbLine
 10
386.802589208906
 20
241.1436331653833
 30
0.0
 11
382.5025892089067
 21
241.1436331653833
 31
0.0
  0
LINE
  5
37C
330
70
100
AcDbEntity
  8
YAKUMONO2
100
AcDbLine
 10
382.5025892089067
 20
241.4936331653837
 30
0.0
 11
386.802589208906
 21
241.4936331653837
 31
0.0
  0
ARC
  5
37D
330
70
100
AcDbEntity
  8
YAKUMONO2
100
AcDbCircle
 10
382.5025892089067
 20
239.6436331653833
 30
0.0
 40
1.85
100
AcDbArc
 50
90.0
 51
180.0
  0
ARC
  5
37E
330
70
100
AcDbEntity
  8
YAKUMONO2
100
AcDbCircle
 10
382.5025892089067
 20
239.6436331653833
 30
0.0
 40
1.5
100
AcDbArc
 50
90.0
 51
180.0
  0
ARC
  5
37F
330
70
100
AcDbEntity
  8
YAKUMONO2
100
AcDbCircle
 10
379.1525892089082
 20
235.3436331653841
 30
0.0
 40
1.85
100
AcDbArc
 50
262.9999999999677
 51
0.0
  0
ARC
  5
380
330
70
100
AcDbEntity
  8
YAKUMONO2
100
AcDbCircle
 10
379.1525892089082
 20
235.3436331653841
 30
0.0
 40
1.5
100
AcDbArc
 50
262.9999999999677
 51
0.0
  0
LINE
  5
381
330
70
100
AcDbEntity
  8
YAKUMONO2
100
AcDbLine
 10
381.0025892089067
 20
239.6436331653833
 30
0.0
 11
381.0025892089067
 21
235.3436331653841
 31
0.0
  0
LINE
  5
382
330
70
100
AcDbEntity
  8
YAKUMONO2
100
AcDbLine
 10
380.6525892089082
 20
235.3436331653841
 30
0.0
 11
380.6525892089082
 21
239.6436331653833
 31
0.0
  0
LINE
  5
383
330
70
100
AcDbEntity
  8
YAKUMONO2
100
AcDbLine
 10
369.7771312089059
 20
234.6309021653826
 30
0.0
 11
378.9271312089074
 21
233.5074231653828
 31
0.0
  0
ARC
  5
384
330
70
100
AcDbEntity
  8
YAKUMONO2
100
AcDbCircle
 10
370.0025892089067
 20
236.4671121653821
 30
0.0
 40
1.85
100
AcDbArc
 50
180.0
 51
262.9999999999677
  0
ARC
  5
385
330
70
100
AcDbEntity
  8
YAKUMONO2
100
AcDbCircle
 10
370.0025892089067
 20
236.4671121653821
 30
0.0
 40
1.5
100
AcDbArc
 50
180.0
 51
262.9999999999677
  0
LINE
  5
386
330
70
100
AcDbEntity
  8
YAKUMONO2
100
AcDbLine
 10
369.8197852089067
 20
234.9782931653838
 30
0.0
 11
378.9697852089081
 21
233.8548141653821
 31
0.0
  0
LINE
  5
387
330
70
100
AcDbEntity
  8
YAKUMONO2
100
AcDbLine
 10
368.1525892089082
 20
236.4671121653821
 30
0.0
 11
368.1525892089082
 21
253.5803701653833
 31
0.0
  0
LINE
  5
388
330
70
100
AcDbEntity
  8
YAKUMONO2
100
AcDbLine
 10
368.5025892089067
 20
236.4671121653821
 30
0.0
 11
368.5025892089067
 21
253.5803701653833
 31
0.0
  0
LINE
  5
389
330
70
100
AcDbEntity
  8
YAKUMONO2
100
AcDbLine
 10
370.302589208906
 20
249.8303701653833
 30
0.0
 11
370.6525892089082
 21
249.8303701653833
 31
0.0
  0
ARC
  5
38A
330
70
100
AcDbEntity
  8
YAKUMONO2
100
AcDbCircle
 10
369.4025892089082
 20
253.5803701653833
 30
0.0
 40
0.9
100
AcDbArc
 50
0.0
 51
180.0
  0
ARC
  5
38B
330
70
100
AcDbEntity
  8
YAKUMONO2
100
AcDbCircle
 10
369.4025892089082
 20
253.5803701653833
 30
0.0
 40
1.25
100
AcDbArc
 50
0.0
 51
180.0
  0
LINE
  5
38C
330
70
100
AcDbEntity
  8
YAKUMONO2
100
AcDbLine
 10
370.302589208906
 20
249.8303701653833
 30
0.0
 11
370.302589208906
 21
253.5803701653833
 31
0.0
  0
LINE
  5
38D
330
70
100
AcDbEntity
  8
YAKUMONO2
100
AcDbLine
 10
370.6525892089082
 20
249.8303701653833
 30
0.0
 11
370.6525892089082
 21
253.5803701653833
 31
0.0
  0
LINE
  5
38E
330
70
100
AcDbEntity
  8
YAKUMONO2
100
AcDbLine
 10
387.8070122089082
 20
260.8494511653837
 30
0.0
 11
388.4515232089067
 21
259.5823921653839
 31
0.0
  0
ARC
  5
38F
330
70
100
AcDbEntity
  8
YAKUMONO2
100
AcDbCircle
 10
389.073423208905
 20
261.4936331653837
 30
0.0
 40
1.420833
100
AcDbArc
 50
153.0390400000094
 51
206.9609599999906
  0
LINE
  5
390
330
70
100
AcDbEntity
  8
YAKUMONO2
100
AcDbLine
 10
387.4950512089051
 20
260.6907671653837
 30
0.0
 11
388.1395632089077
 21
259.4237081653821
 31
0.0
  0
ARC
  5
391
330
70
100
AcDbEntity
  8
YAKUMONO2
100
AcDbCircle
 10
386.802589208906
 20
258.7436331653837
 30
0.0
 40
1.5
100
AcDbArc
 50
0.0
 51
26.96095999999061
  0
LINE
  5
392
330
70
100
AcDbEntity
  8
YAKUMONO2
100
AcDbLine
 10
387.8070122089082
 20
262.1378151653837
 30
0.0
 11
388.4515232089067
 21
263.4048741653835
 31
0.0
  0
LINE
  5
393
330
70
100
AcDbEntity
  8
YAKUMONO2
100
AcDbLine
 10
387.4950512089051
 20
262.296500165384
 30
0.0
 11
388.1395632089077
 21
263.5635581653835
 31
0.0
  0
ARC
  5
394
330
70
100
AcDbEntity
  8
YAKUMONO2
100
AcDbCircle
 10
389.073423208905
 20
261.4936331653837
 30
0.0
 40
1.770833
100
AcDbArc
 50
153.0390400000094
 51
206.9609599999906
  0
LINE
  5
395
330
70
100
AcDbEntity
  8
YAKUMONO2
100
AcDbLine
 10
388.6525892089082
 20
264.2436331653837
 30
0.0
 11
388.6525892089082
 21
268.2436331653837
 31
0.0
  0
LINE
  5
396
330
70
100
AcDbEntity
  8
YAKUMONO2
100
AcDbLine
 10
388.302589208906
 20
268.2436331653837
 30
0.0
 11
388.302589208906
 21
264.2436331653837
 31
0.0
  0
ARC
  5
397
330
70
100
AcDbEntity
  8
YAKUMONO2
100
AcDbCircle
 10
386.802589208906
 20
264.2436331653837
 30
0.0
 40
1.85
100
AcDbArc
 50
333.0390400000094
 51
0.0
  0
ARC
  5
398
330
70
100
AcDbEntity
  8
YAKUMONO2
100
AcDbCircle
 10
386.802589208906
 20
264.2436331653837
 30
0.0
 40
1.5
100
AcDbArc
 50
333.0390400000094
 51
0.0
  0
ARC
  5
399
330
70
100
AcDbEntity
  8
YAKUMONO2
100
AcDbCircle
 10
387.4025892089082
 20
273.2436331653837
 30
0.0
 40
0.9
100
AcDbArc
 50
0.0
 51
180.0
  0
ARC
  5
39A
330
70
100
AcDbEntity
  8
YAKUMONO2
100
AcDbCircle
 10
387.4025892089082
 20
273.2436331653837
 30
0.0
 40
1.25
100
AcDbArc
 50
0.0
 51
180.0
  0
LINE
  5
39B
330
70
100
AcDbEntity
  8
YAKUMONO2
100
AcDbLine
 10
386.5025892089067
 20
269.4936331653837
 30
0.0
 11
386.5025892089067
 21
273.2436331653837
 31
0.0
  0
LINE
  5
39C
330
70
100
AcDbEntity
  8
YAKUMONO2
100
AcDbLine
 10
388.6525892089082
 20
268.2436331653837
 30
0.0
 11
388.6525892089082
 21
273.2436331653837
 31
0.0
  0
LINE
  5
39D
330
70
100
AcDbEntity
  8
YAKUMONO2
100
AcDbLine
 10
386.1525892089082
 20
269.4936331653837
 30
0.0
 11
386.1525892089082
 21
273.2436331653837
 31
0.0
  0
LINE
  5
39E
330
70
100
AcDbEntity
  8
YAKUMONO2
100
AcDbLine
 10
388.302589208906
 20
268.2436331653837
 30
0.0
 11
388.302589208906
 21
273.2436331653837
 31
0.0
  0
LINE
  5
39F
330
70
100
AcDbEntity
  8
YAKUMONO2
100
AcDbLine
 10
386.5025892089067
 20
269.4936331653837
 30
0.0
 11
386.1525892089082
 21
269.4936331653837
 31
0.0
  0
INSERT
  5
3A0
330
70
100
AcDbEntity
  8
YAKUMONO
 48
0.2
100
AcDbBlockReference
  2
02水切15S
 10
390.5025892088913
 20
253.3194258437509
 30
0.0
 41
-1.0
  0
LINE
  5
3A1
330
70
100
AcDbEntity
  8
MOJI
100
AcDbLine
 10
477.6096217983528
 20
291.2900675148486
 30
0.0
 11
466.6067003704703
 21
272.232448570083
 31
0.0
  0
LINE
  5
3A2
330
70
100
AcDbEntity
  8
MOJI
100
AcDbLine
 10
482.6305630308185
 20
291.2900675148488
 30
0.0
 11
477.6305630308185
 21
291.2900675148486
 31
0.0
  0
TEXT
  5
3A3
330
70
100
AcDbEntity
  8
MOJI
100
AcDbText
 10
484.5010501519569
 20
287.2900675148474
 30
0.0
 40
8.0
  1
C100×50×20×2.3以上
 50
0.0000000000014388
  7
CAD-DL
 11
484.5010501519568
 21
291.2900675148474
 31
0.0
100
AcDbText
 73
     2
  0
LINE
  5
3A4
330
70
100
AcDbEntity
  8
KUTAI
100
AcDbLine
 10
395.5025892088899
 20
272.2324485700812
 30
0.0
 11
485.5025892088899
 21
272.2324485700835
 31
0.0
  0
LINE
  5
3A5
330
70
100
AcDbEntity
  8
KUTAI
100
AcDbLine
 10
395.5025892088901
 20
269.9324485700819
 30
0.0
 11
485.5025892088901
 21
269.9324485700842
 31
0.0
  0
ARC
  5
3A6
330
70
100
AcDbEntity
  8
KUTAI
100
AcDbCircle
 10
485.5025892088901
 20
267.2324485700835
 30
0.0
 40
5.0
100
AcDbArc
 50
0.0
 51
90.0
  0
ARC
  5
3A7
330
70
100
AcDbEntity
  8
KUTAI
100
AcDbCircle
 10
485.5025892088901
 20
267.2324485700835
 30
0.0
 40
2.7
100
AcDbArc
 50
0.0
 51
90.0
  0
ARC
  5
3A8
330
70
100
AcDbEntity
  8
KUTAI
100
AcDbCircle
 10
485.502589208891
 20
227.2324485700835
 30
0.0
 40
5.0
100
AcDbArc
 50
270.0
 51
0.0
  0
ARC
  5
3A9
330
70
100
AcDbEntity
  8
KUTAI
100
AcDbCircle
 10
485.502589208891
 20
227.2324485700835
 30
0.0
 40
2.7
100
AcDbArc
 50
270.0
 51
0.0
  0
LINE
  5
3AA
330
70
100
AcDbEntity
  8
KUTAI
100
AcDbLine
 10
470.5025892088912
 20
222.232448570083
 30
0.0
 11
485.5025892088912
 21
222.2324485700835
 31
0.0
  0
LINE
  5
3AB
330
70
100
AcDbEntity
  8
KUTAI
100
AcDbLine
 10
470.5025892088912
 20
224.5324485700832
 30
0.0
 11
485.5025892088912
 21
224.5324485700836
 31
0.0
  0
LINE
  5
3AC
330
70
100
AcDbEntity
  8
KUTAI
100
AcDbLine
 10
470.5025892088912
 20
222.232448570083
 30
0.0
 11
470.5025892088912
 21
224.5324485700832
 31
0.0
  0
LINE
  5
3AD
330
70
100
AcDbEntity
  8
KUTAI
100
AcDbLine
 10
490.502589208891
 20
227.2324485700836
 30
0.0
 11
490.5025892088901
 21
267.2324485700836
 31
0.0
  0
LINE
  5
3AE
330
70
100
AcDbEntity
  8
KUTAI
100
AcDbLine
 10
488.2025892088881
 20
227.2324485700835
 30
0.0
 11
488.2025892088872
 21
267.2324485700835
 31
0.0
  0
LINE
  5
3AF
330
70
100
AcDbEntity
  8
KUTAI
100
AcDbLine
 10
490.5025892088906
 20
244.5738291490223
 30
0.0
 11
490.5025892088906
 21
250.4738291490201
 31
0.0
  0
ARC
  5
3B0
330
70
100
AcDbEntity
  8
KUTAI
100
AcDbCircle
 10
395.5025892088901
 20
267.2324485700812
 30
0.0
 40
5.0
100
AcDbArc
 50
90.0
 51
180.0
  0
ARC
  5
3B1
330
70
100
AcDbEntity
  8
KUTAI
100
AcDbCircle
 10
395.5025892088901
 20
267.2324485700812
 30
0.0
 40
2.7
100
AcDbArc
 50
90.0
 51
180.0
  0
LINE
  5
3B2
330
70
100
AcDbEntity
  8
KUTAI
100
AcDbLine
 10
410.5025892088912
 20
222.2324485700815
 30
0.0
 11
410.5025892088912
 21
224.5324485700817
 31
0.0
  0
LINE
  5
3B3
330
70
100
AcDbEntity
  8
KUTAI
100
AcDbLine
 10
395.5025892088912
 20
224.5324485700814
 30
0.0
 11
410.5025892088912
 21
224.5324485700817
 31
0.0
  0
LINE
  5
3B4
330
70
100
AcDbEntity
  8
KUTAI
100
AcDbLine
 10
395.5025892088912
 20
222.2324485700812
 30
0.0
 11
410.5025892088912
 21
222.2324485700815
 31
0.0
  0
ARC
  5
3B5
330
70
100
AcDbEntity
  8
KUTAI
100
AcDbCircle
 10
395.502589208891
 20
227.2324485700812
 30
0.0
 40
2.7
100
AcDbArc
 50
180.0
 51
270.0
  0
ARC
  5
3B6
330
70
100
AcDbEntity
  8
KUTAI
100
AcDbCircle
 10
395.502589208891
 20
227.2324485700812
 30
0.0
 40
5.0
100
AcDbArc
 50
180.0
 51
270.0
  0
LINE
  5
3B7
330
70
100
AcDbEntity
  8
KUTAI
100
AcDbLine
 10
392.8025892088903
 20
227.2324485700811
 30
0.0
 11
392.8025892088894
 21
267.2324485700811
 31
0.0
  0
LINE
  5
3B8
330
70
100
AcDbEntity
  8
KUTAI
100
AcDbLine
 10
390.5025892088924
 20
266.6981353830892
 30
0.0
 11
396.0369023958921
 21
272.232448570085
 31
0.0
  0
LINE
  5
3B9
330
70
100
AcDbEntity
  8
KUTAI
100
AcDbLine
 10
396.5653295206393
 20
269.9324485700857
 30
0.0
 11
398.8653295206388
 21
272.2324485700848
 31
0.0
  0
LINE
  5
3BA
330
70
100
AcDbEntity
  8
KUTAI
100
AcDbLine
 10
390.5025892088924
 20
263.8697082583425
 30
0.0
 11
392.8025892088953
 21
266.1697082583417
 31
0.0
  0
LINE
  5
3BB
330
70
100
AcDbEntity
  8
KUTAI
100
AcDbLine
 10
392.3837155357893
 20
223.3244277140478
 30
0.0
 11
394.0291928645992
 21
224.9699050428538
 31
0.0
  0
LINE
  5
3BC
330
70
100
AcDbEntity
  8
KUTAI
100
AcDbLine
 10
391.0976376822027
 20
224.866776985204
 30
0.0
 11
392.8688444304452
 21
226.6379837334473
 31
0.0
  0
LINE
  5
3BD
330
70
100
AcDbEntity
  8
KUTAI
100
AcDbLine
 10
478.5897161382781
 20
269.9324485700835
 30
0.0
 11
480.8897161382776
 21
272.2324485700828
 31
0.0
  0
LINE
  5
3BE
330
70
100
AcDbEntity
  8
KUTAI
100
AcDbLine
 10
481.4181432630247
 20
269.9324485700835
 30
0.0
 11
483.7181432630242
 21
272.2324485700827
 31
0.0
  0
LINE
  5
3BF
330
70
100
AcDbEntity
  8
KUTAI
100
AcDbLine
 10
473.3161230094689
 20
222.232448570083
 30
0.0
 11
475.6161230094682
 21
224.5324485700831
 31
0.0
  0
LINE
  5
3C0
330
70
100
AcDbEntity
  8
KUTAI
100
AcDbLine
 10
476.1445501342156
 20
222.2324485700829
 30
0.0
 11
478.4445501342148
 21
224.532448570083
 31
0.0
  0
LINE
  5
3C1
330
70
100
AcDbEntity
  8
KUTAI
100
AcDbLine
 10
488.2025892088925
 20
237.1189147695092
 30
0.0
 11
490.5025892088917
 21
239.4189147695048
 31
0.0
  0
LINE
  5
3C2
330
70
100
AcDbEntity
  8
KUTAI
100
AcDbLine
 10
488.2025892088925
 20
234.2904876447635
 30
0.0
 11
490.5025892088917
 21
236.5904876447627
 31
0.0
  0
LINE
  5
3C3
330
70
100
AcDbEntity
  8
KUTAI
100
AcDbLine
 10
438.991736391832
 20
269.9324485700846
 30
0.0
 11
441.2917363918315
 21
272.2324485700838
 31
0.0
  0
LINE
  5
3C4
330
70
100
AcDbEntity
  8
KUTAI
100
AcDbLine
 10
436.1633092670853
 20
269.9324485700846
 30
0.0
 11
438.4633092670848
 21
272.2324485700838
 31
0.0
  0
LINE
  5
3C5
330
70
100
AcDbEntity
  8
KUTAI
100
AcDbLine
 10
450.390132263041
 20
212.2324485700723
 30
0.0
 11
380.5025892088917
 21
142.3449055159228
 31
0.0
  0
LINE
  5
3C6
330
70
100
AcDbEntity
  8
KUTAI
100
AcDbLine
 10
436.2479966393141
 20
212.2324485700727
 30
0.0
 11
380.5025892088922
 21
156.4870411396489
 31
0.0
  0
LINE
  5
3C7
330
70
100
AcDbEntity
  8
KUTAI
100
AcDbLine
 10
443.3190644511825
 20
212.2324485700733
 30
0.0
 11
380.502589208892
 21
149.4159733277859
 31
0.0
  0
LINE
  5
3C8
330
70
100
AcDbEntity
  8
KUTAI
100
AcDbLine
 10
500.5025892088912
 20
120.9235492786047
 30
0.0
 11
481.8114885003534
 21
102.2324485700738
 31
0.0
  0
LINE
  5
3C9
330
70
100
AcDbEntity
  8
KUTAI
100
AcDbLine
 10
500.5025892088915
 20
127.9946170904677
 30
0.0
 11
474.7404206884922
 21
102.2324485700737
 31
0.0
  0
LINE
  5
3CA
330
70
100
AcDbEntity
  8
KUTAI
100
AcDbLine
 10
500.5025892088917
 20
135.0656849023417
 30
0.0
 11
467.669352876622
 21
102.2324485700736
 31
0.0
  0
DIMENSION
  5
3CB
330
70
100
AcDbEntity
  8
SUNPO
 48
0.1
100
AcDbDimension
280
     0
  2
*D7
 10
385.6525892088992
 20
461.9630562099508
 30
0.0
 11
378.1525892089001
 21
466.4630562099508
 31
0.0
 70
    32
 71
     5
 42
14.99999999999818
 73
     0
 74
     0
 75
     0
  3
CAD-DL
100
AcDbAlignedDimension
 13
370.652589208901
 23
442.2324485700825
 33
0.0
 14
385.6525892088992
 24
442.2324485700825
 34
0.0
100
AcDbRotatedDimension
1001
ACAD
1000
DSTYLE
1002
{
1070
   176
1070
     0
1070
    41
1040
1.0
1070
    42
1040
5.0
1070
    44
1040
0.0
1002
}
  0
DIMENSION
  5
3CC
330
70
100
AcDbEntity
  8
SUNPO
 48
0.1
100
AcDbDimension
280
     0
  2
*D8
 10
490.5025892088901
 20
461.9630562099508
 30
0.0
 11
440.5025892088901
 21
466.4630562099508
 31
0.0
 70
    32
 71
     5
 42
100.0
 73
     0
 74
     0
 75
     0
  3
CAD-DL
100
AcDbAlignedDimension
 13
390.5025892088901
 23
442.2324485700825
 33
0.0
 14
490.5025892088901
 24
442.2324485700825
 34
0.0
100
AcDbRotatedDimension
1001
ACAD
1000
DSTYLE
1002
{
1070
   176
1070
     0
1070
   178
1070
     0
1070
    41
1040
1.0
1070
    42
1040
5.0
1070
    44
1040
0.0
1002
}
  0
LINE
  5
3CD
330
70
100
AcDbEntity
  8
SEIHIN
100
AcDbLine
 10
370.6525892089082
 20
241.4936331653838
 30
0.0
 11
370.6525892089082
 21
442.2324485700826
 31
0.0
  0
LINE
  5
3CE
330
70
100
AcDbEntity
  8
SEIHIN
100
AcDbLine
 10
385.6525892089082
 20
241.4936331653838
 30
0.0
 11
385.6525892089079
 21
442.2324485700826
 31
0.0
  0
LINE
  5
3CF
330
70
100
AcDbEntity
  8
SEIHIN
100
AcDbLine
 10
385.6525892089082
 20
241.4936331653838
 30
0.0
 11
370.6525892089082
 21
241.4936331653838
 31
0.0
  0
LINE
  5
3D0
330
70
100
AcDbEntity
  8
MOJI
100
AcDbLine
 10
351.8389360716329
 20
323.6958281620576
 30
0.0
 11
346.8389360716333
 21
323.6958281620576
 31
0.0
  0
TEXT
  5
3D1
330
70
100
AcDbEntity
  8
MOJI
100
AcDbText
 10
285.7911182696659
 20
307.327571239204
 30
0.0
 40
8.0
  1
４×19以上）
 50
0.0000000000014388
  7
CAD-DL
 11
285.7911182696658
 21
311.327571239204
 31
0.0
100
AcDbText
 73
     2
  0
TEXT
  5
3D2
330
70
100
AcDbEntity
  8
MOJI
100
AcDbText
 10
207.681581316109
 20
319.6232853606705
 30
0.0
 40
8.0
  1
ドリルビス（シンワッシャー
 50
0.0000000000014388
  7
CAD-DL
 11
207.6815813161088
 21
323.6232853606705
 31
0.0
100
AcDbText
 73
     2
  0
LINE
  5
3D3
330
70
100
AcDbEntity
  8
MOJI
100
AcDbLine
 10
384.6976327055864
 20
266.7828961216194
 30
0.0
 11
351.8389360716329
 21
323.6958281620576
 31
0.0
  0
LINE
  5
3D4
330
70
100
AcDbEntity
  8
SEIHIN
100
AcDbLine
 10
370.9225892089082
 20
241.4936331653838
 30
0.0
 11
370.9225892089082
 21
442.2324485700826
 31
0.0
  0
LINE
  5
3D5
330
70
100
AcDbEntity
  8
MOJI
100
AcDbLine
 10
353.1889360715894
 20
389.7053034397869
 30
0.0
 11
370.6525892089104
 21
359.4573689201958
 31
0.0
  0
LINE
  5
3D6
330
70
100
AcDbEntity
  8
MOJI
100
AcDbLine
 10
353.1889360715894
 20
389.7053034397869
 30
0.0
 11
348.1889360715897
 21
389.7053034397868
 31
0.0
  0
TEXT
  5
3D7
330
70
100
AcDbEntity
  8
MOJI
100
AcDbText
 10
326.3970578990013
 20
385.7053034397868
 30
0.0
 40
8.0
  1
銘壁
  7
CAD-DL
 72
     2
 11
347.1889360715902
 21
389.7053034397868
 31
0.0
100
AcDbText
 73
     2
  0
LINE
  5
3D8
330
70
100
AcDbEntity
  8
HIKIDASI
  6
CENTER2
 48
2.0
100
AcDbLine
 10
555.5025892088912
 20
222.2324485700746
 30
0.0
 11
205.5025892088913
 21
222.2324485700763
 31
0.0
  0
TEXT
  5
3D9
330
70
100
AcDbEntity
  8
MOJI
100
AcDbText
 10
206.9290747692081
 20
211.2073859363442
 30
0.0
 40
8.0
  1
▲胴縁下端
 50
0.0000000000014388
  7
CAD-DL
 11
206.9290747692079
 21
215.2073859363442
 31
0.0
100
AcDbText
 73
     2
  0
LINE
  5
3DB
330
70
100
AcDbEntity
  8
MOJI
100
AcDbLine
 10
442.3995826926064
 20
184.5333183280321
 30
0.0
 11
437.3995826926064
 21
184.5333183280321
 31
0.0
  0
LINE
  5
3DC
330
70
100
AcDbEntity
  8
MOJI
100
AcDbLine
 10
437.3995826926064
 20
184.5333183280321
 30
0.0
 11
395.9496144495666
 21
256.3267692971019
 31
0.0
  0
LINE
  5
3DD
330
70
100
AcDbEntity
  8
TEKUSU
  6
CENTER2
370
     5
100
AcDbLine
 10
377.8825892089325
 20
264.685990955969
 30
0.0
 11
409.3825892089388
 21
264.685990955969
 31
0.0
  0
LINE
  5
3DE
330
70
100
AcDbEntity
  8
TEKUSU
  6
DASHED2
 48
0.5
100
AcDbLine
 10
386.3261722539555
 20
262.685990955969
 30
0.0
 11
391.582589208936
 21
262.685990955969
 31
0.0
  0
LINE
  5
3DF
330
70
100
AcDbEntity
  8
TEKUSU
100
AcDbLine
 10
391.582589208936
 20
262.685990955969
 30
0.0
 11
398.8825892089325
 21
262.685990955969
 31
0.0
  0
LINE
  5
3E0
330
70
100
AcDbEntity
  8
TEKUSU
  6
DASHED2
 48
0.5
100
AcDbLine
 10
386.3261722539555
 20
266.685990955969
 30
0.0
 11
391.582589208936
 21
266.685990955969
 31
0.0
  0
LINE
  5
3E1
330
70
100
AcDbEntity
  8
TEKUSU
100
AcDbLine
 10
391.582589208936
 20
266.685990955969
 30
0.0
 11
398.8825892089325
 21
266.685990955969
 31
0.0
  0
LINE
  5
3E2
330
70
100
AcDbEntity
  8
TEKUSU
100
AcDbLine
 10
403.1642275814774
 20
262.9459909559692
 30
0.0
 11
398.8825892089325
 21
262.9459909559701
 31
0.0
  0
LINE
  5
3E3
330
70
100
AcDbEntity
  8
TEKUSU
100
AcDbLine
 10
403.1642275814737
 20
266.4259909559679
 30
0.0
 11
398.8825892089316
 21
266.4259909559669
 31
0.0
  0
LINE
  5
3E4
330
70
100
AcDbEntity
  8
TEKUSU
100
AcDbLine
 10
404.3825892089325
 20
264.685990955969
 30
0.0
 11
403.1642275814755
 21
262.9459909559665
 31
0.0
  0
LINE
  5
3E5
330
70
100
AcDbEntity
  8
TEKUSU
100
AcDbLine
 10
404.3825892089325
 20
264.685990955969
 30
0.0
 11
403.1642275814737
 21
266.4259909559679
 31
0.0
  0
LINE
  5
3E6
330
70
100
AcDbEntity
  8
TEKUSU
100
AcDbLine
 10
398.8825892089325
 20
266.685990955969
 30
0.0
 11
398.8825892089325
 21
262.685990955969
 31
0.0
  0
LINE
  5
3E7
330
70
100
AcDbEntity
  8
TEKUSU
100
AcDbLine
 10
398.8825892089325
 20
266.0986809180086
 30
0.0
 11
404.3825892089316
 21
264.6859909559617
 31
0.0
  0
LINE
  5
3E8
330
70
100
AcDbEntity
  8
TEKUSU
  6
DASHED2
 48
0.5
100
AcDbLine
 10
386.3261722539555
 20
262.685990955969
 30
0.0
 11
386.3261722539555
 21
266.685990955969
 31
0.0
  0
LINE
  5
3E9
330
70
100
AcDbEntity
  8
TEKUSU
  6
DASHED2
 48
0.5
100
AcDbLine
 10
385.3825892089316
 20
259.5435165337458
 30
0.0
 11
385.3825892089316
 21
269.8284643781899
 31
0.0
  0
LINE
  5
3EA
330
70
100
AcDbEntity
  8
TEKUSU
  6
DASHED2
 48
0.5
100
AcDbLine
 10
384.7825892089312
 20
259.1859904559679
 30
0.0
 11
385.0825892089314
 21
259.1859904559679
 31
0.0
  0
LINE
  5
3EB
330
70
100
AcDbEntity
  8
TEKUSU
  6
DASHED2
 48
0.5
100
AcDbLine
 10
384.7825892089312
 20
270.1859904559679
 30
0.0
 11
385.0825892089314
 21
270.1859904559679
 31
0.0
  0
ARC
  5
3EC
330
70
100
AcDbEntity
  8
TEKUSU
  6
DASHED2
 48
0.5
100
AcDbCircle
 10
389.2825892089313
 20
264.6859914559682
 30
0.0
 40
6.299999999999998
100
AcDbArc
 50
150.0000105015227
 51
209.9999894984772
  0
LINE
  5
3ED
330
70
100
AcDbEntity
  8
TEKUSU
  6
DASHED2
 48
0.5
100
AcDbLine
 10
383.8266285877398
 20
267.8359904559684
 30
0.0
 11
383.8266285877398
 21
261.5359904559682
 31
0.0
  0
ARC
  5
3EE
330
70
100
AcDbEntity
  8
TEKUSU
  6
DASHED2
 48
0.5
100
AcDbCircle
 10
390.209737848042
 20
266.6088326946993
 30
0.0
 40
6.5
100
AcDbArc
 50
146.6102099832671
 51
169.1176172862618
  0
ARC
  5
3EF
330
70
100
AcDbEntity
  8
TEKUSU
  6
DASHED2
 48
0.5
100
AcDbCircle
 10
390.209737848042
 20
262.7631482172365
 30
0.0
 40
6.5
100
AcDbArc
 50
190.8823827137382
 51
213.3897900167328
  0
LINE
  5
3F0
330
70
100
AcDbEntity
  8
TEKUSU
  6
DASHED2
 48
0.5
100
AcDbLine
 10
385.0825892089314
 20
259.1859904559679
 30
0.0
 11
385.3825892089316
 21
259.5435165337458
 31
0.0
  0
LINE
  5
3F1
330
70
100
AcDbEntity
  8
TEKUSU
  6
DASHED2
 48
0.5
100
AcDbLine
 10
385.0825892089314
 20
270.1859904559679
 30
0.0
 11
385.3825892089316
 21
269.8284643781899
 31
0.0
  0
LINE
  5
3F2
330
70
100
AcDbEntity
  8
TEKUSU
  6
DASHED2
 48
0.5
100
AcDbLine
 10
385.3825892089316
 20
261.9988846747811
 30
0.0
 11
386.3261722539555
 21
262.685990955969
 31
0.0
  0
LINE
  5
3F3
330
70
100
AcDbEntity
  8
TEKUSU
  6
DASHED2
 48
0.5
100
AcDbLine
 10
385.3825892089316
 20
267.3730982371544
 30
0.0
 11
386.3261722539555
 21
266.685990955969
 31
0.0
  0
LINE
  5
3F4
330
70
100
AcDbEntity
  8
TEKUSU
100
AcDbLine
 10
388.302589208906
 20
262.4936331653787
 30
0.0
 11
388.302589208906
 21
252.4936331653778
 31
0.0
  0
LINE
  5
3F5
330
70
100
AcDbEntity
  8
TEKUSU
  6
CENTER2
370
     5
100
AcDbLine
 10
407.6518697558028
 20
257.4936331653778
 30
0.0
 11
382.7531620384959
 21
257.4936331653778
 31
0.0
  0
LINE
  5
3F6
330
70
100
AcDbEntity
  8
TEKUSU
100
AcDbLine
 10
402.2025892089083
 20
255.3936331653779
 30
0.0
 11
398.3025892089078
 21
255.3936331653779
 31
0.0
  0
LINE
  5
3F7
330
70
100
AcDbEntity
  8
TEKUSU
100
AcDbLine
 10
402.2025892089083
 20
259.5936331653777
 30
0.0
 11
398.3025892089078
 21
259.5936331653777
 31
0.0
  0
LINE
  5
3F8
330
70
100
AcDbEntity
  8
TEKUSU
100
AcDbLine
 10
388.302589208906
 20
252.4936331653778
 30
0.0
 11
387.302589208906
 21
252.4936331653778
 31
0.0
  0
LINE
  5
3F9
330
70
100
AcDbEntity
  8
TEKUSU
100
AcDbLine
 10
388.302589208906
 20
262.4936331653778
 30
0.0
 11
387.302589208906
 21
262.4936331653778
 31
0.0
  0
LINE
  5
3FA
330
70
100
AcDbEntity
  8
TEKUSU
100
AcDbLine
 10
398.3025892089078
 20
254.9936331653778
 30
0.0
 11
388.302589208906
 21
254.9936331653778
 31
0.0
  0
LINE
  5
3FB
330
70
100
AcDbEntity
  8
TEKUSU
100
AcDbLine
 10
398.3025892089078
 20
259.9936331653778
 30
0.0
 11
388.302589208906
 21
259.9936331653778
 31
0.0
  0
LINE
  5
3FC
330
70
100
AcDbEntity
  8
TEKUSU
100
AcDbLine
 10
398.3025892089078
 20
259.9936331653778
 30
0.0
 11
398.3025892089078
 21
254.9936331653778
 31
0.0
  0
LINE
  5
3FD
330
70
100
AcDbEntity
  8
TEKUSU
100
AcDbLine
 10
387.302589208906
 20
262.4936331653787
 30
0.0
 11
387.302589208906
 21
252.4936331653778
 31
0.0
  0
LINE
  5
3FE
330
70
100
AcDbEntity
  8
TEKUSU
100
AcDbLine
 10
404.3025892089078
 20
257.4936331653778
 30
0.0
 11
402.2025892089083
 21
255.3936331653779
 31
0.0
  0
LINE
  5
3FF
330
70
100
AcDbEntity
  8
TEKUSU
100
AcDbLine
 10
404.3025892089087
 20
257.4936331653778
 30
0.0
 11
402.2025892089083
 21
259.5936331653777
 31
0.0
  0
LINE
  5
400
330
70
100
AcDbEntity
  8
TEKUSU
100
AcDbLine
 10
398.3025892089078
 20
258.4226798579814
 30
0.0
 11
404.3025892089087
 21
257.4936331653778
 31
0.0
  0
DIMENSION
  5
401
330
70
100
AcDbEntity
  8
SUNPO
 48
0.1
100
AcDbDimension
280
     0
  2
*D9
 10
439.4575704008661
 20
222.2324485700879
 30
0.0
 11
434.957570400866
 21
251.5321019569193
 31
0.0
 70
    32
 71
     5
 42
58.59930677366302
 73
     0
 74
     0
 75
     0
  3
CAD-DL
100
AcDbAlignedDimension
 13
389.502589208891
 23
280.8317553437508
 33
0.0
 14
395.502589208892
 24
222.2324485700878
 34
0.0
 50
90.0
100
AcDbRotatedDimension
1001
ACAD
1000
DSTYLE
1002
{
1070
   176
1070
     0
1070
    41
1040
1.0
1070
    42
1040
5.0
1070
    44
1040
0.0
1002
}
  0
TEXT
  5
602
330
70
100
AcDbEntity
  8
MOJI
100
AcDbText
 10
442.2417039677275
 20
180.5333183280321
 30
0.0
 40
8.0
  1
ドリルビス
 50
0.0000000000014388
  7
CAD-DL
 11
442.2417039677273
 21
184.5333183280321
 31
0.0
100
AcDbText
 73
     2
  0
TEXT
  5
605
330
70
100
AcDbEntity
  8
MOJI
100
AcDbText
 10
442.2417039677275
 20
168.4038628362085
 30
0.0
 40
8.0
  1
（平頭）
 50
0.0000000000014388
  7
CAD-DL
 11
442.2417039677273
 21
172.4038628362085
 31
0.0
100
AcDbText
 73
     2
  0
ENDSEC
  0
SECTION
  2
OBJECTS
  0
DICTIONARY
  5
C
330
0
100
AcDbDictionary
281
     1
  3
ACAD_CIP_PREVIOUS_PRODUCT_INFO
350
1E6
  3
ACAD_COLOR
350
63
  3
ACAD_DETAILVIEWSTYLE
350
6A
  3
ACAD_GROUP
350
D
  3
ACAD_LAYOUT
350
62
  3
ACAD_MATERIAL
350
10
  3
ACAD_MLEADERSTYLE
350
66
  3
ACAD_MLINESTYLE
350
5F
  3
ACAD_PLOTSETTINGS
350
61
  3
ACAD_PLOTSTYLENAME
350
E
  3
ACAD_SCALELIST
350
42
  3
ACAD_SECTIONVIEWSTYLE
350
68
  3
ACAD_TABLESTYLE
350
64
  3
ACAD_VISUALSTYLE
350
29
  3
ACDB_RECOMPOSE_DATA
350
62A
  3
AcDbVariableDictionary
350
1D2
  3
AcDsDecomposeData
350
630
  0
DICTIONARY
  5
203
330
8
100
AcDbDictionary
280
     1
281
     1
  0
DICTIONARY
  5
1F1
330
2
100
AcDbDictionary
280
     1
281
     1
  3
ACAD_LAYERSTATES
360
1F2
  0
DICTIONARY
  5
1EA
330
54
100
AcDbDictionary
280
     1
281
     1
  3
ADSK_XREC_LAYER_RECONCILED
360
1EB
  0
DICTIONARY
  5
8F
330
8E
100
AcDbDictionary
280
     1
281
     1
  3
ADSK_XREC_LAYER_RECONCILED
360
90
  0
DICTIONARY
  5
94
330
93
100
AcDbDictionary
280
     1
281
     1
  3
ADSK_XREC_LAYER_RECONCILED
360
95
  0
DICTIONARY
  5
9B
330
9A
100
AcDbDictionary
280
     1
281
     1
  3
ADSK_XREC_LAYER_RECONCILED
360
9C
  0
DICTIONARY
  5
BA
330
B9
100
AcDbDictionary
280
     1
281
     1
  3
ADSK_XREC_LAYER_RECONCILED
360
1EC
  0
DICTIONARY
  5
F8
330
F7
100
AcDbDictionary
280
     1
281
     1
  3
ADSK_XREC_LAYER_RECONCILED
360
F9
  0
DICTIONARY
  5
10E
330
10D
100
AcDbDictionary
280
     1
281
     1
  3
ADSK_XREC_LAYER_RECONCILED
360
1ED
  0
DICTIONARY
  5
11D
330
11C
100
AcDbDictionary
280
     1
281
     1
  3
ADSK_XREC_LAYER_RECONCILED
360
11E
  0
DICTIONARY
  5
141
330
140
100
AcDbDictionary
280
     1
281
     1
  3
ADSK_XREC_LAYER_RECONCILED
360
142
  0
DICTIONARY
  5
146
330
145
100
AcDbDictionary
280
     1
281
     1
  3
ADSK_XREC_LAYER_RECONCILED
360
147
  0
DICTIONARY
  5
14F
330
14E
100
AcDbDictionary
280
     1
281
     1
  3
ADSK_XREC_LAYER_RECONCILED
360
150
  0
DICTIONARY
  5
28F
330
28E
100
AcDbDictionary
280
     1
281
     1
  0
DICTIONARY
  5
291
330
290
100
AcDbDictionary
280
     1
281
     1
  0
DICTIONARY
  5
293
330
292
100
AcDbDictionary
280
     1
281
     1
  0
DICTIONARY
  5
1C0
330
70
100
AcDbDictionary
280
     1
281
     1
  3
ACAD_SORTENTS
360
1C2
  0
DICTIONARY
  5
BC
330
BB
100
AcDbDictionary
280
     1
281
     1
  3
ACAD_SORTENTS
360
1C1
  0
XRECORD
  5
1E6
102
{ACAD_REACTORS
330
C
102
}
330
C
100
AcDbXrecord
280
     1
300
ACDLT
300
2017
300
86604ACDLT_2017_0F
  0
DICTIONARY
  5
63
102
{ACAD_REACTORS
330
C
102
}
330
C
100
AcDbDictionary
281
     1
  0
DICTIONARY
  5
6A
102
{ACAD_REACTORS
330
C
102
}
330
C
100
AcDbDictionary
281
     1
  3
Imperial24
350
6B
  3
Metric50
350
1DF
  0
DICTIONARY
  5
D
102
{ACAD_REACTORS
330
C
102
}
330
C
100
AcDbDictionary
281
     1
  0
DICTIONARY
  5
62
102
{ACAD_REACTORS
330
C
102
}
330
C
100
AcDbDictionary
281
     1
  3
Model
350
73
  3
レイアウト1
350
6F
  3
レイアウト2
350
77
  0
DICTIONARY
  5
10
102
{ACAD_REACTORS
330
C
102
}
330
C
100
AcDbDictionary
281
     1
  3
ByBlock
350
19
  3
ByLayer
350
11
  3
Global
350
21
  0
DICTIONARY
  5
66
102
{ACAD_REACTORS
330
C
102
}
330
C
100
AcDbDictionary
281
     1
  3
Standard
350
67
  0
DICTIONARY
  5
5F
102
{ACAD_REACTORS
330
C
102
}
330
C
100
AcDbDictionary
281
     1
  3
Standard
350
60
  0
DICTIONARY
  5
61
102
{ACAD_REACTORS
330
C
102
}
330
C
100
AcDbDictionary
281
     1
  0
ACDBDICTIONARYWDFLT
  5
E
102
{ACAD_REACTORS
330
C
102
}
330
C
100
AcDbDictionary
281
     1
  3
Normal
350
F
  3
スタイル 1
350
8B
100
AcDbDictionaryWithDefault
340
F
  0
DICTIONARY
  5
42
102
{ACAD_REACTORS
330
C
102
}
330
C
100
AcDbDictionary
281
     1
  3
A0
350
43
  3
A1
350
44
  3
A2
350
45
  3
A3
350
46
  3
A4
350
47
  3
A5
350
48
  3
A6
350
49
  3
A7
350
4A
  3
A8
350
4B
  3
A9
350
4C
  3
B0
350
4D
  3
B1
350
4E
  3
B2
350
4F
  3
B3
350
50
  3
B4
350
51
  3
B5
350
52
  3
B6
350
53
  0
DICTIONARY
  5
68
102
{ACAD_REACTORS
330
C
102
}
330
C
100
AcDbDictionary
281
     1
  3
Imperial24
350
69
  3
Metric50
350
1DE
  0
DICTIONARY
  5
64
102
{ACAD_REACTORS
330
C
102
}
330
C
100
AcDbDictionary
281
     1
  3
Standard
350
65
  0
DICTIONARY
  5
29
102
{ACAD_REACTORS
330
C
102
}
330
C
100
AcDbDictionary
281
     1
  3
2dWireframe
350
2F
  3
Basic
350
2E
  3
Brighten
350
35
  3
ColorChange
350
39
  3
Conceptual
350
32
  3
Dim
350
34
  3
EdgeColorOff
350
41
  3
Facepattern
350
38
  3
Flat
350
2A
  3
FlatWithEdges
350
2B
  3
Gouraud
350
2C
  3
GouraudWithEdges
350
2D
  3
Hidden
350
31
  3
JitterOff
350
3F
  3
Linepattern
350
37
  3
OverhangOff
350
40
  3
Realistic
350
33
  3
Shaded
350
3E
  3
Shaded with edges
350
3D
  3
Shades of Gray
350
3A
  3
Sketchy
350
3B
  3
Thicken
350
36
  3
Wireframe
350
30
  3
X-Ray
350
3C
  0
XRECORD
  5
62A
102
{ACAD_REACTORS
330
C
102
}
330
C
100
AcDbXrecord
280
     1
 90
        1
330
65
  0
DICTIONARY
  5
1D2
102
{ACAD_REACTORS
330
C
102
}
330
C
100
AcDbDictionary
281
     1
  3
ANNOALLVISIBLE
350
1D8
  3
CANNOSCALE
350
1D9
  3
CMLEADERSTYLE
350
1D4
  3
CTABLESTYLE
350
1D3
  3
CVIEWDETAILSTYLE
350
1D5
  3
CVIEWSECTIONSTYLE
350
1D6
  3
LAYEREVAL
350
1DB
  3
LAYERNOTIFY
350
1DC
  3
LIGHTINGUNITS
350
1DA
  3
MSLTSCALE
350
1D7
  0
DICTIONARY
  5
630
102
{ACAD_REACTORS
330
C
102
}
330
C
100
AcDbDictionary
281
     1
  3
AcDsRecords
350
632
  3
AcDsSchemas
350
631
1001
ACAD
1070
     2
  0
DICTIONARY
  5
1F2
102
{ACAD_REACTORS
330
1F1
102
}
330
1F1
100
AcDbDictionary
281
     1
  0
XRECORD
  5
1EB
102
{ACAD_REACTORS
330
1EA
102
}
330
1EA
100
AcDbXrecord
280
     1
290
     1
  0
XRECORD
  5
90
102
{ACAD_REACTORS
330
8F
102
}
330
8F
100
AcDbXrecord
280
     1
290
     1
  0
XRECORD
  5
95
102
{ACAD_REACTORS
330
94
102
}
330
94
100
AcDbXrecord
280
     1
290
     1
  0
XRECORD
  5
9C
102
{ACAD_REACTORS
330
9B
102
}
330
9B
100
AcDbXrecord
280
     1
290
     1
  0
XRECORD
  5
1EC
102
{ACAD_REACTORS
330
BA
102
}
330
BA
100
AcDbXrecord
280
     1
290
     1
  0
XRECORD
  5
F9
102
{ACAD_REACTORS
330
F8
102
}
330
F8
100
AcDbXrecord
280
     1
290
     1
  0
XRECORD
  5
1ED
102
{ACAD_REACTORS
330
10E
102
}
330
10E
100
AcDbXrecord
280
     1
290
     1
  0
XRECORD
  5
11E
102
{ACAD_REACTORS
330
11D
102
}
330
11D
100
AcDbXrecord
280
     1
290
     1
  0
XRECORD
  5
142
102
{ACAD_REACTORS
330
141
102
}
330
141
100
AcDbXrecord
280
     1
290
     1
  0
XRECORD
  5
147
102
{ACAD_REACTORS
330
146
102
}
330
146
100
AcDbXrecord
280
     1
290
     1
  0
XRECORD
  5
150
102
{ACAD_REACTORS
330
14F
102
}
330
14F
100
AcDbXrecord
280
     1
290
     1
  0
SORTENTSTABLE
  5
1C2
102
{ACAD_REACTORS
330
1C0
102
}
330
1C0
100
AcDbSortentsTable
330
70
331
397
  5
38B
331
3D4
  5
3C1
331
393
  5
387
331
3D0
  5
3F7
331
38F
  5
383
331
38B
  5
37F
331
3CC
  5
3BD
331
3C8
  5
3B9
331
400
  5
3E6
331
17C
  5
17C
331
178
  5
178
331
174
  5
174
331
170
  5
170
331
35C
  5
3ED
331
358
  5
3E9
331
354
  5
354
331
350
  5
350
331
91
  5
91
331
8D
  5
8D
331
3C7
  5
3B8
331
3C3
  5
3B4
331
3BF
  5
3B0
331
3BB
  5
3AC
331
3FC
  5
3E2
331
3F8
  5
3DE
331
384
  5
378
331
380
  5
374
331
3B7
  5
3A8
331
3F4
  5
3DA
331
3B3
  5
3A4
331
3AF
  5
3A0
331
3F0
  5
3D6
331
3EC
  5
3D2
331
3AB
  5
39C
331
3E8
  5
3CE
331
37C
  5
370
331
378
  5
36C
331
374
  5
368
331
370
  5
364
331
3E7
  5
3CD
331
3A6
  5
397
331
3E3
  5
3C9
331
3A2
  5
3F5
331
3DF
  5
3C5
331
39E
  5
392
331
39A
  5
38E
331
3DB
  5
400
331
18B
  5
18B
331
187
  5
187
331
183
  5
183
331
36F
  5
363
331
36B
  5
35F
331
367
  5
35B
331
363
  5
357
331
3D7
  5
3FD
331
396
  5
38A
331
3D3
  5
3FA
331
392
  5
386
331
38E
  5
382
331
3CF
  5
3C0
331
38A
  5
37E
331
3CB
  5
3BC
331
17F
  5
17F
331
17B
  5
17B
331
177
  5
177
331
173
  5
173
331
35F
  5
3F0
331
35B
  5
3EC
331
357
  5
3E8
331
353
  5
353
331
3C6
  5
3B7
331
3C2
  5
3B3
331
3BE
  5
3AF
331
3FF
  5
3E5
331
3FB
  5
3E1
331
3BA
  5
3AB
331
387
  5
37B
331
383
  5
377
331
3F7
  5
3DD
331
3B6
  5
3A7
331
3F3
  5
3D9
331
3B2
  5
3A3
331
3AE
  5
39F
331
3EF
  5
3D5
331
3EB
  5
3D1
331
3AA
  5
39B
331
37F
  5
373
331
37B
  5
36F
331
377
  5
36B
331
373
  5
367
331
3E6
  5
3CC
331
3A5
  5
396
331
3E2
  5
3C8
331
3A1
  5
3F4
331
39D
  5
391
331
3DE
  5
3C4
331
399
  5
38D
331
18E
  5
18E
331
18A
  5
18A
331
186
  5
186
331
182
  5
182
331
36E
  5
362
331
36A
  5
35E
331
366
  5
35A
331
362
  5
3F3
331
3D6
  5
3FC
331
395
  5
389
331
3D2
  5
3F9
331
391
  5
385
331
38D
  5
381
331
3CE
  5
3BF
331
3CA
  5
3BB
331
389
  5
37D
331
17E
  5
17E
331
17A
  5
17A
331
176
  5
176
331
172
  5
172
331
35E
  5
3EF
331
35A
  5
3EB
331
356
  5
356
331
352
  5
352
331
3C5
  5
3B6
331
3C1
  5
3B2
331
3BD
  5
3AE
331
3FE
  5
3E4
331
3FA
  5
3E0
331
3B9
  5
3AA
331
386
  5
37A
331
382
  5
376
331
3F6
  5
3DC
331
3B5
  5
3A6
331
3F2
  5
3D8
331
3B1
  5
3A2
331
3AD
  5
39E
331
3EE
  5
3D4
331
3EA
  5
3D0
331
3A9
  5
39A
331
37E
  5
372
331
37A
  5
36E
331
376
  5
36A
331
372
  5
366
331
3E5
  5
3CB
331
3A4
  5
395
331
3E1
  5
3C7
331
3A0
  5
394
331
39C
  5
390
331
3DD
  5
3C3
331
3D9
  5
3FE
331
398
  5
38C
331
18D
  5
18D
331
189
  5
189
331
185
  5
185
331
181
  5
181
331
36D
  5
361
331
369
  5
35D
331
365
  5
359
331
361
  5
3F2
331
3D5
  5
3FB
331
394
  5
388
331
3D1
  5
3F8
331
390
  5
384
331
38C
  5
380
331
3CD
  5
3BE
331
3C9
  5
3BA
331
388
  5
37C
331
401
  5
3E7
331
17D
  5
17D
331
179
  5
179
331
175
  5
175
331
171
  5
171
331
35D
  5
3EE
331
359
  5
3EA
331
355
  5
355
331
351
  5
351
331
3C4
  5
3B5
331
3C0
  5
3B1
331
3BC
  5
3AD
331
3FD
  5
3E3
331
3F9
  5
3DF
331
3B8
  5
3A9
331
385
  5
379
331
381
  5
375
331
3F5
  5
3DB
331
3B4
  5
3A5
331
3F1
  5
3D7
331
3B0
  5
3A1
331
3AC
  5
39D
331
3ED
  5
3D3
331
3E9
  5
3CF
331
3A8
  5
399
331
37D
  5
371
331
379
  5
36D
331
375
  5
369
331
371
  5
365
331
3A7
  5
398
331
3E4
  5
3CA
331
3A3
  5
3F6
331
3E0
  5
3C6
331
39F
  5
393
331
39B
  5
38F
331
3DC
  5
401
331
3D8
  5
3C2
331
18C
  5
18C
331
188
  5
188
331
184
  5
184
331
180
  5
180
331
36C
  5
360
331
368
  5
35C
331
364
  5
358
331
360
  5
3F1
  0
SORTENTSTABLE
  5
1C1
102
{ACAD_REACTORS
330
BC
102
}
330
BC
100
AcDbSortentsTable
330
BB
  0
ACDBDETAILVIEWSTYLE
  5
6B
102
{ACAD_XDICTIONARY
360
5EB
102
}
102
{ACAD_REACTORS
330
6A
102
}
330
6A
100
AcDbModelDocViewStyle
 70
     0
  3
Imperial24
290
     0
100
AcDbDetailViewStyle
 70
     0
 71
     0
 90
        3
 71
     1
340
55
 62
   256
 40
0.24
340
0
 62
   256
 40
0.24
300

 40
0.36
280
     3
 71
     2
340
5D
 90
       25
 62
   256
 71
     3
340
55
 62
   256
 40
0.24
 90
        1
 40
0.75
 90
        1
300
%<\AcVar ViewType \f "%tc1">% %<\AcVar ViewDetailId>%\PSCALE %<\AcVar ViewScale \f "%sn">%
 71
     4
340
5D
 90
       25
 62
   256
340
5D
 90
       25
 62
   256
280
     0
  0
ACDBDETAILVIEWSTYLE
  5
1DF
102
{ACAD_XDICTIONARY
360
5EF
102
}
102
{ACAD_REACTORS
330
6A
102
}
330
6A
100
AcDbModelDocViewStyle
 70
     0
  3
Metric50
290
     0
100
AcDbDetailViewStyle
 70
     0
 71
     0
 90
        3
 71
     1
340
55
 62
   256
 40
5.0
340
0
 62
   256
 40
5.0
300

 40
0.0
280
     1
 71
     2
340
5D
 90
       25
 62
   256
 71
     3
340
55
 62
   256
 40
5.0
 90
        0
 40
15.0
 90
        1
300
%<\AcVar ViewDetailId>% (%<\AcVar ViewScale \f "%sn">%)
 71
     4
340
5D
 90
       25
 62
   256
340
5D
 90
       25
 62
   256
280
     0
  0
LAYOUT
  5
73
102
{ACAD_XDICTIONARY
360
23E
102
}
102
{ACAD_REACTORS
330
62
102
}
330
62
100
AcDbPlotSettings
  1

  2
Adobe PDF
  4
A3
  6

 40
3.174999952316284
 41
3.174999952316284
 42
3.17498779296875
 43
3.17498779296875
 44
297.0318298339844
 45
420.1583251953125
 46
-3.159078764067686
 47
-3.09583100406121
 48
0.0
 49
0.0
140
0.0
141
0.0
142
1.0
143
1.921826472454511
 70
 11952
 72
     1
 73
     1
 74
     0
  7
monochrome.ctb
 75
     0
147
0.5203383418497839
 76
     1
 77
     2
 78
   300
148
-45.38005745226382
149
226.0145203805972
100
AcDbLayout
  1
Model
 70
     1
 71
     0
 10
0.0
 20
0.0
 11
12.0
 21
9.0
 12
0.0
 22
0.0
 32
0.0
 14
0.0
 24
0.0
 34
0.0
 15
0.0
 25
0.0
 35
0.0
146
0.0
 13
0.0
 23
0.0
 33
0.0
 16
1.0
 26
0.0
 36
0.0
 17
0.0
 27
1.0
 37
0.0
 76
     0
330
70
331
57
1001
ACAD_PSEXT
1000
Adobe PDF
1000
Adobe PDF Converter
1000
Documents\*.pdf
1000

1070
     0
  0
LAYOUT
  5
6F
102
{ACAD_REACTORS
330
62
102
}
330
62
100
AcDbPlotSettings
  1

  2
ApeosPort-IV C4475
  4

  6

 40
0.0
 41
0.0
 42
0.0
 43
0.0
 44
0.0
 45
0.0
 46
0.0
 47
0.0
 48
0.0
 49
0.0
140
0.0
141
0.0
142
1.0
143
1.0
 70
   688
 72
     0
 73
     0
 74
     5
  7
monochrome.ctb
 75
    16
147
1.0
 76
     0
 77
     2
 78
   300
148
0.0
149
0.0
100
AcDbLayout
  1
レイアウト1
 70
     0
 71
     1
 10
0.0
 20
0.0
 11
12.0
 21
9.0
 12
0.0
 22
0.0
 32
0.0
 14
1.000000000000000E+20
 24
1.000000000000000E+20
 34
1.000000000000000E+20
 15
-1.000000000000000E+20
 25
-1.000000000000000E+20
 35
-1.000000000000000E+20
146
0.0
 13
0.0
 23
0.0
 33
0.0
 16
1.0
 26
0.0
 36
0.0
 17
0.0
 27
1.0
 37
0.0
 76
     0
330
6C
  0
LAYOUT
  5
77
102
{ACAD_REACTORS
330
62
102
}
330
62
100
AcDbPlotSettings
  1

  2
ApeosPort-IV C4475
  4

  6

 40
0.0
 41
0.0
 42
0.0
 43
0.0
 44
0.0
 45
0.0
 46
0.0
 47
0.0
 48
0.0
 49
0.0
140
0.0
141
0.0
142
1.0
143
1.0
 70
   688
 72
     0
 73
     0
 74
     5
  7
monochrome.ctb
 75
    16
147
1.0
 76
     0
 77
     2
 78
   300
148
0.0
149
0.0
100
AcDbLayout
  1
レイアウト2
 70
     1
 71
     2
 10
0.0
 20
0.0
 11
12.0
 21
9.0
 12
0.0
 22
0.0
 32
0.0
 14
0.0
 24
0.0
 34
0.0
 15
0.0
 25
0.0
 35
0.0
146
0.0
 13
0.0
 23
0.0
 33
0.0
 16
1.0
 26
0.0
 36
0.0
 17
0.0
 27
1.0
 37
0.0
 76
     0
330
74
  0
MATERIAL
  5
19
102
{ACAD_XDICTIONARY
360
1A
102
}
102
{ACAD_REACTORS
330
10
102
}
330
10
100
AcDbMaterial
  1
ByBlock
 72
     0
 43
0.0208333333333333
 43
0.0
 43
0.0
 43
0.0
 43
0.0
 43
0.0208333333333333
 43
0.0
 43
0.0
 43
0.0
 43
0.0
 43
1.0
 43
0.0
 43
0.0
 43
0.0
 43
0.0
 43
1.0
 77
     0
 47
0.0208333333333333
 47
0.0
 47
0.0
 47
0.0
 47
0.0
 47
0.0208333333333333
 47
0.0
 47
0.0
 47
0.0
 47
0.0
 47
1.0
 47
0.0
 47
0.0
 47
0.0
 47
0.0
 47
1.0
171
     0
 49
0.0208333333333333
 49
0.0
 49
0.0
 49
0.0
 49
0.0
 49
0.0208333333333333
 49
0.0
 49
0.0
 49
0.0
 49
0.0
 49
1.0
 49
0.0
 49
0.0
 49
0.0
 49
0.0
 49
1.0
175
     0
142
0.0208333333333333
142
0.0
142
0.0
142
0.0
142
0.0
142
0.0208333333333333
142
0.0
142
0.0
142
0.0
142
0.0
142
1.0
142
0.0
142
0.0
142
0.0
142
0.0
142
1.0
179
     0
144
0.0208333333333333
144
0.0
144
0.0
144
0.0
144
0.0
144
0.0208333333333333
144
0.0
144
0.0
144
0.0
144
0.0
144
1.0
144
0.0
144
0.0
144
0.0
144
0.0
144
1.0
147
0.0208333333333333
147
0.0
147
0.0
147
0.0
147
0.0
147
0.0208333333333333
147
0.0
147
0.0
147
0.0
147
0.0
147
1.0
147
0.0
147
0.0
147
0.0
147
0.0
147
1.0
  0
MATERIAL
  5
11
102
{ACAD_XDICTIONARY
360
12
102
}
102
{ACAD_REACTORS
330
10
102
}
330
10
100
AcDbMaterial
  1
ByLayer
 72
     0
 43
0.0208333333333333
 43
0.0
 43
0.0
 43
0.0
 43
0.0
 43
0.0208333333333333
 43
0.0
 43
0.0
 43
0.0
 43
0.0
 43
1.0
 43
0.0
 43
0.0
 43
0.0
 43
0.0
 43
1.0
 77
     0
 47
0.0208333333333333
 47
0.0
 47
0.0
 47
0.0
 47
0.0
 47
0.0208333333333333
 47
0.0
 47
0.0
 47
0.0
 47
0.0
 47
1.0
 47
0.0
 47
0.0
 47
0.0
 47
0.0
 47
1.0
171
     0
 49
0.0208333333333333
 49
0.0
 49
0.0
 49
0.0
 49
0.0
 49
0.0208333333333333
 49
0.0
 49
0.0
 49
0.0
 49
0.0
 49
1.0
 49
0.0
 49
0.0
 49
0.0
 49
0.0
 49
1.0
175
     0
142
0.0208333333333333
142
0.0
142
0.0
142
0.0
142
0.0
142
0.0208333333333333
142
0.0
142
0.0
142
0.0
142
0.0
142
1.0
142
0.0
142
0.0
142
0.0
142
0.0
142
1.0
179
     0
144
0.0208333333333333
144
0.0
144
0.0
144
0.0
144
0.0
144
0.0208333333333333
144
0.0
144
0.0
144
0.0
144
0.0
144
1.0
144
0.0
144
0.0
144
0.0
144
0.0
144
1.0
147
0.0208333333333333
147
0.0
147
0.0
147
0.0
147
0.0
147
0.0208333333333333
147
0.0
147
0.0
147
0.0
147
0.0
147
1.0
147
0.0
147
0.0
147
0.0
147
0.0
147
1.0
  0
MATERIAL
  5
21
102
{ACAD_XDICTIONARY
360
22
102
}
102
{ACAD_REACTORS
330
10
102
}
330
10
100
AcDbMaterial
  1
Global
 72
     0
 43
0.0208333333333333
 43
0.0
 43
0.0
 43
0.0
 43
0.0
 43
0.0208333333333333
 43
0.0
 43
0.0
 43
0.0
 43
0.0
 43
1.0
 43
0.0
 43
0.0
 43
0.0
 43
0.0
 43
1.0
 77
     0
 47
0.0208333333333333
 47
0.0
 47
0.0
 47
0.0
 47
0.0
 47
0.0208333333333333
 47
0.0
 47
0.0
 47
0.0
 47
0.0
 47
1.0
 47
0.0
 47
0.0
 47
0.0
 47
0.0
 47
1.0
171
     0
 49
0.0208333333333333
 49
0.0
 49
0.0
 49
0.0
 49
0.0
 49
0.0208333333333333
 49
0.0
 49
0.0
 49
0.0
 49
0.0
 49
1.0
 49
0.0
 49
0.0
 49
0.0
 49
0.0
 49
1.0
175
     0
142
0.0208333333333333
142
0.0
142
0.0
142
0.0
142
0.0
142
0.0208333333333333
142
0.0
142
0.0
142
0.0
142
0.0
142
1.0
142
0.0
142
0.0
142
0.0
142
0.0
142
1.0
179
     0
144
0.0208333333333333
144
0.0
144
0.0
144
0.0
144
0.0
144
0.0208333333333333
144
0.0
144
0.0
144
0.0
144
0.0
144
1.0
144
0.0
144
0.0
144
0.0
144
0.0
144
1.0
147
0.0208333333333333
147
0.0
147
0.0
147
0.0
147
0.0
147
0.0208333333333333
147
0.0
147
0.0
147
0.0
147
0.0
147
1.0
147
0.0
147
0.0
147
0.0
147
0.0
147
1.0
  0
MLEADERSTYLE
  5
67
102
{ACAD_XDICTIONARY
360
663
102
}
102
{ACAD_REACTORS
330
66
102
}
330
66
100
AcDbMLeaderStyle
179
     2
170
     2
171
     1
172
     0
 90
        2
 40
0.0
 41
0.0
173
     1
 91
-1056964608
340
5B
 92
       -2
290
     1
 42
0.09
291
     1
 43
0.36
  3
Standard
 44
0.18
300

342
55
174
     1
178
     6
175
     1
176
     0
 93
-1056964608
 45
0.18
292
     0
297
     0
 46
0.18
 94
-1056964608
 47
1.0
 49
1.0
140
1.0
293
     1
141
0.0
294
     1
177
     0
142
1.0
295
     0
296
     0
143
0.125
271
     0
272
     9
273
     9
  0
MLINESTYLE
  5
60
102
{ACAD_REACTORS
330
5F
102
}
330
5F
100
AcDbMlineStyle
  2
STANDARD
 70
     0
  3

 62
   256
 51
90.0
 52
90.0
 71
     2
 49
0.5
 62
   256
  6
BYLAYER
 49
-0.5
 62
   256
  6
BYLAYER
  0
ACDBPLACEHOLDER
  5
F
102
{ACAD_REACTORS
330
E
102
}
330
E
  0
ACDBPLACEHOLDER
  5
8B
102
{ACAD_REACTORS
330
E
102
}
330
E
  0
SCALE
  5
43
102
{ACAD_REACTORS
330
42
102
}
330
42
100
AcDbScale
 70
     0
300
1:1
140
1.0
141
1.0
290
     1
  0
SCALE
  5
44
102
{ACAD_REACTORS
330
42
102
}
330
42
100
AcDbScale
 70
     0
300
1:2
140
1.0
141
2.0
290
     0
  0
SCALE
  5
45
102
{ACAD_REACTORS
330
42
102
}
330
42
100
AcDbScale
 70
     0
300
1:4
140
1.0
141
4.0
290
     0
  0
SCALE
  5
46
102
{ACAD_REACTORS
330
42
102
}
330
42
100
AcDbScale
 70
     0
300
1:5
140
1.0
141
5.0
290
     0
  0
SCALE
  5
47
102
{ACAD_REACTORS
330
42
102
}
330
42
100
AcDbScale
 70
     0
300
1:8
140
1.0
141
8.0
290
     0
  0
SCALE
  5
48
102
{ACAD_REACTORS
330
42
102
}
330
42
100
AcDbScale
 70
     0
300
1:10
140
1.0
141
10.0
290
     0
  0
SCALE
  5
49
102
{ACAD_REACTORS
330
42
102
}
330
42
100
AcDbScale
 70
     0
300
1:16
140
1.0
141
16.0
290
     0
  0
SCALE
  5
4A
102
{ACAD_REACTORS
330
42
102
}
330
42
100
AcDbScale
 70
     0
300
1:20
140
1.0
141
20.0
290
     0
  0
SCALE
  5
4B
102
{ACAD_REACTORS
330
42
102
}
330
42
100
AcDbScale
 70
     0
300
1:30
140
1.0
141
30.0
290
     0
  0
SCALE
  5
4C
102
{ACAD_REACTORS
330
42
102
}
330
42
100
AcDbScale
 70
     0
300
1:40
140
1.0
141
40.0
290
     0
  0
SCALE
  5
4D
102
{ACAD_REACTORS
330
42
102
}
330
42
100
AcDbScale
 70
     0
300
1:50
140
1.0
141
50.0
290
     0
  0
SCALE
  5
4E
102
{ACAD_REACTORS
330
42
102
}
330
42
100
AcDbScale
 70
     0
300
1:100
140
1.0
141
100.0
290
     0
  0
SCALE
  5
4F
102
{ACAD_REACTORS
330
42
102
}
330
42
100
AcDbScale
 70
     0
300
2:1
140
2.0
141
1.0
290
     0
  0
SCALE
  5
50
102
{ACAD_REACTORS
330
42
102
}
330
42
100
AcDbScale
 70
     0
300
4:1
140
4.0
141
1.0
290
     0
  0
SCALE
  5
51
102
{ACAD_REACTORS
330
42
102
}
330
42
100
AcDbScale
 70
     0
300
8:1
140
8.0
141
1.0
290
     0
  0
SCALE
  5
52
102
{ACAD_REACTORS
330
42
102
}
330
42
100
AcDbScale
 70
     0
300
10:1
140
10.0
141
1.0
290
     0
  0
SCALE
  5
53
102
{ACAD_REACTORS
330
42
102
}
330
42
100
AcDbScale
 70
     0
300
100:1
140
100.0
141
1.0
290
     0
  0
ACDBSECTIONVIEWSTYLE
  5
69
102
{ACAD_XDICTIONARY
360
5E9
102
}
102
{ACAD_REACTORS
330
68
102
}
330
68
100
AcDbModelDocViewStyle
 70
     0
  3
Imperial24
290
     0
100
AcDbSectionViewStyle
 70
     0
 71
     0
 90
       78
 71
     1
340
55
 62
   256
 40
0.24
340
0
340
0
 62
   256
 40
0.24
300
I, O, Q, S, X, Z
 40
0.48
 90
        3
 40
0.18
 90
        1
 71
     2
340
5D
 90
       25
 62
   256
340
5D
 90
       50
 62
   256
 40
0.24
 40
0.0
 40
0.24
 71
     3
340
55
 62
   256
 40
0.24
 90
        1
 40
0.75
 90
        1
300
%<\AcVar ViewType \f "%tc1">% %<\AcVar ViewSectionStartId>%-%<\AcVar ViewSectionEndId>%\PSCALE %<\AcVar ViewScale \f "%sn">%
 71
     4
 62
   256
 62
   257
300
ANSI31
 40
1.0
 90
        0
290
     0
290
     0
 90
        6
 40
0.0
 40
1.570796326794896
 40
0.2617993877991494
 40
1.308996938995747
 40
-0.2617993877991494
 40
1.832595714594046
  0
ACDBSECTIONVIEWSTYLE
  5
1DE
102
{ACAD_XDICTIONARY
360
5ED
102
}
102
{ACAD_REACTORS
330
68
102
}
330
68
100
AcDbModelDocViewStyle
 70
     0
  3
Metric50
290
     0
100
AcDbSectionViewStyle
 70
     0
 71
     0
 90
      102
 71
     1
340
55
 62
   256
 40
5.0
340
0
340
0
 62
   256
 40
5.0
300
I, O, Q, S, X, Z
 40
10.0
 90
        0
 40
2.5
 90
        0
 71
     2
340
5D
 90
       25
 62
   256
340
5D
 90
       50
 62
   256
 40
5.0
 40
2.5
 40
5.0
 71
     3
340
55
 62
   256
 40
5.0
 90
        0
 40
15.0
 90
        1
300
%<\AcVar ViewSectionStartId>%-%<\AcVar ViewSectionEndId>% (%<\AcVar ViewScale \f "%sn">%)
 71
     4
 62
   256
 62
   257
300
ANSI31
 40
1.0
 90
        0
290
     0
290
     0
 90
        6
 40
0.0
 40
1.570796326794896
 40
0.2617993877991494
 40
1.308996938995747
 40
-0.2617993877991494
 40
1.832595714594046
  0
TABLESTYLE
  5
65
102
{ACAD_XDICTIONARY
360
1F8
102
}
102
{ACAD_REACTORS
330
64
102
}
330
64
100
AcDbTableStyle
280
     0
  3
Standard
 70
     0
 71
     3
 40
1.5
 41
1.5
280
     0
281
     0
  7
STANDARD
140
4.5
170
     2
 62
     0
 63
     7
283
     0
 90
      512
 91
        0
  1

274
    -2
284
     1
 64
     0
275
    -2
285
     1
 65
     0
276
    -2
286
     1
 66
     0
277
    -2
287
     1
 67
     0
278
    -2
288
     1
 68
     0
279
    -2
289
     1
 69
     0
  7
STANDARD
140
6.0
170
     5
 62
     0
 63
     7
283
     0
 90
      512
 91
        0
  1

274
    -2
284
     1
 64
     0
275
    -2
285
     1
 65
     0
276
    -2
286
     1
 66
     0
277
    -2
287
     1
 67
     0
278
    -2
288
     1
 68
     0
279
    -2
289
     1
 69
     0
  7
STANDARD
140
4.5
170
     5
 62
     0
 63
     7
283
     0
 90
      512
 91
        0
  1

274
    -2
284
     1
 64
     0
275
    -2
285
     1
 65
     0
276
    -2
286
     1
 66
     0
277
    -2
287
     1
 67
     0
278
    -2
288
     1
 68
     0
279
    -2
289
     1
 69
     0
  0
VISUALSTYLE
  5
2F
102
{ACAD_XDICTIONARY
360
63D
102
}
102
{ACAD_REACTORS
330
29
102
}
330
29
100
AcDbVisualStyle
  2
2dWireframe
 70
     4
177
     2
291
     0
 71
     0
176
     1
 72
     2
176
     1
 73
     0
176
     1
 90
        0
176
     1
 40
0.6
176
     1
 41
30.0
176
     1
 63
     7
421
 16777215
176
     1
 74
     1
176
     1
 91
        4
176
     1
 64
     7
176
     1
 65
   257
176
     1
 75
     1
176
     1
175
     1
176
     1
 42
1.0
176
     1
 92
        0
176
     1
 66
   257
176
     1
 43
1.0
176
     1
 76
     1
176
     1
 77
     6
176
     1
 78
     2
176
     1
 67
     7
176
     1
 79
     5
176
     1
170
     0
176
     1
171
     0
176
     1
290
     0
176
     1
 93
        1
176
     1
 44
0.0
176
     1
173
     0
176
     1
1001
ACAD
1000
AcDbSavedByObjectVersion
1070
     0
  0
VISUALSTYLE
  5
2E
102
{ACAD_XDICTIONARY
360
63B
102
}
102
{ACAD_REACTORS
330
29
102
}
330
29
100
AcDbVisualStyle
  2
Basic
 70
     7
177
     2
291
     1
 71
     1
176
     1
 72
     0
176
     1
 73
     1
176
     1
 90
        0
176
     1
 40
0.6
176
     1
 41
30.0
176
     1
 63
     7
421
 16777215
176
     1
 74
     0
176
     1
 91
        4
176
     1
 64
     7
176
     1
 65
   257
176
     1
 75
     1
176
     1
175
     1
176
     1
 42
1.0
176
     1
 92
        8
176
     1
 66
     7
176
     1
 43
1.0
176
     1
 76
     1
176
     1
 77
     6
176
     1
 78
     2
176
     1
 67
     7
176
     1
 79
     5
176
     1
170
     0
176
     1
171
     0
176
     1
290
     0
176
     1
 93
        1
176
     1
 44
0.0
176
     1
173
     0
176
     1
1001
ACAD
1000
AcDbSavedByObjectVersion
1070
     0
  0
VISUALSTYLE
  5
35
102
{ACAD_XDICTIONARY
360
649
102
}
102
{ACAD_REACTORS
330
29
102
}
330
29
100
AcDbVisualStyle
  2
Brighten
 70
    12
177
     2
291
     1
 71
     2
176
     1
 72
     2
176
     1
 73
     0
176
     1
 90
        0
176
     1
 40
0.6
176
     1
 41
30.0
176
     1
 63
     7
421
 16777215
176
     1
 74
     1
176
     1
 91
        4
176
     1
 64
     7
176
     1
 65
   257
176
     1
 75
     1
176
     1
175
     1
176
     1
 42
1.0
176
     1
 92
        8
176
     1
 66
     7
176
     1
 43
1.0
176
     1
 76
     1
176
     1
 77
     6
176
     1
 78
     2
176
     1
 67
     7
176
     1
 79
     5
176
     1
170
     0
176
     1
171
     0
176
     1
290
     0
176
     1
 93
        1
176
     1
 44
50.0
176
     1
173
     0
176
     1
1001
ACAD
1000
AcDbSavedByObjectVersion
1070
     0
  0
VISUALSTYLE
  5
39
102
{ACAD_XDICTIONARY
360
651
102
}
102
{ACAD_REACTORS
330
29
102
}
330
29
100
AcDbVisualStyle
  2
ColorChange
 70
    16
177
     2
291
     1
 71
     2
176
     1
 72
     2
176
     1
 73
     3
176
     1
 90
        0
176
     1
 40
0.6
176
     1
 41
30.0
176
     1
 63
     8
421
  8421504
176
     1
 74
     1
176
     1
 91
        4
176
     1
 64
     7
176
     1
 65
   257
176
     1
 75
     1
176
     1
175
     1
176
     1
 42
1.0
176
     1
 92
        8
176
     1
 66
     8
424
  8421504
176
     1
 43
1.0
176
     1
 76
     1
176
     1
 77
     6
176
     1
 78
     2
176
     1
 67
     7
176
     1
 79
     5
176
     1
170
     0
176
     1
171
     0
176
     1
290
     0
176
     1
 93
        1
176
     1
 44
0.0
176
     1
173
     0
176
     1
1001
ACAD
1000
AcDbSavedByObjectVersion
1070
     0
  0
VISUALSTYLE
  5
32
102
{ACAD_XDICTIONARY
360
643
102
}
102
{ACAD_REACTORS
330
29
102
}
330
29
100
AcDbVisualStyle
  2
Conceptual
 70
     9
177
     2
291
     0
 71
     3
176
     1
 72
     2
176
     1
 73
     0
176
     1
 90
        0
176
     1
 40
0.6
176
     1
 41
30.0
176
     1
 63
     7
421
 16777215
176
     1
 74
     2
176
     1
 91
        2
176
     1
 64
     7
176
     1
 65
   257
176
     1
 75
     1
176
     1
175
     1
176
     1
 42
179.0
176
     1
 92
        8
176
     1
 66
     7
176
     1
 43
1.0
176
     1
 76
     1
176
     1
 77
     6
176
     1
 78
     2
176
     1
 67
     7
176
     1
 79
     3
176
     1
170
     0
176
     1
171
     0
176
     1
290
     0
176
     1
 93
        1
176
     1
 44
0.0
176
     1
173
     0
176
     1
1001
ACAD
1000
AcDbSavedByObjectVersion
1070
     0
  0
VISUALSTYLE
  5
34
102
{ACAD_XDICTIONARY
360
647
102
}
102
{ACAD_REACTORS
330
29
102
}
330
29
100
AcDbVisualStyle
  2
Dim
 70
    11
177
     2
291
     1
 71
     2
176
     1
 72
     2
176
     1
 73
     0
176
     1
 90
        0
176
     1
 40
0.6
176
     1
 41
30.0
176
     1
 63
     7
421
 16777215
176
     1
 74
     1
176
     1
 91
        4
176
     1
 64
     7
176
     1
 65
   257
176
     1
 75
     1
176
     1
175
     1
176
     1
 42
1.0
176
     1
 92
        8
176
     1
 66
     7
176
     1
 43
1.0
176
     1
 76
     1
176
     1
 77
     6
176
     1
 78
     2
176
     1
 67
     7
176
     1
 79
     5
176
     1
170
     0
176
     1
171
     0
176
     1
290
     0
176
     1
 93
        1
176
     1
 44
-50.0
176
     1
173
     0
176
     1
1001
ACAD
1000
AcDbSavedByObjectVersion
1070
     0
  0
VISUALSTYLE
  5
41
102
{ACAD_XDICTIONARY
360
661
102
}
102
{ACAD_REACTORS
330
29
102
}
330
29
100
AcDbVisualStyle
  2
EdgeColorOff
 70
    22
177
     2
291
     1
 71
     2
176
     0
 72
     2
176
     0
 73
     0
176
     0
 90
        0
176
     0
 40
0.6
176
     0
 41
30.0
176
     0
 63
     7
421
 16777215
176
     0
 74
     1
176
     0
 91
        4
176
     0
 64
     7
176
     0
 65
   257
176
     0
 75
     1
176
     0
175
     1
176
     0
 42
1.0
176
     0
 92
        8
176
     2
 66
     7
176
     0
 43
1.0
176
     0
 76
     1
176
     0
 77
     6
176
     0
 78
     2
176
     0
 67
     7
176
     0
 79
     5
176
     0
170
     0
176
     0
171
     0
176
     0
290
     0
176
     0
 93
        1
176
     0
 44
0.0
176
     0
173
     0
176
     0
1001
ACAD
1000
AcDbSavedByObjectVersion
1070
     0
  0
VISUALSTYLE
  5
38
102
{ACAD_XDICTIONARY
360
64F
102
}
102
{ACAD_REACTORS
330
29
102
}
330
29
100
AcDbVisualStyle
  2
Facepattern
 70
    15
177
     2
291
     1
 71
     2
176
     1
 72
     2
176
     1
 73
     0
176
     1
 90
        0
176
     1
 40
0.6
176
     1
 41
30.0
176
     1
 63
     7
421
 16777215
176
     1
 74
     1
176
     1
 91
        4
176
     1
 64
     7
176
     1
 65
   257
176
     1
 75
     1
176
     1
175
     1
176
     1
 42
1.0
176
     1
 92
        8
176
     1
 66
     7
176
     1
 43
1.0
176
     1
 76
     1
176
     1
 77
     6
176
     1
 78
     2
176
     1
 67
     7
176
     1
 79
     5
176
     1
170
     0
176
     1
171
     0
176
     1
290
     0
176
     1
 93
        1
176
     1
 44
0.0
176
     1
173
     0
176
     1
1001
ACAD
1000
AcDbSavedByObjectVersion
1070
     0
  0
VISUALSTYLE
  5
2A
102
{ACAD_XDICTIONARY
360
633
102
}
102
{ACAD_REACTORS
330
29
102
}
330
29
100
AcDbVisualStyle
  2
Flat
 70
     0
177
     2
291
     1
 71
     2
176
     1
 72
     1
176
     1
 73
     1
176
     1
 90
        2
176
     1
 40
0.6
176
     1
 41
30.0
176
     1
 63
     7
421
 16777215
176
     1
 74
     0
176
     1
 91
        0
176
     1
 64
     7
176
     1
 65
   257
176
     1
 75
     1
176
     1
175
     1
176
     1
 42
1.0
176
     1
 92
        8
176
     1
 66
     7
176
     1
 43
1.0
176
     1
 76
     1
176
     1
 77
     6
176
     1
 78
     2
176
     1
 67
     7
176
     1
 79
     5
176
     1
170
     0
176
     1
171
     0
176
     1
290
     0
176
     1
 93
       13
176
     1
 44
0.0
176
     1
173
     0
176
     1
1001
ACAD
1000
AcDbSavedByObjectVersion
1070
     0
  0
VISUALSTYLE
  5
2B
102
{ACAD_XDICTIONARY
360
635
102
}
102
{ACAD_REACTORS
330
29
102
}
330
29
100
AcDbVisualStyle
  2
FlatWithEdges
 70
     1
177
     2
291
     1
 71
     2
176
     1
 72
     1
176
     1
 73
     1
176
     1
 90
        2
176
     1
 40
0.6
176
     1
 41
30.0
176
     1
 63
     7
421
 16777215
176
     1
 74
     1
176
     1
 91
        0
176
     1
 64
     7
176
     1
 65
   257
176
     1
 75
     1
176
     1
175
     1
176
     1
 42
1.0
176
     1
 92
        0
176
     1
 66
   257
176
     1
 43
1.0
176
     1
 76
     1
176
     1
 77
     6
176
     1
 78
     2
176
     1
 67
     7
176
     1
 79
     5
176
     1
170
     0
176
     1
171
     0
176
     1
290
     0
176
     1
 93
       13
176
     1
 44
0.0
176
     1
173
     0
176
     1
1001
ACAD
1000
AcDbSavedByObjectVersion
1070
     0
  0
VISUALSTYLE
  5
2C
102
{ACAD_XDICTIONARY
360
637
102
}
102
{ACAD_REACTORS
330
29
102
}
330
29
100
AcDbVisualStyle
  2
Gouraud
 70
     2
177
     2
291
     1
 71
     2
176
     1
 72
     2
176
     1
 73
     1
176
     1
 90
        2
176
     1
 40
0.6
176
     1
 41
30.0
176
     1
 63
     7
421
 16777215
176
     1
 74
     0
176
     1
 91
        0
176
     1
 64
     7
176
     1
 65
   257
176
     1
 75
     1
176
     1
175
     1
176
     1
 42
1.0
176
     1
 92
        0
176
     1
 66
     7
176
     1
 43
1.0
176
     1
 76
     1
176
     1
 77
     6
176
     1
 78
     2
176
     1
 67
     7
176
     1
 79
     5
176
     1
170
     0
176
     1
171
     0
176
     1
290
     0
176
     1
 93
       13
176
     1
 44
0.0
176
     1
173
     0
176
     1
1001
ACAD
1000
AcDbSavedByObjectVersion
1070
     0
  0
VISUALSTYLE
  5
2D
102
{ACAD_XDICTIONARY
360
639
102
}
102
{ACAD_REACTORS
330
29
102
}
330
29
100
AcDbVisualStyle
  2
GouraudWithEdges
 70
     3
177
     2
291
     1
 71
     2
176
     1
 72
     2
176
     1
 73
     1
176
     1
 90
        2
176
     1
 40
0.6
176
     1
 41
30.0
176
     1
 63
     7
421
 16777215
176
     1
 74
     1
176
     1
 91
        0
176
     1
 64
     7
176
     1
 65
   257
176
     1
 75
     1
176
     1
175
     1
176
     1
 42
1.0
176
     1
 92
        0
176
     1
 66
   257
176
     1
 43
1.0
176
     1
 76
     1
176
     1
 77
     6
176
     1
 78
     2
176
     1
 67
     7
176
     1
 79
     5
176
     1
170
     0
176
     1
171
     0
176
     1
290
     0
176
     1
 93
       13
176
     1
 44
0.0
176
     1
173
     0
176
     1
1001
ACAD
1000
AcDbSavedByObjectVersion
1070
     0
  0
VISUALSTYLE
  5
31
102
{ACAD_XDICTIONARY
360
641
102
}
102
{ACAD_REACTORS
330
29
102
}
330
29
100
AcDbVisualStyle
  2
Hidden
 70
     6
177
     2
291
     0
 71
     1
176
     1
 72
     2
176
     1
 73
     2
176
     1
 90
        0
176
     1
 40
0.6
176
     1
 41
30.0
176
     1
 63
     7
421
 16777215
176
     1
 74
     2
176
     1
 91
        2
176
     1
 64
     7
176
     1
 65
   257
176
     1
 75
     2
176
     1
175
     1
176
     1
 42
40.0
176
     1
 92
        0
176
     1
 66
   257
176
     1
 43
1.0
176
     1
 76
     1
176
     1
 77
     6
176
     1
 78
     2
176
     1
 67
     7
176
     1
 79
     3
176
     1
170
     0
176
     1
171
     0
176
     1
290
     0
176
     1
 93
        1
176
     1
 44
0.0
176
     1
173
     0
176
     1
1001
ACAD
1000
AcDbSavedByObjectVersion
1070
     0
  0
VISUALSTYLE
  5
3F
102
{ACAD_XDICTIONARY
360
65D
102
}
102
{ACAD_REACTORS
330
29
102
}
330
29
100
AcDbVisualStyle
  2
JitterOff
 70
    20
177
     2
291
     1
 71
     2
176
     0
 72
     2
176
     0
 73
     0
176
     0
 90
        0
176
     0
 40
0.6
176
     0
 41
30.0
176
     0
 63
     7
421
 16777215
176
     0
 74
     1
176
     0
 91
        4
176
     0
 64
     7
176
     0
 65
   257
176
     0
 75
     1
176
     0
175
     1
176
     0
 42
1.0
176
     0
 92
       10
176
     2
 66
     7
176
     0
 43
1.0
176
     0
 76
     1
176
     0
 77
     6
176
     0
 78
     2
176
     0
 67
     7
176
     0
 79
     5
176
     0
170
     0
176
     0
171
     0
176
     0
290
     0
176
     0
 93
        1
176
     0
 44
0.0
176
     0
173
     0
176
     0
1001
ACAD
1000
AcDbSavedByObjectVersion
1070
     0
  0
VISUALSTYLE
  5
37
102
{ACAD_XDICTIONARY
360
64D
102
}
102
{ACAD_REACTORS
330
29
102
}
330
29
100
AcDbVisualStyle
  2
Linepattern
 70
    14
177
     2
291
     1
 71
     2
176
     1
 72
     2
176
     1
 73
     0
176
     1
 90
        0
176
     1
 40
0.6
176
     1
 41
30.0
176
     1
 63
     7
421
 16777215
176
     1
 74
     1
176
     1
 91
        4
176
     1
 64
     7
176
     1
 65
   257
176
     1
 75
     7
176
     1
175
     7
176
     1
 42
1.0
176
     1
 92
        8
176
     1
 66
     7
176
     1
 43
1.0
176
     1
 76
     1
176
     1
 77
     6
176
     1
 78
     2
176
     1
 67
     7
176
     1
 79
     5
176
     1
170
     0
176
     1
171
     0
176
     1
290
     0
176
     1
 93
        1
176
     1
 44
0.0
176
     1
173
     0
176
     1
1001
ACAD
1000
AcDbSavedByObjectVersion
1070
     0
  0
VISUALSTYLE
  5
40
102
{ACAD_XDICTIONARY
360
65F
102
}
102
{ACAD_REACTORS
330
29
102
}
330
29
100
AcDbVisualStyle
  2
OverhangOff
 70
    21
177
     2
291
     1
 71
     2
176
     0
 72
     2
176
     0
 73
     0
176
     0
 90
        0
176
     0
 40
0.6
176
     0
 41
30.0
176
     0
 63
     7
421
 16777215
176
     0
 74
     1
176
     0
 91
        4
176
     0
 64
     7
176
     0
 65
   257
176
     0
 75
     1
176
     0
175
     1
176
     0
 42
1.0
176
     0
 92
        9
176
     2
 66
     7
176
     0
 43
1.0
176
     0
 76
     1
176
     0
 77
     6
176
     0
 78
     2
176
     0
 67
     7
176
     0
 79
     5
176
     0
170
     0
176
     0
171
     0
176
     0
290
     0
176
     0
 93
        1
176
     0
 44
0.0
176
     0
173
     0
176
     0
1001
ACAD
1000
AcDbSavedByObjectVersion
1070
     0
  0
VISUALSTYLE
  5
33
102
{ACAD_XDICTIONARY
360
645
102
}
102
{ACAD_REACTORS
330
29
102
}
330
29
100
AcDbVisualStyle
  2
Realistic
 70
     8
177
     2
291
     0
 71
     2
176
     1
 72
     2
176
     1
 73
     0
176
     1
 90
        2
176
     1
 40
0.6
176
     1
 41
30.0
176
     1
 63
     7
421
 16777215
176
     1
 74
     0
176
     1
 91
        0
176
     1
 64
     7
176
     1
 65
   257
176
     1
 75
     1
176
     1
175
     1
176
     1
 42
1.0
176
     1
 92
        8
176
     1
 66
   257
176
     1
 43
1.0
176
     1
 76
     1
176
     1
 77
     6
176
     1
 78
     2
176
     1
 67
     7
176
     1
 79
     3
176
     1
170
     0
176
     1
171
     0
176
     1
290
     0
176
     1
 93
       13
176
     1
 44
0.0
176
     1
173
     0
176
     1
1001
ACAD
1000
AcDbSavedByObjectVersion
1070
     0
  0
VISUALSTYLE
  5
3E
102
{ACAD_XDICTIONARY
360
65B
102
}
102
{ACAD_REACTORS
330
29
102
}
330
29
100
AcDbVisualStyle
  2
Shaded
 70
    27
177
     2
291
     0
 71
     2
176
     1
 72
     2
176
     1
 73
     1
176
     1
 90
        2
176
     1
 40
0.6
176
     1
 41
30.0
176
     1
 63
     7
421
 16777215
176
     1
 74
     0
176
     1
 91
        4
176
     1
 64
     7
176
     1
 65
   257
176
     1
 75
     1
176
     1
175
     1
176
     1
 42
1.0
176
     1
 92
        8
176
     1
 66
   257
176
     1
 43
1.0
176
     1
 76
     1
176
     1
 77
     6
176
     1
 78
     2
176
     1
 67
     8
425
  7895160
176
     1
 79
     3
176
     1
170
     0
176
     1
171
     0
176
     1
290
     0
176
     1
 93
        5
176
     1
 44
0.0
176
     1
173
     0
176
     1
1001
ACAD
1000
AcDbSavedByObjectVersion
1070
     0
  0
VISUALSTYLE
  5
3D
102
{ACAD_XDICTIONARY
360
659
102
}
102
{ACAD_REACTORS
330
29
102
}
330
29
100
AcDbVisualStyle
  2
Shaded with edges
 70
    26
177
     2
291
     0
 71
     2
176
     1
 72
     2
176
     1
 73
     1
176
     1
 90
        2
176
     1
 40
0.6
176
     1
 41
30.0
176
     1
 63
     7
421
 16777215
176
     1
 74
     1
176
     1
 91
        2
176
     1
 64
     7
176
     1
 65
   257
176
     1
 75
     2
176
     1
175
     1
176
     1
 42
1.0
176
     1
 92
        8
176
     1
 66
   257
176
     1
 43
1.0
176
     1
 76
     1
176
     1
 77
     6
176
     1
 78
     2
176
     1
 67
     7
176
     1
 79
     3
176
     1
170
     0
176
     1
171
     0
176
     1
290
     0
176
     1
 93
        5
176
     1
 44
0.0
176
     1
173
     0
176
     1
1001
ACAD
1000
AcDbSavedByObjectVersion
1070
     0
  0
VISUALSTYLE
  5
3A
102
{ACAD_XDICTIONARY
360
653
102
}
102
{ACAD_REACTORS
330
29
102
}
330
29
100
AcDbVisualStyle
  2
Shades of Gray
 70
    23
177
     2
291
     0
 71
     2
176
     1
 72
     2
176
     1
 73
     3
176
     1
 90
        0
176
     1
 40
0.6
176
     1
 41
30.0
176
     1
 63
     7
421
 16777215
176
     1
 74
     2
176
     1
 91
        2
176
     1
 64
     7
176
     1
 65
     7
176
     1
 75
     1
176
     1
175
     1
176
     1
 42
40.0
176
     1
 92
        8
176
     1
 66
     7
176
     1
 43
1.0
176
     1
 76
     1
176
     1
 77
     6
176
     1
 78
     2
176
     1
 67
     7
176
     1
 79
     3
176
     1
170
     0
176
     1
171
     0
176
     1
290
     0
176
     1
 93
        1
176
     1
 44
0.0
176
     1
173
     0
176
     1
1001
ACAD
1000
AcDbSavedByObjectVersion
1070
     0
  0
VISUALSTYLE
  5
3B
102
{ACAD_XDICTIONARY
360
655
102
}
102
{ACAD_REACTORS
330
29
102
}
330
29
100
AcDbVisualStyle
  2
Sketchy
 70
    24
177
     2
291
     0
 71
     1
176
     1
 72
     2
176
     1
 73
     2
176
     1
 90
        0
176
     1
 40
0.6
176
     1
 41
30.0
176
     1
 63
     7
421
 16777215
176
     1
 74
     2
176
     1
 91
        2
176
     1
 64
     7
176
     1
 65
     7
176
     1
 75
     1
176
     1
175
     1
176
     1
 42
40.0
176
     1
 92
       11
176
     1
 66
     7
176
     1
 43
1.0
176
     1
 76
     1
176
     1
 77
     6
176
     1
 78
     2
176
     1
 67
     7
176
     1
 79
     6
176
     1
170
     0
176
     1
171
     0
176
     1
290
     0
176
     1
 93
        1
176
     1
 44
0.0
176
     1
173
     0
176
     1
1001
ACAD
1000
AcDbSavedByObjectVersion
1070
     0
  0
VISUALSTYLE
  5
36
102
{ACAD_XDICTIONARY
360
64B
102
}
102
{ACAD_REACTORS
330
29
102
}
330
29
100
AcDbVisualStyle
  2
Thicken
 70
    13
177
     2
291
     1
 71
     2
176
     1
 72
     2
176
     1
 73
     0
176
     1
 90
        0
176
     1
 40
0.6
176
     1
 41
30.0
176
     1
 63
     7
421
 16777215
176
     1
 74
     1
176
     1
 91
        4
176
     1
 64
     7
176
     1
 65
   257
176
     1
 75
     1
176
     1
175
     1
176
     1
 42
1.0
176
     1
 92
       12
176
     1
 66
     7
176
     1
 43
1.0
176
     1
 76
     1
176
     1
 77
     6
176
     1
 78
     2
176
     1
 67
     7
176
     1
 79
     5
176
     1
170
     0
176
     1
171
     0
176
     1
290
     0
176
     1
 93
        1
176
     1
 44
0.0
176
     1
173
     0
176
     1
1001
ACAD
1000
AcDbSavedByObjectVersion
1070
     0
  0
VISUALSTYLE
  5
30
102
{ACAD_XDICTIONARY
360
63F
102
}
102
{ACAD_REACTORS
330
29
102
}
330
29
100
AcDbVisualStyle
  2
Wireframe
 70
     5
177
     2
291
     0
 71
     0
176
     1
 72
     2
176
     1
 73
     0
176
     1
 90
        0
176
     1
 40
0.6
176
     1
 41
30.0
176
     1
 63
     7
421
 16777215
176
     1
 74
     1
176
     1
 91
        4
176
     1
 64
     7
176
     1
 65
   257
176
     1
 75
     1
176
     1
175
     1
176
     1
 42
1.0
176
     1
 92
        0
176
     1
 66
   257
176
     1
 43
1.0
176
     1
 76
     1
176
     1
 77
     6
176
     1
 78
     2
176
     1
 67
     7
176
     1
 79
     3
176
     1
170
     0
176
     1
171
     0
176
     1
290
     0
176
     1
 93
        1
176
     1
 44
0.0
176
     1
173
     0
176
     1
1001
ACAD
1000
AcDbSavedByObjectVersion
1070
     0
  0
VISUALSTYLE
  5
3C
102
{ACAD_XDICTIONARY
360
657
102
}
102
{ACAD_REACTORS
330
29
102
}
330
29
100
AcDbVisualStyle
  2
X-Ray
 70
    25
177
     2
291
     0
 71
     2
176
     1
 72
     2
176
     1
 73
     1
176
     1
 90
        1
176
     1
 40
0.5
176
     1
 41
30.0
176
     1
 63
     7
421
 16777215
176
     1
 74
     1
176
     1
 91
        0
176
     1
 64
     7
176
     1
 65
   257
176
     1
 75
     1
176
     1
175
     1
176
     1
 42
1.0
176
     1
 92
        8
176
     1
 66
     7
176
     1
 43
1.0
176
     1
 76
     1
176
     1
 77
     6
176
     1
 78
     2
176
     1
 67
     7
176
     1
 79
     3
176
     1
170
     0
176
     1
171
     0
176
     1
290
     0
176
     1
 93
       13
176
     1
 44
0.0
176
     1
173
     0
176
     1
1001
ACAD
1000
AcDbSavedByObjectVersion
1070
     0
  0
DICTIONARYVAR
  5
1D8
102
{ACAD_REACTORS
330
1D2
102
}
330
1D2
100
DictionaryVariables
280
     0
  1
0
  0
DICTIONARYVAR
  5
1D9
102
{ACAD_REACTORS
330
1D2
102
}
330
1D2
100
DictionaryVariables
280
     0
  1
1:1
  0
DICTIONARYVAR
  5
1D4
102
{ACAD_REACTORS
330
1D2
102
}
330
1D2
100
DictionaryVariables
280
     0
  1
STANDARD
  0
DICTIONARYVAR
  5
1D3
102
{ACAD_REACTORS
330
1D2
102
}
330
1D2
100
DictionaryVariables
280
     0
  1
STANDARD
  0
DICTIONARYVAR
  5
1D5
102
{ACAD_REACTORS
330
1D2
102
}
330
1D2
100
DictionaryVariables
280
     0
  1
Imperial24
  0
DICTIONARYVAR
  5
1D6
102
{ACAD_REACTORS
330
1D2
102
}
330
1D2
100
DictionaryVariables
280
     0
  1
Imperial24
  0
DICTIONARYVAR
  5
1DB
102
{ACAD_REACTORS
330
1D2
102
}
330
1D2
100
DictionaryVariables
280
     0
  1
1
  0
DICTIONARYVAR
  5
1DC
102
{ACAD_REACTORS
330
1D2
102
}
330
1D2
100
DictionaryVariables
280
     0
  1
15
  0
DICTIONARYVAR
  5
1DA
102
{ACAD_REACTORS
330
1D2
102
}
330
1D2
100
DictionaryVariables
280
     0
  1
0
  0
DICTIONARYVAR
  5
1D7
102
{ACAD_REACTORS
330
1D2
102
}
330
1D2
100
DictionaryVariables
280
     0
  1
0
  0
DICTIONARY
  5
632
102
{ACAD_REACTORS
330
630
102
}
330
630
100
AcDbDictionary
281
     1
  0
DICTIONARY
  5
631
102
{ACAD_REACTORS
330
630
102
}
330
630
100
AcDbDictionary
281
     1
  3
2137697860272
350
62B
  3
2137697860288
350
62C
  3
2137697860304
350
62D
  3
2137697860320
350
62E
  3
2137697860336
350
62F
  0
DICTIONARY
  5
5EB
330
6B
100
AcDbDictionary
280
     1
281
     1
  3
ACAD_XREC_ROUNDTRIP
360
666
  0
DICTIONARY
  5
5EF
330
1DF
100
AcDbDictionary
280
     1
281
     1
  3
ACAD_XREC_ROUNDTRIP
360
668
  0
DICTIONARY
  5
23E
330
73
100
AcDbDictionary
280
     1
281
     1
  0
DICTIONARY
  5
1A
330
19
100
AcDbDictionary
280
     1
281
     1
  3
BUMPTILE
360
1C
  3
DIFFUSETILE
360
1B
  3
OPACITYTILE
360
1F
  3
REFLECTIONTILE
360
1E
  3
REFRACTIONTILE
360
20
  3
SPECULARTILE
360
1D
  0
DICTIONARY
  5
12
330
11
100
AcDbDictionary
280
     1
281
     1
  3
BUMPTILE
360
14
  3
DIFFUSETILE
360
13
  3
OPACITYTILE
360
17
  3
REFLECTIONTILE
360
16
  3
REFRACTIONTILE
360
18
  3
SPECULARTILE
360
15
  0
DICTIONARY
  5
22
330
21
100
AcDbDictionary
280
     1
281
     1
  3
BUMPTILE
360
24
  3
DIFFUSETILE
360
23
  3
OPACITYTILE
360
27
  3
REFLECTIONTILE
360
26
  3
REFRACTIONTILE
360
28
  3
SPECULARTILE
360
25
  0
DICTIONARY
  5
663
330
67
100
AcDbDictionary
280
     1
281
     1
  3
ACAD_XREC_ROUNDTRIP
360
664
  0
DICTIONARY
  5
5E9
330
69
100
AcDbDictionary
280
     1
281
     1
  3
ACAD_XREC_ROUNDTRIP
360
665
  0
DICTIONARY
  5
5ED
330
1DE
100
AcDbDictionary
280
     1
281
     1
  3
ACAD_XREC_ROUNDTRIP
360
667
  0
DICTIONARY
  5
1F8
330
65
100
AcDbDictionary
280
     1
281
     1
  3
ACAD_ROUNDTRIP_2008_TABLESTYLE_CELLSTYLEMAP
360
629
  0
DICTIONARY
  5
63D
330
2F
100
AcDbDictionary
280
     1
281
     1
  3
ACAD_XREC_ROUNDTRIP
360
63E
  0
DICTIONARY
  5
63B
330
2E
100
AcDbDictionary
280
     1
281
     1
  3
ACAD_XREC_ROUNDTRIP
360
63C
  0
DICTIONARY
  5
649
330
35
100
AcDbDictionary
280
     1
281
     1
  3
ACAD_XREC_ROUNDTRIP
360
64A
  0
DICTIONARY
  5
651
330
39
100
AcDbDictionary
280
     1
281
     1
  3
ACAD_XREC_ROUNDTRIP
360
652
  0
DICTIONARY
  5
643
330
32
100
AcDbDictionary
280
     1
281
     1
  3
ACAD_XREC_ROUNDTRIP
360
644
  0
DICTIONARY
  5
647
330
34
100
AcDbDictionary
280
     1
281
     1
  3
ACAD_XREC_ROUNDTRIP
360
648
  0
DICTIONARY
  5
661
330
41
100
AcDbDictionary
280
     1
281
     1
  3
ACAD_XREC_ROUNDTRIP
360
662
  0
DICTIONARY
  5
64F
330
38
100
AcDbDictionary
280
     1
281
     1
  3
ACAD_XREC_ROUNDTRIP
360
650
  0
DICTIONARY
  5
633
330
2A
100
AcDbDictionary
280
     1
281
     1
  3
ACAD_XREC_ROUNDTRIP
360
634
  0
DICTIONARY
  5
635
330
2B
100
AcDbDictionary
280
     1
281
     1
  3
ACAD_XREC_ROUNDTRIP
360
636
  0
DICTIONARY
  5
637
330
2C
100
AcDbDictionary
280
     1
281
     1
  3
ACAD_XREC_ROUNDTRIP
360
638
  0
DICTIONARY
  5
639
330
2D
100
AcDbDictionary
280
     1
281
     1
  3
ACAD_XREC_ROUNDTRIP
360
63A
  0
DICTIONARY
  5
641
330
31
100
AcDbDictionary
280
     1
281
     1
  3
ACAD_XREC_ROUNDTRIP
360
642
  0
DICTIONARY
  5
65D
330
3F
100
AcDbDictionary
280
     1
281
     1
  3
ACAD_XREC_ROUNDTRIP
360
65E
  0
DICTIONARY
  5
64D
330
37
100
AcDbDictionary
280
     1
281
     1
  3
ACAD_XREC_ROUNDTRIP
360
64E
  0
DICTIONARY
  5
65F
330
40
100
AcDbDictionary
280
     1
281
     1
  3
ACAD_XREC_ROUNDTRIP
360
660
  0
DICTIONARY
  5
645
330
33
100
AcDbDictionary
280
     1
281
     1
  3
ACAD_XREC_ROUNDTRIP
360
646
  0
DICTIONARY
  5
65B
330
3E
100
AcDbDictionary
280
     1
281
     1
  3
ACAD_XREC_ROUNDTRIP
360
65C
  0
DICTIONARY
  5
659
330
3D
100
AcDbDictionary
280
     1
281
     1
  3
ACAD_XREC_ROUNDTRIP
360
65A
  0
DICTIONARY
  5
653
330
3A
100
AcDbDictionary
280
     1
281
     1
  3
ACAD_XREC_ROUNDTRIP
360
654
  0
DICTIONARY
  5
655
330
3B
100
AcDbDictionary
280
     1
281
     1
  3
ACAD_XREC_ROUNDTRIP
360
656
  0
DICTIONARY
  5
64B
330
36
100
AcDbDictionary
280
     1
281
     1
  3
ACAD_XREC_ROUNDTRIP
360
64C
  0
DICTIONARY
  5
63F
330
30
100
AcDbDictionary
280
     1
281
     1
  3
ACAD_XREC_ROUNDTRIP
360
640
  0
DICTIONARY
  5
657
330
3C
100
AcDbDictionary
280
     1
281
     1
  3
ACAD_XREC_ROUNDTRIP
360
658
  0
XRECORD
  5
62B
102
{ACAD_REACTORS
330
631
102
}
330
631
100
AcDbXrecord
280
     1
  1
AcDb_Thumbnail_Schema
102
{ATTRRECORD
341
62C
  2
AcDbDs::TreatedAsObjectData
280
     1
291
     1
102
ATTRRECORD}
102
{ATTRRECORD
341
62D
  2
AcDbDs::Legacy
280
     1
291
     1
102
ATTRRECORD}
  2
AcDbDs::ID
280
    10
 91
        8
102
{ATTRRECORD
341
62E
  2
AcDs:Indexable
280
     1
291
     1
102
ATTRRECORD}
102
{ATTRRECORD
341
62F
  2
AcDbDs::HandleAttribute
280
     7
282
     1
102
ATTRRECORD}
  2
Thumbnail_Data
280
    15
 91
        0
  0
XRECORD
  5
62C
102
{ACAD_REACTORS
330
631
102
}
330
631
100
AcDbXrecord
280
     1
  1
AcDbDs::TreatedAsObjectDataSchema
  2
AcDbDs::TreatedAsObjectData
280
     1
 91
        0
  0
XRECORD
  5
62D
102
{ACAD_REACTORS
330
631
102
}
330
631
100
AcDbXrecord
280
     1
  1
AcDbDs::LegacySchema
  2
AcDbDs::Legacy
280
     1
 91
        0
  0
XRECORD
  5
62E
102
{ACAD_REACTORS
330
631
102
}
330
631
100
AcDbXrecord
280
     1
  1
AcDbDs::IndexedPropertySchema
  2
AcDs:Indexable
280
     1
 91
        0
  0
XRECORD
  5
62F
102
{ACAD_REACTORS
330
631
102
}
330
631
100
AcDbXrecord
280
     1
  1
AcDbDs::HandleAttributeSchema
  2
AcDbDs::HandleAttribute
280
     7
 91
        1
284
     1
  0
XRECORD
  5
666
102
{ACAD_REACTORS
330
5EB
102
}
330
5EB
100
AcDbXrecord
280
     1
102
DISPLAYNAME
  1
Imperial24
102
FLAGS
 90
        0
  0
XRECORD
  5
668
102
{ACAD_REACTORS
330
5EF
102
}
330
5EF
100
AcDbXrecord
280
     1
102
DISPLAYNAME
  1
Metric50
102
FLAGS
 90
        0
  0
XRECORD
  5
1C
102
{ACAD_REACTORS
330
1A
102
}
330
1A
100
AcDbXrecord
280
     1
270
     1
271
     1
  0
XRECORD
  5
1B
102
{ACAD_REACTORS
330
1A
102
}
330
1A
100
AcDbXrecord
280
     1
270
     1
271
     1
  0
XRECORD
  5
1F
102
{ACAD_REACTORS
330
1A
102
}
330
1A
100
AcDbXrecord
280
     1
270
     1
271
     1
  0
XRECORD
  5
1E
102
{ACAD_REACTORS
330
1A
102
}
330
1A
100
AcDbXrecord
280
     1
270
     1
271
     1
  0
XRECORD
  5
20
102
{ACAD_REACTORS
330
1A
102
}
330
1A
100
AcDbXrecord
280
     1
270
     1
271
     1
  0
XRECORD
  5
1D
102
{ACAD_REACTORS
330
1A
102
}
330
1A
100
AcDbXrecord
280
     1
270
     1
271
     1
  0
XRECORD
  5
14
102
{ACAD_REACTORS
330
12
102
}
330
12
100
AcDbXrecord
280
     1
270
     1
271
     1
  0
XRECORD
  5
13
102
{ACAD_REACTORS
330
12
102
}
330
12
100
AcDbXrecord
280
     1
270
     1
271
     1
  0
XRECORD
  5
17
102
{ACAD_REACTORS
330
12
102
}
330
12
100
AcDbXrecord
280
     1
270
     1
271
     1
  0
XRECORD
  5
16
102
{ACAD_REACTORS
330
12
102
}
330
12
100
AcDbXrecord
280
     1
270
     1
271
     1
  0
XRECORD
  5
18
102
{ACAD_REACTORS
330
12
102
}
330
12
100
AcDbXrecord
280
     1
270
     1
271
     1
  0
XRECORD
  5
15
102
{ACAD_REACTORS
330
12
102
}
330
12
100
AcDbXrecord
280
     1
270
     1
271
     1
  0
XRECORD
  5
24
102
{ACAD_REACTORS
330
22
102
}
330
22
100
AcDbXrecord
280
     1
270
     1
271
     1
  0
XRECORD
  5
23
102
{ACAD_REACTORS
330
22
102
}
330
22
100
AcDbXrecord
280
     1
270
     1
271
     1
  0
XRECORD
  5
27
102
{ACAD_REACTORS
330
22
102
}
330
22
100
AcDbXrecord
280
     1
270
     1
271
     1
  0
XRECORD
  5
26
102
{ACAD_REACTORS
330
22
102
}
330
22
100
AcDbXrecord
280
     1
270
     1
271
     1
  0
XRECORD
  5
28
102
{ACAD_REACTORS
330
22
102
}
330
22
100
AcDbXrecord
280
     1
270
     1
271
     1
  0
XRECORD
  5
25
102
{ACAD_REACTORS
330
22
102
}
330
22
100
AcDbXrecord
280
     1
270
     1
271
     1
  0
XRECORD
  5
664
102
{ACAD_REACTORS
330
663
102
}
330
663
100
AcDbXrecord
280
     1
102
ACAD_ROUNDTRIP_2012_MLEADER_STYLE
298
     1
  0
XRECORD
  5
665
102
{ACAD_REACTORS
330
5E9
102
}
330
5E9
100
AcDbXrecord
280
     1
102
DISPLAYNAME
  1
Imperial24
102
FLAGS
 90
        0
  0
XRECORD
  5
667
102
{ACAD_REACTORS
330
5ED
102
}
330
5ED
100
AcDbXrecord
280
     1
102
DISPLAYNAME
  1
Metric50
102
FLAGS
 90
        0
  0
CELLSTYLEMAP
  5
629
102
{ACAD_REACTORS
330
1F8
102
}
330
1F8
100
AcDbCellStyleMap
 90
        3
300
CELLSTYLE
  1
TABLEFORMAT_BEGIN
 90
        5
170
     1
 91
        0
 92
    32768
 62
   257
 93
        1
300
CONTENTFORMAT
  1
CONTENTFORMAT_BEGIN
 90
        0
 91
        0
 92
      512
 93
        0
300

 40
0.0
140
1.0
 94
        5
 62
     0
340
55
144
6.0
309
CONTENTFORMAT_END
171
     1
301
MARGIN
  1
CELLMARGIN_BEGIN
 40
1.5
 40
1.5
 40
1.5
 40
1.5
 40
4.5
 40
4.5
309
CELLMARGIN_END
 94
        6
 95
        1
302
GRIDFORMAT
  1
GRIDFORMAT_BEGIN
 90
        0
 91
        1
 62
     0
 92
       -2
340
0
 93
        0
 40
1.125
309
GRIDFORMAT_END
 95
        2
302
GRIDFORMAT
  1
GRIDFORMAT_BEGIN
 90
        0
 91
        1
 62
     0
 92
       -2
340
0
 93
        0
 40
1.125
309
GRIDFORMAT_END
 95
        4
302
GRIDFORMAT
  1
GRIDFORMAT_BEGIN
 90
        0
 91
        1
 62
     0
 92
       -2
340
0
 93
        0
 40
1.125
309
GRIDFORMAT_END
 95
        8
302
GRIDFORMAT
  1
GRIDFORMAT_BEGIN
 90
        0
 91
        1
 62
     0
 92
       -2
340
0
 93
        0
 40
1.125
309
GRIDFORMAT_END
 95
       16
302
GRIDFORMAT
  1
GRIDFORMAT_BEGIN
 90
        0
 91
        1
 62
     0
 92
       -2
340
0
 93
        0
 40
1.125
309
GRIDFORMAT_END
 95
       32
302
GRIDFORMAT
  1
GRIDFORMAT_BEGIN
 90
        0
 91
        1
 62
     0
 92
       -2
340
0
 93
        0
 40
1.125
309
GRIDFORMAT_END
309
TABLEFORMAT_END
  1
CELLSTYLE_BEGIN
 90
        1
 91
        1
300
_TITLE
309
CELLSTYLE_END
300
CELLSTYLE
  1
TABLEFORMAT_BEGIN
 90
        5
170
     1
 91
        0
 92
        0
 62
   257
 93
        1
300
CONTENTFORMAT
  1
CONTENTFORMAT_BEGIN
 90
        0
 91
        0
 92
      512
 93
        0
300

 40
0.0
140
1.0
 94
        5
 62
     0
340
55
144
4.5
309
CONTENTFORMAT_END
171
     1
301
MARGIN
  1
CELLMARGIN_BEGIN
 40
1.5
 40
1.5
 40
1.5
 40
1.5
 40
4.5
 40
4.5
309
CELLMARGIN_END
 94
        6
 95
        1
302
GRIDFORMAT
  1
GRIDFORMAT_BEGIN
 90
        0
 91
        1
 62
     0
 92
       -2
340
0
 93
        0
 40
1.125
309
GRIDFORMAT_END
 95
        2
302
GRIDFORMAT
  1
GRIDFORMAT_BEGIN
 90
        0
 91
        1
 62
     0
 92
       -2
340
0
 93
        0
 40
1.125
309
GRIDFORMAT_END
 95
        4
302
GRIDFORMAT
  1
GRIDFORMAT_BEGIN
 90
        0
 91
        1
 62
     0
 92
       -2
340
0
 93
        0
 40
1.125
309
GRIDFORMAT_END
 95
        8
302
GRIDFORMAT
  1
GRIDFORMAT_BEGIN
 90
        0
 91
        1
 62
     0
 92
       -2
340
0
 93
        0
 40
1.125
309
GRIDFORMAT_END
 95
       16
302
GRIDFORMAT
  1
GRIDFORMAT_BEGIN
 90
        0
 91
        1
 62
     0
 92
       -2
340
0
 93
        0
 40
1.125
309
GRIDFORMAT_END
 95
       32
302
GRIDFORMAT
  1
GRIDFORMAT_BEGIN
 90
        0
 91
        1
 62
     0
 92
       -2
340
0
 93
        0
 40
1.125
309
GRIDFORMAT_END
309
TABLEFORMAT_END
  1
CELLSTYLE_BEGIN
 90
        2
 91
        1
300
_HEADER
309
CELLSTYLE_END
300
CELLSTYLE
  1
TABLEFORMAT_BEGIN
 90
        5
170
     1
 91
        0
 92
        0
 62
   257
 93
        1
300
CONTENTFORMAT
  1
CONTENTFORMAT_BEGIN
 90
        0
 91
        0
 92
      512
 93
        0
300

 40
0.0
140
1.0
 94
        2
 62
     0
340
55
144
4.5
309
CONTENTFORMAT_END
171
     1
301
MARGIN
  1
CELLMARGIN_BEGIN
 40
1.5
 40
1.5
 40
1.5
 40
1.5
 40
4.5
 40
4.5
309
CELLMARGIN_END
 94
        6
 95
        1
302
GRIDFORMAT
  1
GRIDFORMAT_BEGIN
 90
        0
 91
        1
 62
     0
 92
       -2
340
0
 93
        0
 40
1.125
309
GRIDFORMAT_END
 95
        2
302
GRIDFORMAT
  1
GRIDFORMAT_BEGIN
 90
        0
 91
        1
 62
     0
 92
       -2
340
0
 93
        0
 40
1.125
309
GRIDFORMAT_END
 95
        4
302
GRIDFORMAT
  1
GRIDFORMAT_BEGIN
 90
        0
 91
        1
 62
     0
 92
       -2
340
0
 93
        0
 40
1.125
309
GRIDFORMAT_END
 95
        8
302
GRIDFORMAT
  1
GRIDFORMAT_BEGIN
 90
        0
 91
        1
 62
     0
 92
       -2
340
0
 93
        0
 40
1.125
309
GRIDFORMAT_END
 95
       16
302
GRIDFORMAT
  1
GRIDFORMAT_BEGIN
 90
        0
 91
        1
 62
     0
 92
       -2
340
0
 93
        0
 40
1.125
309
GRIDFORMAT_END
 95
       32
302
GRIDFORMAT
  1
GRIDFORMAT_BEGIN
 90
        0
 91
        1
 62
     0
 92
       -2
340
0
 93
        0
 40
1.125
309
GRIDFORMAT_END
309
TABLEFORMAT_END
  1
CELLSTYLE_BEGIN
 90
        3
 91
        2
300
_DATA
309
CELLSTYLE_END
  0
XRECORD
  5
63E
102
{ACAD_REACTORS
330
63D
102
}
330
63D
100
AcDbXrecord
280
     1
102
RTVSPost2010Prop28
280
     1
102
RTVSPost2010PropOp28
 70
     1
102
RTVSPost2010Prop29
280
     1
102
RTVSPost2010PropOp29
 70
     1
102
RTVSPost2010Prop30
280
     0
102
RTVSPost2010PropOp30
 70
     1
102
RTVSPost2010Prop31
280
     0
102
RTVSPost2010PropOp31
 70
     1
102
RTVSPost2010Prop32
280
     0
102
RTVSPost2010PropOp32
 70
     1
102
RTVSPost2010Prop33
280
     0
102
RTVSPost2010PropOp33
 70
     1
102
RTVSPost2010Prop34
280
     0
102
RTVSPost2010PropOp34
 70
     1
102
RTVSPost2010Prop35
280
     0
102
RTVSPost2010PropOp35
 70
     1
102
RTVSPost2010Prop36
280
     0
102
RTVSPost2010PropOp36
 70
     1
102
RTVSPost2010Prop37
 90
       50
102
RTVSPost2010PropOp37
 70
     1
102
RTVSPost2010Prop38
140
0.0
102
RTVSPost2010PropOp38
 70
     1
102
RTVSPost2010Prop39
140
1.0
102
RTVSPost2010PropOp39
 70
     1
102
RTVSPost2010Prop40
 90
        0
102
RTVSPost2010PropOp40
 70
     1
102
RTVSPost2010Prop41ColorIndex
 90
       18
102
RTVSPost2010Prop41ColorRGB
 90
        0
102
RTVSPost2010PropOp41
 70
     1
102
RTVSPost2010Prop42
 90
       50
102
RTVSPost2010PropOp42
 70
     1
102
RTVSPost2010Prop43
 90
        3
102
RTVSPost2010PropOp43
 70
     1
102
RTVSPost2010Prop44ColorIndex
 90
        5
102
RTVSPost2010Prop44ColorRGB
 90
      255
102
RTVSPost2010PropOp44
 70
     1
102
RTVSPost2010Prop45
280
     0
102
RTVSPost2010PropOp45
 70
     1
102
RTVSPost2010Prop46
 90
       50
102
RTVSPost2010PropOp46
 70
     1
102
RTVSPost2010Prop47
 90
       50
102
RTVSPost2010PropOp47
 70
     1
102
RTVSPost2010Prop48
 90
       50
102
RTVSPost2010PropOp48
 70
     1
102
RTVSPost2010Prop49
280
     0
102
RTVSPost2010PropOp49
 70
     1
102
RTVSPost2010Prop50
 90
       50
102
RTVSPost2010PropOp50
 70
     1
102
RTVSPost2010Prop51ColorIndex
 90
      256
102
RTVSPost2010Prop51ColorRGB
 90
-16777216
102
RTVSPost2010PropOp51
 70
     0
102
RTVSPost2010Prop52
140
1.0
102
RTVSPost2010PropOp52
 70
     0
102
RTVSPost2010Prop53
 90
        2
102
RTVSPost2010PropOp53
 70
     1
102
RTVSPost2010Prop54
  1
strokes_ogs.tif
102
RTVSPost2010PropOp54
 70
     1
102
RTVSPost2010Prop55
280
     0
102
RTVSPost2010PropOp55
 70
     1
102
RTVSPost2010Prop56
140
1.0
102
RTVSPost2010PropOp56
 70
     1
102
RTVSPost2010Prop57
140
1.0
102
RTVSPost2010PropOp57
 70
     1
  0
XRECORD
  5
63C
102
{ACAD_REACTORS
330
63B
102
}
330
63B
100
AcDbXrecord
280
     1
102
RTVSPost2010Prop28
280
     0
102
RTVSPost2010PropOp28
 70
     1
102
RTVSPost2010Prop29
280
     1
102
RTVSPost2010PropOp29
 70
     1
102
RTVSPost2010Prop30
280
     1
102
RTVSPost2010PropOp30
 70
     1
102
RTVSPost2010Prop31
280
     0
102
RTVSPost2010PropOp31
 70
     1
102
RTVSPost2010Prop32
280
     0
102
RTVSPost2010PropOp32
 70
     1
102
RTVSPost2010Prop33
280
     0
102
RTVSPost2010PropOp33
 70
     1
102
RTVSPost2010Prop34
280
     0
102
RTVSPost2010PropOp34
 70
     1
102
RTVSPost2010Prop35
280
     0
102
RTVSPost2010PropOp35
 70
     1
102
RTVSPost2010Prop36
280
     0
102
RTVSPost2010PropOp36
 70
     1
102
RTVSPost2010Prop37
 90
       50
102
RTVSPost2010PropOp37
 70
     1
102
RTVSPost2010Prop38
140
0.0
102
RTVSPost2010PropOp38
 70
     1
102
RTVSPost2010Prop39
140
1.0
102
RTVSPost2010PropOp39
 70
     1
102
RTVSPost2010Prop40
 90
        0
102
RTVSPost2010PropOp40
 70
     1
102
RTVSPost2010Prop41ColorIndex
 90
       18
102
RTVSPost2010Prop41ColorRGB
 90
        0
102
RTVSPost2010PropOp41
 70
     1
102
RTVSPost2010Prop42
 90
       50
102
RTVSPost2010PropOp42
 70
     1
102
RTVSPost2010Prop43
 90
        3
102
RTVSPost2010PropOp43
 70
     1
102
RTVSPost2010Prop44ColorIndex
 90
        5
102
RTVSPost2010Prop44ColorRGB
 90
      255
102
RTVSPost2010PropOp44
 70
     1
102
RTVSPost2010Prop45
280
     0
102
RTVSPost2010PropOp45
 70
     1
102
RTVSPost2010Prop46
 90
       50
102
RTVSPost2010PropOp46
 70
     1
102
RTVSPost2010Prop47
 90
       50
102
RTVSPost2010PropOp47
 70
     1
102
RTVSPost2010Prop48
 90
       50
102
RTVSPost2010PropOp48
 70
     1
102
RTVSPost2010Prop49
280
     0
102
RTVSPost2010PropOp49
 70
     1
102
RTVSPost2010Prop50
 90
       50
102
RTVSPost2010PropOp50
 70
     1
102
RTVSPost2010Prop51ColorIndex
 90
      256
102
RTVSPost2010Prop51ColorRGB
 90
-16777216
102
RTVSPost2010PropOp51
 70
     0
102
RTVSPost2010Prop52
140
1.0
102
RTVSPost2010PropOp52
 70
     0
102
RTVSPost2010Prop53
 90
        2
102
RTVSPost2010PropOp53
 70
     1
102
RTVSPost2010Prop54
  1
strokes_ogs.tif
102
RTVSPost2010PropOp54
 70
     1
102
RTVSPost2010Prop55
280
     0
102
RTVSPost2010PropOp55
 70
     1
102
RTVSPost2010Prop56
140
1.0
102
RTVSPost2010PropOp56
 70
     1
102
RTVSPost2010Prop57
140
1.0
102
RTVSPost2010PropOp57
 70
     1
  0
XRECORD
  5
64A
102
{ACAD_REACTORS
330
649
102
}
330
649
100
AcDbXrecord
280
     1
102
RTVSPost2010Prop28
280
     0
102
RTVSPost2010PropOp28
 70
     1
102
RTVSPost2010Prop29
280
     1
102
RTVSPost2010PropOp29
 70
     1
102
RTVSPost2010Prop30
280
     1
102
RTVSPost2010PropOp30
 70
     1
102
RTVSPost2010Prop31
280
     0
102
RTVSPost2010PropOp31
 70
     1
102
RTVSPost2010Prop32
280
     0
102
RTVSPost2010PropOp32
 70
     1
102
RTVSPost2010Prop33
280
     0
102
RTVSPost2010PropOp33
 70
     1
102
RTVSPost2010Prop34
280
     0
102
RTVSPost2010PropOp34
 70
     1
102
RTVSPost2010Prop35
280
     0
102
RTVSPost2010PropOp35
 70
     1
102
RTVSPost2010Prop36
280
     0
102
RTVSPost2010PropOp36
 70
     1
102
RTVSPost2010Prop37
 90
       50
102
RTVSPost2010PropOp37
 70
     1
102
RTVSPost2010Prop38
140
0.0
102
RTVSPost2010PropOp38
 70
     1
102
RTVSPost2010Prop39
140
1.0
102
RTVSPost2010PropOp39
 70
     1
102
RTVSPost2010Prop40
 90
        0
102
RTVSPost2010PropOp40
 70
     1
102
RTVSPost2010Prop41ColorIndex
 90
       18
102
RTVSPost2010Prop41ColorRGB
 90
        0
102
RTVSPost2010PropOp41
 70
     1
102
RTVSPost2010Prop42
 90
       50
102
RTVSPost2010PropOp42
 70
     1
102
RTVSPost2010Prop43
 90
        3
102
RTVSPost2010PropOp43
 70
     1
102
RTVSPost2010Prop44ColorIndex
 90
        5
102
RTVSPost2010Prop44ColorRGB
 90
      255
102
RTVSPost2010PropOp44
 70
     1
102
RTVSPost2010Prop45
280
     0
102
RTVSPost2010PropOp45
 70
     1
102
RTVSPost2010Prop46
 90
       50
102
RTVSPost2010PropOp46
 70
     1
102
RTVSPost2010Prop47
 90
       50
102
RTVSPost2010PropOp47
 70
     1
102
RTVSPost2010Prop48
 90
       50
102
RTVSPost2010PropOp48
 70
     1
102
RTVSPost2010Prop49
280
     0
102
RTVSPost2010PropOp49
 70
     1
102
RTVSPost2010Prop50
 90
       50
102
RTVSPost2010PropOp50
 70
     1
102
RTVSPost2010Prop51ColorIndex
 90
      256
102
RTVSPost2010Prop51ColorRGB
 90
-16777216
102
RTVSPost2010PropOp51
 70
     0
102
RTVSPost2010Prop52
140
1.0
102
RTVSPost2010PropOp52
 70
     0
102
RTVSPost2010Prop53
 90
        2
102
RTVSPost2010PropOp53
 70
     1
102
RTVSPost2010Prop54
  1
strokes_ogs.tif
102
RTVSPost2010PropOp54
 70
     1
102
RTVSPost2010Prop55
280
     0
102
RTVSPost2010PropOp55
 70
     1
102
RTVSPost2010Prop56
140
1.0
102
RTVSPost2010PropOp56
 70
     1
102
RTVSPost2010Prop57
140
1.0
102
RTVSPost2010PropOp57
 70
     1
  0
XRECORD
  5
652
102
{ACAD_REACTORS
330
651
102
}
330
651
100
AcDbXrecord
280
     1
102
RTVSPost2010Prop28
280
     0
102
RTVSPost2010PropOp28
 70
     1
102
RTVSPost2010Prop29
280
     1
102
RTVSPost2010PropOp29
 70
     1
102
RTVSPost2010Prop30
280
     1
102
RTVSPost2010PropOp30
 70
     1
102
RTVSPost2010Prop31
280
     0
102
RTVSPost2010PropOp31
 70
     1
102
RTVSPost2010Prop32
280
     0
102
RTVSPost2010PropOp32
 70
     1
102
RTVSPost2010Prop33
280
     0
102
RTVSPost2010PropOp33
 70
     1
102
RTVSPost2010Prop34
280
     0
102
RTVSPost2010PropOp34
 70
     1
102
RTVSPost2010Prop35
280
     0
102
RTVSPost2010PropOp35
 70
     1
102
RTVSPost2010Prop36
280
     0
102
RTVSPost2010PropOp36
 70
     1
102
RTVSPost2010Prop37
 90
       50
102
RTVSPost2010PropOp37
 70
     1
102
RTVSPost2010Prop38
140
0.0
102
RTVSPost2010PropOp38
 70
     1
102
RTVSPost2010Prop39
140
1.0
102
RTVSPost2010PropOp39
 70
     1
102
RTVSPost2010Prop40
 90
        0
102
RTVSPost2010PropOp40
 70
     1
102
RTVSPost2010Prop41ColorIndex
 90
       18
102
RTVSPost2010Prop41ColorRGB
 90
        0
102
RTVSPost2010PropOp41
 70
     1
102
RTVSPost2010Prop42
 90
       50
102
RTVSPost2010PropOp42
 70
     1
102
RTVSPost2010Prop43
 90
        3
102
RTVSPost2010PropOp43
 70
     1
102
RTVSPost2010Prop44ColorIndex
 90
        5
102
RTVSPost2010Prop44ColorRGB
 90
      255
102
RTVSPost2010PropOp44
 70
     1
102
RTVSPost2010Prop45
280
     0
102
RTVSPost2010PropOp45
 70
     1
102
RTVSPost2010Prop46
 90
       50
102
RTVSPost2010PropOp46
 70
     1
102
RTVSPost2010Prop47
 90
       50
102
RTVSPost2010PropOp47
 70
     1
102
RTVSPost2010Prop48
 90
       50
102
RTVSPost2010PropOp48
 70
     1
102
RTVSPost2010Prop49
280
     0
102
RTVSPost2010PropOp49
 70
     1
102
RTVSPost2010Prop50
 90
       50
102
RTVSPost2010PropOp50
 70
     1
102
RTVSPost2010Prop51ColorIndex
 90
      256
102
RTVSPost2010Prop51ColorRGB
 90
-16777216
102
RTVSPost2010PropOp51
 70
     0
102
RTVSPost2010Prop52
140
1.0
102
RTVSPost2010PropOp52
 70
     0
102
RTVSPost2010Prop53
 90
        2
102
RTVSPost2010PropOp53
 70
     1
102
RTVSPost2010Prop54
  1
strokes_ogs.tif
102
RTVSPost2010PropOp54
 70
     1
102
RTVSPost2010Prop55
280
     0
102
RTVSPost2010PropOp55
 70
     1
102
RTVSPost2010Prop56
140
1.0
102
RTVSPost2010PropOp56
 70
     1
102
RTVSPost2010Prop57
140
1.0
102
RTVSPost2010PropOp57
 70
     1
  0
XRECORD
  5
644
102
{ACAD_REACTORS
330
643
102
}
330
643
100
AcDbXrecord
280
     1
102
RTVSPost2010Prop28
280
     0
102
RTVSPost2010PropOp28
 70
     1
102
RTVSPost2010Prop29
280
     1
102
RTVSPost2010PropOp29
 70
     1
102
RTVSPost2010Prop30
280
     1
102
RTVSPost2010PropOp30
 70
     1
102
RTVSPost2010Prop31
280
     0
102
RTVSPost2010PropOp31
 70
     1
102
RTVSPost2010Prop32
280
     0
102
RTVSPost2010PropOp32
 70
     1
102
RTVSPost2010Prop33
280
     0
102
RTVSPost2010PropOp33
 70
     1
102
RTVSPost2010Prop34
280
     0
102
RTVSPost2010PropOp34
 70
     1
102
RTVSPost2010Prop35
280
     0
102
RTVSPost2010PropOp35
 70
     1
102
RTVSPost2010Prop36
280
     0
102
RTVSPost2010PropOp36
 70
     1
102
RTVSPost2010Prop37
 90
       50
102
RTVSPost2010PropOp37
 70
     1
102
RTVSPost2010Prop38
140
0.0
102
RTVSPost2010PropOp38
 70
     1
102
RTVSPost2010Prop39
140
1.0
102
RTVSPost2010PropOp39
 70
     1
102
RTVSPost2010Prop40
 90
        0
102
RTVSPost2010PropOp40
 70
     1
102
RTVSPost2010Prop41ColorIndex
 90
       18
102
RTVSPost2010Prop41ColorRGB
 90
        0
102
RTVSPost2010PropOp41
 70
     1
102
RTVSPost2010Prop42
 90
       50
102
RTVSPost2010PropOp42
 70
     1
102
RTVSPost2010Prop43
 90
        3
102
RTVSPost2010PropOp43
 70
     1
102
RTVSPost2010Prop44ColorIndex
 90
        5
102
RTVSPost2010Prop44ColorRGB
 90
      255
102
RTVSPost2010PropOp44
 70
     1
102
RTVSPost2010Prop45
280
     0
102
RTVSPost2010PropOp45
 70
     1
102
RTVSPost2010Prop46
 90
       50
102
RTVSPost2010PropOp46
 70
     1
102
RTVSPost2010Prop47
 90
       50
102
RTVSPost2010PropOp47
 70
     1
102
RTVSPost2010Prop48
 90
       50
102
RTVSPost2010PropOp48
 70
     1
102
RTVSPost2010Prop49
280
     0
102
RTVSPost2010PropOp49
 70
     1
102
RTVSPost2010Prop50
 90
       50
102
RTVSPost2010PropOp50
 70
     1
102
RTVSPost2010Prop51ColorIndex
 90
      256
102
RTVSPost2010Prop51ColorRGB
 90
-16777216
102
RTVSPost2010PropOp51
 70
     0
102
RTVSPost2010Prop52
140
1.0
102
RTVSPost2010PropOp52
 70
     0
102
RTVSPost2010Prop53
 90
        2
102
RTVSPost2010PropOp53
 70
     1
102
RTVSPost2010Prop54
  1
strokes_ogs.tif
102
RTVSPost2010PropOp54
 70
     1
102
RTVSPost2010Prop55
280
     0
102
RTVSPost2010PropOp55
 70
     1
102
RTVSPost2010Prop56
140
1.0
102
RTVSPost2010PropOp56
 70
     1
102
RTVSPost2010Prop57
140
1.0
102
RTVSPost2010PropOp57
 70
     1
  0
XRECORD
  5
648
102
{ACAD_REACTORS
330
647
102
}
330
647
100
AcDbXrecord
280
     1
102
RTVSPost2010Prop28
280
     0
102
RTVSPost2010PropOp28
 70
     1
102
RTVSPost2010Prop29
280
     1
102
RTVSPost2010PropOp29
 70
     1
102
RTVSPost2010Prop30
280
     1
102
RTVSPost2010PropOp30
 70
     1
102
RTVSPost2010Prop31
280
     0
102
RTVSPost2010PropOp31
 70
     1
102
RTVSPost2010Prop32
280
     0
102
RTVSPost2010PropOp32
 70
     1
102
RTVSPost2010Prop33
280
     0
102
RTVSPost2010PropOp33
 70
     1
102
RTVSPost2010Prop34
280
     0
102
RTVSPost2010PropOp34
 70
     1
102
RTVSPost2010Prop35
280
     0
102
RTVSPost2010PropOp35
 70
     1
102
RTVSPost2010Prop36
280
     0
102
RTVSPost2010PropOp36
 70
     1
102
RTVSPost2010Prop37
 90
       50
102
RTVSPost2010PropOp37
 70
     1
102
RTVSPost2010Prop38
140
0.0
102
RTVSPost2010PropOp38
 70
     1
102
RTVSPost2010Prop39
140
1.0
102
RTVSPost2010PropOp39
 70
     1
102
RTVSPost2010Prop40
 90
        0
102
RTVSPost2010PropOp40
 70
     1
102
RTVSPost2010Prop41ColorIndex
 90
       18
102
RTVSPost2010Prop41ColorRGB
 90
        0
102
RTVSPost2010PropOp41
 70
     1
102
RTVSPost2010Prop42
 90
       50
102
RTVSPost2010PropOp42
 70
     1
102
RTVSPost2010Prop43
 90
        3
102
RTVSPost2010PropOp43
 70
     1
102
RTVSPost2010Prop44ColorIndex
 90
        5
102
RTVSPost2010Prop44ColorRGB
 90
      255
102
RTVSPost2010PropOp44
 70
     1
102
RTVSPost2010Prop45
280
     0
102
RTVSPost2010PropOp45
 70
     1
102
RTVSPost2010Prop46
 90
       50
102
RTVSPost2010PropOp46
 70
     1
102
RTVSPost2010Prop47
 90
       50
102
RTVSPost2010PropOp47
 70
     1
102
RTVSPost2010Prop48
 90
       50
102
RTVSPost2010PropOp48
 70
     1
102
RTVSPost2010Prop49
280
     0
102
RTVSPost2010PropOp49
 70
     1
102
RTVSPost2010Prop50
 90
       50
102
RTVSPost2010PropOp50
 70
     1
102
RTVSPost2010Prop51ColorIndex
 90
      256
102
RTVSPost2010Prop51ColorRGB
 90
-16777216
102
RTVSPost2010PropOp51
 70
     0
102
RTVSPost2010Prop52
140
1.0
102
RTVSPost2010PropOp52
 70
     0
102
RTVSPost2010Prop53
 90
        2
102
RTVSPost2010PropOp53
 70
     1
102
RTVSPost2010Prop54
  1
strokes_ogs.tif
102
RTVSPost2010PropOp54
 70
     1
102
RTVSPost2010Prop55
280
     0
102
RTVSPost2010PropOp55
 70
     1
102
RTVSPost2010Prop56
140
1.0
102
RTVSPost2010PropOp56
 70
     1
102
RTVSPost2010Prop57
140
1.0
102
RTVSPost2010PropOp57
 70
     1
  0
XRECORD
  5
662
102
{ACAD_REACTORS
330
661
102
}
330
661
100
AcDbXrecord
280
     1
102
RTVSPost2010Prop28
280
     0
102
RTVSPost2010PropOp28
 70
     0
102
RTVSPost2010Prop29
280
     1
102
RTVSPost2010PropOp29
 70
     0
102
RTVSPost2010Prop30
280
     1
102
RTVSPost2010PropOp30
 70
     0
102
RTVSPost2010Prop31
280
     0
102
RTVSPost2010PropOp31
 70
     0
102
RTVSPost2010Prop32
280
     0
102
RTVSPost2010PropOp32
 70
     0
102
RTVSPost2010Prop33
280
     0
102
RTVSPost2010PropOp33
 70
     0
102
RTVSPost2010Prop34
280
     0
102
RTVSPost2010PropOp34
 70
     0
102
RTVSPost2010Prop35
280
     0
102
RTVSPost2010PropOp35
 70
     0
102
RTVSPost2010Prop36
280
     0
102
RTVSPost2010PropOp36
 70
     0
102
RTVSPost2010Prop37
 90
       50
102
RTVSPost2010PropOp37
 70
     0
102
RTVSPost2010Prop38
140
0.0
102
RTVSPost2010PropOp38
 70
     0
102
RTVSPost2010Prop39
140
1.0
102
RTVSPost2010PropOp39
 70
     0
102
RTVSPost2010Prop40
 90
        0
102
RTVSPost2010PropOp40
 70
     0
102
RTVSPost2010Prop41ColorIndex
 90
       18
102
RTVSPost2010Prop41ColorRGB
 90
        0
102
RTVSPost2010PropOp41
 70
     0
102
RTVSPost2010Prop42
 90
       50
102
RTVSPost2010PropOp42
 70
     0
102
RTVSPost2010Prop43
 90
        3
102
RTVSPost2010PropOp43
 70
     0
102
RTVSPost2010Prop44ColorIndex
 90
        5
102
RTVSPost2010Prop44ColorRGB
 90
      255
102
RTVSPost2010PropOp44
 70
     0
102
RTVSPost2010Prop45
280
     0
102
RTVSPost2010PropOp45
 70
     0
102
RTVSPost2010Prop46
 90
       50
102
RTVSPost2010PropOp46
 70
     0
102
RTVSPost2010Prop47
 90
       50
102
RTVSPost2010PropOp47
 70
     0
102
RTVSPost2010Prop48
 90
       50
102
RTVSPost2010PropOp48
 70
     0
102
RTVSPost2010Prop49
280
     0
102
RTVSPost2010PropOp49
 70
     0
102
RTVSPost2010Prop50
 90
       50
102
RTVSPost2010PropOp50
 70
     0
102
RTVSPost2010Prop51ColorIndex
 90
      256
102
RTVSPost2010Prop51ColorRGB
 90
-16777216
102
RTVSPost2010PropOp51
 70
     0
102
RTVSPost2010Prop52
140
1.0
102
RTVSPost2010PropOp52
 70
     0
102
RTVSPost2010Prop53
 90
        2
102
RTVSPost2010PropOp53
 70
     0
102
RTVSPost2010Prop54
  1
strokes_ogs.tif
102
RTVSPost2010PropOp54
 70
     0
102
RTVSPost2010Prop55
280
     0
102
RTVSPost2010PropOp55
 70
     0
102
RTVSPost2010Prop56
140
1.0
102
RTVSPost2010PropOp56
 70
     0
102
RTVSPost2010Prop57
140
1.0
102
RTVSPost2010PropOp57
 70
     0
  0
XRECORD
  5
650
102
{ACAD_REACTORS
330
64F
102
}
330
64F
100
AcDbXrecord
280
     1
102
RTVSPost2010Prop28
280
     0
102
RTVSPost2010PropOp28
 70
     1
102
RTVSPost2010Prop29
280
     1
102
RTVSPost2010PropOp29
 70
     1
102
RTVSPost2010Prop30
280
     1
102
RTVSPost2010PropOp30
 70
     1
102
RTVSPost2010Prop31
280
     0
102
RTVSPost2010PropOp31
 70
     1
102
RTVSPost2010Prop32
280
     0
102
RTVSPost2010PropOp32
 70
     1
102
RTVSPost2010Prop33
280
     0
102
RTVSPost2010PropOp33
 70
     1
102
RTVSPost2010Prop34
280
     0
102
RTVSPost2010PropOp34
 70
     1
102
RTVSPost2010Prop35
280
     0
102
RTVSPost2010PropOp35
 70
     1
102
RTVSPost2010Prop36
280
     0
102
RTVSPost2010PropOp36
 70
     1
102
RTVSPost2010Prop37
 90
       50
102
RTVSPost2010PropOp37
 70
     1
102
RTVSPost2010Prop38
140
0.0
102
RTVSPost2010PropOp38
 70
     1
102
RTVSPost2010Prop39
140
1.0
102
RTVSPost2010PropOp39
 70
     1
102
RTVSPost2010Prop40
 90
        0
102
RTVSPost2010PropOp40
 70
     1
102
RTVSPost2010Prop41ColorIndex
 90
       18
102
RTVSPost2010Prop41ColorRGB
 90
        0
102
RTVSPost2010PropOp41
 70
     1
102
RTVSPost2010Prop42
 90
       50
102
RTVSPost2010PropOp42
 70
     1
102
RTVSPost2010Prop43
 90
        3
102
RTVSPost2010PropOp43
 70
     1
102
RTVSPost2010Prop44ColorIndex
 90
        5
102
RTVSPost2010Prop44ColorRGB
 90
      255
102
RTVSPost2010PropOp44
 70
     1
102
RTVSPost2010Prop45
280
     0
102
RTVSPost2010PropOp45
 70
     1
102
RTVSPost2010Prop46
 90
       50
102
RTVSPost2010PropOp46
 70
     1
102
RTVSPost2010Prop47
 90
       50
102
RTVSPost2010PropOp47
 70
     1
102
RTVSPost2010Prop48
 90
       50
102
RTVSPost2010PropOp48
 70
     1
102
RTVSPost2010Prop49
280
     0
102
RTVSPost2010PropOp49
 70
     1
102
RTVSPost2010Prop50
 90
       50
102
RTVSPost2010PropOp50
 70
     1
102
RTVSPost2010Prop51ColorIndex
 90
      256
102
RTVSPost2010Prop51ColorRGB
 90
-16777216
102
RTVSPost2010PropOp51
 70
     0
102
RTVSPost2010Prop52
140
1.0
102
RTVSPost2010PropOp52
 70
     0
102
RTVSPost2010Prop53
 90
        2
102
RTVSPost2010PropOp53
 70
     1
102
RTVSPost2010Prop54
  1
strokes_ogs.tif
102
RTVSPost2010PropOp54
 70
     1
102
RTVSPost2010Prop55
280
     0
102
RTVSPost2010PropOp55
 70
     1
102
RTVSPost2010Prop56
140
1.0
102
RTVSPost2010PropOp56
 70
     1
102
RTVSPost2010Prop57
140
1.0
102
RTVSPost2010PropOp57
 70
     1
  0
XRECORD
  5
634
102
{ACAD_REACTORS
330
633
102
}
330
633
100
AcDbXrecord
280
     1
102
RTVSPost2010Prop28
280
     0
102
RTVSPost2010PropOp28
 70
     1
102
RTVSPost2010Prop29
280
     1
102
RTVSPost2010PropOp29
 70
     1
102
RTVSPost2010Prop30
280
     1
102
RTVSPost2010PropOp30
 70
     1
102
RTVSPost2010Prop31
280
     0
102
RTVSPost2010PropOp31
 70
     1
102
RTVSPost2010Prop32
280
     0
102
RTVSPost2010PropOp32
 70
     1
102
RTVSPost2010Prop33
280
     0
102
RTVSPost2010PropOp33
 70
     1
102
RTVSPost2010Prop34
280
     0
102
RTVSPost2010PropOp34
 70
     1
102
RTVSPost2010Prop35
280
     0
102
RTVSPost2010PropOp35
 70
     1
102
RTVSPost2010Prop36
280
     0
102
RTVSPost2010PropOp36
 70
     1
102
RTVSPost2010Prop37
 90
       50
102
RTVSPost2010PropOp37
 70
     1
102
RTVSPost2010Prop38
140
0.0
102
RTVSPost2010PropOp38
 70
     1
102
RTVSPost2010Prop39
140
1.0
102
RTVSPost2010PropOp39
 70
     1
102
RTVSPost2010Prop40
 90
        0
102
RTVSPost2010PropOp40
 70
     1
102
RTVSPost2010Prop41ColorIndex
 90
       18
102
RTVSPost2010Prop41ColorRGB
 90
        0
102
RTVSPost2010PropOp41
 70
     1
102
RTVSPost2010Prop42
 90
       50
102
RTVSPost2010PropOp42
 70
     1
102
RTVSPost2010Prop43
 90
        3
102
RTVSPost2010PropOp43
 70
     1
102
RTVSPost2010Prop44ColorIndex
 90
        5
102
RTVSPost2010Prop44ColorRGB
 90
      255
102
RTVSPost2010PropOp44
 70
     1
102
RTVSPost2010Prop45
280
     0
102
RTVSPost2010PropOp45
 70
     1
102
RTVSPost2010Prop46
 90
       50
102
RTVSPost2010PropOp46
 70
     1
102
RTVSPost2010Prop47
 90
       50
102
RTVSPost2010PropOp47
 70
     1
102
RTVSPost2010Prop48
 90
       50
102
RTVSPost2010PropOp48
 70
     1
102
RTVSPost2010Prop49
280
     0
102
RTVSPost2010PropOp49
 70
     1
102
RTVSPost2010Prop50
 90
       50
102
RTVSPost2010PropOp50
 70
     1
102
RTVSPost2010Prop51ColorIndex
 90
      256
102
RTVSPost2010Prop51ColorRGB
 90
-16777216
102
RTVSPost2010PropOp51
 70
     0
102
RTVSPost2010Prop52
140
1.0
102
RTVSPost2010PropOp52
 70
     0
102
RTVSPost2010Prop53
 90
        2
102
RTVSPost2010PropOp53
 70
     1
102
RTVSPost2010Prop54
  1
strokes_ogs.tif
102
RTVSPost2010PropOp54
 70
     1
102
RTVSPost2010Prop55
280
     0
102
RTVSPost2010PropOp55
 70
     1
102
RTVSPost2010Prop56
140
1.0
102
RTVSPost2010PropOp56
 70
     1
102
RTVSPost2010Prop57
140
1.0
102
RTVSPost2010PropOp57
 70
     1
  0
XRECORD
  5
636
102
{ACAD_REACTORS
330
635
102
}
330
635
100
AcDbXrecord
280
     1
102
RTVSPost2010Prop28
280
     0
102
RTVSPost2010PropOp28
 70
     1
102
RTVSPost2010Prop29
280
     1
102
RTVSPost2010PropOp29
 70
     1
102
RTVSPost2010Prop30
280
     1
102
RTVSPost2010PropOp30
 70
     1
102
RTVSPost2010Prop31
280
     0
102
RTVSPost2010PropOp31
 70
     1
102
RTVSPost2010Prop32
280
     0
102
RTVSPost2010PropOp32
 70
     1
102
RTVSPost2010Prop33
280
     0
102
RTVSPost2010PropOp33
 70
     1
102
RTVSPost2010Prop34
280
     0
102
RTVSPost2010PropOp34
 70
     1
102
RTVSPost2010Prop35
280
     0
102
RTVSPost2010PropOp35
 70
     1
102
RTVSPost2010Prop36
280
     0
102
RTVSPost2010PropOp36
 70
     1
102
RTVSPost2010Prop37
 90
       50
102
RTVSPost2010PropOp37
 70
     1
102
RTVSPost2010Prop38
140
0.0
102
RTVSPost2010PropOp38
 70
     1
102
RTVSPost2010Prop39
140
1.0
102
RTVSPost2010PropOp39
 70
     1
102
RTVSPost2010Prop40
 90
        0
102
RTVSPost2010PropOp40
 70
     1
102
RTVSPost2010Prop41ColorIndex
 90
       18
102
RTVSPost2010Prop41ColorRGB
 90
        0
102
RTVSPost2010PropOp41
 70
     1
102
RTVSPost2010Prop42
 90
       50
102
RTVSPost2010PropOp42
 70
     1
102
RTVSPost2010Prop43
 90
        3
102
RTVSPost2010PropOp43
 70
     1
102
RTVSPost2010Prop44ColorIndex
 90
        5
102
RTVSPost2010Prop44ColorRGB
 90
      255
102
RTVSPost2010PropOp44
 70
     1
102
RTVSPost2010Prop45
280
     0
102
RTVSPost2010PropOp45
 70
     1
102
RTVSPost2010Prop46
 90
       50
102
RTVSPost2010PropOp46
 70
     1
102
RTVSPost2010Prop47
 90
       50
102
RTVSPost2010PropOp47
 70
     1
102
RTVSPost2010Prop48
 90
       50
102
RTVSPost2010PropOp48
 70
     1
102
RTVSPost2010Prop49
280
     0
102
RTVSPost2010PropOp49
 70
     1
102
RTVSPost2010Prop50
 90
       50
102
RTVSPost2010PropOp50
 70
     1
102
RTVSPost2010Prop51ColorIndex
 90
      256
102
RTVSPost2010Prop51ColorRGB
 90
-16777216
102
RTVSPost2010PropOp51
 70
     0
102
RTVSPost2010Prop52
140
1.0
102
RTVSPost2010PropOp52
 70
     0
102
RTVSPost2010Prop53
 90
        2
102
RTVSPost2010PropOp53
 70
     1
102
RTVSPost2010Prop54
  1
strokes_ogs.tif
102
RTVSPost2010PropOp54
 70
     1
102
RTVSPost2010Prop55
280
     0
102
RTVSPost2010PropOp55
 70
     1
102
RTVSPost2010Prop56
140
1.0
102
RTVSPost2010PropOp56
 70
     1
102
RTVSPost2010Prop57
140
1.0
102
RTVSPost2010PropOp57
 70
     1
  0
XRECORD
  5
638
102
{ACAD_REACTORS
330
637
102
}
330
637
100
AcDbXrecord
280
     1
102
RTVSPost2010Prop28
280
     0
102
RTVSPost2010PropOp28
 70
     1
102
RTVSPost2010Prop29
280
     1
102
RTVSPost2010PropOp29
 70
     1
102
RTVSPost2010Prop30
280
     1
102
RTVSPost2010PropOp30
 70
     1
102
RTVSPost2010Prop31
280
     0
102
RTVSPost2010PropOp31
 70
     1
102
RTVSPost2010Prop32
280
     0
102
RTVSPost2010PropOp32
 70
     1
102
RTVSPost2010Prop33
280
     0
102
RTVSPost2010PropOp33
 70
     1
102
RTVSPost2010Prop34
280
     0
102
RTVSPost2010PropOp34
 70
     1
102
RTVSPost2010Prop35
280
     0
102
RTVSPost2010PropOp35
 70
     1
102
RTVSPost2010Prop36
280
     0
102
RTVSPost2010PropOp36
 70
     1
102
RTVSPost2010Prop37
 90
       50
102
RTVSPost2010PropOp37
 70
     1
102
RTVSPost2010Prop38
140
0.0
102
RTVSPost2010PropOp38
 70
     1
102
RTVSPost2010Prop39
140
1.0
102
RTVSPost2010PropOp39
 70
     1
102
RTVSPost2010Prop40
 90
        0
102
RTVSPost2010PropOp40
 70
     1
102
RTVSPost2010Prop41ColorIndex
 90
       18
102
RTVSPost2010Prop41ColorRGB
 90
        0
102
RTVSPost2010PropOp41
 70
     1
102
RTVSPost2010Prop42
 90
       50
102
RTVSPost2010PropOp42
 70
     1
102
RTVSPost2010Prop43
 90
        3
102
RTVSPost2010PropOp43
 70
     1
102
RTVSPost2010Prop44ColorIndex
 90
        5
102
RTVSPost2010Prop44ColorRGB
 90
      255
102
RTVSPost2010PropOp44
 70
     1
102
RTVSPost2010Prop45
280
     0
102
RTVSPost2010PropOp45
 70
     1
102
RTVSPost2010Prop46
 90
       50
102
RTVSPost2010PropOp46
 70
     1
102
RTVSPost2010Prop47
 90
       50
102
RTVSPost2010PropOp47
 70
     1
102
RTVSPost2010Prop48
 90
       50
102
RTVSPost2010PropOp48
 70
     1
102
RTVSPost2010Prop49
280
     0
102
RTVSPost2010PropOp49
 70
     1
102
RTVSPost2010Prop50
 90
       50
102
RTVSPost2010PropOp50
 70
     1
102
RTVSPost2010Prop51ColorIndex
 90
      256
102
RTVSPost2010Prop51ColorRGB
 90
-16777216
102
RTVSPost2010PropOp51
 70
     0
102
RTVSPost2010Prop52
140
1.0
102
RTVSPost2010PropOp52
 70
     0
102
RTVSPost2010Prop53
 90
        2
102
RTVSPost2010PropOp53
 70
     1
102
RTVSPost2010Prop54
  1
strokes_ogs.tif
102
RTVSPost2010PropOp54
 70
     1
102
RTVSPost2010Prop55
280
     0
102
RTVSPost2010PropOp55
 70
     1
102
RTVSPost2010Prop56
140
1.0
102
RTVSPost2010PropOp56
 70
     1
102
RTVSPost2010Prop57
140
1.0
102
RTVSPost2010PropOp57
 70
     1
  0
XRECORD
  5
63A
102
{ACAD_REACTORS
330
639
102
}
330
639
100
AcDbXrecord
280
     1
102
RTVSPost2010Prop28
280
     0
102
RTVSPost2010PropOp28
 70
     1
102
RTVSPost2010Prop29
280
     1
102
RTVSPost2010PropOp29
 70
     1
102
RTVSPost2010Prop30
280
     1
102
RTVSPost2010PropOp30
 70
     1
102
RTVSPost2010Prop31
280
     0
102
RTVSPost2010PropOp31
 70
     1
102
RTVSPost2010Prop32
280
     0
102
RTVSPost2010PropOp32
 70
     1
102
RTVSPost2010Prop33
280
     0
102
RTVSPost2010PropOp33
 70
     1
102
RTVSPost2010Prop34
280
     0
102
RTVSPost2010PropOp34
 70
     1
102
RTVSPost2010Prop35
280
     0
102
RTVSPost2010PropOp35
 70
     1
102
RTVSPost2010Prop36
280
     0
102
RTVSPost2010PropOp36
 70
     1
102
RTVSPost2010Prop37
 90
       50
102
RTVSPost2010PropOp37
 70
     1
102
RTVSPost2010Prop38
140
0.0
102
RTVSPost2010PropOp38
 70
     1
102
RTVSPost2010Prop39
140
1.0
102
RTVSPost2010PropOp39
 70
     1
102
RTVSPost2010Prop40
 90
        0
102
RTVSPost2010PropOp40
 70
     1
102
RTVSPost2010Prop41ColorIndex
 90
       18
102
RTVSPost2010Prop41ColorRGB
 90
        0
102
RTVSPost2010PropOp41
 70
     1
102
RTVSPost2010Prop42
 90
       50
102
RTVSPost2010PropOp42
 70
     1
102
RTVSPost2010Prop43
 90
        3
102
RTVSPost2010PropOp43
 70
     1
102
RTVSPost2010Prop44ColorIndex
 90
        5
102
RTVSPost2010Prop44ColorRGB
 90
      255
102
RTVSPost2010PropOp44
 70
     1
102
RTVSPost2010Prop45
280
     0
102
RTVSPost2010PropOp45
 70
     1
102
RTVSPost2010Prop46
 90
       50
102
RTVSPost2010PropOp46
 70
     1
102
RTVSPost2010Prop47
 90
       50
102
RTVSPost2010PropOp47
 70
     1
102
RTVSPost2010Prop48
 90
       50
102
RTVSPost2010PropOp48
 70
     1
102
RTVSPost2010Prop49
280
     0
102
RTVSPost2010PropOp49
 70
     1
102
RTVSPost2010Prop50
 90
       50
102
RTVSPost2010PropOp50
 70
     1
102
RTVSPost2010Prop51ColorIndex
 90
      256
102
RTVSPost2010Prop51ColorRGB
 90
-16777216
102
RTVSPost2010PropOp51
 70
     0
102
RTVSPost2010Prop52
140
1.0
102
RTVSPost2010PropOp52
 70
     0
102
RTVSPost2010Prop53
 90
        2
102
RTVSPost2010PropOp53
 70
     1
102
RTVSPost2010Prop54
  1
strokes_ogs.tif
102
RTVSPost2010PropOp54
 70
     1
102
RTVSPost2010Prop55
280
     0
102
RTVSPost2010PropOp55
 70
     1
102
RTVSPost2010Prop56
140
1.0
102
RTVSPost2010PropOp56
 70
     1
102
RTVSPost2010Prop57
140
1.0
102
RTVSPost2010PropOp57
 70
     1
  0
XRECORD
  5
642
102
{ACAD_REACTORS
330
641
102
}
330
641
100
AcDbXrecord
280
     1
102
RTVSPost2010Prop28
280
     0
102
RTVSPost2010PropOp28
 70
     1
102
RTVSPost2010Prop29
280
     1
102
RTVSPost2010PropOp29
 70
     1
102
RTVSPost2010Prop30
280
     1
102
RTVSPost2010PropOp30
 70
     1
102
RTVSPost2010Prop31
280
     0
102
RTVSPost2010PropOp31
 70
     1
102
RTVSPost2010Prop32
280
     0
102
RTVSPost2010PropOp32
 70
     1
102
RTVSPost2010Prop33
280
     0
102
RTVSPost2010PropOp33
 70
     1
102
RTVSPost2010Prop34
280
     0
102
RTVSPost2010PropOp34
 70
     1
102
RTVSPost2010Prop35
280
     0
102
RTVSPost2010PropOp35
 70
     1
102
RTVSPost2010Prop36
280
     0
102
RTVSPost2010PropOp36
 70
     1
102
RTVSPost2010Prop37
 90
       50
102
RTVSPost2010PropOp37
 70
     1
102
RTVSPost2010Prop38
140
0.0
102
RTVSPost2010PropOp38
 70
     1
102
RTVSPost2010Prop39
140
1.0
102
RTVSPost2010PropOp39
 70
     1
102
RTVSPost2010Prop40
 90
        0
102
RTVSPost2010PropOp40
 70
     1
102
RTVSPost2010Prop41ColorIndex
 90
       18
102
RTVSPost2010Prop41ColorRGB
 90
        0
102
RTVSPost2010PropOp41
 70
     1
102
RTVSPost2010Prop42
 90
       50
102
RTVSPost2010PropOp42
 70
     1
102
RTVSPost2010Prop43
 90
        3
102
RTVSPost2010PropOp43
 70
     1
102
RTVSPost2010Prop44ColorIndex
 90
        5
102
RTVSPost2010Prop44ColorRGB
 90
      255
102
RTVSPost2010PropOp44
 70
     1
102
RTVSPost2010Prop45
280
     0
102
RTVSPost2010PropOp45
 70
     1
102
RTVSPost2010Prop46
 90
       50
102
RTVSPost2010PropOp46
 70
     1
102
RTVSPost2010Prop47
 90
       50
102
RTVSPost2010PropOp47
 70
     1
102
RTVSPost2010Prop48
 90
       50
102
RTVSPost2010PropOp48
 70
     1
102
RTVSPost2010Prop49
280
     0
102
RTVSPost2010PropOp49
 70
     1
102
RTVSPost2010Prop50
 90
       50
102
RTVSPost2010PropOp50
 70
     1
102
RTVSPost2010Prop51ColorIndex
 90
      256
102
RTVSPost2010Prop51ColorRGB
 90
-16777216
102
RTVSPost2010PropOp51
 70
     0
102
RTVSPost2010Prop52
140
1.0
102
RTVSPost2010PropOp52
 70
     0
102
RTVSPost2010Prop53
 90
        2
102
RTVSPost2010PropOp53
 70
     1
102
RTVSPost2010Prop54
  1
strokes_ogs.tif
102
RTVSPost2010PropOp54
 70
     1
102
RTVSPost2010Prop55
280
     0
102
RTVSPost2010PropOp55
 70
     1
102
RTVSPost2010Prop56
140
1.0
102
RTVSPost2010PropOp56
 70
     1
102
RTVSPost2010Prop57
140
1.0
102
RTVSPost2010PropOp57
 70
     1
  0
XRECORD
  5
65E
102
{ACAD_REACTORS
330
65D
102
}
330
65D
100
AcDbXrecord
280
     1
102
RTVSPost2010Prop28
280
     0
102
RTVSPost2010PropOp28
 70
     0
102
RTVSPost2010Prop29
280
     1
102
RTVSPost2010PropOp29
 70
     0
102
RTVSPost2010Prop30
280
     1
102
RTVSPost2010PropOp30
 70
     0
102
RTVSPost2010Prop31
280
     0
102
RTVSPost2010PropOp31
 70
     0
102
RTVSPost2010Prop32
280
     0
102
RTVSPost2010PropOp32
 70
     0
102
RTVSPost2010Prop33
280
     0
102
RTVSPost2010PropOp33
 70
     0
102
RTVSPost2010Prop34
280
     0
102
RTVSPost2010PropOp34
 70
     0
102
RTVSPost2010Prop35
280
     0
102
RTVSPost2010PropOp35
 70
     0
102
RTVSPost2010Prop36
280
     0
102
RTVSPost2010PropOp36
 70
     0
102
RTVSPost2010Prop37
 90
       50
102
RTVSPost2010PropOp37
 70
     0
102
RTVSPost2010Prop38
140
0.0
102
RTVSPost2010PropOp38
 70
     0
102
RTVSPost2010Prop39
140
1.0
102
RTVSPost2010PropOp39
 70
     0
102
RTVSPost2010Prop40
 90
        0
102
RTVSPost2010PropOp40
 70
     0
102
RTVSPost2010Prop41ColorIndex
 90
       18
102
RTVSPost2010Prop41ColorRGB
 90
        0
102
RTVSPost2010PropOp41
 70
     0
102
RTVSPost2010Prop42
 90
       50
102
RTVSPost2010PropOp42
 70
     0
102
RTVSPost2010Prop43
 90
        3
102
RTVSPost2010PropOp43
 70
     0
102
RTVSPost2010Prop44ColorIndex
 90
        5
102
RTVSPost2010Prop44ColorRGB
 90
      255
102
RTVSPost2010PropOp44
 70
     0
102
RTVSPost2010Prop45
280
     0
102
RTVSPost2010PropOp45
 70
     0
102
RTVSPost2010Prop46
 90
       50
102
RTVSPost2010PropOp46
 70
     0
102
RTVSPost2010Prop47
 90
       50
102
RTVSPost2010PropOp47
 70
     0
102
RTVSPost2010Prop48
 90
       50
102
RTVSPost2010PropOp48
 70
     0
102
RTVSPost2010Prop49
280
     0
102
RTVSPost2010PropOp49
 70
     0
102
RTVSPost2010Prop50
 90
       50
102
RTVSPost2010PropOp50
 70
     0
102
RTVSPost2010Prop51ColorIndex
 90
      256
102
RTVSPost2010Prop51ColorRGB
 90
-16777216
102
RTVSPost2010PropOp51
 70
     0
102
RTVSPost2010Prop52
140
1.0
102
RTVSPost2010PropOp52
 70
     0
102
RTVSPost2010Prop53
 90
        2
102
RTVSPost2010PropOp53
 70
     0
102
RTVSPost2010Prop54
  1
strokes_ogs.tif
102
RTVSPost2010PropOp54
 70
     0
102
RTVSPost2010Prop55
280
     0
102
RTVSPost2010PropOp55
 70
     0
102
RTVSPost2010Prop56
140
1.0
102
RTVSPost2010PropOp56
 70
     0
102
RTVSPost2010Prop57
140
1.0
102
RTVSPost2010PropOp57
 70
     0
  0
XRECORD
  5
64E
102
{ACAD_REACTORS
330
64D
102
}
330
64D
100
AcDbXrecord
280
     1
102
RTVSPost2010Prop28
280
     0
102
RTVSPost2010PropOp28
 70
     1
102
RTVSPost2010Prop29
280
     1
102
RTVSPost2010PropOp29
 70
     1
102
RTVSPost2010Prop30
280
     1
102
RTVSPost2010PropOp30
 70
     1
102
RTVSPost2010Prop31
280
     0
102
RTVSPost2010PropOp31
 70
     1
102
RTVSPost2010Prop32
280
     0
102
RTVSPost2010PropOp32
 70
     1
102
RTVSPost2010Prop33
280
     0
102
RTVSPost2010PropOp33
 70
     1
102
RTVSPost2010Prop34
280
     0
102
RTVSPost2010PropOp34
 70
     1
102
RTVSPost2010Prop35
280
     0
102
RTVSPost2010PropOp35
 70
     1
102
RTVSPost2010Prop36
280
     0
102
RTVSPost2010PropOp36
 70
     1
102
RTVSPost2010Prop37
 90
       50
102
RTVSPost2010PropOp37
 70
     1
102
RTVSPost2010Prop38
140
0.0
102
RTVSPost2010PropOp38
 70
     1
102
RTVSPost2010Prop39
140
1.0
102
RTVSPost2010PropOp39
 70
     1
102
RTVSPost2010Prop40
 90
        0
102
RTVSPost2010PropOp40
 70
     1
102
RTVSPost2010Prop41ColorIndex
 90
       18
102
RTVSPost2010Prop41ColorRGB
 90
        0
102
RTVSPost2010PropOp41
 70
     1
102
RTVSPost2010Prop42
 90
       50
102
RTVSPost2010PropOp42
 70
     1
102
RTVSPost2010Prop43
 90
        3
102
RTVSPost2010PropOp43
 70
     1
102
RTVSPost2010Prop44ColorIndex
 90
        5
102
RTVSPost2010Prop44ColorRGB
 90
      255
102
RTVSPost2010PropOp44
 70
     1
102
RTVSPost2010Prop45
280
     0
102
RTVSPost2010PropOp45
 70
     1
102
RTVSPost2010Prop46
 90
       50
102
RTVSPost2010PropOp46
 70
     1
102
RTVSPost2010Prop47
 90
       50
102
RTVSPost2010PropOp47
 70
     1
102
RTVSPost2010Prop48
 90
       50
102
RTVSPost2010PropOp48
 70
     1
102
RTVSPost2010Prop49
280
     0
102
RTVSPost2010PropOp49
 70
     1
102
RTVSPost2010Prop50
 90
       50
102
RTVSPost2010PropOp50
 70
     1
102
RTVSPost2010Prop51ColorIndex
 90
      256
102
RTVSPost2010Prop51ColorRGB
 90
-16777216
102
RTVSPost2010PropOp51
 70
     0
102
RTVSPost2010Prop52
140
1.0
102
RTVSPost2010PropOp52
 70
     0
102
RTVSPost2010Prop53
 90
        2
102
RTVSPost2010PropOp53
 70
     1
102
RTVSPost2010Prop54
  1
strokes_ogs.tif
102
RTVSPost2010PropOp54
 70
     1
102
RTVSPost2010Prop55
280
     0
102
RTVSPost2010PropOp55
 70
     1
102
RTVSPost2010Prop56
140
1.0
102
RTVSPost2010PropOp56
 70
     1
102
RTVSPost2010Prop57
140
1.0
102
RTVSPost2010PropOp57
 70
     1
  0
XRECORD
  5
660
102
{ACAD_REACTORS
330
65F
102
}
330
65F
100
AcDbXrecord
280
     1
102
RTVSPost2010Prop28
280
     0
102
RTVSPost2010PropOp28
 70
     0
102
RTVSPost2010Prop29
280
     1
102
RTVSPost2010PropOp29
 70
     0
102
RTVSPost2010Prop30
280
     1
102
RTVSPost2010PropOp30
 70
     0
102
RTVSPost2010Prop31
280
     0
102
RTVSPost2010PropOp31
 70
     0
102
RTVSPost2010Prop32
280
     0
102
RTVSPost2010PropOp32
 70
     0
102
RTVSPost2010Prop33
280
     0
102
RTVSPost2010PropOp33
 70
     0
102
RTVSPost2010Prop34
280
     0
102
RTVSPost2010PropOp34
 70
     0
102
RTVSPost2010Prop35
280
     0
102
RTVSPost2010PropOp35
 70
     0
102
RTVSPost2010Prop36
280
     0
102
RTVSPost2010PropOp36
 70
     0
102
RTVSPost2010Prop37
 90
       50
102
RTVSPost2010PropOp37
 70
     0
102
RTVSPost2010Prop38
140
0.0
102
RTVSPost2010PropOp38
 70
     0
102
RTVSPost2010Prop39
140
1.0
102
RTVSPost2010PropOp39
 70
     0
102
RTVSPost2010Prop40
 90
        0
102
RTVSPost2010PropOp40
 70
     0
102
RTVSPost2010Prop41ColorIndex
 90
       18
102
RTVSPost2010Prop41ColorRGB
 90
        0
102
RTVSPost2010PropOp41
 70
     0
102
RTVSPost2010Prop42
 90
       50
102
RTVSPost2010PropOp42
 70
     0
102
RTVSPost2010Prop43
 90
        3
102
RTVSPost2010PropOp43
 70
     0
102
RTVSPost2010Prop44ColorIndex
 90
        5
102
RTVSPost2010Prop44ColorRGB
 90
      255
102
RTVSPost2010PropOp44
 70
     0
102
RTVSPost2010Prop45
280
     0
102
RTVSPost2010PropOp45
 70
     0
102
RTVSPost2010Prop46
 90
       50
102
RTVSPost2010PropOp46
 70
     0
102
RTVSPost2010Prop47
 90
       50
102
RTVSPost2010PropOp47
 70
     0
102
RTVSPost2010Prop48
 90
       50
102
RTVSPost2010PropOp48
 70
     0
102
RTVSPost2010Prop49
280
     0
102
RTVSPost2010PropOp49
 70
     0
102
RTVSPost2010Prop50
 90
       50
102
RTVSPost2010PropOp50
 70
     0
102
RTVSPost2010Prop51ColorIndex
 90
      256
102
RTVSPost2010Prop51ColorRGB
 90
-16777216
102
RTVSPost2010PropOp51
 70
     0
102
RTVSPost2010Prop52
140
1.0
102
RTVSPost2010PropOp52
 70
     0
102
RTVSPost2010Prop53
 90
        2
102
RTVSPost2010PropOp53
 70
     0
102
RTVSPost2010Prop54
  1
strokes_ogs.tif
102
RTVSPost2010PropOp54
 70
     0
102
RTVSPost2010Prop55
280
     0
102
RTVSPost2010PropOp55
 70
     0
102
RTVSPost2010Prop56
140
1.0
102
RTVSPost2010PropOp56
 70
     0
102
RTVSPost2010Prop57
140
1.0
102
RTVSPost2010PropOp57
 70
     0
  0
XRECORD
  5
646
102
{ACAD_REACTORS
330
645
102
}
330
645
100
AcDbXrecord
280
     1
102
RTVSPost2010Prop28
280
     0
102
RTVSPost2010PropOp28
 70
     1
102
RTVSPost2010Prop29
280
     1
102
RTVSPost2010PropOp29
 70
     1
102
RTVSPost2010Prop30
280
     1
102
RTVSPost2010PropOp30
 70
     1
102
RTVSPost2010Prop31
280
     0
102
RTVSPost2010PropOp31
 70
     1
102
RTVSPost2010Prop32
280
     0
102
RTVSPost2010PropOp32
 70
     1
102
RTVSPost2010Prop33
280
     0
102
RTVSPost2010PropOp33
 70
     1
102
RTVSPost2010Prop34
280
     0
102
RTVSPost2010PropOp34
 70
     1
102
RTVSPost2010Prop35
280
     0
102
RTVSPost2010PropOp35
 70
     1
102
RTVSPost2010Prop36
280
     0
102
RTVSPost2010PropOp36
 70
     1
102
RTVSPost2010Prop37
 90
       50
102
RTVSPost2010PropOp37
 70
     1
102
RTVSPost2010Prop38
140
0.0
102
RTVSPost2010PropOp38
 70
     1
102
RTVSPost2010Prop39
140
1.0
102
RTVSPost2010PropOp39
 70
     1
102
RTVSPost2010Prop40
 90
        0
102
RTVSPost2010PropOp40
 70
     1
102
RTVSPost2010Prop41ColorIndex
 90
       18
102
RTVSPost2010Prop41ColorRGB
 90
        0
102
RTVSPost2010PropOp41
 70
     1
102
RTVSPost2010Prop42
 90
       50
102
RTVSPost2010PropOp42
 70
     1
102
RTVSPost2010Prop43
 90
        3
102
RTVSPost2010PropOp43
 70
     1
102
RTVSPost2010Prop44ColorIndex
 90
        5
102
RTVSPost2010Prop44ColorRGB
 90
      255
102
RTVSPost2010PropOp44
 70
     1
102
RTVSPost2010Prop45
280
     0
102
RTVSPost2010PropOp45
 70
     1
102
RTVSPost2010Prop46
 90
       50
102
RTVSPost2010PropOp46
 70
     1
102
RTVSPost2010Prop47
 90
       50
102
RTVSPost2010PropOp47
 70
     1
102
RTVSPost2010Prop48
 90
       50
102
RTVSPost2010PropOp48
 70
     1
102
RTVSPost2010Prop49
280
     0
102
RTVSPost2010PropOp49
 70
     1
102
RTVSPost2010Prop50
 90
       50
102
RTVSPost2010PropOp50
 70
     1
102
RTVSPost2010Prop51ColorIndex
 90
      256
102
RTVSPost2010Prop51ColorRGB
 90
-16777216
102
RTVSPost2010PropOp51
 70
     0
102
RTVSPost2010Prop52
140
1.0
102
RTVSPost2010PropOp52
 70
     0
102
RTVSPost2010Prop53
 90
        2
102
RTVSPost2010PropOp53
 70
     1
102
RTVSPost2010Prop54
  1
strokes_ogs.tif
102
RTVSPost2010PropOp54
 70
     1
102
RTVSPost2010Prop55
280
     0
102
RTVSPost2010PropOp55
 70
     1
102
RTVSPost2010Prop56
140
1.0
102
RTVSPost2010PropOp56
 70
     1
102
RTVSPost2010Prop57
140
1.0
102
RTVSPost2010PropOp57
 70
     1
  0
XRECORD
  5
65C
102
{ACAD_REACTORS
330
65B
102
}
330
65B
100
AcDbXrecord
280
     1
102
RTVSPost2010Prop28
280
     0
102
RTVSPost2010PropOp28
 70
     1
102
RTVSPost2010Prop29
280
     1
102
RTVSPost2010PropOp29
 70
     1
102
RTVSPost2010Prop30
280
     1
102
RTVSPost2010PropOp30
 70
     1
102
RTVSPost2010Prop31
280
     0
102
RTVSPost2010PropOp31
 70
     1
102
RTVSPost2010Prop32
280
     0
102
RTVSPost2010PropOp32
 70
     1
102
RTVSPost2010Prop33
280
     0
102
RTVSPost2010PropOp33
 70
     1
102
RTVSPost2010Prop34
280
     0
102
RTVSPost2010PropOp34
 70
     1
102
RTVSPost2010Prop35
280
     0
102
RTVSPost2010PropOp35
 70
     1
102
RTVSPost2010Prop36
280
     0
102
RTVSPost2010PropOp36
 70
     1
102
RTVSPost2010Prop37
 90
       50
102
RTVSPost2010PropOp37
 70
     1
102
RTVSPost2010Prop38
140
0.0
102
RTVSPost2010PropOp38
 70
     1
102
RTVSPost2010Prop39
140
1.0
102
RTVSPost2010PropOp39
 70
     1
102
RTVSPost2010Prop40
 90
        0
102
RTVSPost2010PropOp40
 70
     1
102
RTVSPost2010Prop41ColorIndex
 90
       18
102
RTVSPost2010Prop41ColorRGB
 90
        0
102
RTVSPost2010PropOp41
 70
     1
102
RTVSPost2010Prop42
 90
       50
102
RTVSPost2010PropOp42
 70
     1
102
RTVSPost2010Prop43
 90
        3
102
RTVSPost2010PropOp43
 70
     1
102
RTVSPost2010Prop44ColorIndex
 90
        5
102
RTVSPost2010Prop44ColorRGB
 90
      255
102
RTVSPost2010PropOp44
 70
     1
102
RTVSPost2010Prop45
280
     0
102
RTVSPost2010PropOp45
 70
     1
102
RTVSPost2010Prop46
 90
       50
102
RTVSPost2010PropOp46
 70
     1
102
RTVSPost2010Prop47
 90
       50
102
RTVSPost2010PropOp47
 70
     1
102
RTVSPost2010Prop48
 90
       50
102
RTVSPost2010PropOp48
 70
     1
102
RTVSPost2010Prop49
280
     0
102
RTVSPost2010PropOp49
 70
     1
102
RTVSPost2010Prop50
 90
       50
102
RTVSPost2010PropOp50
 70
     1
102
RTVSPost2010Prop51ColorIndex
 90
      256
102
RTVSPost2010Prop51ColorRGB
 90
-16777216
102
RTVSPost2010PropOp51
 70
     0
102
RTVSPost2010Prop52
140
1.0
102
RTVSPost2010PropOp52
 70
     0
102
RTVSPost2010Prop53
 90
        2
102
RTVSPost2010PropOp53
 70
     1
102
RTVSPost2010Prop54
  1
strokes_ogs.tif
102
RTVSPost2010PropOp54
 70
     1
102
RTVSPost2010Prop55
280
     0
102
RTVSPost2010PropOp55
 70
     1
102
RTVSPost2010Prop56
140
1.0
102
RTVSPost2010PropOp56
 70
     1
102
RTVSPost2010Prop57
140
1.0
102
RTVSPost2010PropOp57
 70
     1
  0
XRECORD
  5
65A
102
{ACAD_REACTORS
330
659
102
}
330
659
100
AcDbXrecord
280
     1
102
RTVSPost2010Prop28
280
     0
102
RTVSPost2010PropOp28
 70
     1
102
RTVSPost2010Prop29
280
     1
102
RTVSPost2010PropOp29
 70
     1
102
RTVSPost2010Prop30
280
     1
102
RTVSPost2010PropOp30
 70
     1
102
RTVSPost2010Prop31
280
     0
102
RTVSPost2010PropOp31
 70
     1
102
RTVSPost2010Prop32
280
     0
102
RTVSPost2010PropOp32
 70
     1
102
RTVSPost2010Prop33
280
     0
102
RTVSPost2010PropOp33
 70
     1
102
RTVSPost2010Prop34
280
     0
102
RTVSPost2010PropOp34
 70
     1
102
RTVSPost2010Prop35
280
     0
102
RTVSPost2010PropOp35
 70
     1
102
RTVSPost2010Prop36
280
     0
102
RTVSPost2010PropOp36
 70
     1
102
RTVSPost2010Prop37
 90
       50
102
RTVSPost2010PropOp37
 70
     1
102
RTVSPost2010Prop38
140
0.0
102
RTVSPost2010PropOp38
 70
     1
102
RTVSPost2010Prop39
140
1.0
102
RTVSPost2010PropOp39
 70
     1
102
RTVSPost2010Prop40
 90
        0
102
RTVSPost2010PropOp40
 70
     1
102
RTVSPost2010Prop41ColorIndex
 90
       18
102
RTVSPost2010Prop41ColorRGB
 90
        0
102
RTVSPost2010PropOp41
 70
     1
102
RTVSPost2010Prop42
 90
       50
102
RTVSPost2010PropOp42
 70
     1
102
RTVSPost2010Prop43
 90
        3
102
RTVSPost2010PropOp43
 70
     1
102
RTVSPost2010Prop44ColorIndex
 90
        5
102
RTVSPost2010Prop44ColorRGB
 90
      255
102
RTVSPost2010PropOp44
 70
     1
102
RTVSPost2010Prop45
280
     0
102
RTVSPost2010PropOp45
 70
     1
102
RTVSPost2010Prop46
 90
       50
102
RTVSPost2010PropOp46
 70
     1
102
RTVSPost2010Prop47
 90
       50
102
RTVSPost2010PropOp47
 70
     1
102
RTVSPost2010Prop48
 90
       50
102
RTVSPost2010PropOp48
 70
     1
102
RTVSPost2010Prop49
280
     0
102
RTVSPost2010PropOp49
 70
     1
102
RTVSPost2010Prop50
 90
       50
102
RTVSPost2010PropOp50
 70
     1
102
RTVSPost2010Prop51ColorIndex
 90
      256
102
RTVSPost2010Prop51ColorRGB
 90
-16777216
102
RTVSPost2010PropOp51
 70
     0
102
RTVSPost2010Prop52
140
1.0
102
RTVSPost2010PropOp52
 70
     0
102
RTVSPost2010Prop53
 90
        2
102
RTVSPost2010PropOp53
 70
     1
102
RTVSPost2010Prop54
  1
strokes_ogs.tif
102
RTVSPost2010PropOp54
 70
     1
102
RTVSPost2010Prop55
280
     0
102
RTVSPost2010PropOp55
 70
     1
102
RTVSPost2010Prop56
140
1.0
102
RTVSPost2010PropOp56
 70
     1
102
RTVSPost2010Prop57
140
1.0
102
RTVSPost2010PropOp57
 70
     1
  0
XRECORD
  5
654
102
{ACAD_REACTORS
330
653
102
}
330
653
100
AcDbXrecord
280
     1
102
RTVSPost2010Prop28
280
     0
102
RTVSPost2010PropOp28
 70
     1
102
RTVSPost2010Prop29
280
     1
102
RTVSPost2010PropOp29
 70
     1
102
RTVSPost2010Prop30
280
     1
102
RTVSPost2010PropOp30
 70
     1
102
RTVSPost2010Prop31
280
     0
102
RTVSPost2010PropOp31
 70
     1
102
RTVSPost2010Prop32
280
     0
102
RTVSPost2010PropOp32
 70
     1
102
RTVSPost2010Prop33
280
     0
102
RTVSPost2010PropOp33
 70
     1
102
RTVSPost2010Prop34
280
     0
102
RTVSPost2010PropOp34
 70
     1
102
RTVSPost2010Prop35
280
     0
102
RTVSPost2010PropOp35
 70
     1
102
RTVSPost2010Prop36
280
     0
102
RTVSPost2010PropOp36
 70
     1
102
RTVSPost2010Prop37
 90
       50
102
RTVSPost2010PropOp37
 70
     1
102
RTVSPost2010Prop38
140
0.0
102
RTVSPost2010PropOp38
 70
     1
102
RTVSPost2010Prop39
140
1.0
102
RTVSPost2010PropOp39
 70
     1
102
RTVSPost2010Prop40
 90
        0
102
RTVSPost2010PropOp40
 70
     1
102
RTVSPost2010Prop41ColorIndex
 90
       18
102
RTVSPost2010Prop41ColorRGB
 90
        0
102
RTVSPost2010PropOp41
 70
     1
102
RTVSPost2010Prop42
 90
       50
102
RTVSPost2010PropOp42
 70
     1
102
RTVSPost2010Prop43
 90
        3
102
RTVSPost2010PropOp43
 70
     1
102
RTVSPost2010Prop44ColorIndex
 90
        5
102
RTVSPost2010Prop44ColorRGB
 90
      255
102
RTVSPost2010PropOp44
 70
     1
102
RTVSPost2010Prop45
280
     0
102
RTVSPost2010PropOp45
 70
     1
102
RTVSPost2010Prop46
 90
       50
102
RTVSPost2010PropOp46
 70
     1
102
RTVSPost2010Prop47
 90
       50
102
RTVSPost2010PropOp47
 70
     1
102
RTVSPost2010Prop48
 90
       50
102
RTVSPost2010PropOp48
 70
     1
102
RTVSPost2010Prop49
280
     0
102
RTVSPost2010PropOp49
 70
     1
102
RTVSPost2010Prop50
 90
       50
102
RTVSPost2010PropOp50
 70
     1
102
RTVSPost2010Prop51ColorIndex
 90
      256
102
RTVSPost2010Prop51ColorRGB
 90
-16777216
102
RTVSPost2010PropOp51
 70
     0
102
RTVSPost2010Prop52
140
1.0
102
RTVSPost2010PropOp52
 70
     0
102
RTVSPost2010Prop53
 90
        2
102
RTVSPost2010PropOp53
 70
     1
102
RTVSPost2010Prop54
  1
strokes_ogs.tif
102
RTVSPost2010PropOp54
 70
     1
102
RTVSPost2010Prop55
280
     0
102
RTVSPost2010PropOp55
 70
     1
102
RTVSPost2010Prop56
140
1.0
102
RTVSPost2010PropOp56
 70
     1
102
RTVSPost2010Prop57
140
1.0
102
RTVSPost2010PropOp57
 70
     1
  0
XRECORD
  5
656
102
{ACAD_REACTORS
330
655
102
}
330
655
100
AcDbXrecord
280
     1
102
RTVSPost2010Prop28
280
     0
102
RTVSPost2010PropOp28
 70
     1
102
RTVSPost2010Prop29
280
     1
102
RTVSPost2010PropOp29
 70
     1
102
RTVSPost2010Prop30
280
     1
102
RTVSPost2010PropOp30
 70
     1
102
RTVSPost2010Prop31
280
     0
102
RTVSPost2010PropOp31
 70
     1
102
RTVSPost2010Prop32
280
     0
102
RTVSPost2010PropOp32
 70
     1
102
RTVSPost2010Prop33
280
     0
102
RTVSPost2010PropOp33
 70
     1
102
RTVSPost2010Prop34
280
     0
102
RTVSPost2010PropOp34
 70
     1
102
RTVSPost2010Prop35
280
     0
102
RTVSPost2010PropOp35
 70
     1
102
RTVSPost2010Prop36
280
     0
102
RTVSPost2010PropOp36
 70
     1
102
RTVSPost2010Prop37
 90
       50
102
RTVSPost2010PropOp37
 70
     1
102
RTVSPost2010Prop38
140
0.0
102
RTVSPost2010PropOp38
 70
     1
102
RTVSPost2010Prop39
140
1.0
102
RTVSPost2010PropOp39
 70
     1
102
RTVSPost2010Prop40
 90
        0
102
RTVSPost2010PropOp40
 70
     1
102
RTVSPost2010Prop41ColorIndex
 90
       18
102
RTVSPost2010Prop41ColorRGB
 90
        0
102
RTVSPost2010PropOp41
 70
     1
102
RTVSPost2010Prop42
 90
       50
102
RTVSPost2010PropOp42
 70
     1
102
RTVSPost2010Prop43
 90
        3
102
RTVSPost2010PropOp43
 70
     1
102
RTVSPost2010Prop44ColorIndex
 90
        5
102
RTVSPost2010Prop44ColorRGB
 90
      255
102
RTVSPost2010PropOp44
 70
     1
102
RTVSPost2010Prop45
280
     0
102
RTVSPost2010PropOp45
 70
     1
102
RTVSPost2010Prop46
 90
       50
102
RTVSPost2010PropOp46
 70
     1
102
RTVSPost2010Prop47
 90
       50
102
RTVSPost2010PropOp47
 70
     1
102
RTVSPost2010Prop48
 90
       50
102
RTVSPost2010PropOp48
 70
     1
102
RTVSPost2010Prop49
280
     0
102
RTVSPost2010PropOp49
 70
     1
102
RTVSPost2010Prop50
 90
       50
102
RTVSPost2010PropOp50
 70
     1
102
RTVSPost2010Prop51ColorIndex
 90
      256
102
RTVSPost2010Prop51ColorRGB
 90
-16777216
102
RTVSPost2010PropOp51
 70
     0
102
RTVSPost2010Prop52
140
1.0
102
RTVSPost2010PropOp52
 70
     0
102
RTVSPost2010Prop53
 90
        2
102
RTVSPost2010PropOp53
 70
     1
102
RTVSPost2010Prop54
  1
strokes_ogs.tif
102
RTVSPost2010PropOp54
 70
     1
102
RTVSPost2010Prop55
280
     0
102
RTVSPost2010PropOp55
 70
     1
102
RTVSPost2010Prop56
140
1.0
102
RTVSPost2010PropOp56
 70
     1
102
RTVSPost2010Prop57
140
1.0
102
RTVSPost2010PropOp57
 70
     1
  0
XRECORD
  5
64C
102
{ACAD_REACTORS
330
64B
102
}
330
64B
100
AcDbXrecord
280
     1
102
RTVSPost2010Prop28
280
     0
102
RTVSPost2010PropOp28
 70
     1
102
RTVSPost2010Prop29
280
     1
102
RTVSPost2010PropOp29
 70
     1
102
RTVSPost2010Prop30
280
     1
102
RTVSPost2010PropOp30
 70
     1
102
RTVSPost2010Prop31
280
     0
102
RTVSPost2010PropOp31
 70
     1
102
RTVSPost2010Prop32
280
     0
102
RTVSPost2010PropOp32
 70
     1
102
RTVSPost2010Prop33
280
     0
102
RTVSPost2010PropOp33
 70
     1
102
RTVSPost2010Prop34
280
     0
102
RTVSPost2010PropOp34
 70
     1
102
RTVSPost2010Prop35
280
     0
102
RTVSPost2010PropOp35
 70
     1
102
RTVSPost2010Prop36
280
     0
102
RTVSPost2010PropOp36
 70
     1
102
RTVSPost2010Prop37
 90
       50
102
RTVSPost2010PropOp37
 70
     1
102
RTVSPost2010Prop38
140
0.0
102
RTVSPost2010PropOp38
 70
     1
102
RTVSPost2010Prop39
140
1.0
102
RTVSPost2010PropOp39
 70
     1
102
RTVSPost2010Prop40
 90
        0
102
RTVSPost2010PropOp40
 70
     1
102
RTVSPost2010Prop41ColorIndex
 90
       18
102
RTVSPost2010Prop41ColorRGB
 90
        0
102
RTVSPost2010PropOp41
 70
     1
102
RTVSPost2010Prop42
 90
       50
102
RTVSPost2010PropOp42
 70
     1
102
RTVSPost2010Prop43
 90
        3
102
RTVSPost2010PropOp43
 70
     1
102
RTVSPost2010Prop44ColorIndex
 90
        5
102
RTVSPost2010Prop44ColorRGB
 90
      255
102
RTVSPost2010PropOp44
 70
     1
102
RTVSPost2010Prop45
280
     0
102
RTVSPost2010PropOp45
 70
     1
102
RTVSPost2010Prop46
 90
       50
102
RTVSPost2010PropOp46
 70
     1
102
RTVSPost2010Prop47
 90
       50
102
RTVSPost2010PropOp47
 70
     1
102
RTVSPost2010Prop48
 90
       50
102
RTVSPost2010PropOp48
 70
     1
102
RTVSPost2010Prop49
280
     0
102
RTVSPost2010PropOp49
 70
     1
102
RTVSPost2010Prop50
 90
       50
102
RTVSPost2010PropOp50
 70
     1
102
RTVSPost2010Prop51ColorIndex
 90
      256
102
RTVSPost2010Prop51ColorRGB
 90
-16777216
102
RTVSPost2010PropOp51
 70
     0
102
RTVSPost2010Prop52
140
1.0
102
RTVSPost2010PropOp52
 70
     0
102
RTVSPost2010Prop53
 90
        2
102
RTVSPost2010PropOp53
 70
     1
102
RTVSPost2010Prop54
  1
strokes_ogs.tif
102
RTVSPost2010PropOp54
 70
     1
102
RTVSPost2010Prop55
280
     0
102
RTVSPost2010PropOp55
 70
     1
102
RTVSPost2010Prop56
140
1.0
102
RTVSPost2010PropOp56
 70
     1
102
RTVSPost2010Prop57
140
1.0
102
RTVSPost2010PropOp57
 70
     1
  0
XRECORD
  5
640
102
{ACAD_REACTORS
330
63F
102
}
330
63F
100
AcDbXrecord
280
     1
102
RTVSPost2010Prop28
280
     0
102
RTVSPost2010PropOp28
 70
     1
102
RTVSPost2010Prop29
280
     1
102
RTVSPost2010PropOp29
 70
     1
102
RTVSPost2010Prop30
280
     1
102
RTVSPost2010PropOp30
 70
     1
102
RTVSPost2010Prop31
280
     0
102
RTVSPost2010PropOp31
 70
     1
102
RTVSPost2010Prop32
280
     0
102
RTVSPost2010PropOp32
 70
     1
102
RTVSPost2010Prop33
280
     0
102
RTVSPost2010PropOp33
 70
     1
102
RTVSPost2010Prop34
280
     0
102
RTVSPost2010PropOp34
 70
     1
102
RTVSPost2010Prop35
280
     0
102
RTVSPost2010PropOp35
 70
     1
102
RTVSPost2010Prop36
280
     0
102
RTVSPost2010PropOp36
 70
     1
102
RTVSPost2010Prop37
 90
       50
102
RTVSPost2010PropOp37
 70
     1
102
RTVSPost2010Prop38
140
0.0
102
RTVSPost2010PropOp38
 70
     1
102
RTVSPost2010Prop39
140
1.0
102
RTVSPost2010PropOp39
 70
     1
102
RTVSPost2010Prop40
 90
        0
102
RTVSPost2010PropOp40
 70
     1
102
RTVSPost2010Prop41ColorIndex
 90
       18
102
RTVSPost2010Prop41ColorRGB
 90
        0
102
RTVSPost2010PropOp41
 70
     1
102
RTVSPost2010Prop42
 90
       50
102
RTVSPost2010PropOp42
 70
     1
102
RTVSPost2010Prop43
 90
        3
102
RTVSPost2010PropOp43
 70
     1
102
RTVSPost2010Prop44ColorIndex
 90
        5
102
RTVSPost2010Prop44ColorRGB
 90
      255
102
RTVSPost2010PropOp44
 70
     1
102
RTVSPost2010Prop45
280
     0
102
RTVSPost2010PropOp45
 70
     1
102
RTVSPost2010Prop46
 90
       50
102
RTVSPost2010PropOp46
 70
     1
102
RTVSPost2010Prop47
 90
       50
102
RTVSPost2010PropOp47
 70
     1
102
RTVSPost2010Prop48
 90
       50
102
RTVSPost2010PropOp48
 70
     1
102
RTVSPost2010Prop49
280
     0
102
RTVSPost2010PropOp49
 70
     1
102
RTVSPost2010Prop50
 90
       50
102
RTVSPost2010PropOp50
 70
     1
102
RTVSPost2010Prop51ColorIndex
 90
      256
102
RTVSPost2010Prop51ColorRGB
 90
-16777216
102
RTVSPost2010PropOp51
 70
     0
102
RTVSPost2010Prop52
140
1.0
102
RTVSPost2010PropOp52
 70
     0
102
RTVSPost2010Prop53
 90
        2
102
RTVSPost2010PropOp53
 70
     1
102
RTVSPost2010Prop54
  1
strokes_ogs.tif
102
RTVSPost2010PropOp54
 70
     1
102
RTVSPost2010Prop55
280
     0
102
RTVSPost2010PropOp55
 70
     1
102
RTVSPost2010Prop56
140
1.0
102
RTVSPost2010PropOp56
 70
     1
102
RTVSPost2010Prop57
140
1.0
102
RTVSPost2010PropOp57
 70
     1
  0
XRECORD
  5
658
102
{ACAD_REACTORS
330
657
102
}
330
657
100
AcDbXrecord
280
     1
102
RTVSPost2010Prop28
280
     0
102
RTVSPost2010PropOp28
 70
     1
102
RTVSPost2010Prop29
280
     1
102
RTVSPost2010PropOp29
 70
     1
102
RTVSPost2010Prop30
280
     1
102
RTVSPost2010PropOp30
 70
     1
102
RTVSPost2010Prop31
280
     0
102
RTVSPost2010PropOp31
 70
     1
102
RTVSPost2010Prop32
280
     0
102
RTVSPost2010PropOp32
 70
     1
102
RTVSPost2010Prop33
280
     0
102
RTVSPost2010PropOp33
 70
     1
102
RTVSPost2010Prop34
280
     0
102
RTVSPost2010PropOp34
 70
     1
102
RTVSPost2010Prop35
280
     0
102
RTVSPost2010PropOp35
 70
     1
102
RTVSPost2010Prop36
280
     0
102
RTVSPost2010PropOp36
 70
     1
102
RTVSPost2010Prop37
 90
       50
102
RTVSPost2010PropOp37
 70
     1
102
RTVSPost2010Prop38
140
0.0
102
RTVSPost2010PropOp38
 70
     1
102
RTVSPost2010Prop39
140
1.0
102
RTVSPost2010PropOp39
 70
     1
102
RTVSPost2010Prop40
 90
        0
102
RTVSPost2010PropOp40
 70
     1
102
RTVSPost2010Prop41ColorIndex
 90
       18
102
RTVSPost2010Prop41ColorRGB
 90
        0
102
RTVSPost2010PropOp41
 70
     1
102
RTVSPost2010Prop42
 90
       50
102
RTVSPost2010PropOp42
 70
     1
102
RTVSPost2010Prop43
 90
        3
102
RTVSPost2010PropOp43
 70
     1
102
RTVSPost2010Prop44ColorIndex
 90
        5
102
RTVSPost2010Prop44ColorRGB
 90
      255
102
RTVSPost2010PropOp44
 70
     1
102
RTVSPost2010Prop45
280
     0
102
RTVSPost2010PropOp45
 70
     1
102
RTVSPost2010Prop46
 90
       50
102
RTVSPost2010PropOp46
 70
     1
102
RTVSPost2010Prop47
 90
       50
102
RTVSPost2010PropOp47
 70
     1
102
RTVSPost2010Prop48
 90
       50
102
RTVSPost2010PropOp48
 70
     1
102
RTVSPost2010Prop49
280
     0
102
RTVSPost2010PropOp49
 70
     1
102
RTVSPost2010Prop50
 90
       50
102
RTVSPost2010PropOp50
 70
     1
102
RTVSPost2010Prop51ColorIndex
 90
      256
102
RTVSPost2010Prop51ColorRGB
 90
-16777216
102
RTVSPost2010PropOp51
 70
     0
102
RTVSPost2010Prop52
140
1.0
102
RTVSPost2010PropOp52
 70
     0
102
RTVSPost2010Prop53
 90
        2
102
RTVSPost2010PropOp53
 70
     1
102
RTVSPost2010Prop54
  1
strokes_ogs.tif
102
RTVSPost2010PropOp54
 70
     1
102
RTVSPost2010Prop55
280
     0
102
RTVSPost2010PropOp55
 70
     1
102
RTVSPost2010Prop56
140
1.0
102
RTVSPost2010PropOp56
 70
     1
102
RTVSPost2010Prop57
140
1.0
102
RTVSPost2010PropOp57
 70
     1
  0
ENDSEC
  0
EOF
