  0
SECTION
  2
HEADER
  9
$ACADVER
  1
AC1024
  9
$ACADMAINTVER
 70
   226
  9
$DWGCODEPAGE
  3
ANSI_932
  9
$LASTSAVEDBY
  1
satoe
  9
$CUSTOMPROPERTYTAG
  1
AmdtFileType
  9
$CUSTOMPROPERTY
  1
84
  9
$INSBASE
 10
0.0
 20
0.0
 30
0.0
  9
$EXTMIN
 10
14.94065153463862
 20
10.96743879898895
 30
-0.0000000000569538
  9
$EXTMAX
 10
795.0485311978797
 20
561.0342441056482
 30
0.0000000000096354
  9
$LIMMIN
 10
-0.0791567889075395
 20
-0.0159211882485977
  9
$LIMMAX
 10
420.079168406405
 20
297.0159086457359
  9
$ORTHOMODE
 70
     0
  9
$REGENMODE
 70
     1
  9
$FILLMODE
 70
     1
  9
$QTEXTMODE
 70
     0
  9
$MIRRTEXT
 70
     1
  9
$LTSCALE
 40
0.2
  9
$ATTMODE
 70
     1
  9
$TEXTSIZE
 40
2.5
  9
$TRACEWID
 40
1.0
  9
$TEXTSTYLE
  7
STANDARD
  9
$CLAYER
  8
0
  9
$CELTYPE
  6
ByLayer
  9
$CECOLOR
 62
   256
  9
$CELTSCALE
 40
0.2
  9
$DISPSILH
 70
     0
  9
$DIMSCALE
 40
1.0
  9
$DIMASZ
 40
2.5
  9
$DIMEXO
 40
1.0
  9
$DIMDLI
 40
10.0
  9
$DIMRND
 40
0.0
  9
$DIMDLE
 40
0.0
  9
$DIMEXE
 40
1.0
  9
$DIMTP
 40
0.1
  9
$DIMTM
 40
0.1
  9
$DIMTXT
 40
3.5
  9
$DIMCEN
 40
0.0
  9
$DIMTSZ
 40
0.0
  9
$DIMTOL
 70
     0
  9
$DIMLIM
 70
     0
  9
$DIMTIH
 70
     0
  9
$DIMTOH
 70
     0
  9
$DIMSE1
 70
     0
  9
$DIMSE2
 70
     0
  9
$DIMTAD
 70
     1
  9
$DIMZIN
 70
     8
  9
$DIMBLK
  1

  9
$DIMASO
 70
     1
  9
$DIMSHO
 70
     1
  9
$DIMPOST
  1

  9
$DIMAPOST
  1
"
  9
$DIMALT
 70
     0
  9
$DIMALTD
 70
     2
  9
$DIMALTF
 40
0.0393701
  9
$DIMLFAC
 40
1.0
  9
$DIMTOFL
 70
     1
  9
$DIMTVP
 40
0.0
  9
$DIMTIX
 70
     0
  9
$DIMSOXD
 70
     0
  9
$DIMSAH
 70
     0
  9
$DIMBLK1
  1

  9
$DIMBLK2
  1

  9
$DIMSTYLE
  2
AM_ISO
  9
$DIMCLRD
 70
   256
  9
$DIMCLRE
 70
   256
  9
$DIMCLRT
 70
     2
  9
$DIMTFAC
 40
0.71
  9
$DIMGAP
 40
1.5
  9
$DIMJUST
 70
     0
  9
$DIMSD1
 70
     0
  9
$DIMSD2
 70
     0
  9
$DIMTOLJ
 70
     0
  9
$DIMTZIN
 70
     8
  9
$DIMALTZ
 70
     0
  9
$DIMALTTZ
 70
     0
  9
$DIMUPT
 70
     0
  9
$DIMDEC
 70
     2
  9
$DIMTDEC
 70
     3
  9
$DIMALTU
 70
     2
  9
$DIMALTTD
 70
     4
  9
$DIMTXSTY
  7
STANDARD
  9
$DIMAUNIT
 70
     0
  9
$DIMADEC
 70
     0
  9
$DIMALTRND
 40
0.0
  9
$DIMAZIN
 70
     2
  9
$DIMDSEP
 70
    46
  9
$DIMATFIT
 70
     3
  9
$DIMFRAC
 70
     0
  9
$DIMLDRBLK
  1

  9
$DIMLUNIT
 70
     2
  9
$DIMLWD
 70
    -1
  9
$DIMLWE
 70
    -1
  9
$DIMTMOVE
 70
     0
  9
$DIMFXL
 40
1.0
  9
$DIMFXLON
 70
     0
  9
$DIMJOGANG
 40
0.7853981633974483
  9
$DIMTFILL
 70
     0
  9
$DIMTFILLCLR
 70
     0
  9
$DIMARCSYM
 70
     0
  9
$DIMLTYPE
  6

  9
$DIMLTEX1
  6

  9
$DIMLTEX2
  6

  9
$DIMTXTDIRECTION
 70
     0
  9
$LUNITS
 70
     2
  9
$LUPREC
 70
     2
  9
$SKETCHINC
 40
1.0
  9
$FILLETRAD
 40
2.5
  9
$AUNITS
 70
     0
  9
$AUPREC
 70
     0
  9
$MENU
  1
.
  9
$ELEVATION
 40
0.0
  9
$PELEVATION
 40
0.0
  9
$THICKNESS
 40
0.0
  9
$LIMCHECK
 70
     0
  9
$CHAMFERA
 40
2.5
  9
$CHAMFERB
 40
2.5
  9
$CHAMFERC
 40
20.0
  9
$CHAMFERD
 40
0.0
  9
$SKPOLY
 70
     0
  9
$TDCREATE
 40
2457815.719722222
  9
$TDUCREATE
 40
2457815.344722350
  9
$TDUPDATE
 40
2459731.746006944
  9
$TDUUPDATE
 40
2459731.371006944
  9
$TDINDWG
 40
0.0445254630
  9
$TDUSRTIMER
 40
0.0445254630
  9
$USRTIMER
 70
     1
  9
$ANGBASE
 50
0.0
  9
$ANGDIR
 70
     0
  9
$PDMODE
 70
     0
  9
$PDSIZE
 40
0.0
  9
$PLINEWID
 40
0.0
  9
$SPLFRAME
 70
     0
  9
$SPLINETYPE
 70
     6
  9
$SPLINESEGS
 70
     8
  9
$HANDSEED
  5
8B2
  9
$SURFTAB1
 70
     6
  9
$SURFTAB2
 70
     6
  9
$SURFTYPE
 70
     6
  9
$SURFU
 70
     6
  9
$SURFV
 70
     6
  9
$UCSBASE
  2

  9
$UCSNAME
  2

  9
$UCSORG
 10
0.0
 20
0.0
 30
0.0
  9
$UCSXDIR
 10
1.0
 20
0.0
 30
0.0
  9
$UCSYDIR
 10
0.0
 20
1.0
 30
0.0
  9
$UCSORTHOREF
  2

  9
$UCSORTHOVIEW
 70
     0
  9
$UCSORGTOP
 10
0.0
 20
0.0
 30
0.0
  9
$UCSORGBOTTOM
 10
0.0
 20
0.0
 30
0.0
  9
$UCSORGLEFT
 10
0.0
 20
0.0
 30
0.0
  9
$UCSORGRIGHT
 10
0.0
 20
0.0
 30
0.0
  9
$UCSORGFRONT
 10
0.0
 20
0.0
 30
0.0
  9
$UCSORGBACK
 10
0.0
 20
0.0
 30
0.0
  9
$PUCSBASE
  2

  9
$PUCSNAME
  2

  9
$PUCSORG
 10
0.0
 20
0.0
 30
0.0
  9
$PUCSXDIR
 10
1.0
 20
0.0
 30
0.0
  9
$PUCSYDIR
 10
0.0
 20
1.0
 30
0.0
  9
$PUCSORTHOREF
  2

  9
$PUCSORTHOVIEW
 70
     0
  9
$PUCSORGTOP
 10
0.0
 20
0.0
 30
0.0
  9
$PUCSORGBOTTOM
 10
0.0
 20
0.0
 30
0.0
  9
$PUCSORGLEFT
 10
0.0
 20
0.0
 30
0.0
  9
$PUCSORGRIGHT
 10
0.0
 20
0.0
 30
0.0
  9
$PUCSORGFRONT
 10
0.0
 20
0.0
 30
0.0
  9
$PUCSORGBACK
 10
0.0
 20
0.0
 30
0.0
  9
$USERI1
 70
     0
  9
$USERI2
 70
     0
  9
$USERI3
 70
     0
  9
$USERI4
 70
     0
  9
$USERI5
 70
     0
  9
$USERR1
 40
0.0
  9
$USERR2
 40
0.0
  9
$USERR3
 40
0.0
  9
$USERR4
 40
0.0
  9
$USERR5
 40
0.0
  9
$WORLDVIEW
 70
     1
  9
$SHADEDGE
 70
     3
  9
$SHADEDIF
 70
    70
  9
$TILEMODE
 70
     1
  9
$MAXACTVP
 70
    64
  9
$PINSBASE
 10
0.0
 20
0.0
 30
0.0
  9
$PLIMCHECK
 70
     0
  9
$PEXTMIN
 10
1.000000000000000E+20
 20
1.000000000000000E+20
 30
1.000000000000000E+20
  9
$PEXTMAX
 10
-1.000000000000000E+20
 20
-1.000000000000000E+20
 30
-1.000000000000000E+20
  9
$PLIMMIN
 10
0.0
 20
0.0
  9
$PLIMMAX
 10
12.0
 20
9.0
  9
$UNITMODE
 70
     0
  9
$VISRETAIN
 70
     1
  9
$PLINEGEN
 70
     0
  9
$PSLTSCALE
 70
     0
  9
$TREEDEPTH
 70
  3020
  9
$CMLSTYLE
  2
Standard
  9
$CMLJUST
 70
     0
  9
$CMLSCALE
 40
20.0
  9
$PROXYGRAPHICS
 70
     1
  9
$MEASUREMENT
 70
     1
  9
$CELWEIGHT
370
    -1
  9
$ENDCAPS
280
     0
  9
$JOINSTYLE
280
     0
  9
$LWDISPLAY
290
     0
  9
$INSUNITS
 70
     4
  9
$HYPERLINKBASE
  1

  9
$STYLESHEET
  1

  9
$XEDIT
290
     1
  9
$CEPSNTYPE
380
     0
  9
$PSTYLEMODE
290
     1
  9
$FINGERPRINTGUID
  2
{116306B4-51A5-4560-BC4A-E301A819071B}
  9
$VERSIONGUID
  2
{9907AD96-0AB9-094F-BF7F-20B515B958A3}
  9
$EXTNAMES
290
     1
  9
$PSVPSCALE
 40
0.0
  9
$OLESTARTUP
290
     0
  9
$SORTENTS
280
   127
  9
$INDEXCTL
280
     0
  9
$HIDETEXT
280
     1
  9
$XCLIPFRAME
280
     2
  9
$HALOGAP
280
     0
  9
$OBSCOLOR
 70
   257
  9
$OBSLTYPE
280
     0
  9
$INTERSECTIONDISPLAY
280
     0
  9
$INTERSECTIONCOLOR
 70
   257
  9
$DIMASSOC
280
     2
  9
$PROJECTNAME
  1

  9
$CAMERADISPLAY
290
     0
  9
$LENSLENGTH
 40
50.0
  9
$CAMERAHEIGHT
 40
0.0
  9
$STEPSPERSEC
 40
2.0
  9
$STEPSIZE
 40
6.0
  9
$3DDWFPREC
 40
2.0
  9
$PSOLWIDTH
 40
0.25
  9
$PSOLHEIGHT
 40
4.0
  9
$LOFTANG1
 40
1.570796326794896
  9
$LOFTANG2
 40
1.570796326794896
  9
$LOFTMAG1
 40
0.0
  9
$LOFTMAG2
 40
0.0
  9
$LOFTPARAM
 70
     7
  9
$LOFTNORMALS
280
     1
  9
$LATITUDE
 40
37.795
  9
$LONGITUDE
 40
-122.394
  9
$NORTHDIRECTION
 40
0.0
  9
$TIMEZONE
 70
 -8000
  9
$LIGHTGLYPHDISPLAY
280
     1
  9
$TILEMODELIGHTSYNCH
280
     1
  9
$CMATERIAL
347
11
  9
$SOLIDHIST
280
     0
  9
$SHOWHIST
280
     1
  9
$DWFFRAME
280
     2
  9
$DGNFRAME
280
     0
  9
$REALWORLDSCALE
290
     1
  9
$INTERFERECOLOR
 62
     1
  9
$INTERFEREOBJVS
345
33
  9
$INTERFEREVPVS
346
30
  9
$CSHADOW
280
     0
  9
$SHADOWPLANELOCATION
 40
0.0
  0
ENDSEC
  0
SECTION
  2
CLASSES
  0
CLASS
  1
ACDBDICTIONARYWDFLT
  2
AcDbDictionaryWithDefault
  3
ObjectDBX Classes
 90
        0
 91
        1
280
     0
281
     0
  0
CLASS
  1
MATERIAL
  2
AcDbMaterial
  3
ObjectDBX Classes
 90
     1153
 91
        3
280
     0
281
     0
  0
CLASS
  1
VISUALSTYLE
  2
AcDbVisualStyle
  3
ObjectDBX Classes
 90
     4095
 91
       24
280
     0
281
     0
  0
CLASS
  1
SCALE
  2
AcDbScale
  3
ObjectDBX Classes
 90
     1153
 91
       17
280
     0
281
     0
  0
CLASS
  1
TABLESTYLE
  2
AcDbTableStyle
  3
ObjectDBX Classes
 90
     4095
 91
        1
280
     0
281
     0
  0
CLASS
  1
MLEADERSTYLE
  2
AcDbMLeaderStyle
  3
ACDB_MLEADERSTYLE_CLASS
 90
     4095
 91
        1
280
     0
281
     0
  0
CLASS
  1
ACDBSECTIONVIEWSTYLE
  2
AcDbSectionViewStyle
  3
ObjectDBX Classes
 90
     1025
 91
        2
280
     0
281
     0
  0
CLASS
  1
ACDBDETAILVIEWSTYLE
  2
AcDbDetailViewStyle
  3
ObjectDBX Classes
 90
     1025
 91
        2
280
     0
281
     0
  0
CLASS
  1
SORTENTSTABLE
  2
AcDbSortentsTable
  3
ObjectDBX Classes
 90
        0
 91
        3
280
     0
281
     0
  0
CLASS
  1
DICTIONARYVAR
  2
AcDbDictionaryVar
  3
ObjectDBX Classes
 90
        0
 91
       10
280
     0
281
     0
  0
CLASS
  1
DIMASSOC
  2
AcDbDimAssoc
  3
"AcDbDimAssoc|Product Desc:     AcDim ARX App For Dimension|Company:          Autodesk, Inc.|WEB Address:      www.autodesk.com"
 90
        0
 91
        0
280
     0
281
     0
  0
CLASS
  1
CELLSTYLEMAP
  2
AcDbCellStyleMap
  3
ObjectDBX Classes
 90
     1152
 91
        1
280
     0
281
     0
  0
CLASS
  1
RAPIDRTRENDERSETTINGS
  2
AcDbRapidRTRenderSettings
  3
ObjectDBX Classes
 90
     1024
 91
        7
280
     0
281
     0
  0
CLASS
  1
MENTALRAYRENDERSETTINGS
  2
AcDbMentalRayRenderSettings
  3
SCENEOE
 90
     1024
 91
        2
280
     0
281
     0
  0
ENDSEC
  0
SECTION
  2
TABLES
  0
TABLE
  2
VPORT
  5
8
102
{ACAD_XDICTIONARY
360
73B
102
}
330
0
100
AcDbSymbolTable
 70
     1
  0
VPORT
  5
57
330
8
100
AcDbSymbolTableRecord
100
AcDbViewportTableRecord
  2
*Active
 70
     0
 10
0.0
 20
0.0
 11
1.0
 21
1.0
 12
404.9945913662591
 22
286.0008414523186
 13
0.0
 23
0.0
 14
10.0
 24
10.0
 15
10.0
 25
10.0
 16
0.0
 26
0.0
 36
1.0
 17
0.0
 27
0.0
 37
0.0
 40
554.0241204527503
 41
2.303721488595438
 42
50.0
 43
0.0
 44
0.0
 50
0.0
 51
0.0
 71
     0
 72
   100
 73
     1
 74
     1
 75
     0
 76
     0
 77
     0
 78
     0
281
     0
 65
     1
110
0.0
120
0.0
130
0.0
111
1.0
121
0.0
131
0.0
112
0.0
122
1.0
132
0.0
 79
     0
146
0.0
348
2F
 60
     0
 61
     5
292
     1
282
     1
141
0.0
142
0.0
 63
   250
421
  3355443
1001
ACAD_NAV_VCDISPLAY
1070
     3
  0
ENDTAB
  0
TABLE
  2
LTYPE
  5
5
330
0
100
AcDbSymbolTable
 70
     7
  0
LTYPE
  5
5B
330
5
100
AcDbSymbolTableRecord
100
AcDbLinetypeTableRecord
  2
ByBlock
 70
     0
  3

 72
    65
 73
     0
 40
0.0
  0
LTYPE
  5
5C
330
5
100
AcDbSymbolTableRecord
100
AcDbLinetypeTableRecord
  2
ByLayer
 70
     0
  3

 72
    65
 73
     0
 40
0.0
  0
LTYPE
  5
5D
330
5
100
AcDbSymbolTableRecord
100
AcDbLinetypeTableRecord
  2
Continuous
 70
     0
  3
Solid line
 72
    65
 73
     0
 40
0.0
  0
LTYPE
  5
7C
330
5
100
AcDbSymbolTableRecord
100
AcDbLinetypeTableRecord
  2
Amconstr
 70
     0
  3
_______________________
 72
    65
 73
     2
 40
9999.0
 49
9999.0
 74
     0
 49
0.0
 74
     0
  0
LTYPE
  5
7D
330
5
100
AcDbSymbolTableRecord
100
AcDbLinetypeTableRecord
  2
DASHED2
 70
     0
  3
Dashed (.5x) _ _ _ _ _ _ _ _ _ _ _ _ _ _ _ _ _
 72
    65
 73
     2
 40
9.524999999999996
 49
6.349999999999997
 74
     0
 49
-3.174999999999998
 74
     0
  0
LTYPE
  5
7E
330
5
100
AcDbSymbolTableRecord
100
AcDbLinetypeTableRecord
  2
CENTERX2
 70
     0
  3
Center (2x) ________  __  ________  __  _____
 72
    65
 73
     4
 40
101.6
 49
63.5
 74
     0
 49
-12.7
 74
     0
 49
12.7
 74
     0
 49
-12.7
 74
     0
  0
LTYPE
  5
7F
330
5
100
AcDbSymbolTableRecord
100
AcDbLinetypeTableRecord
  2
細い実線
 70
     0
  3
______________________________________________________________
 72
    65
 73
     0
 40
0.0
  0
LTYPE
  5
32B
330
5
100
AcDbSymbolTableRecord
100
AcDbLinetypeTableRecord
  2
CENTER2
 70
     0
  3
Center (.5x) ___ _ ___ _ ___ _ ___ _ ___ _ ___
 72
    65
 73
     4
 40
28.575
 49
19.05
 74
     0
 49
-3.174999999999998
 74
     0
 49
3.174999999999998
 74
     0
 49
-3.174999999999998
 74
     0
  0
ENDTAB
  0
TABLE
  2
LAYER
  5
2
102
{ACAD_XDICTIONARY
360
338
102
}
330
0
100
AcDbSymbolTable
 70
    16
  0
LAYER
  5
54
102
{ACAD_XDICTIONARY
360
716
102
}
330
2
100
AcDbSymbolTableRecord
100
AcDbLayerTableRecord
  2
0
 70
     0
 62
     7
  6
Continuous
370
    -3
390
F
347
21
1001
AcAecLayerStandard
1000

1000

  0
LAYER
  5
79
330
2
100
AcDbSymbolTableRecord
100
AcDbLayerTableRecord
  2
Defpoints
 70
     0
 62
     7
  6
Continuous
290
     0
370
    -3
390
F
347
21
1001
AcAecLayerStandard
1000

1000

  0
LAYER
  5
8E
102
{ACAD_XDICTIONARY
360
8F
102
}
330
2
100
AcDbSymbolTableRecord
100
AcDbLayerTableRecord
  2
WAKU
 70
     0
 62
     7
  6
Continuous
370
    -3
390
F
347
21
  0
LAYER
  5
93
102
{ACAD_XDICTIONARY
360
94
102
}
330
2
100
AcDbSymbolTableRecord
100
AcDbLayerTableRecord
  2
SEIHIN
 70
     0
 62
     4
  6
Continuous
370
    -3
390
F
347
21
  0
LAYER
  5
99
102
{ACAD_XDICTIONARY
360
9A
102
}
330
2
100
AcDbSymbolTableRecord
100
AcDbLayerTableRecord
  2
MOJI
 70
     0
 62
     7
  6
Continuous
370
    -3
390
F
347
21
  0
LAYER
  5
A3
102
{ACAD_XDICTIONARY
360
A4
102
}
330
2
100
AcDbSymbolTableRecord
100
AcDbLayerTableRecord
  2
BISUKUGI
 70
     0
 62
     6
  6
Continuous
370
    -3
390
F
347
21
  0
LAYER
  5
BA
102
{ACAD_XDICTIONARY
360
BB
102
}
330
2
100
AcDbSymbolTableRecord
100
AcDbLayerTableRecord
  2
KUTAI
 70
     0
 62
     2
  6
Continuous
370
    -3
390
8B
347
21
  0
LAYER
  5
FF
102
{ACAD_XDICTIONARY
360
100
102
}
330
2
100
AcDbSymbolTableRecord
100
AcDbLayerTableRecord
  2
YAKUMONO
 70
     0
 62
     3
  6
Continuous
370
    -3
390
F
347
21
  0
LAYER
  5
142
102
{ACAD_XDICTIONARY
360
143
102
}
330
2
100
AcDbSymbolTableRecord
100
AcDbLayerTableRecord
  2
SI-RINGU
 70
     0
 62
     9
  6
Continuous
370
    -3
390
8B
347
21
  0
LAYER
  5
151
102
{ACAD_XDICTIONARY
360
152
102
}
330
2
100
AcDbSymbolTableRecord
100
AcDbLayerTableRecord
  2
SONOTABUZAI
 70
     0
 62
     5
  6
Continuous
370
    -3
390
8B
347
21
  0
LAYER
  5
18E
102
{ACAD_XDICTIONARY
360
18F
102
}
330
2
100
AcDbSymbolTableRecord
100
AcDbLayerTableRecord
  2
BOUSUISI
 70
     0
 62
     1
  6
Continuous
370
    -3
390
8B
347
21
  0
LAYER
  5
195
102
{ACAD_XDICTIONARY
360
196
102
}
330
2
100
AcDbSymbolTableRecord
100
AcDbLayerTableRecord
  2
BOUSUITE-PU
 70
     0
 62
     8
  6
Continuous
370
    -3
390
F
347
21
  0
LAYER
  5
32C
102
{ACAD_XDICTIONARY
360
32D
102
}
330
2
100
AcDbSymbolTableRecord
100
AcDbLayerTableRecord
  2
SUNPO
 70
     0
 62
     2
  6
Continuous
370
    -3
390
F
347
21
  0
LAYER
  5
32E
102
{ACAD_XDICTIONARY
360
32F
102
}
330
2
100
AcDbSymbolTableRecord
100
AcDbLayerTableRecord
  2
HIKIDASI
 70
     0
 62
     7
  6
Continuous
370
     5
390
F
347
21
  0
LAYER
  5
330
102
{ACAD_XDICTIONARY
360
331
102
}
330
2
100
AcDbSymbolTableRecord
100
AcDbLayerTableRecord
  2
SUNPOU
 70
     0
 62
     7
  6
Continuous
370
     5
390
F
347
21
  0
LAYER
  5
332
102
{ACAD_XDICTIONARY
360
333
102
}
330
2
100
AcDbSymbolTableRecord
100
AcDbLayerTableRecord
  2
TEKUSU
 70
     0
 62
     7
  6
Continuous
370
    -3
390
F
347
21
  0
ENDTAB
  0
TABLE
  2
STYLE
  5
3
330
0
100
AcDbSymbolTable
 70
     4
  0
STYLE
  5
55
330
3
100
AcDbSymbolTableRecord
100
AcDbTextStyleTableRecord
  2
STANDARD
 70
     0
 40
0.0
 41
1.0
 50
0.0
 71
     0
 42
2.5
  3

  4

1001
ACAD
1000
MS Gothic
1071
    32817
  0
STYLE
  5
5A
330
3
100
AcDbSymbolTableRecord
100
AcDbTextStyleTableRecord
  2
Annotative
 70
     0
 40
0.0
 41
1.0
 50
0.0
 71
     0
 42
0.2
  3

  4

1001
AcadAnnotative
1000
AnnotativeData
1002
{
1070
     1
1070
     1
1002
}
1001
ACAD
1000
MS Gothic
1071
    32817
  0
STYLE
  5
7A
330
3
100
AcDbSymbolTableRecord
100
AcDbTextStyleTableRecord
  2
CAD-DL
 70
     0
 40
0.0
 41
1.0
 50
0.0
 71
     0
 42
5.0
  3

  4

1001
ACAD
1000
MS Gothic
1071
    32817
  0
STYLE
  5
7B
330
3
100
AcDbSymbolTableRecord
100
AcDbTextStyleTableRecord
  2
WAKU
 70
     0
 40
5.0
 41
1.0
 50
0.0
 71
     0
 42
5.0
  3

  4

1001
ACAD
1000
MS Gothic
1071
    32817
  0
ENDTAB
  0
TABLE
  2
VIEW
  5
6
330
0
100
AcDbSymbolTable
 70
     1
  0
ENDTAB
  0
TABLE
  2
UCS
  5
7
330
0
100
AcDbSymbolTable
 70
     0
  0
ENDTAB
  0
TABLE
  2
APPID
  5
9
330
0
100
AcDbSymbolTable
 70
    10
  0
APPID
  5
56
330
9
100
AcDbSymbolTableRecord
100
AcDbRegAppTableRecord
  2
ACAD
 70
     0
  0
APPID
  5
5E
330
9
100
AcDbSymbolTableRecord
100
AcDbRegAppTableRecord
  2
AcadAnnotative
 70
     0
  0
APPID
  5
78
330
9
100
AcDbSymbolTableRecord
100
AcDbRegAppTableRecord
  2
ACAD_PSEXT
 70
     0
  0
APPID
  5
1CE
330
9
100
AcDbSymbolTableRecord
100
AcDbRegAppTableRecord
  2
AcAecLayerStandard
 70
     0
  0
APPID
  5
335
330
9
100
AcDbSymbolTableRecord
100
AcDbRegAppTableRecord
  2
ACAD_DSTYLE_DIMJAG
 70
     0
  0
APPID
  5
336
330
9
100
AcDbSymbolTableRecord
100
AcDbRegAppTableRecord
  2
ACAD_DSTYLE_DIMTALN
 70
     0
  0
APPID
  5
337
330
9
100
AcDbSymbolTableRecord
100
AcDbRegAppTableRecord
  2
ACAD_NAV_VCDISPLAY
 70
     0
  0
APPID
  5
68F
330
9
100
AcDbSymbolTableRecord
100
AcDbRegAppTableRecord
  2
ACAD_EXEMPT_FROM_CAD_STANDARDS
 70
     0
  0
APPID
  5
771
330
9
100
AcDbSymbolTableRecord
100
AcDbRegAppTableRecord
  2
ACAD_MLEADERVER
 70
     0
  0
APPID
  5
785
330
9
100
AcDbSymbolTableRecord
100
AcDbRegAppTableRecord
  2
AcadAnnoPO
 70
     0
  0
ENDTAB
  0
TABLE
  2
DIMSTYLE
  5
A
330
0
100
AcDbSymbolTable
 70
     5
100
AcDbDimStyleTable
 71
     1
340
8A
  0
DIMSTYLE
105
58
330
A
100
AcDbSymbolTableRecord
100
AcDbDimStyleTableRecord
  2
Standard
 70
     0
340
55
  0
DIMSTYLE
105
59
330
A
100
AcDbSymbolTableRecord
100
AcDbDimStyleTableRecord
  2
Annotative
 70
     0
340
55
1001
AcadAnnotative
1000
AnnotativeData
1002
{
1070
     1
1070
     1
1002
}
  0
DIMSTYLE
105
80
102
{ACAD_REACTORS
330
4E5
330
4FC
330
4FD
330
4FE
330
4FF
102
}
330
A
100
AcDbSymbolTableRecord
100
AcDbDimStyleTableRecord
  2
CAD-DL
 70
     0
 41
2.0
 42
2.0
 43
10.0
 44
2.0
 73
     0
 74
     0
 77
     3
 78
     8
140
5.0
141
0.0
143
0.0394
145
1.0
147
2.0
176
   256
178
   256
271
     0
272
     0
279
     1
284
     8
285
     8
286
     8
340
7A
341
82
342
85
371
    -1
  0
DIMSTYLE
105
8A
330
A
100
AcDbSymbolTableRecord
100
AcDbDimStyleTableRecord
  2
AM_ISO
 70
     0
  4
"
 41
2.5
 42
1.0
 43
10.0
 44
1.0
 47
0.1
 48
0.1
 73
     0
 74
     0
 77
     1
 78
     8
 79
     2
140
3.5
141
0.0
143
0.0393701
146
0.71
147
1.5
172
     1
176
   256
177
   256
178
     2
271
     2
272
     3
274
     4
283
     0
284
     8
340
55
371
    -1
372
    -1
  0
DIMSTYLE
105
334
330
A
100
AcDbSymbolTableRecord
100
AcDbDimStyleTableRecord
  2
ISO-25
 70
     0
 41
2.5
 42
0.625
 43
3.75
 44
1.25
 73
     0
 74
     0
 77
     1
 78
     8
140
2.5
141
2.5
143
0.03937007874016
147
0.625
171
     3
172
     1
271
     2
272
     2
274
     3
278
    44
283
     0
284
     8
340
55
  0
ENDTAB
  0
TABLE
  2
BLOCK_RECORD
  5
1
330
0
100
AcDbSymbolTable
 70
    12
  0
BLOCK_RECORD
  5
70
102
{ACAD_XDICTIONARY
360
1CC
102
}
330
1
100
AcDbSymbolTableRecord
100
AcDbBlockTableRecord
  2
*Model_Space
340
73
 70
     0
280
     1
281
     0
  0
BLOCK_RECORD
  5
6C
330
1
100
AcDbSymbolTableRecord
100
AcDbBlockTableRecord
  2
*Paper_Space
340
6F
 70
     0
280
     1
281
     0
  0
BLOCK_RECORD
  5
74
330
1
100
AcDbSymbolTableRecord
100
AcDbBlockTableRecord
  2
*Paper_Space0
340
77
 70
     0
280
     1
281
     0
  0
BLOCK_RECORD
  5
82
330
1
100
AcDbSymbolTableRecord
100
AcDbBlockTableRecord
  2
_None
340
0
 70
     0
280
     1
281
     0
  0
BLOCK_RECORD
  5
85
330
1
100
AcDbSymbolTableRecord
100
AcDbBlockTableRecord
  2
_DOT
340
0
310
2800000020000000200000000100080000000000000400000000000000000000000000000000000000000000000080000080000000808000800000008000800080800000C0C0C000C0DCC000F0CAA6000020400000206000002080000020A0000020C0000020E00000400000004020000040400000406000004080000040A0
310
000040C0000040E00000600000006020000060400000606000006080000060A0000060C0000060E00000800000008020000080400000806000008080000080A0000080C0000080E00000A0000000A0200000A0400000A0600000A0800000A0A00000A0C00000A0E00000C0000000C0200000C0400000C0600000C0800000C0
310
A00000C0C00000C0E00000E0000000E0200000E0400000E0600000E0800000E0A00000E0C00000E0E00040000000400020004000400040006000400080004000A0004000C0004000E00040200000402020004020400040206000402080004020A0004020C0004020E000404000004040200040404000404060004040800040
310
40A0004040C0004040E00040600000406020004060400040606000406080004060A0004060C0004060E00040800000408020004080400040806000408080004080A0004080C0004080E00040A0000040A0200040A0400040A0600040A0800040A0A00040A0C00040A0E00040C0000040C0200040C0400040C0600040C08000
310
40C0A00040C0C00040C0E00040E0000040E0200040E0400040E0600040E0800040E0A00040E0C00040E0E00080000000800020008000400080006000800080008000A0008000C0008000E00080200000802020008020400080206000802080008020A0008020C0008020E00080400000804020008040400080406000804080
310
008040A0008040C0008040E00080600000806020008060400080606000806080008060A0008060C0008060E00080800000808020008080400080806000808080008080A0008080C0008080E00080A0000080A0200080A0400080A0600080A0800080A0A00080A0C00080A0E00080C0000080C0200080C0400080C0600080C0
310
800080C0A00080C0C00080C0E00080E0000080E0200080E0400080E0600080E0800080E0A00080E0C00080E0E000C0000000C0002000C0004000C0006000C0008000C000A000C000C000C000E000C0200000C0202000C0204000C0206000C0208000C020A000C020C000C020E000C0400000C0402000C0404000C0406000C0
310
408000C040A000C040C000C040E000C0600000C0602000C0604000C0606000C0608000C060A000C060C000C060E000C0800000C0802000C0804000C0806000C0808000C080A000C080C000C080E000C0A00000C0A02000C0A04000C0A06000C0A08000C0A0A000C0A0C000C0A0E000C0C00000C0C02000C0C04000C0C06000
310
C0C08000C0C0A000F0FBFF00A4A0A000808080000000FF0000FF000000FFFF00FF000000FF00FF00FFFF0000FFFFFF0000000000000000000000000000000000000000000000000000000000000000000000000000000000000000000000000000000000000000000000000000000000000000000000000000000000000000
310
000000000000000000000000000000000000000000000000000000000000000000000000000000000000000000000000000000000000000000000000000000000000000000000000000000000000000000000000000000000000000000000000000000FFFFFFFFFFFFFFFFFFFFFFFFFF000000000000000000000000000000
310
000000FF00FF000000000000000000FF00FF0000000000000000000000000000000000FF00FF000000000000000000FF00FF00000000000000000000000000000000FF000000FF00000000000000FF00000000000000000000000000000000000000FF000000FF00000000000000FF00000000000000000000000000000000
310
0000FF0000000000FF0000000000FF00000000000000000000000000000000000000FF0000000000FF0000000000FF000000000000000000000000000000000000FF00000000000000FF000000FF00000000000000000000000000000000000000FF00000000000000FF000000FF0000000000000000000000000000000000
310
00FF000000000000000000FF00FF00000000000000000000000000000000000000FF000000000000000000FFFFFF00000000FFFF00FFFFFFFFFFFFFFFFFFFFFFFFFFFFFFFFFFFFFFFFFFFFFFFFFFFFFFFFFF000000000000000000000000000000FF000000000000000000FF00FF0000000000000000000000000000000000
310
0000FF0000000000000000FF000000FF00000000000000000000000000000000000000FF00000000000000FF000000FF00000000000000000000000000000000000000FF000000000000FF0000000000FF00000000000000000000000000000000000000FF0000000000FF0000000000FF0000000000000000000000000000
310
000000000000FF000000FF00000000000000FF00000000000000000000000000000000000000FF000000FF00000000000000FF0000000000000000000000000000000000000000FF00FF000000000000000000FF00FF0000000000000000000000000000000000FF00FF000000000000000000FF00FF000000000000000000
310
000000000000000000FFFFFFFFFFFFFFFFFFFFFFFFFF000000000000000000000000000000000000000000000000000000000000000000000000000000000000000000000000000000000000000000000000000000000000000000000000000000000000000000000000000000000000000000000000000000000000000000
310
0000000000000000000000000000000000000000000000000000000000000000000000000000000000000000000000000000000000000000
102
{BLKREFS
331
6DA
331
6DB
331
6E3
331
6E4
331
6EC
331
6ED
331
6F5
331
6F6
331
6FE
331
6FF
102
}
 70
     0
280
     1
281
     0
  0
BLOCK_RECORD
  5
A6
330
1
100
AcDbSymbolTableRecord
100
AcDbBlockTableRecord
  2
S φ4.2×45　シンワッシャー
340
0
310
2800000020000000200000000100080000000000000400000000000000000000000000000000000000000000000080000080000000808000800000008000800080800000C0C0C000C0DCC000F0CAA6000020400000206000002080000020A0000020C0000020E00000400000004020000040400000406000004080000040A0
310
000040C0000040E00000600000006020000060400000606000006080000060A0000060C0000060E00000800000008020000080400000806000008080000080A0000080C0000080E00000A0000000A0200000A0400000A0600000A0800000A0A00000A0C00000A0E00000C0000000C0200000C0400000C0600000C0800000C0
310
A00000C0C00000C0E00000E0000000E0200000E0400000E0600000E0800000E0A00000E0C00000E0E00040000000400020004000400040006000400080004000A0004000C0004000E00040200000402020004020400040206000402080004020A0004020C0004020E000404000004040200040404000404060004040800040
310
40A0004040C0004040E00040600000406020004060400040606000406080004060A0004060C0004060E00040800000408020004080400040806000408080004080A0004080C0004080E00040A0000040A0200040A0400040A0600040A0800040A0A00040A0C00040A0E00040C0000040C0200040C0400040C0600040C08000
310
40C0A00040C0C00040C0E00040E0000040E0200040E0400040E0600040E0800040E0A00040E0C00040E0E00080000000800020008000400080006000800080008000A0008000C0008000E00080200000802020008020400080206000802080008020A0008020C0008020E00080400000804020008040400080406000804080
310
008040A0008040C0008040E00080600000806020008060400080606000806080008060A0008060C0008060E00080800000808020008080400080806000808080008080A0008080C0008080E00080A0000080A0200080A0400080A0600080A0800080A0A00080A0C00080A0E00080C0000080C0200080C0400080C0600080C0
310
800080C0A00080C0C00080C0E00080E0000080E0200080E0400080E0600080E0800080E0A00080E0C00080E0E000C0000000C0002000C0004000C0006000C0008000C000A000C000C000C000E000C0200000C0202000C0204000C0206000C0208000C020A000C020C000C020E000C0400000C0402000C0404000C0406000C0
310
408000C040A000C040C000C040E000C0600000C0602000C0604000C0606000C0608000C060A000C060C000C060E000C0800000C0802000C0804000C0806000C0808000C080A000C080C000C080E000C0A00000C0A02000C0A04000C0A06000C0A08000C0A0A000C0A0C000C0A0E000C0C00000C0C02000C0C04000C0C06000
310
C0C08000C0C0A000F0FBFF00A4A0A000808080000000FF0000FF000000FFFF00FF000000FF00FF00FFFF0000FFFFFF0000000000000000000000000000000000000000000000000000000000000000000000000000000000000000000000000000000000000000000000000000000000000000000000000000000000000000
310
00000000000000000000000000000000000000000000000000000000000000000000000000000000000000000000000000000000000000000000000000000000000000000000000000000000000000000000000000000000000000000000000000000000000000000000000000000000000000000000000000000000000000
310
00000000000000000000000000000000000000000000000000000000000000000000000000000000000000000000000000000000000000000000000000000000000000000000000000000000000000000000000000000000000000000000000000000000000000000000000000000000000000000000000000000000000000
310
0000000000000000000000000000000000000000000000000000000000000000000000000000000000000000000000000000000000000000000000000000000000000000000000000000000000000000000000000000000000000000000000000000000000000000000000000000FD0000000000000000FDFDFDFDFDFDFDFD
310
FDFDFDFDFDFDFDFDFDFDFDFDFDFDFDFD0000000000FDFDFDFDFDFDFDFDFDFDFDFDFDFDFD0000000000000000000000FD0000000000000000FD00FD000000000000000000FDFDFDFDFDFDFDFDFDFDFDFDFDFDFD0000000000FDFDFDFDFDFDFDFDFDFDFDFDFDFDFDFDFDFDFDFDFDFDFDFD000000000000000000000000000000
310
00000000000000000000000000000000FD0000000000000000000000000000000000000000000000000000000000000000000000000000000000000000000000000000000000000000000000000000000000000000000000000000000000000000000000000000000000000000000000000000000000000000000000000000
310
00000000000000000000000000000000000000000000000000000000000000000000000000000000000000000000000000000000000000000000000000000000000000000000000000000000000000000000000000000000000000000000000000000000000000000000000000000000000000000000000000000000000000
310
00000000000000000000000000000000000000000000000000000000000000000000000000000000000000000000000000000000000000000000000000000000000000000000000000000000000000000000000000000000000000000000000000000000000000000000000000000000000000000000000000000000000000
310
0000000000000000000000000000000000000000000000000000000000000000000000000000000000000000000000000000000000000000
 70
     4
280
     1
281
     0
  0
BLOCK_RECORD
  5
167
330
1
100
AcDbSymbolTableRecord
100
AcDbBlockTableRecord
  2
S　φ4.2×25
340
0
310
2800000020000000200000000100080000000000000400000000000000000000000000000000000000000000000080000080000000808000800000008000800080800000C0C0C000C0DCC000F0CAA6000020400000206000002080000020A0000020C0000020E00000400000004020000040400000406000004080000040A0
310
000040C0000040E00000600000006020000060400000606000006080000060A0000060C0000060E00000800000008020000080400000806000008080000080A0000080C0000080E00000A0000000A0200000A0400000A0600000A0800000A0A00000A0C00000A0E00000C0000000C0200000C0400000C0600000C0800000C0
310
A00000C0C00000C0E00000E0000000E0200000E0400000E0600000E0800000E0A00000E0C00000E0E00040000000400020004000400040006000400080004000A0004000C0004000E00040200000402020004020400040206000402080004020A0004020C0004020E000404000004040200040404000404060004040800040
310
40A0004040C0004040E00040600000406020004060400040606000406080004060A0004060C0004060E00040800000408020004080400040806000408080004080A0004080C0004080E00040A0000040A0200040A0400040A0600040A0800040A0A00040A0C00040A0E00040C0000040C0200040C0400040C0600040C08000
310
40C0A00040C0C00040C0E00040E0000040E0200040E0400040E0600040E0800040E0A00040E0C00040E0E00080000000800020008000400080006000800080008000A0008000C0008000E00080200000802020008020400080206000802080008020A0008020C0008020E00080400000804020008040400080406000804080
310
008040A0008040C0008040E00080600000806020008060400080606000806080008060A0008060C0008060E00080800000808020008080400080806000808080008080A0008080C0008080E00080A0000080A0200080A0400080A0600080A0800080A0A00080A0C00080A0E00080C0000080C0200080C0400080C0600080C0
310
800080C0A00080C0C00080C0E00080E0000080E0200080E0400080E0600080E0800080E0A00080E0C00080E0E000C0000000C0002000C0004000C0006000C0008000C000A000C000C000C000E000C0200000C0202000C0204000C0206000C0208000C020A000C020C000C020E000C0400000C0402000C0404000C0406000C0
310
408000C040A000C040C000C040E000C0600000C0602000C0604000C0606000C0608000C060A000C060C000C060E000C0800000C0802000C0804000C0806000C0808000C080A000C080C000C080E000C0A00000C0A02000C0A04000C0A06000C0A08000C0A0A000C0A0C000C0A0E000C0C00000C0C02000C0C04000C0C06000
310
C0C08000C0C0A000F0FBFF00A4A0A000808080000000FF0000FF000000FFFF00FF000000FF00FF00FFFF0000FFFFFF0000000000000000000000000000000000000000000000000000000000000000000000000000000000000000000000000000000000000000000000000000000000000000000000000000000000000000
310
00000000000000000000000000000000000000000000000000000000000000000000000000000000000000000000000000000000000000000000000000000000000000000000000000000000000000000000000000000000000000000000000000000000000000000000000000000000000000000000000000000000000000
310
00000000000000000000000000000000000000000000000000000000000000000000000000000000000000000000000000000000000000000000000000000000000000000000000000000000000000000000000000000000000000000000000000000000000000000000000000000000000000000000000000000000000000
310
00000000000000000000000000000000000000000000000000000000000000000000000000000000000000000000000000000000000000000000000000000000000000000000000000000000FDFD000000000000000000000000000000000000000000000000000000000000FDFD00000000000000000000FDFDFDFDFDFDFD
310
FDFDFDFDFDFDFDFDFDFDFDFDFDFDFD000000000000FDFDFDFDFDFDFDFDFDFDFDFDFDFDFD000000000000000000FDFD00000000000000000000FDFD00FD00000000000000FDFDFDFDFDFDFDFDFDFDFDFDFDFDFD000000000000FDFDFDFDFDFDFDFDFDFDFDFDFDFDFDFDFDFDFDFDFDFD00000000000000000000000000000000
310
0000000000000000000000000000FDFD000000000000000000000000000000000000000000000000000000000000FDFD00000000000000000000000000000000000000000000000000000000000000000000000000000000000000000000000000000000000000000000000000000000000000000000000000000000000000
310
00000000000000000000000000000000000000000000000000000000000000000000000000000000000000000000000000000000000000000000000000000000000000000000000000000000000000000000000000000000000000000000000000000000000000000000000000000000000000000000000000000000000000
310
00000000000000000000000000000000000000000000000000000000000000000000000000000000000000000000000000000000000000000000000000000000000000000000000000000000000000000000000000000000000000000000000000000000000000000000000000000000000000000000000000000000000000
310
0000000000000000000000000000000000000000000000000000000000000000000000000000000000000000000000000000000000000000
 70
     4
280
     1
281
     0
  0
BLOCK_RECORD
  5
5D4
330
1
100
AcDbSymbolTableRecord
100
AcDbBlockTableRecord
  2
*D5
340
0
 70
     0
280
     1
281
     0
  0
BLOCK_RECORD
  5
5E0
330
1
100
AcDbSymbolTableRecord
100
AcDbBlockTableRecord
  2
*D6
340
0
 70
     0
280
     1
281
     0
  0
BLOCK_RECORD
  5
5EC
330
1
100
AcDbSymbolTableRecord
100
AcDbBlockTableRecord
  2
*D7
340
0
 70
     0
280
     1
281
     0
  0
BLOCK_RECORD
  5
5F8
330
1
100
AcDbSymbolTableRecord
100
AcDbBlockTableRecord
  2
*D8
340
0
 70
     0
280
     1
281
     0
  0
BLOCK_RECORD
  5
604
330
1
100
AcDbSymbolTableRecord
100
AcDbBlockTableRecord
  2
*D9
340
0
 70
     0
280
     1
281
     0
  0
ENDTAB
  0
ENDSEC
  0
SECTION
  2
BLOCKS
  0
BLOCK
  5
71
330
70
100
AcDbEntity
  8
0
100
AcDbBlockBegin
  2
*Model_Space
 70
     0
 10
0.0
 20
0.0
 30
0.0
  3
*Model_Space
  1

  0
ENDBLK
  5
72
330
70
100
AcDbEntity
  8
0
100
AcDbBlockEnd
  0
BLOCK
  5
6D
330
6C
100
AcDbEntity
 67
     1
  8
0
100
AcDbBlockBegin
  2
*Paper_Space
 70
     0
 10
0.0
 20
0.0
 30
0.0
  3
*Paper_Space
  1

  0
ENDBLK
  5
6E
330
6C
100
AcDbEntity
 67
     1
  8
0
100
AcDbBlockEnd
  0
BLOCK
  5
75
330
74
100
AcDbEntity
 67
     1
  8
0
100
AcDbBlockBegin
  2
*Paper_Space0
 70
     0
 10
0.0
 20
0.0
 30
0.0
  3
*Paper_Space0
  1

  0
ENDBLK
  5
76
330
74
100
AcDbEntity
 67
     1
  8
0
100
AcDbBlockEnd
  0
BLOCK
  5
83
330
82
100
AcDbEntity
  8
0
100
AcDbBlockBegin
  2
_None
 70
     0
 10
0.0
 20
0.0
 30
0.0
  3
_None
  1

  0
ENDBLK
  5
84
330
82
100
AcDbEntity
  8
0
100
AcDbBlockEnd
  0
BLOCK
  5
86
330
85
100
AcDbEntity
  8
0
100
AcDbBlockBegin
  2
_DOT
 70
     0
 10
0.0
 20
0.0
 30
0.0
  3
_DOT
  1

  0
LWPOLYLINE
  5
87
330
85
100
AcDbEntity
  8
0
  6
ByBlock
 62
     0
100
AcDbPolyline
 90
        2
 70
     1
 43
0.5
 10
-0.25
 20
0.0
 42
1.0
 10
0.25
 20
0.0
 42
1.0
  0
LINE
  5
88
330
85
100
AcDbEntity
  8
0
  6
ByBlock
 62
     0
100
AcDbLine
 10
-0.5
 20
0.0
 30
0.0
 11
-1.0
 21
0.0
 31
0.0
  0
ENDBLK
  5
89
330
85
100
AcDbEntity
  8
0
100
AcDbBlockEnd
  0
BLOCK
  5
A7
330
A6
100
AcDbEntity
  8
0
100
AcDbBlockBegin
  2
S φ4.2×45　シンワッシャー
 70
     0
 10
0.0
 20
0.0
 30
0.0
  3
S φ4.2×45　シンワッシャー
  1

  0
ARC
  5
A8
330
A6
100
AcDbEntity
  8
BISUKUGI
100
AcDbCircle
 10
-5.089033838700514
 20
0.0000000000002274
 30
0.0
 40
7.597415320579115
100
AcDbArc
 50
320.8174087950902
 51
39.18259120489159
  0
LINE
  5
A9
330
A6
100
AcDbEntity
  8
BISUKUGI
100
AcDbLine
 10
0.0
 20
-5.300000000001318
 30
0.0
 11
0.0
 21
5.300000000001318
 31
0.0
  0
LINE
  5
AA
330
A6
100
AcDbEntity
  8
BISUKUGI
100
AcDbLine
 10
0.7999999999997272
 20
5.300000000001205
 30
0.0
 11
0.7999999999997272
 21
-5.300000000001205
 31
0.0
  0
ARC
  5
AB
330
A6
100
AcDbEntity
  8
BISUKUGI
100
AcDbCircle
 10
0.3999999999998636
 20
4.999999999998066
 30
0.0
 40
0.5000000000018418
100
AcDbArc
 50
36.86989764613193
 51
143.1301023538485
  0
ARC
  5
AC
330
A6
100
AcDbEntity
  8
BISUKUGI
100
AcDbCircle
 10
0.3999999999998636
 20
-4.999999999998066
 30
0.0
 40
0.5000000000018418
100
AcDbArc
 50
216.8698976461515
 51
323.130102353868
  0
ARC
  5
AD
330
A6
100
AcDbEntity
  8
BISUKUGI
100
AcDbCircle
 10
-43.43521733585952
 20
-4.984487724017867
 30
0.0
 40
5.0
100
AcDbArc
 50
38.08992903059093
 51
85.48557195627548
  0
ARC
  5
AE
330
A6
100
AcDbEntity
  8
BISUKUGI
100
AcDbCircle
 10
-44.97643152934085
 20
0.5066408255997886
 30
0.0
 40
2.0
100
AcDbArc
 50
345.3259155108912
 51
44.161210162238
  0
LINE
  5
AF
330
A6
100
AcDbEntity
  8
BISUKUGI
100
AcDbLine
 10
-39.5
 20
-2.100000000005366
 30
0.0
 11
-39.5
 21
2.099999999993996
 31
0.0
  0
LINE
  5
B0
330
A6
100
AcDbEntity
  8
BISUKUGI
100
AcDbLine
 10
-45.0
 20
-0.0000000000113687
 30
0.0
 11
-43.54166666667322
 21
1.899999999988721
 31
0.0
  0
LINE
  5
B1
330
A6
100
AcDbEntity
  8
BISUKUGI
100
AcDbLine
 10
-45.0
 20
-0.0000000000113687
 30
0.0
 11
-43.49190363349658
 21
-1.900000000011004
 31
0.0
  0
LINE
  5
B2
330
A6
100
AcDbEntity
  8
BISUKUGI
100
AcDbLine
 10
0.0
 20
2.099999999994223
 30
0.0
 11
-39.50000000000012
 21
2.099999999994423
 31
0.0
  0
LINE
  5
B3
330
A6
100
AcDbEntity
  8
BISUKUGI
100
AcDbLine
 10
0.0
 20
-2.100000000005592
 30
0.0
 11
-39.50000000000012
 21
-2.099999999997776
 31
0.0
  0
LINE
  5
B4
330
A6
100
AcDbEntity
  8
BISUKUGI
  6
CENTERX2
100
AcDbLine
 10
-47.99999999999568
 20
-0.0000000000056843
 30
0.0
 11
5.499437301599299
 21
0.0
 31
0.0
  0
LINE
  5
B5
330
A6
100
AcDbEntity
  8
BISUKUGI
100
AcDbLine
 10
-39.49999999999988
 20
1.899999999988721
 30
0.0
 11
-43.54166666667322
 21
1.899999999988721
 31
0.0
  0
LINE
  5
B6
330
A6
100
AcDbEntity
  8
BISUKUGI
100
AcDbLine
 10
-39.5
 20
-1.900000000010776
 30
0.0
 11
-43.49190363349658
 21
-1.900000000011004
 31
0.0
  0
ENDBLK
  5
B7
330
A6
100
AcDbEntity
  8
0
100
AcDbBlockEnd
  0
BLOCK
  5
168
330
167
100
AcDbEntity
  8
0
100
AcDbBlockBegin
  2
S　φ4.2×25
 70
     0
 10
0.0
 20
0.0
 30
0.0
  3
S　φ4.2×25
  1

  0
ARC
  5
169
330
167
100
AcDbEntity
  8
BISUKUGI
100
AcDbCircle
 10
0.8792705549419679
 20
-2.103647225290159
 30
0.0
 40
2.0
100
AcDbArc
 50
243.919387275907
 51
273.460747776051
  0
ARC
  5
16A
330
167
100
AcDbEntity
  8
BISUKUGI
100
AcDbCircle
 10
-24.97643152934086
 20
0.5066408256054729
 30
0.0
 40
2.0
100
AcDbArc
 50
345.3259155108848
 51
44.161210162238
  0
LINE
  5
16B
330
167
100
AcDbEntity
  8
BISUKUGI
100
AcDbLine
 10
-20.50000000000057
 20
-2.100000000003546
 30
0.0
 11
-20.50000000000057
 21
2.099999999995815
 31
0.0
  0
LINE
  5
16C
330
167
100
AcDbEntity
  8
BISUKUGI
100
AcDbLine
 10
-25.0
 20
-0.0000000000056843
 30
0.0
 11
-23.54166666667321
 21
1.899999999994406
 31
0.0
  0
LINE
  5
16D
330
167
100
AcDbEntity
  8
BISUKUGI
100
AcDbLine
 10
-25.0
 20
-0.0000000000056843
 30
0.0
 11
-23.49190363349658
 21
-1.90000000000532
 31
0.0
  0
LINE
  5
16E
330
167
100
AcDbEntity
  8
BISUKUGI
100
AcDbLine
 10
0.0
 20
2.099999999994223
 30
0.0
 11
-20.50000000000046
 21
2.099999999994223
 31
0.0
  0
LINE
  5
16F
330
167
100
AcDbEntity
  8
BISUKUGI
100
AcDbLine
 10
0.0
 20
-2.100000000005592
 30
0.0
 11
-20.50000000000046
 21
-2.100000000005138
 31
0.0
  0
LINE
  5
170
330
167
100
AcDbEntity
  8
BISUKUGI
100
AcDbLine
 10
0.0
 20
3.900000000001114
 30
0.0
 11
-0.0000000000002274
 21
-3.900000000001114
 31
0.0
  0
LINE
  5
171
330
167
100
AcDbEntity
  8
BISUKUGI
  6
CENTERX2
100
AcDbLine
 10
-28.00000000000057
 20
-0.0000000000050022
 30
0.0
 11
5.899999999999861
 21
0.0000000000010232
 31
0.0
  0
LINE
  5
172
330
167
100
AcDbEntity
  8
BISUKUGI
100
AcDbLine
 10
-20.50000000000057
 20
1.899999999994406
 30
0.0
 11
-23.54166666667321
 21
1.899999999994406
 31
0.0
  0
LINE
  5
173
330
167
100
AcDbEntity
  8
BISUKUGI
100
AcDbLine
 10
-20.50000000000046
 20
-1.900000000005206
 30
0.0
 11
-23.49190363349658
 21
-1.90000000000532
 31
0.0
  0
ARC
  5
174
330
167
100
AcDbEntity
  8
BISUKUGI
100
AcDbCircle
 10
-24.60979482408436
 20
-4.747733573205778
 30
0.0
 40
5.0
100
AcDbArc
 50
34.71862283375607
 51
71.72213565281452
  0
LINE
  5
175
330
167
100
AcDbEntity
  8
BISUKUGI
100
AcDbLine
 10
1.0
 20
4.100000000001158
 30
0.0
 11
1.0
 21
-4.099999999998884
 31
0.0
  0
ARC
  5
176
330
167
100
AcDbEntity
  8
BISUKUGI
100
AcDbCircle
 10
-2.473684210526243
 20
0.0000000000010232
 30
0.0
 40
5.373684210526199
100
AcDbArc
 50
310.2726068564893
 51
49.72739314351061
  0
ARC
  5
177
330
167
100
AcDbEntity
  8
BISUKUGI
100
AcDbCircle
 10
0.8792705549419679
 20
2.103647225290159
 30
0.0
 40
2.0
100
AcDbArc
 50
86.53925222394901
 51
116.080612724093
  0
ENDBLK
  5
178
330
167
100
AcDbEntity
  8
0
100
AcDbBlockEnd
  0
BLOCK
  5
5D5
330
5D4
100
AcDbEntity
  8
0
 48
0.2
100
AcDbBlockBegin
  2
*D5
 70
     1
 10
0.0
 20
0.0
 30
0.0
  3
*D5
  1

  0
LINE
  5
6D7
330
5D4
100
AcDbEntity
  8
SUNPO
 62
     0
440
 16777216
 48
0.1
370
    -2
100
AcDbLine
 10
377.8899361412686
 20
306.1621183802291
 30
0.0
 11
343.5000763521521
 21
306.1621183802291
 31
0.0
  0
LINE
  5
6D8
330
5D4
100
AcDbEntity
  8
SUNPO
 62
     0
440
 16777216
 48
0.1
370
    -2
100
AcDbLine
 10
358.5704653217184
 20
277.1621182039995
 30
0.0
 11
343.5000763521521
 21
277.1621182039995
 31
0.0
  0
LINE
  5
6D9
330
5D4
100
AcDbEntity
  8
SUNPO
 62
     0
440
 16777216
 48
0.1
100
AcDbLine
 10
343.5000763521521
 20
305.1621183802291
 30
0.0
 11
343.5000763521521
 21
278.1621182039995
 31
0.0
  0
INSERT
  5
6DA
330
5D4
100
AcDbEntity
  8
SUNPO
 62
     0
440
 16777216
 48
0.1
100
AcDbBlockReference
  2
_DOT
 10
343.5000763521521
 20
306.1621183802291
 30
0.0
 50
90.0
  0
INSERT
  5
6DB
330
5D4
100
AcDbEntity
  8
SUNPO
 62
     0
440
 16777216
 48
0.1
100
AcDbBlockReference
  2
_DOT
 10
343.5000763521521
 20
277.1621182039995
 30
0.0
 50
270.0
  0
MTEXT
  5
6DC
330
5D4
100
AcDbEntity
  8
SUNPO
440
 16777216
 48
0.1
100
AcDbMText
 10
339.0000763521521
 20
291.6621182921142
 30
0.0
 40
5.0
 41
0.0
 46
0.0
 71
     5
 72
     1
  1
\A1;35
  7
CAD-DL
 11
0.0000000000000001
 21
1.0
 31
0.0
 73
     1
 44
1.0
  0
POINT
  5
6DD
330
5D4
100
AcDbEntity
  8
Defpoints
 62
     0
440
 16777216
 48
0.1
100
AcDbPoint
 10
382.8899361412685
 20
306.1621183802291
 30
0.0000000000076729
  0
POINT
  5
6DE
330
5D4
100
AcDbEntity
  8
Defpoints
 62
     0
440
 16777216
 48
0.1
100
AcDbPoint
 10
363.5704653217184
 20
277.1621182039995
 30
0.0000000000076729
  0
POINT
  5
6DF
330
5D4
100
AcDbEntity
  8
Defpoints
 62
     0
440
 16777216
 48
0.1
100
AcDbPoint
 10
343.5000763521521
 20
277.1621182039995
 30
0.0
  0
ENDBLK
  5
5D6
330
5D4
100
AcDbEntity
  8
0
 48
0.2
100
AcDbBlockEnd
  0
BLOCK
  5
5E1
330
5E0
100
AcDbEntity
  8
0
 48
0.2
100
AcDbBlockBegin
  2
*D6
 70
     1
 10
0.0
 20
0.0
 30
0.0
  3
*D6
  1

  0
LINE
  5
6E0
330
5E0
100
AcDbEntity
  8
SUNPO
 62
     0
440
 16777216
 48
0.1
370
    -2
100
AcDbLine
 10
615.4330580739733
 20
322.6621321110538
 30
0.0
 11
630.3853347148171
 21
322.6621321110538
 31
0.0
  0
LINE
  5
6E1
330
5E0
100
AcDbEntity
  8
SUNPO
 62
     0
440
 16777216
 48
0.1
370
    -2
100
AcDbLine
 10
615.4330580739733
 20
307.6621321110538
 30
0.0
 11
630.3853347148171
 21
307.6621321110538
 31
0.0
  0
LINE
  5
6E2
330
5E0
100
AcDbEntity
  8
SUNPO
 62
     0
440
 16777216
 48
0.1
100
AcDbLine
 10
630.3853347148171
 20
321.6621321110538
 30
0.0
 11
630.3853347148171
 21
308.6621321110538
 31
0.0
  0
INSERT
  5
6E3
330
5E0
100
AcDbEntity
  8
SUNPO
 62
     0
440
 16777216
 48
0.1
100
AcDbBlockReference
  2
_DOT
 10
630.3853347148171
 20
322.6621321110538
 30
0.0
 50
90.0
  0
INSERT
  5
6E4
330
5E0
100
AcDbEntity
  8
SUNPO
 62
     0
440
 16777216
 48
0.1
100
AcDbBlockReference
  2
_DOT
 10
630.3853347148171
 20
307.6621321110538
 30
0.0
 50
270.0
  0
MTEXT
  5
6E5
330
5E0
100
AcDbEntity
  8
SUNPO
440
 16777216
 48
0.1
100
AcDbMText
 10
625.8853347148171
 20
315.1621321110535
 30
0.0
 40
5.0
 41
0.0
 46
0.0
 71
     5
 72
     1
  1
\A1;15
  7
CAD-DL
 11
0.0000000000000001
 21
1.0
 31
0.0
 73
     1
 44
1.0
  0
POINT
  5
6E6
330
5E0
100
AcDbEntity
  8
Defpoints
 62
     0
440
 16777216
 48
0.1
100
AcDbPoint
 10
610.4330580739733
 20
322.6621321110538
 30
0.0
  0
POINT
  5
6E7
330
5E0
100
AcDbEntity
  8
Defpoints
 62
     0
440
 16777216
 48
0.1
100
AcDbPoint
 10
610.4330580739733
 20
307.6621321110538
 30
0.0
  0
POINT
  5
6E8
330
5E0
100
AcDbEntity
  8
Defpoints
 62
     0
440
 16777216
 48
0.1
100
AcDbPoint
 10
630.3853347148171
 20
307.6621321110538
 30
0.0
  0
ENDBLK
  5
5E2
330
5E0
100
AcDbEntity
  8
0
 48
0.2
100
AcDbBlockEnd
  0
BLOCK
  5
5ED
330
5EC
100
AcDbEntity
  8
0
 48
0.2
100
AcDbBlockBegin
  2
*D7
 70
     1
 10
0.0
 20
0.0
 30
0.0
  3
*D7
  1

  0
LINE
  5
6E9
330
5EC
100
AcDbEntity
  8
SUNPO
 62
     0
440
 16777216
 48
0.1
370
    -2
100
AcDbLine
 10
615.4330580739733
 20
427.1621182040059
 30
0.0
 11
630.3853347148235
 21
427.1621182040059
 31
0.0
  0
LINE
  5
6EA
330
5EC
100
AcDbEntity
  8
SUNPO
 62
     0
440
 16777216
 48
0.1
370
    -2
100
AcDbLine
 10
615.4330580739733
 20
327.1621182040067
 30
0.0
 11
630.3853347148235
 21
327.1621182040067
 31
0.0
  0
LINE
  5
6EB
330
5EC
100
AcDbEntity
  8
SUNPO
 62
     0
440
 16777216
 48
0.1
100
AcDbLine
 10
630.3853347148235
 20
426.1621182040058
 30
0.0
 11
630.3853347148235
 21
328.1621182040067
 31
0.0
  0
INSERT
  5
6EC
330
5EC
100
AcDbEntity
  8
SUNPO
 62
     0
440
 16777216
 48
0.1
100
AcDbBlockReference
  2
_DOT
 10
630.3853347148235
 20
427.1621182040059
 30
0.0
 50
90.0
  0
INSERT
  5
6ED
330
5EC
100
AcDbEntity
  8
SUNPO
 62
     0
440
 16777216
 48
0.1
100
AcDbBlockReference
  2
_DOT
 10
630.3853347148235
 20
327.1621182040067
 30
0.0
 50
270.0
  0
MTEXT
  5
6EE
330
5EC
100
AcDbEntity
  8
SUNPO
440
 16777216
 48
0.1
100
AcDbMText
 10
625.8853347148235
 20
377.162118204006
 30
0.0
 40
5.0
 41
0.0
 46
0.0
 71
     5
 72
     1
  1
\A1;100
  7
CAD-DL
 11
0.0000000000000001
 21
1.0
 31
0.0
 73
     1
 44
1.0
  0
POINT
  5
6EF
330
5EC
100
AcDbEntity
  8
Defpoints
 62
     0
440
 16777216
 48
0.1
100
AcDbPoint
 10
610.4330580739733
 20
427.1621182040059
 30
0.0
  0
POINT
  5
6F0
330
5EC
100
AcDbEntity
  8
Defpoints
 62
     0
440
 16777216
 48
0.1
100
AcDbPoint
 10
610.4330580739733
 20
327.1621182040067
 30
0.0
  0
POINT
  5
6F1
330
5EC
100
AcDbEntity
  8
Defpoints
 62
     0
440
 16777216
 48
0.1
100
AcDbPoint
 10
630.3853347148235
 20
327.1621182040067
 30
0.0
  0
ENDBLK
  5
5EE
330
5EC
100
AcDbEntity
  8
0
 48
0.2
100
AcDbBlockEnd
  0
BLOCK
  5
5F9
330
5F8
100
AcDbEntity
  8
0
 48
0.2
100
AcDbBlockBegin
  2
*D8
 70
     1
 10
0.0
 20
0.0
 30
0.0
  3
*D8
  1

  0
LINE
  5
6F2
330
5F8
100
AcDbEntity
  8
SUNPO
 62
     0
440
 16777216
 48
0.1
370
    -2
100
AcDbLine
 10
329.3899502619654
 20
432.1621321110602
 30
0.0
 11
329.3899502619654
 21
442.6815668835719
 31
0.0
  0
LINE
  5
6F3
330
5F8
100
AcDbEntity
  8
SUNPO
 62
     0
440
 16777216
 48
0.1
370
    -2
100
AcDbLine
 10
429.3899502619749
 20
432.1621321110601
 30
0.0
 11
429.3899502619749
 21
442.6815668835719
 31
0.0
  0
LINE
  5
6F4
330
5F8
100
AcDbEntity
  8
SUNPO
 62
     0
440
 16777216
 48
0.1
100
AcDbLine
 10
330.3899502619654
 20
442.6815668835719
 30
0.0
 11
428.3899502619749
 21
442.6815668835719
 31
0.0
  0
INSERT
  5
6F5
330
5F8
100
AcDbEntity
  8
SUNPO
 62
     0
440
 16777216
 48
0.1
100
AcDbBlockReference
  2
_DOT
 10
329.3899502619654
 20
442.6815668835719
 30
0.0
 50
180.0
  0
INSERT
  5
6F6
330
5F8
100
AcDbEntity
  8
SUNPO
 62
     0
440
 16777216
 48
0.1
100
AcDbBlockReference
  2
_DOT
 10
429.3899502619749
 20
442.6815668835719
 30
0.0
  0
MTEXT
  5
6F7
330
5F8
100
AcDbEntity
  8
SUNPO
440
 16777216
 48
0.1
100
AcDbMText
 10
379.3899502619702
 20
447.1815668835719
 30
0.0
 40
5.0
 41
0.0
 46
0.0
 71
     5
 72
     1
  1
\A1;100
  7
CAD-DL
 73
     1
 44
1.0
  0
POINT
  5
6F8
330
5F8
100
AcDbEntity
  8
Defpoints
 62
     0
440
 16777216
 48
0.1
100
AcDbPoint
 10
329.3899502619654
 20
427.1621321110602
 30
0.0
  0
POINT
  5
6F9
330
5F8
100
AcDbEntity
  8
Defpoints
 62
     0
440
 16777216
 48
0.1
100
AcDbPoint
 10
429.3899502619749
 20
427.1621321110601
 30
0.0
  0
POINT
  5
6FA
330
5F8
100
AcDbEntity
  8
Defpoints
 62
     0
440
 16777216
 48
0.1
100
AcDbPoint
 10
429.3899502619749
 20
442.6815668835719
 30
0.0
  0
ENDBLK
  5
5FA
330
5F8
100
AcDbEntity
  8
0
 48
0.2
100
AcDbBlockEnd
  0
BLOCK
  5
605
330
604
100
AcDbEntity
  8
0
 48
0.2
100
AcDbBlockBegin
  2
*D9
 70
     1
 10
0.0
 20
0.0
 30
0.0
  3
*D9
  1

  0
LINE
  5
6FB
330
604
100
AcDbEntity
  8
SUNPO
 62
     0
440
 16777216
 48
0.1
370
    -2
100
AcDbLine
 10
276.7925171963447
 20
377.1621321110603
 30
0.0
 11
260.2844834308765
 21
377.1621321110603
 31
0.0
  0
LINE
  5
6FC
330
604
100
AcDbEntity
  8
SUNPO
 62
     0
440
 16777216
 48
0.1
370
    -2
100
AcDbLine
 10
276.7925171963447
 20
277.1621182039995
 30
0.0
 11
260.2844834308765
 21
277.1621182039995
 31
0.0
  0
LINE
  5
6FD
330
604
100
AcDbEntity
  8
SUNPO
 62
     0
440
 16777216
 48
0.1
100
AcDbLine
 10
260.2844834308765
 20
376.1621321110603
 30
0.0
 11
260.2844834308765
 21
278.1621182039995
 31
0.0
  0
INSERT
  5
6FE
330
604
100
AcDbEntity
  8
SUNPO
 62
     0
440
 16777216
 48
0.1
100
AcDbBlockReference
  2
_DOT
 10
260.2844834308765
 20
377.1621321110603
 30
0.0
 50
90.0
  0
INSERT
  5
6FF
330
604
100
AcDbEntity
  8
SUNPO
 62
     0
440
 16777216
 48
0.1
100
AcDbBlockReference
  2
_DOT
 10
260.2844834308765
 20
277.1621182039995
 30
0.0
 50
270.0
  0
MTEXT
  5
700
330
604
100
AcDbEntity
  8
SUNPO
440
 16777216
 48
0.1
100
AcDbMText
 10
255.7844834308766
 20
327.1621251575298
 30
0.0
 40
5.0
 41
0.0
 46
0.0
 71
     5
 72
     1
  1
\A1;100
  7
CAD-DL
 11
0.0000000000000001
 21
1.0
 31
0.0
 73
     1
 44
1.0
  0
POINT
  5
701
330
604
100
AcDbEntity
  8
Defpoints
 62
     0
440
 16777216
 48
0.1
100
AcDbPoint
 10
281.7925171963446
 20
377.1621321110603
 30
0.0000000000076729
  0
POINT
  5
702
330
604
100
AcDbEntity
  8
Defpoints
 62
     0
440
 16777216
 48
0.1
100
AcDbPoint
 10
281.7925171963446
 20
277.1621182039995
 30
0.0000000000076729
  0
POINT
  5
703
330
604
100
AcDbEntity
  8
Defpoints
 62
     0
440
 16777216
 48
0.1
100
AcDbPoint
 10
260.2844834308765
 20
277.1621182039995
 30
0.0
  0
ENDBLK
  5
606
330
604
100
AcDbEntity
  8
0
 48
0.2
100
AcDbBlockEnd
  0
ENDSEC
  0
SECTION
  2
ENTITIES
  0
MTEXT
  5
8D
330
70
100
AcDbEntity
  8
WAKU
 48
0.4999999993549407
100
AcDbMText
 10
374.9999995162066
 20
15.99999997935811
 30
0.0
 40
4.999999993549406
 41
200.2574173176324
 46
0.0
 71
     5
 72
     5
  1
入隅01（入隅15）
  7
WAKU
 73
     1
 44
1.0
  0
MTEXT
  5
91
330
70
100
AcDbEntity
  8
WAKU
 48
0.4999999993549407
100
AcDbMText
 10
584.9999992452817
 20
20.99999997290752
 30
0.0
 40
4.999999993549406
 41
40.37504605146475
 46
0.0
 71
     5
 72
     5
  1
st003-03-01
  7
WAKU
 73
     1
 44
1.0
  0
MTEXT
  5
1AA
330
70
100
AcDbEntity
  8
WAKU
 48
0.4999999993549407
100
AcDbMText
 10
374.9999995162066
 20
25.99999996645693
 30
0.0
 40
4.999999993549406
 41
200.2574173176324
 46
0.0
 71
     5
 72
     5
  1
銘壁　新築
  7
WAKU
 73
     1
 44
1.0
  0
LINE
  5
1AB
330
70
100
AcDbEntity
  8
WAKU
 48
0.4999999993549407
100
AcDbLine
 10
14.99999998064822
 20
30.99999996000633
 30
0.0
 11
794.999998974356
 21
30.99999996000633
 31
0.0
  0
LINE
  5
1AC
330
70
100
AcDbEntity
  8
WAKU
 48
0.4999999993549407
100
AcDbLine
 10
14.99999998064822
 20
10.9999999858087
 30
0.0
 11
794.999998974356
 21
10.9999999858087
 31
0.0
  0
LINE
  5
1AD
330
70
100
AcDbEntity
  8
WAKU
 48
0.4999999993549407
100
AcDbLine
 10
14.99999998064822
 20
560.9999992762434
 30
0.0
 11
14.99999998064822
 21
10.9999999858087
 31
0.0
  0
LINE
  5
1AE
330
70
100
AcDbEntity
  8
WAKU
 48
0.4999999993549407
100
AcDbLine
 10
794.999998974356
 20
560.9999992762434
 30
0.0
 11
14.99999998064822
 21
560.9999992762434
 31
0.0
  0
LINE
  5
1AF
330
70
100
AcDbEntity
  8
WAKU
 48
0.4999999993549407
100
AcDbLine
 10
794.999998974356
 20
10.9999999858087
 30
0.0
 11
794.999998974356
 21
560.9999992762434
 31
0.0
  0
MTEXT
  5
1B0
330
70
100
AcDbEntity
  8
WAKU
 48
0.4999999993549407
100
AcDbMText
 10
189.9999997548775
 20
20.99999997290752
 30
0.0
 40
4.999999993549406
 41
128.4454165366397
 46
0.0
 71
     5
 72
     5
  1
アイジーサイディング参考ディテール
  7
WAKU
 73
     1
 44
1.0
  0
LINE
  5
1B1
330
70
100
AcDbEntity
  8
WAKU
 48
0.4999999993549407
100
AcDbLine
 10
112.9999998542166
 20
28.99999996258657
 30
0.0
 11
112.9999998542166
 21
12.99999998322846
 31
0.0
  0
LINE
  5
1B2
330
70
100
AcDbEntity
  8
WAKU
 48
0.4999999993549407
100
AcDbLine
 10
16.99999997806799
 20
12.99999998322846
 30
0.0
 11
112.9999998542166
 21
12.99999998322846
 31
0.0
  0
LINE
  5
1B3
330
70
100
AcDbEntity
  8
WAKU
 48
0.4999999993549407
100
AcDbLine
 10
16.99999997806799
 20
28.99999996258657
 30
0.0
 11
112.9999998542166
 21
28.99999996258657
 31
0.0
  0
LINE
  5
1B4
330
70
100
AcDbEntity
  8
WAKU
 48
0.4999999993549407
100
AcDbLine
 10
114.9999998516364
 20
30.99999996000633
 30
0.0
 11
114.9999998516364
 21
10.9999999858087
 31
0.0
  0
MTEXT
  5
1B5
330
70
100
AcDbEntity
  8
WAKU
 48
0.4999999993549407
100
AcDbMText
 10
64.99999991614231
 20
20.99999997290752
 30
0.0
 40
5.999999992259287
 41
87.09146916313393
 46
0.0
 71
     5
 72
     5
  1
アイジー工業株式会社
  7
WAKU
 73
     1
 44
1.0
  0
LINE
  5
1B6
330
70
100
AcDbEntity
  8
WAKU
 48
0.4999999993549407
100
AcDbLine
 10
16.99999997806799
 20
28.99999996258657
 30
0.0
 11
16.99999997806799
 21
12.99999998322846
 31
0.0
  0
MTEXT
  5
1B7
330
70
100
AcDbEntity
  8
WAKU
 48
0.4999999993549407
100
AcDbMText
 10
269.9999996516681
 20
20.99999997290752
 30
0.0
 40
4.999999993549406
 41
6.55080958184702
 46
0.0
 71
     5
 72
     5
  1
名称
  7
WAKU
 73
     1
 44
1.0
  0
LINE
  5
1B8
330
70
100
AcDbEntity
  8
WAKU
 48
0.4999999993549407
100
AcDbLine
 10
274.9999996452175
 20
30.99999996000633
 30
0.0
 11
274.9999996452175
 21
10.9999999858087
 31
0.0
  0
LINE
  5
1B9
330
70
100
AcDbEntity
  8
WAKU
 48
0.4999999993549407
100
AcDbLine
 10
264.9999996581187
 20
30.99999996000633
 30
0.0
 11
264.9999996581187
 21
10.9999999858087
 31
0.0
  0
LINE
  5
1BA
330
70
100
AcDbEntity
  8
WAKU
 48
0.4999999993549407
100
AcDbLine
 10
484.9999993742926
 20
30.99999996000633
 30
0.0
 11
484.9999993742926
 21
10.9999999858087
 31
0.0
  0
LINE
  5
1BB
330
70
100
AcDbEntity
  8
WAKU
 48
0.4999999993549407
100
AcDbLine
 10
474.9999993871938
 20
10.9999999858087
 30
0.0
 11
474.9999993871938
 21
30.99999996000633
 31
0.0
  0
MTEXT
  5
1BC
330
70
100
AcDbEntity
  8
WAKU
 48
0.4999999993549407
100
AcDbMText
 10
494.9999993613914
 20
20.99999997290752
 30
0.0
 40
4.999999993549406
 41
23.63255305418644
 46
0.0
 71
     5
 72
     5
  1
mm
  7
WAKU
 73
     1
 44
1.0
  0
MTEXT
  5
1BD
330
70
100
AcDbEntity
  8
WAKU
 48
0.4999999993549407
100
AcDbMText
 10
534.9999993097867
 20
20.99999997290752
 30
0.0
 40
4.999999993549406
 41
39.84429658334918
 46
0.0
 71
     5
 72
     5
  1
1/2（A3）
  7
WAKU
 73
     1
 44
1.0
  0
LINE
  5
1BE
330
70
100
AcDbEntity
  8
WAKU
 48
0.4999999993549407
100
AcDbLine
 10
514.9999993355891
 20
30.99999996000633
 30
0.0
 11
514.9999993355891
 21
10.9999999858087
 31
0.0
  0
LINE
  5
1BF
330
70
100
AcDbEntity
  8
WAKU
 48
0.4999999993549407
100
AcDbLine
 10
504.9999993484902
 20
30.99999996000633
 30
0.0
 11
504.9999993484902
 21
10.9999999858087
 31
0.0
  0
LINE
  5
1C0
330
70
100
AcDbEntity
  8
WAKU
 48
0.4999999993549407
100
AcDbLine
 10
554.9999992839843
 20
30.99999996000633
 30
0.0
 11
554.9999992839843
 21
10.9999999858087
 31
0.0
  0
LINE
  5
1C1
330
70
100
AcDbEntity
  8
WAKU
 48
0.4999999993549407
100
AcDbLine
 10
564.9999992710831
 20
30.99999996000633
 30
0.0
 11
564.9999992710831
 21
10.9999999858087
 31
0.0
  0
LINE
  5
1C2
330
70
100
AcDbEntity
  8
WAKU
  6
DASHED2
 48
0.2499999996774703
100
AcDbLine
 10
614.9999992065772
 20
20.99999997290752
 30
0.0
 11
794.999998974356
 21
20.99999997290752
 31
0.0
  0
LINE
  5
1C3
330
70
100
AcDbEntity
  8
WAKU
 48
0.4999999993549407
100
AcDbLine
 10
614.9999992065772
 20
30.99999996000633
 30
0.0
 11
614.9999992065772
 21
10.9999999858087
 31
0.0
  0
LINE
  5
1C4
330
70
100
AcDbEntity
  8
WAKU
 48
0.4999999993549407
100
AcDbLine
 10
604.9999992194784
 20
30.99999996000633
 30
0.0
 11
604.9999992194784
 21
10.9999999858087
 31
0.0
  0
MTEXT
  5
1C5
330
70
100
AcDbEntity
  8
WAKU
 48
0.4999999993549407
100
AcDbMText
 10
479.9999993807432
 20
20.99999997290752
 30
0.0
 40
4.999999993549406
 41
6.55080958184702
 46
0.0
 71
     5
 72
     5
  1
単位
  7
WAKU
 73
     1
 44
1.0
  0
MTEXT
  5
1C6
330
70
100
AcDbEntity
  8
WAKU
 48
0.4999999993549407
100
AcDbMText
 10
509.9999993420397
 20
20.99999997290752
 30
0.0
 40
4.999999993549406
 41
6.55080958184702
 46
0.0
 71
     5
 72
     5
  1
縮尺
  7
WAKU
 73
     1
 44
1.0
  0
MTEXT
  5
1C7
330
70
100
AcDbEntity
  8
WAKU
 48
0.4999999993549407
100
AcDbMText
 10
556.7245944866099
 20
20.99999997290752
 30
0.0
 40
4.999999993549406
 41
6.55080958184702
 46
0.0
 71
     4
 72
     5
  1
図番
  7
WAKU
 73
     1
 44
1.0
  0
MTEXT
  5
1C8
330
70
100
AcDbEntity
  8
WAKU
 48
0.4999999993549407
100
AcDbMText
 10
609.9999992130278
 20
20.99999997290752
 30
0.0
 40
4.999999993549406
 41
6.55080958184702
 46
0.0
 71
     5
 72
     5
  1
特記
  7
WAKU
 73
     1
 44
1.0
  0
LINE
  5
48A
330
70
100
AcDbEntity
  8
KUTAI
100
AcDbLine
 10
379.3899502619681
 20
242.1621182039985
 30
0.0000000000076729
 11
379.3899502619772
 21
96.66211820400031
 31
0.0000000000076729
  0
LINE
  5
48B
330
70
100
AcDbEntity
  8
KUTAI
  6
DASHED2
100
AcDbLine
 10
359.3899502619681
 20
242.1621182039985
 30
0.0000000000076729
 11
359.3899502619677
 21
96.66211820400031
 31
0.0000000000076729
  0
LINE
  5
48C
330
70
100
AcDbEntity
  8
KUTAI
100
AcDbLine
 10
279.3899502619681
 20
242.1621182039985
 30
0.0000000000076729
 11
279.3899502619768
 21
96.66211820400031
 31
0.0000000000076729
  0
LINE
  5
48D
330
70
100
AcDbEntity
  8
KUTAI
100
AcDbLine
 10
279.3899502619681
 20
242.1621182039985
 30
0.0000000000076729
 11
379.3899502619681
 21
242.1621182039985
 31
0.0000000000076729
  0
LINE
  5
48E
330
70
100
AcDbEntity
  8
KUTAI
  6
DASHED2
100
AcDbLine
 10
299.3899502619681
 20
242.1621182039985
 30
0.0000000000096242
 11
299.3899502619677
 21
96.66211820400031
 31
0.0
  0
LINE
  5
48F
330
70
100
AcDbEntity
  8
KUTAI
100
AcDbLine
 10
464.3899502619749
 20
327.1621182039967
 30
0.0000000000076729
 11
610.4330580739731
 21
327.1621182040067
 31
0.0000000000076729
  0
LINE
  5
490
330
70
100
AcDbEntity
  8
KUTAI
  6
DASHED2
100
AcDbLine
 10
464.3899502619749
 20
347.1621182039967
 30
0.0000000000096242
 11
610.4330580739731
 21
347.1621182039967
 31
-0.0000000000000359
  0
LINE
  5
491
330
70
100
AcDbEntity
  8
KUTAI
100
AcDbLine
 10
464.3899502619749
 20
327.1621182039967
 30
0.0000000000076729
 11
464.3899502619749
 21
427.1621182039966
 31
0.0000000000076729
  0
LINE
  5
492
330
70
100
AcDbEntity
  8
KUTAI
  6
DASHED2
100
AcDbLine
 10
464.3899502619749
 20
407.1621182039966
 30
0.0000000000076729
 11
610.4330580739731
 21
407.1621182039957
 31
0.0000000000076729
  0
LINE
  5
493
330
70
100
AcDbEntity
  8
KUTAI
100
AcDbLine
 10
464.3899502619749
 20
427.1621182039966
 30
0.0000000000076729
 11
610.4330580739731
 21
427.1621182040057
 31
0.0000000000076729
  0
LINE
  5
494
330
70
100
AcDbEntity
  8
BOUSUISI
100
AcDbLine
 10
380.139936354891
 20
96.66211820400031
 30
0.0000000000076729
 11
380.1399363549128
 21
326.4121321110483
 31
0.0000000000076729
  0
LINE
  5
495
330
70
100
AcDbEntity
  8
BOUSUISI
100
AcDbLine
 10
379.6399363549056
 20
251.9121321110565
 30
0.0000000000076729
 11
379.6399363549128
 21
326.9121321110565
 31
0.0000000000076729
  0
LINE
  5
496
330
70
100
AcDbEntity
  8
BOUSUISI
100
AcDbLine
 10
610.4330580739731
 20
326.9121321110856
 30
0.0000000000076729
 11
379.6399363549128
 21
326.9121321110565
 31
0.0000000000076729
  0
LINE
  5
497
330
70
100
AcDbEntity
  8
BOUSUISI
100
AcDbLine
 10
455.1399363549124
 20
326.4121321110647
 30
0.0000000000076729
 11
380.1399363549128
 21
326.4121321110556
 31
0.0000000000076729
  0
LINE
  5
498
330
70
100
AcDbEntity
  8
BOUSUITE-PU
  6
DASHED2
100
AcDbLine
 10
454.6133263645621
 20
325.6621321110647
 30
0.0000000000076729
 11
430.1399363549124
 21
325.6621321110647
 31
0.0000000000076729
  0
LINE
  5
499
330
70
100
AcDbEntity
  8
BOUSUITE-PU
  6
DASHED2
100
AcDbLine
 10
480.1399363549124
 20
326.1621321110674
 30
0.0000000000076729
 11
457.664224246643
 21
326.1621321110674
 31
0.0000000000076729
  0
LINE
  5
49A
330
70
100
AcDbEntity
  8
BOUSUITE-PU
  6
DASHED2
100
AcDbLine
 10
455.6486025449728
 20
325.7984288059083
 30
0.0000000000076729
 11
456.3701290211299
 21
325.9917612425129
 31
0.0000000000076729
  0
ARC
  5
49B
330
70
100
AcDbEntity
  8
BOUSUITE-PU
  6
DASHED2
100
AcDbCircle
 10
454.6133263645621
 20
329.6621321110647
 30
0.0000000000076729
 40
4.0
100
AcDbArc
 50
270.0
 51
284.9999999999945
  0
ARC
  5
49C
330
70
100
AcDbEntity
  8
BOUSUITE-PU
  6
DASHED2
100
AcDbCircle
 10
457.664224246643
 20
321.1621321110674
 30
0.0000000000076729
 40
5.0
100
AcDbArc
 50
90.0
 51
104.9999999999944
  0
LINE
  5
49D
330
70
100
AcDbEntity
  8
KUTAI
100
AcDbLine
 10
404.3899502619754
 20
347.1621321110601
 30
0.0000000000076729
 11
406.689950261971
 21
347.1621321110601
 31
0.0000000000076729
  0
LINE
  5
49E
330
70
100
AcDbEntity
  8
KUTAI
100
AcDbLine
 10
404.3899502619754
 20
332.1621321110602
 30
0.0000000000076729
 11
404.3899502619754
 21
347.1621321110601
 31
0.0000000000076729
  0
LINE
  5
49F
330
70
100
AcDbEntity
  8
KUTAI
100
AcDbLine
 10
406.689950261971
 20
332.1621321110602
 30
0.0000000000076729
 11
406.689950261971
 21
347.1621321110601
 31
0.0000000000076729
  0
ARC
  5
4A0
330
70
100
AcDbEntity
  8
KUTAI
100
AcDbCircle
 10
409.3899502619754
 20
332.1621321110602
 30
0.0000000000076729
 40
2.7
100
AcDbArc
 50
180.0
 51
270.0
  0
ARC
  5
4A1
330
70
100
AcDbEntity
  8
KUTAI
100
AcDbCircle
 10
409.3899502619754
 20
332.1621321110602
 30
0.0000000000076729
 40
5.0
100
AcDbArc
 50
180.0
 51
270.0
  0
ARC
  5
4A2
330
70
100
AcDbEntity
  8
KUTAI
100
AcDbCircle
 10
449.3899502619749
 20
332.1621321110602
 30
0.0000000000076729
 40
5.0
100
AcDbArc
 50
270.0
 51
0.0
  0
LINE
  5
4A3
330
70
100
AcDbEntity
  8
KUTAI
100
AcDbLine
 10
409.3899502619754
 20
329.4621321110594
 30
0.0000000000076729
 11
449.3899502619749
 21
329.4621321110594
 31
0.0000000000076729
  0
LINE
  5
4A4
330
70
100
AcDbEntity
  8
KUTAI
100
AcDbLine
 10
409.3899502619754
 20
327.1621321110601
 30
0.0000000000076729
 11
449.3899502619749
 21
327.1621321110601
 31
0.0000000000076729
  0
ARC
  5
4A5
330
70
100
AcDbEntity
  8
KUTAI
100
AcDbCircle
 10
449.3899502619749
 20
332.1621321110602
 30
0.0000000000076729
 40
2.7
100
AcDbArc
 50
270.0
 51
0.0
  0
LINE
  5
4A6
330
70
100
AcDbEntity
  8
KUTAI
100
AcDbLine
 10
454.3899502619749
 20
332.1621321110602
 30
0.0000000000076729
 11
454.3899502619749
 21
422.1621321110601
 31
0.0000000000076729
  0
LINE
  5
4A7
330
70
100
AcDbEntity
  8
KUTAI
100
AcDbLine
 10
452.089950261972
 20
332.1621321110602
 30
0.0000000000076729
 11
452.089950261972
 21
422.1621321110601
 31
0.0000000000076729
  0
ARC
  5
4A8
330
70
100
AcDbEntity
  8
KUTAI
100
AcDbCircle
 10
449.3899502619749
 20
422.1621321110601
 30
0.0000000000076729
 40
5.0
100
AcDbArc
 50
0.0
 51
90.0
  0
ARC
  5
4A9
330
70
100
AcDbEntity
  8
KUTAI
100
AcDbCircle
 10
449.3899502619749
 20
422.1621321110601
 30
0.0000000000076729
 40
2.7
100
AcDbArc
 50
0.0
 51
90.0
  0
LINE
  5
4AA
330
70
100
AcDbEntity
  8
KUTAI
100
AcDbLine
 10
404.3899502619754
 20
407.1621321110601
 30
0.0000000000076729
 11
404.3899502619754
 21
422.1621321110601
 31
0.0000000000076729
  0
ARC
  5
4AB
330
70
100
AcDbEntity
  8
KUTAI
100
AcDbCircle
 10
409.3899502619754
 20
422.1621321110601
 30
0.0000000000076729
 40
2.7
100
AcDbArc
 50
90.0
 51
180.0
  0
LINE
  5
4AC
330
70
100
AcDbEntity
  8
KUTAI
100
AcDbLine
 10
406.689950261971
 20
407.1621321110601
 30
0.0000000000076729
 11
406.689950261971
 21
422.1621321110601
 31
0.0000000000076729
  0
LINE
  5
4AD
330
70
100
AcDbEntity
  8
KUTAI
100
AcDbLine
 10
409.3899502619754
 20
427.1621321110601
 30
0.0000000000076729
 11
449.3899502619749
 21
427.1621321110601
 31
0.0000000000076729
  0
LINE
  5
4AE
330
70
100
AcDbEntity
  8
KUTAI
100
AcDbLine
 10
409.3899502619754
 20
424.8621321110609
 30
0.0000000000076729
 11
449.3899502619749
 21
424.8621321110609
 31
0.0000000000076729
  0
ARC
  5
4AF
330
70
100
AcDbEntity
  8
KUTAI
100
AcDbCircle
 10
409.3899502619754
 20
422.1621321110601
 30
0.0000000000076729
 40
5.0
100
AcDbArc
 50
90.0
 51
180.0
  0
LINE
  5
4B0
330
70
100
AcDbEntity
  8
KUTAI
100
AcDbLine
 10
404.3899502619754
 20
407.1621321110601
 30
0.0000000000076729
 11
406.689950261971
 21
407.1621321110601
 31
0.0000000000076729
  0
LINE
  5
4B1
330
70
100
AcDbEntity
  8
KUTAI
100
AcDbLine
 10
429.3355184185563
 20
327.1621321110601
 30
0.0000000000076729
 11
431.6355184185519
 21
329.4621321110594
 31
0.0000000000076729
  0
LINE
  5
4B2
330
70
100
AcDbEntity
  8
KUTAI
100
AcDbLine
 10
432.163945543303
 20
327.1621321110601
 30
0.0000000000076729
 11
434.463945543306
 21
329.4621321110594
 31
0.0000000000076729
  0
LINE
  5
4B3
330
70
100
AcDbEntity
  8
KUTAI
100
AcDbLine
 10
404.3899502619754
 20
344.6429708256815
 30
0.0000000000076729
 11
406.6899502619783
 21
346.9429708256817
 31
0.0000000000076729
  0
LINE
  5
4B4
330
70
100
AcDbEntity
  8
KUTAI
100
AcDbLine
 10
404.3899502619754
 20
341.8145437009266
 30
0.0000000000076729
 11
406.6899502619783
 21
344.1145437009304
 31
0.0000000000076729
  0
LINE
  5
4B5
330
70
100
AcDbEntity
  8
KUTAI
100
AcDbLine
 10
445.0111318009001
 20
424.8621321110609
 30
0.0000000000076729
 11
447.311131800903
 21
427.1621321110601
 31
0.0000000000076729
  0
LINE
  5
4B6
330
70
100
AcDbEntity
  8
KUTAI
100
AcDbLine
 10
442.1827046761461
 20
424.8621321110609
 30
0.0000000000076729
 11
444.482704676149
 21
427.1621321110601
 31
0.0000000000076729
  0
LINE
  5
4B7
330
70
100
AcDbEntity
  8
KUTAI
100
AcDbLine
 10
452.0899502619792
 20
392.3429708257047
 30
0.0000000000076729
 11
454.3899502619821
 21
394.6429708257049
 31
0.0000000000076729
  0
LINE
  5
4B8
330
70
100
AcDbEntity
  8
KUTAI
100
AcDbLine
 10
452.0899502619792
 20
389.5145437009499
 30
0.0000000000076729
 11
454.3899502619821
 21
391.8145437009536
 31
0.0000000000076729
  0
LINE
  5
4B9
330
70
100
AcDbEntity
  8
KUTAI
100
AcDbLine
 10
452.0899502619792
 20
349.9165639544945
 30
0.0000000000076729
 11
454.3899502619821
 21
352.2165639544946
 31
0.0000000000076729
  0
LINE
  5
4BA
330
70
100
AcDbEntity
  8
KUTAI
100
AcDbLine
 10
452.0899502619792
 20
347.0881368297396
 30
0.0000000000076729
 11
454.3899502619821
 21
349.3881368297434
 31
0.0000000000076729
  0
ARC
  5
4BB
330
70
100
AcDbEntity
  8
KUTAI
100
AcDbCircle
 10
374.3899502619654
 20
257.1621182039948
 30
0.0000000000076729
 40
2.7
100
AcDbArc
 50
270.0
 51
0.0
  0
ARC
  5
4BC
330
70
100
AcDbEntity
  8
KUTAI
100
AcDbCircle
 10
374.3899502619654
 20
257.1621182039948
 30
0.0000000000076729
 40
5.0
100
AcDbArc
 50
270.0
 51
0.0
  0
LINE
  5
4BD
330
70
100
AcDbEntity
  8
KUTAI
100
AcDbLine
 10
377.0899502619625
 20
297.1621182039967
 30
0.0000000000076729
 11
377.0899502619625
 21
257.1621182039948
 31
0.0000000000076729
  0
LINE
  5
4BE
330
70
100
AcDbEntity
  8
KUTAI
100
AcDbLine
 10
379.3899502619654
 20
297.1621182039967
 30
0.0000000000076729
 11
379.3899502619654
 21
257.1621182039948
 31
0.0000000000076729
  0
LINE
  5
4BF
330
70
100
AcDbEntity
  8
KUTAI
100
AcDbLine
 10
359.3899502619654
 20
302.1621182039967
 30
0.0000000000076729
 11
359.3899502619654
 21
299.8621182040001
 31
0.0000000000076729
  0
LINE
  5
4C0
330
70
100
AcDbEntity
  8
KUTAI
100
AcDbLine
 10
359.3899502619654
 20
299.8621182040001
 30
0.0000000000076729
 11
374.3899502619654
 21
299.8621182040001
 31
0.0000000000076729
  0
ARC
  5
4C1
330
70
100
AcDbEntity
  8
KUTAI
100
AcDbCircle
 10
374.3899502619654
 20
297.1621182039967
 30
0.0000000000076729
 40
2.7
100
AcDbArc
 50
0.0
 51
90.0
  0
ARC
  5
4C2
330
70
100
AcDbEntity
  8
KUTAI
100
AcDbCircle
 10
374.3899502619654
 20
297.1621182039967
 30
0.0000000000076729
 40
5.0
100
AcDbArc
 50
0.0
 51
90.0
  0
LINE
  5
4C3
330
70
100
AcDbEntity
  8
KUTAI
100
AcDbLine
 10
359.3899502619654
 20
302.1621182039967
 30
0.0000000000076729
 11
374.3899502619654
 21
302.1621182039967
 31
0.0000000000076729
  0
ARC
  5
4C4
330
70
100
AcDbEntity
  8
KUTAI
100
AcDbCircle
 10
284.3899502619654
 20
257.1621182039994
 30
0.0000000000076729
 40
2.7
100
AcDbArc
 50
180.0
 51
270.0
  0
LINE
  5
4C5
330
70
100
AcDbEntity
  8
KUTAI
100
AcDbLine
 10
279.3899502619654
 20
297.1621182039994
 30
0.0000000000076729
 11
279.3899502619654
 21
257.1621182039994
 31
0.0000000000076729
  0
LINE
  5
4C6
330
70
100
AcDbEntity
  8
KUTAI
100
AcDbLine
 10
281.689950261961
 20
297.1621182039994
 30
0.0000000000076729
 11
281.689950261961
 21
257.1621182039994
 31
0.0000000000076729
  0
ARC
  5
4C7
330
70
100
AcDbEntity
  8
KUTAI
100
AcDbCircle
 10
284.3899502619654
 20
297.1621182039994
 30
0.0000000000076729
 40
5.0
100
AcDbArc
 50
90.0
 51
180.0
  0
ARC
  5
4C8
330
70
100
AcDbEntity
  8
KUTAI
100
AcDbCircle
 10
284.3899502619654
 20
297.1621182039994
 30
0.0000000000076729
 40
2.7
100
AcDbArc
 50
90.0
 51
180.0
  0
ARC
  5
4C9
330
70
100
AcDbEntity
  8
KUTAI
100
AcDbCircle
 10
284.3899502619654
 20
257.1621182039994
 30
0.0000000000076729
 40
5.0
100
AcDbArc
 50
180.0
 51
270.0
  0
LINE
  5
4CA
330
70
100
AcDbEntity
  8
KUTAI
100
AcDbLine
 10
284.3899502619654
 20
299.8621182040001
 30
0.0000000000076729
 11
299.3899502619654
 21
299.8621182040001
 31
0.0000000000076729
  0
LINE
  5
4CB
330
70
100
AcDbEntity
  8
KUTAI
100
AcDbLine
 10
299.3899502619654
 20
302.1621182039994
 30
0.0000000000076729
 11
299.3899502619654
 21
299.8621182040001
 31
0.0000000000076729
  0
LINE
  5
4CC
330
70
100
AcDbEntity
  8
KUTAI
100
AcDbLine
 10
284.3899502619654
 20
302.1621182039967
 30
0.0000000000076729
 11
299.3899502619654
 21
302.1621182039967
 31
0.0000000000076729
  0
LINE
  5
4CD
330
70
100
AcDbEntity
  8
KUTAI
100
AcDbLine
 10
284.3899502619654
 20
252.1621182039994
 30
0.0000000000076729
 11
374.3899502619654
 21
252.1621182039967
 31
0.0000000000076729
  0
LINE
  5
4CE
330
70
100
AcDbEntity
  8
KUTAI
100
AcDbLine
 10
284.3899502619654
 20
254.4621182039996
 30
0.0000000000076729
 11
374.3899502619654
 21
254.4621182039996
 31
0.0000000000076729
  0
LINE
  5
4CF
330
70
100
AcDbEntity
  8
KUTAI
100
AcDbLine
 10
315.0319111872861
 20
252.1621182039994
 30
0.0000000000076729
 11
317.3319111872818
 21
254.4621182040023
 31
0.0000000000076729
  0
LINE
  5
4D0
330
70
100
AcDbEntity
  8
KUTAI
100
AcDbLine
 10
312.2034840625395
 20
252.1621182039994
 30
0.0000000000076729
 11
314.5034840625424
 21
254.4621182040023
 31
0.0000000000076729
  0
LINE
  5
4D1
330
70
100
AcDbEntity
  8
KUTAI
100
AcDbLine
 10
279.3899502619654
 20
261.7749912746171
 30
0.0000000000076729
 11
281.6899502619683
 21
264.0749912746201
 31
0.0000000000076729
  0
LINE
  5
4D2
330
70
100
AcDbEntity
  8
KUTAI
100
AcDbLine
 10
279.3899502619654
 20
258.9465641498668
 30
0.0000000000076729
 11
281.6899502619683
 21
261.2465641498661
 31
0.0000000000076729
  0
LINE
  5
4D3
330
70
100
AcDbEntity
  8
KUTAI
100
AcDbLine
 10
279.3899502619654
 20
291.3107965111508
 30
0.0000000000076729
 11
281.6899502619683
 21
293.6107965111501
 31
0.0000000000076729
  0
LINE
  5
4D4
330
70
100
AcDbEntity
  8
KUTAI
100
AcDbLine
 10
279.3899502619654
 20
294.1392236359002
 30
0.0000000000076729
 11
281.6899502619683
 21
296.439223635904
 31
0.0000000000076729
  0
LINE
  5
4D5
330
70
100
AcDbEntity
  8
KUTAI
100
AcDbLine
 10
359.9034840625439
 20
299.8621182040029
 30
0.0000000000076729
 11
362.2034840625468
 21
302.1621182040021
 31
0.0000000000076729
  0
LINE
  5
4D6
330
70
100
AcDbEntity
  8
KUTAI
100
AcDbLine
 10
362.7319111872905
 20
299.8621182040029
 30
0.0000000000076729
 11
365.0319111872861
 21
302.1621182040021
 31
0.0000000000076729
  0
LINE
  5
4D7
330
70
100
AcDbEntity
  8
KUTAI
100
AcDbLine
 10
377.0899502619698
 20
274.6221775322315
 30
0.0000000000076729
 11
379.3899502619654
 21
276.9221775322317
 31
0.0000000000076729
  0
LINE
  5
4D8
330
70
100
AcDbEntity
  8
KUTAI
100
AcDbLine
 10
377.0899502619698
 20
271.7937504074821
 30
0.0000000000076729
 11
379.3899502619654
 21
274.093750407485
 31
0.0000000000076729
  0
LINE
  5
4D9
330
70
100
AcDbEntity
  8
KUTAI
100
AcDbLine
 10
357.4583180584862
 20
252.1621182040021
 30
0.0000000000076729
 11
359.7583180584891
 21
254.4621182040023
 31
0.0000000000076729
  0
LINE
  5
4DA
330
70
100
AcDbEntity
  8
KUTAI
100
AcDbLine
 10
354.6298909337395
 20
252.1621182040021
 30
0.0000000000076729
 11
356.9298909337351
 21
254.4621182040023
 31
0.0000000000076729
  0
LINE
  5
4DB
330
70
100
AcDbEntity
  8
KUTAI
100
AcDbLine
 10
285.1128448300644
 20
299.8621182040029
 30
0.0000000000076729
 11
287.4128448300673
 21
302.1621182040021
 31
0.0000000000076729
  0
LINE
  5
4DC
330
70
100
AcDbEntity
  8
KUTAI
100
AcDbLine
 10
287.9412719548111
 20
299.8621182040029
 30
0.0000000000076729
 11
290.2412719548067
 21
302.1621182040021
 31
0.0000000000076729
  0
LINE
  5
4DD
330
70
100
AcDbEntity
  8
SUNPOU
  6
CENTER2
370
     9
100
AcDbLine
 10
214.3299644520596
 20
377.1621321110601
 30
0.0000000000076729
 11
519.3899502619749
 21
377.1621321110601
 31
0.0000000000076729
  0
LINE
  5
4DE
330
70
100
AcDbEntity
  8
SUNPOU
  6
CENTER2
370
     9
100
AcDbLine
 10
429.3899502619749
 20
287.1621321110601
 30
0.0000000000076729
 11
429.3899502619749
 21
460.2747518325136
 31
0.0000000000076729
  0
MTEXT
  5
4DF
330
70
100
AcDbEntity
  8
HIKIDASI
370
     9
100
AcDbMText
 10
446.4357232376467
 20
466.6929307255009
 30
0.0000000000068771
 40
7.5
 41
34.5324350497724
 46
0.0
 71
     9
 72
     1
  1
胴縁芯
 73
     1
 44
1.0
  0
MTEXT
  5
4E0
330
70
100
AcDbEntity
  8
HIKIDASI
370
     9
100
AcDbMText
 10
180.1133920498416
 20
381.6620223077689
 30
0.0000000000076729
 40
7.5
 41
33.63515730339077
 46
0.0
 71
     1
 72
     5
  1
胴縁芯
 73
     1
 44
1.0
1001
ACAD
1000
ACAD_MTEXT_COLUMN_INFO_BEGIN
1070
    75
1070
     2
1070
    79
1070
     0
1070
    76
1070
     1
1070
    78
1070
     0
1070
    48
1040
33.63515730339077
1070
    49
1040
12.5
1070
    50
1070
     1
1040
0.0
1000
ACAD_MTEXT_COLUMN_INFO_END
  0
LINE
  5
4E1
330
70
100
AcDbEntity
  8
SUNPOU
  6
CENTER2
370
     9
100
AcDbLine
 10
214.32996445206
 20
277.1621182039994
 30
0.0000000000076729
 11
419.3899502619649
 21
277.1621182039994
 31
0.0000000000076729
  0
LINE
  5
4E2
330
70
100
AcDbEntity
  8
SUNPOU
  6
CENTER2
370
     9
100
AcDbLine
 10
329.3899502619654
 20
187.1621182039994
 30
0.0000000000076729
 11
329.389950261965
 21
460.2747518325136
 31
0.0000000000076729
  0
MTEXT
  5
4E3
330
70
100
AcDbEntity
  8
HIKIDASI
370
     9
100
AcDbMText
 10
346.4357232376367
 20
466.6929307255009
 30
0.0000000000068771
 40
7.5
 41
34.5324350497724
 46
0.0
 71
     9
 72
     1
  1
胴縁芯
 73
     1
 44
1.0
  0
MTEXT
  5
4E4
330
70
100
AcDbEntity
  8
HIKIDASI
370
     9
100
AcDbMText
 10
180.1133920498416
 20
281.6620084007082
 30
0.0000000000076729
 40
7.5
 41
33.63515730339077
 46
0.0
 71
     1
 72
     5
  1
胴縁芯
 73
     1
 44
1.0
1001
ACAD
1000
ACAD_MTEXT_COLUMN_INFO_BEGIN
1070
    75
1070
     2
1070
    79
1070
     0
1070
    76
1070
     1
1070
    78
1070
     0
1070
    48
1040
33.63515730339077
1070
    49
1040
12.5
1070
    50
1070
     1
1040
0.0
1000
ACAD_MTEXT_COLUMN_INFO_END
  0
DIMENSION
  5
4E5
330
70
100
AcDbEntity
  8
SUNPO
 48
0.1
100
AcDbDimension
280
     0
  2
*D5
 10
343.5000763521521
 20
277.1621182039995
 30
0.0
 11
339.0000763521521
 21
291.6621182921142
 31
0.0
 70
    32
  1
35
 71
     5
 42
29.00000017622961
 73
     0
 74
     0
 75
     0
  3
CAD-DL
100
AcDbAlignedDimension
 13
382.8899361412684
 23
306.162118380229
 33
0.0000000000076729
 14
363.5704653217183
 24
277.1621182039994
 34
0.0000000000076729
 50
90.0
100
AcDbRotatedDimension
1001
ACAD
1000
DSTYLE
1002
{
1070
   176
1070
     0
1070
    41
1040
1.0
1070
    42
1040
5.0
1070
    44
1040
0.0
1002
}
  0
LINE
  5
4E6
330
70
100
AcDbEntity
  8
MOJI
100
AcDbLine
 10
419.466917533042
 20
304.6621183840989
 30
0.0000000000076729
 11
447.7570799166321
 21
255.6621197813388
 31
0.0000000000076729
  0
LINE
  5
4E7
330
70
100
AcDbEntity
  8
MOJI
100
AcDbLine
 10
444.9865670017937
 20
306.2119661422179
 30
0.0
 11
461.849730038971
 21
277.8395963257459
 31
0.0
  0
LINE
  5
4E8
330
70
100
AcDbEntity
  8
MOJI
100
AcDbLine
 10
447.7570799166321
 20
255.6621197813388
 30
0.0000000000076729
 11
452.7570799166321
 21
255.6621197813388
 31
0.0000000000076729
  0
LINE
  5
4E9
330
70
100
AcDbEntity
  8
MOJI
100
AcDbLine
 10
461.849730038971
 20
277.8395963257457
 30
0.0
 11
466.849730038971
 21
277.8395963257457
 31
0.0
  0
TEXT
  5
4EA
330
70
100
AcDbEntity
  8
MOJI
100
AcDbText
 10
469.1664283024769
 20
273.8395963257457
 30
0.0
 40
8.0
  1
捨てシーリング
 50
0.0000000000014388
  7
CAD-DL
 11
469.1664283024768
 21
277.8395963257457
 31
0.0
100
AcDbText
 73
     2
  0
TEXT
  5
4EB
330
70
100
AcDbEntity
  8
MOJI
100
AcDbText
 10
455.0737781801379
 20
251.6621197813388
 30
0.0000000000076729
 40
8.0
  1
入隅15
 50
0.0000000000014388
  7
CAD-DL
 11
455.0737781801379
 21
255.6621197813388
 31
0.0000000000076729
100
AcDbText
 73
     2
  0
LINE
  5
4EC
330
70
100
AcDbEntity
  8
MOJI
100
AcDbLine
 10
492.4286684354594
 20
358.8634139602059
 30
0.0000000000076729
 11
497.4286684354594
 21
358.8634139602059
 31
0.0000000000076729
  0
LINE
  5
4ED
330
70
100
AcDbEntity
  8
MOJI
100
AcDbLine
 10
473.1774071235602
 20
326.1621321110673
 30
0.0000000000076729
 11
492.4286684354594
 21
358.8634139602059
 31
0.0000000000076729
  0
TEXT
  5
4EE
330
70
100
AcDbEntity
  8
MOJI
100
AcDbText
 10
499.7453666989652
 20
354.8634139602059
 30
0.0000000000076729
 40
8.0
  1
防水テープ
 50
0.0000000000014388
  7
CAD-DL
 11
499.7453666989652
 21
358.8634139602059
 31
0.0000000000076729
100
AcDbText
 73
     2
  0
LINE
  5
4EF
330
70
100
AcDbEntity
  8
MOJI
100
AcDbLine
 10
380.7501719683489
 20
267.7209602038355
 30
0.0000000000076729
 11
427.8899363601611
 21
186.0724932204036
 31
0.0000000000076729
  0
LINE
  5
4F0
330
70
100
AcDbEntity
  8
MOJI
100
AcDbLine
 10
412.8899284548872
 20
164.1427406518016
 30
0.0000000000076729
 11
380.1399363548938
 21
220.8673909164722
 31
0.0000000000076729
  0
TEXT
  5
4F1
330
70
100
AcDbEntity
  8
MOJI
100
AcDbText
 10
420.2066267183921
 20
160.1427406518016
 30
0.0000000000076729
 40
8.0
  1
防水紙
 50
0.0000000000014388
  7
CAD-DL
 11
420.206626718392
 21
164.1427406518016
 31
0.0000000000076729
100
AcDbText
 73
     2
  0
LINE
  5
4F2
330
70
100
AcDbEntity
  8
MOJI
100
AcDbLine
 10
417.8899284548872
 20
164.1427406518016
 30
0.0000000000076729
 11
412.8899284548872
 21
164.1427406518016
 31
0.0000000000076729
  0
LINE
  5
4F3
330
70
100
AcDbEntity
  8
MOJI
100
AcDbLine
 10
412.8899284548872
 20
129.2677592734908
 30
0.0000000000076729
 11
397.8899363549092
 21
155.2485077037854
 31
0.0000000000076729
  0
TEXT
  5
4F4
330
70
100
AcDbEntity
  8
MOJI
100
AcDbText
 10
420.2275679508582
 20
125.2677592734908
 30
0.0000000000076729
 40
8.0
  1
銘壁
 50
0.0000000000014388
  7
CAD-DL
 11
420.2275679508582
 21
129.2677592734908
 31
0.0000000000076729
100
AcDbText
 73
     2
  0
LINE
  5
4F5
330
70
100
AcDbEntity
  8
MOJI
100
AcDbLine
 10
417.9108696873525
 20
129.2677592734908
 30
0.0000000000076729
 11
412.9108696873529
 21
129.2677592734908
 31
0.0000000000076729
  0
LINE
  5
4F6
330
70
100
AcDbEntity
  8
MOJI
100
AcDbLine
 10
465.9683668733639
 20
457.5113907977188
 30
0.0000000000076729
 11
448.4462142009013
 21
427.1621321110587
 31
0.0000000000076729
  0
LINE
  5
4F7
330
70
100
AcDbEntity
  8
MOJI
100
AcDbLine
 10
470.9893081058296
 20
457.5113907977188
 30
0.0000000000076729
 11
465.9893081058296
 21
457.5113907977188
 31
0.0000000000076729
  0
TEXT
  5
4F8
330
70
100
AcDbEntity
  8
MOJI
100
AcDbText
 10
472.8597952269682
 20
453.5113907977175
 30
0.0000000000076729
 40
8.0
  1
C100×50×20×2.3以上
 50
0.0000000000014388
  7
CAD-DL
 11
472.8597952269681
 21
457.5113907977175
 31
0.0000000000076729
100
AcDbText
 73
     2
  0
LINE
  5
4F9
330
70
100
AcDbEntity
  8
MOJI
100
AcDbLine
 10
325.7704570990084
 20
403.6488758671564
 30
0.0000000000076729
 11
379.639936354911
 21
310.3442008186698
 31
0.0000000000076729
  0
LINE
  5
4FA
330
70
100
AcDbEntity
  8
MOJI
100
AcDbLine
 10
325.7704570990075
 20
403.6488758671562
 30
0.0000000000076729
 11
320.7704570990074
 21
403.6488758671562
 31
0.0000000000076729
  0
TEXT
  5
4FB
330
70
100
AcDbEntity
  8
MOJI
100
AcDbText
 10
229.3129888058113
 20
399.6488758671562
 30
0.0000000000076729
 40
8.0
  1
防水紙（二重張り）
  7
CAD-DL
 11
229.3129888058113
 21
403.6488758671562
 31
0.0000000000076729
100
AcDbText
 73
     2
  0
DIMENSION
  5
4FC
330
70
100
AcDbEntity
  8
SUNPO
 48
0.1
100
AcDbDimension
280
     0
  2
*D6
 10
630.3853347148171
 20
307.6621321110538
 30
0.0000000000076729
 11
625.8853347148171
 21
315.1621321110535
 31
0.0000000000076729
 70
    32
 71
     5
 42
15.0
 73
     0
 74
     0
 75
     0
  3
CAD-DL
100
AcDbAlignedDimension
 13
610.4330580739731
 23
322.6621321110537
 33
0.0000000000076729
 14
610.4330580739731
 24
307.6621321110537
 34
0.0000000000076729
 50
90.0
100
AcDbRotatedDimension
1001
ACAD
1000
DSTYLE
1002
{
1070
   176
1070
     0
1070
    41
1040
1.0
1070
    42
1040
5.0
1070
    44
1040
0.0
1002
}
  0
DIMENSION
  5
4FD
330
70
100
AcDbEntity
  8
SUNPO
 48
0.1
100
AcDbDimension
280
     0
  2
*D7
 10
630.3853347148235
 20
327.1621182040067
 30
0.0000000000076729
 11
625.8853347148235
 21
377.162118204006
 31
0.0000000000076729
 70
    32
 71
     5
 42
99.99999999999914
 73
     0
 74
     0
 75
     0
  3
CAD-DL
100
AcDbAlignedDimension
 13
610.4330580739731
 23
427.1621182040056
 33
0.0000000000076729
 14
610.4330580739731
 24
327.1621182040066
 34
0.0000000000076729
 50
90.0
100
AcDbRotatedDimension
1001
ACAD
1000
DSTYLE
1002
{
1070
   176
1070
     0
1070
    41
1040
1.0
1070
    42
1040
5.0
1070
    44
1040
0.0
1002
}
  0
DIMENSION
  5
4FE
330
70
100
AcDbEntity
  8
SUNPO
 48
0.1
100
AcDbDimension
280
     0
  2
*D8
 10
429.3899502619749
 20
442.6815668835719
 30
0.0000000000076729
 11
379.3899502619702
 21
447.1815668835719
 31
0.0000000000076729
 70
    32
 71
     5
 42
100.0000000000095
 73
     0
 74
     0
 75
     0
  3
CAD-DL
100
AcDbAlignedDimension
 13
329.3899502619654
 23
427.1621321110602
 33
0.0000000000076729
 14
429.3899502619749
 24
427.1621321110601
 34
0.0000000000076729
100
AcDbRotatedDimension
1001
ACAD
1000
DSTYLE
1002
{
1070
   176
1070
     0
1070
    41
1040
1.0
1070
    42
1040
5.0
1070
    44
1040
0.0
1002
}
  0
DIMENSION
  5
4FF
330
70
100
AcDbEntity
  8
SUNPO
 48
0.1
100
AcDbDimension
280
     0
  2
*D9
 10
260.2844834308765
 20
277.1621182039995
 30
0.0
 11
255.7844834308766
 21
327.1621251575298
 31
0.0
 70
    32
 71
     5
 42
100.0000139070607
 73
     0
 74
     0
 75
     0
  3
CAD-DL
100
AcDbAlignedDimension
 13
281.7925171963445
 23
377.1621321110601
 33
0.0000000000076729
 14
281.7925171963445
 24
277.1621182039994
 34
0.0000000000076729
 50
90.0
100
AcDbRotatedDimension
1001
ACAD
1000
DSTYLE
1002
{
1070
   176
1070
     0
1070
    41
1040
1.0
1070
    42
1040
5.0
1070
    44
1040
0.0
1002
}
  0
LINE
  5
50A
330
70
100
AcDbEntity
  8
TEKUSU
  6
CENTER2
370
     5
100
AcDbLine
 10
412.3899501935845
 20
300.1621183802293
 30
0.0000000000076729
 11
412.3899501935845
 21
347.6621183802356
 31
0.0000000000076729
  0
LINE
  5
517
330
70
100
AcDbEntity
  8
MOJI
100
AcDbLine
 10
398.5387144203667
 20
290.1945906761877
 30
0.0000000000076729
 11
442.060538006938
 21
214.8125809862082
 31
0.0000000000076729
  0
LINE
  5
518
330
70
100
AcDbEntity
  8
MOJI
100
AcDbLine
 10
442.060538006938
 20
214.8125809862082
 30
0.0000000000076729
 11
447.060538006938
 21
214.8125809862082
 31
0.0000000000076729
  0
TEXT
  5
519
330
70
100
AcDbEntity
  8
MOJI
100
AcDbText
 10
449.3772362704438
 20
210.8125809862082
 30
0.0000000000076729
 40
8.0
  1
ドリルビス（平頭４×30以上）
 50
0.0000000000014388
  7
CAD-DL
 11
449.3772362704437
 21
214.8125809862082
 31
0.0000000000076729
100
AcDbText
 73
     2
  0
LINE
  5
51A
330
70
100
AcDbEntity
  8
SEIHIN
  6
Continuous
 48
0.4999999993549407
100
AcDbLine
 10
382.8899361412684
 20
306.162118380229
 30
0.0000000000076729
 11
397.8899361219171
 21
306.162118380229
 31
0.0000000000076729
  0
LINE
  5
51B
330
70
100
AcDbEntity
  8
SEIHIN
 48
0.4999999993549407
100
AcDbLine
 10
382.8899361412693
 20
307.6621183802288
 30
0.0000000000076729
 11
610.4330577500984
 21
307.6621183802299
 31
0.0000000000076729
  0
LINE
  5
51C
330
70
100
AcDbEntity
  8
SEIHIN
 48
0.4999999993549407
100
AcDbLine
 10
382.8899361412693
 20
307.9321183798802
 30
0.0000000000076729
 11
610.4330577500984
 21
307.932118379882
 31
0.0000000000076729
  0
LINE
  5
51D
330
70
100
AcDbEntity
  8
SEIHIN
 48
0.4999999993549407
100
AcDbLine
 10
382.8899361412698
 20
322.6621183608776
 30
0.0000000000076729
 11
382.8899361412698
 21
307.6621183802298
 31
0.0000000000076729
  0
LINE
  5
51E
330
70
100
AcDbEntity
  8
SEIHIN
 48
0.4999999993549407
100
AcDbLine
 10
397.6199361222655
 20
96.66210456206682
 30
0.0000000000076729
 11
397.6199361222659
 21
306.1621183802289
 31
0.0000000000076729
  0
LINE
  5
51F
330
70
100
AcDbEntity
  8
SEIHIN
 48
0.4999999993549407
100
AcDbLine
 10
397.8899361219176
 20
96.66210456206682
 30
0.0000000000076729
 11
397.889936121918
 21
306.1621183802289
 31
0.0000000000076729
  0
ARC
  5
520
330
70
100
AcDbEntity
  8
YAKUMONO
 48
0.4999999993549407
100
AcDbCircle
 10
414.1920181008856
 20
304.1621183847442
 30
0.0000000000076729
 40
0.4999999993549407
100
AcDbArc
 50
90.0
 51
135.0000000000385
  0
LINE
  5
521
330
70
100
AcDbEntity
  8
YAKUMONO
 48
0.4999999993549407
100
AcDbLine
 10
413.0838701023178
 20
303.761077385268
 30
0.0000000000076729
 11
413.8384641013447
 21
304.5156713842926
 31
0.0000000000076729
  0
ARC
  5
522
330
70
100
AcDbEntity
  8
YAKUMONO
 48
0.4999999993549407
100
AcDbCircle
 10
412.4828301030886
 20
304.3621183844907
 30
0.0000000000076729
 40
0.8499999989033991
100
AcDbArc
 50
270.0
 51
315.0000000000753
  0
ARC
  5
523
330
70
100
AcDbEntity
  8
YAKUMONO
 48
0.4999999993549407
100
AcDbCircle
 10
414.1920181008856
 20
304.1621183847442
 30
0.0000000000076729
 40
0.8499999989033991
100
AcDbArc
 50
90.0
 51
135.0000000000385
  0
ARC
  5
524
330
70
100
AcDbEntity
  8
YAKUMONO
 48
0.4999999993549407
100
AcDbCircle
 10
412.4828301030886
 20
304.3621183844907
 30
0.0000000000076729
 40
0.4999999993549407
100
AcDbArc
 50
270.0
 51
315.0000000000753
  0
LINE
  5
525
330
70
100
AcDbEntity
  8
YAKUMONO
 48
0.4999999993549407
100
AcDbLine
 10
412.8363831026356
 20
304.0085653849424
 30
0.0000000000076729
 11
413.5909771016615
 21
304.7631593839742
 31
0.0000000000076729
  0
ARC
  5
526
330
70
100
AcDbEntity
  8
YAKUMONO
 48
0.4999999993549407
100
AcDbCircle
 10
425.6899360860491
 20
305.0121183836536
 30
0.0000000000076729
 40
1.149999998516362
100
AcDbArc
 50
205.1506630000865
 51
334.8493369999128
  0
ARC
  5
527
330
70
100
AcDbEntity
  8
YAKUMONO
 48
0.4999999993549407
100
AcDbCircle
 10
423.8795500883872
 20
304.1621183847442
 30
0.0000000000076729
 40
0.8499999989033991
100
AcDbArc
 50
25.15066300008719
 51
90.0
  0
ARC
  5
528
330
70
100
AcDbEntity
  8
YAKUMONO
 48
0.4999999993549407
100
AcDbCircle
 10
423.8795500883872
 20
304.1621183847442
 30
0.0000000000076729
 40
0.4999999993549407
100
AcDbArc
 50
25.15066300008719
 51
90.0
  0
LINE
  5
529
330
70
100
AcDbEntity
  8
YAKUMONO
 48
0.4999999993549407
100
AcDbLine
 10
423.8795500883872
 20
304.6621183840989
 30
0.0000000000076729
 11
414.1920181008856
 21
304.6621183840989
 31
0.0000000000076729
  0
LINE
  5
52A
330
70
100
AcDbEntity
  8
YAKUMONO
 48
0.4999999993549407
100
AcDbLine
 10
423.8795500883872
 20
305.0121183836536
 30
0.0000000000076729
 11
414.1920181008856
 21
305.0121183836536
 31
0.0000000000076729
  0
LINE
  5
52B
330
70
100
AcDbEntity
  8
YAKUMONO
 48
0.4999999993549407
100
AcDbLine
 10
412.4828301030886
 20
303.5121183855886
 30
0.0000000000076729
 11
402.6899361157222
 21
303.5121183855886
 31
0.0000000000076729
  0
LINE
  5
52C
330
70
100
AcDbEntity
  8
YAKUMONO
 48
0.4999999993549407
100
AcDbLine
 10
412.4828301030886
 20
303.8621183851355
 30
0.0000000000076729
 11
402.6899361157222
 21
303.8621183851355
 31
0.0000000000076729
  0
LINE
  5
52D
330
70
100
AcDbEntity
  8
YAKUMONO
 48
0.4999999993549407
100
AcDbLine
 10
453.6899360499258
 20
306.3121183819758
 30
0.0000000000076729
 11
450.6899360537966
 21
306.3121183819758
 31
0.0000000000076729
  0
ARC
  5
52E
330
70
100
AcDbEntity
  8
YAKUMONO
 48
0.4999999993549407
100
AcDbCircle
 10
453.6899360499258
 20
305.6621183828138
 30
0.0000000000076729
 40
0.6499999991614228
100
AcDbArc
 50
270.0
 51
90.0
  0
LINE
  5
52F
330
70
100
AcDbEntity
  8
YAKUMONO
 48
0.4999999993549407
100
AcDbLine
 10
436.8795500716162
 20
304.6621183840989
 30
0.0000000000076729
 11
427.5003230837184
 21
304.6621183840989
 31
0.0000000000076729
  0
LINE
  5
530
330
70
100
AcDbEntity
  8
YAKUMONO
 48
0.4999999993549407
100
AcDbLine
 10
436.8795500716162
 20
305.0121183836536
 30
0.0000000000076729
 11
427.5003230837184
 21
305.0121183836536
 31
0.0000000000076729
  0
ARC
  5
531
330
70
100
AcDbEntity
  8
YAKUMONO
 48
0.4999999993549407
100
AcDbCircle
 10
440.5003227720847
 20
304.1621183977827
 30
0.0000000000076729
 40
0.8499999989033991
100
AcDbArc
 50
90.0
 51
154.8493369999128
  0
ARC
  5
532
330
70
100
AcDbEntity
  8
YAKUMONO
 48
0.4999999993549407
100
AcDbCircle
 10
438.689936069278
 20
305.0121183836536
 30
0.0000000000076729
 40
1.149999998516362
100
AcDbArc
 50
205.1506630000865
 51
334.8493369999128
  0
ARC
  5
533
330
70
100
AcDbEntity
  8
YAKUMONO
 48
0.4999999993549407
100
AcDbCircle
 10
436.8795500716162
 20
304.1621183847442
 30
0.0000000000076729
 40
0.8499999989033991
100
AcDbArc
 50
25.15066300008719
 51
90.0
  0
ARC
  5
534
330
70
100
AcDbEntity
  8
YAKUMONO
 48
0.4999999993549407
100
AcDbCircle
 10
440.5003227720847
 20
304.1621183977827
 30
0.0000000000076729
 40
0.4999999993549407
100
AcDbArc
 50
90.0
 51
154.8493369999128
  0
ARC
  5
535
330
70
100
AcDbEntity
  8
YAKUMONO
 48
0.4999999993549407
100
AcDbCircle
 10
436.8795500716162
 20
304.1621183847442
 30
0.0000000000076729
 40
0.4999999993549407
100
AcDbArc
 50
25.15066300008719
 51
90.0
  0
ARC
  5
536
330
70
100
AcDbEntity
  8
YAKUMONO
 48
0.4999999993549407
100
AcDbCircle
 10
438.689936069278
 20
305.0121183836536
 30
0.0000000000076729
 40
1.499999998064821
100
AcDbArc
 50
205.1506630000865
 51
334.8493369999128
  0
ARC
  5
537
330
70
100
AcDbEntity
  8
YAKUMONO
 48
0.4999999993549407
100
AcDbCircle
 10
427.5003230837184
 20
304.1621183847442
 30
0.0000000000076729
 40
0.8499999989033991
100
AcDbArc
 50
90.0
 51
154.8493369999128
  0
ARC
  5
538
330
70
100
AcDbEntity
  8
YAKUMONO
 48
0.4999999993549407
100
AcDbCircle
 10
427.5003230837184
 20
304.1621183847442
 30
0.0000000000076729
 40
0.4999999993549407
100
AcDbArc
 50
90.0
 51
154.8493369999128
  0
ARC
  5
539
330
70
100
AcDbEntity
  8
YAKUMONO
 48
0.4999999993549407
100
AcDbCircle
 10
425.6899360860491
 20
305.0121183836536
 30
0.0000000000076729
 40
1.499999998064821
100
AcDbArc
 50
205.1506630000865
 51
334.8493369999128
  0
LINE
  5
53A
330
70
100
AcDbEntity
  8
YAKUMONO
 48
0.4999999993549407
100
AcDbLine
 10
453.6899360499258
 20
304.6621183840989
 30
0.0000000000076729
 11
440.5003230669474
 21
304.6621183840989
 31
0.0000000000076729
  0
LINE
  5
53B
330
70
100
AcDbEntity
  8
YAKUMONO
 48
0.4999999993549407
100
AcDbLine
 10
453.6899360499258
 20
305.0121183836536
 30
0.0000000000076729
 11
440.5003230669474
 21
305.0121183836536
 31
0.0000000000076729
  0
LINE
  5
53C
330
70
100
AcDbEntity
  8
YAKUMONO
 48
0.4999999993549407
100
AcDbLine
 10
450.6899360537966
 20
306.6621183815187
 30
0.0000000000076729
 11
450.6899360537966
 21
306.3121183819758
 31
0.0000000000076729
  0
LINE
  5
53D
330
70
100
AcDbEntity
  8
YAKUMONO
 48
0.4999999993549407
100
AcDbLine
 10
453.6899360499258
 20
306.6621183815187
 30
0.0000000000076729
 11
450.6899360537966
 21
306.6621183815187
 31
0.0000000000076729
  0
ARC
  5
53E
330
70
100
AcDbEntity
  8
YAKUMONO
 48
0.4999999993549407
100
AcDbCircle
 10
453.6899360499258
 20
305.6621183828093
 30
0.0000000000076729
 40
0.9999999987098812
100
AcDbArc
 50
270.0
 51
90.0
  0
ARC
  5
53F
330
70
100
AcDbEntity
  8
YAKUMONO
 48
0.4999999993549407
100
AcDbCircle
 10
402.6899361157222
 20
302.8621183864261
 30
0.0000000000076729
 40
0.6499999991614228
100
AcDbArc
 50
90.0
 51
180.0
  0
ARC
  5
540
330
70
100
AcDbEntity
  8
YAKUMONO
 48
0.4999999993549407
100
AcDbCircle
 10
402.6899361157222
 20
302.8621183864261
 30
0.0000000000076729
 40
0.9999999987098812
100
AcDbArc
 50
90.0
 51
180.0
  0
LINE
  5
541
330
70
100
AcDbEntity
  8
YAKUMONO
 48
0.4999999993549407
100
AcDbLine
 10
399.2399361201762
 20
251.8621184522217
 30
0.0000000000076729
 11
399.2399361201762
 21
254.8621184483514
 31
0.0000000000076729
  0
ARC
  5
542
330
70
100
AcDbEntity
  8
YAKUMONO
 48
0.4999999993549407
100
AcDbCircle
 10
401.3899361174019
 20
291.3600364012655
 30
0.0000000000076729
 40
0.4999999993549407
100
AcDbArc
 50
135.0000000000385
 51
180.0
  0
LINE
  5
543
330
70
100
AcDbEntity
  8
YAKUMONO
 48
0.4999999993549407
100
AcDbLine
 10
401.7909771168881
 20
292.4681843998355
 30
0.0000000000076729
 11
401.0363831178612
 21
291.713590400811
 31
0.0000000000076729
  0
ARC
  5
544
330
70
100
AcDbEntity
  8
YAKUMONO
 48
0.4999999993549407
100
AcDbCircle
 10
401.1899361176577
 20
293.0692253990619
 30
0.0000000000076729
 40
0.8499999989033991
100
AcDbArc
 50
315.0000000000753
 51
0.0
  0
ARC
  5
545
330
70
100
AcDbEntity
  8
YAKUMONO
 48
0.4999999993549407
100
AcDbCircle
 10
401.3899361174019
 20
291.3600364012655
 30
0.0000000000076729
 40
0.8499999989033991
100
AcDbArc
 50
135.0000000000385
 51
180.0
  0
ARC
  5
546
330
70
100
AcDbEntity
  8
YAKUMONO
 48
0.4999999993549407
100
AcDbCircle
 10
401.1899361176577
 20
293.0692253990619
 30
0.0000000000076729
 40
0.4999999993549407
100
AcDbArc
 50
315.0000000000753
 51
0.0
  0
LINE
  5
547
330
70
100
AcDbEntity
  8
YAKUMONO
 48
0.4999999993549407
100
AcDbLine
 10
401.543490117204
 20
292.7156713995164
 30
0.0000000000076729
 11
400.7888961181781
 21
291.961077400485
 31
0.0000000000076729
  0
LINE
  5
548
330
70
100
AcDbEntity
  8
YAKUMONO
 48
0.4999999993549407
100
AcDbLine
 10
400.8899361180477
 20
268.6725054305357
 30
0.0000000000076729
 11
400.8899361180477
 21
278.0517314184363
 31
0.0000000000076729
  0
LINE
  5
549
330
70
100
AcDbEntity
  8
YAKUMONO
 48
0.4999999993549407
100
AcDbLine
 10
400.5399361184983
 20
268.6725054305357
 30
0.0000000000076729
 11
400.5399361184983
 21
278.0517314184363
 31
0.0000000000076729
  0
ARC
  5
54A
330
70
100
AcDbEntity
  8
YAKUMONO
 48
0.4999999993549407
100
AcDbCircle
 10
401.3899361174019
 20
265.0517314352082
 30
0.0000000000076729
 40
0.8499999989033991
100
AcDbArc
 50
115.1506629999653
 51
180.0
  0
ARC
  5
54B
330
70
100
AcDbEntity
  8
YAKUMONO
 48
0.4999999993549407
100
AcDbCircle
 10
400.5399361184983
 20
266.8621184328704
 30
0.0000000000076729
 40
1.149999998516362
100
AcDbArc
 50
295.1506629999654
 51
64.84933700003472
  0
ARC
  5
54C
330
70
100
AcDbEntity
  8
YAKUMONO
 48
0.4999999993549407
100
AcDbCircle
 10
401.3899361174019
 20
268.6725054305357
 30
0.0000000000076729
 40
0.8499999989033991
100
AcDbArc
 50
180.0
 51
244.8493370000347
  0
ARC
  5
54D
330
70
100
AcDbEntity
  8
YAKUMONO
 48
0.4999999993549407
100
AcDbCircle
 10
401.3899361174019
 20
265.0517314352082
 30
0.0000000000076729
 40
0.4999999993549407
100
AcDbArc
 50
115.1506629999653
 51
180.0
  0
ARC
  5
54E
330
70
100
AcDbEntity
  8
YAKUMONO
 48
0.4999999993549407
100
AcDbCircle
 10
401.3899361174019
 20
268.6725054305357
 30
0.0000000000076729
 40
0.4999999993549407
100
AcDbArc
 50
180.0
 51
244.8493370000347
  0
ARC
  5
54F
330
70
100
AcDbEntity
  8
YAKUMONO
 48
0.4999999993549407
100
AcDbCircle
 10
400.5399361184983
 20
266.8621184328704
 30
0.0000000000076729
 40
1.499999998064821
100
AcDbArc
 50
295.1506629999654
 51
64.84933700003472
  0
ARC
  5
550
330
70
100
AcDbEntity
  8
YAKUMONO
 48
0.4999999993549407
100
AcDbCircle
 10
401.3899361174019
 20
278.0517314184363
 30
0.0000000000076729
 40
0.8499999989033991
100
AcDbArc
 50
115.1506629999653
 51
180.0
  0
ARC
  5
551
330
70
100
AcDbEntity
  8
YAKUMONO
 48
0.4999999993549407
100
AcDbCircle
 10
400.5399361184983
 20
279.8621184160984
 30
0.0000000000076729
 40
1.149999998516362
100
AcDbArc
 50
295.1506629999654
 51
64.84933700003472
  0
ARC
  5
552
330
70
100
AcDbEntity
  8
YAKUMONO
 48
0.4999999993549407
100
AcDbCircle
 10
401.3899361174019
 20
281.6725054137641
 30
0.0000000000076729
 40
0.8499999989033991
100
AcDbArc
 50
180.0
 51
244.8493370000347
  0
ARC
  5
553
330
70
100
AcDbEntity
  8
YAKUMONO
 48
0.4999999993549407
100
AcDbCircle
 10
401.3899361174019
 20
278.0517314184363
 30
0.0000000000076729
 40
0.4999999993549407
100
AcDbArc
 50
115.1506629999653
 51
180.0
  0
ARC
  5
554
330
70
100
AcDbEntity
  8
YAKUMONO
 48
0.4999999993549407
100
AcDbCircle
 10
401.3899361174019
 20
281.6725054137641
 30
0.0000000000076729
 40
0.4999999993549407
100
AcDbArc
 50
180.0
 51
244.8493370000347
  0
LINE
  5
555
330
70
100
AcDbEntity
  8
YAKUMONO
 48
0.4999999993549407
100
AcDbLine
 10
400.8899361180477
 20
281.6725054137641
 30
0.0000000000076729
 11
400.8899361180477
 21
291.3600364012655
 31
0.0000000000076729
  0
LINE
  5
556
330
70
100
AcDbEntity
  8
YAKUMONO
 48
0.4999999993549407
100
AcDbLine
 10
400.5399361184983
 20
281.6725054137641
 30
0.0000000000076729
 11
400.5399361184983
 21
291.3600364012655
 31
0.0000000000076729
  0
ARC
  5
557
330
70
100
AcDbEntity
  8
YAKUMONO
 48
0.4999999993549407
100
AcDbCircle
 10
400.5399361184983
 20
279.8621184160984
 30
0.0000000000076729
 40
1.499999998064821
100
AcDbArc
 50
295.1506629999654
 51
64.84933700003472
  0
LINE
  5
558
330
70
100
AcDbEntity
  8
YAKUMONO
 48
0.4999999993549407
100
AcDbLine
 10
400.8899361180477
 20
251.8621184522217
 30
0.0000000000076729
 11
400.8899361180477
 21
265.0517314352082
 31
0.0000000000076729
  0
LINE
  5
559
330
70
100
AcDbEntity
  8
YAKUMONO
 48
0.4999999993549407
100
AcDbLine
 10
400.5399361184983
 20
251.8621184522217
 30
0.0000000000076729
 11
400.5399361184983
 21
265.0517314352082
 31
0.0000000000076729
  0
LINE
  5
55A
330
70
100
AcDbEntity
  8
YAKUMONO
 48
0.4999999993549407
100
AcDbLine
 10
398.889936120627
 20
254.8621184483514
 30
0.0000000000076729
 11
399.2399361201762
 21
254.8621184483514
 31
0.0000000000076729
  0
LINE
  5
55B
330
70
100
AcDbEntity
  8
YAKUMONO
 48
0.4999999993549407
100
AcDbLine
 10
398.889936120627
 20
251.8621184522217
 30
0.0000000000076729
 11
398.889936120627
 21
254.8621184483514
 31
0.0000000000076729
  0
LINE
  5
55C
330
70
100
AcDbEntity
  8
YAKUMONO
 48
0.4999999993549407
100
AcDbLine
 10
402.039936116563
 20
293.0692253990619
 30
0.0000000000076729
 11
402.039936116563
 21
302.8621183864261
 31
0.0000000000076729
  0
LINE
  5
55D
330
70
100
AcDbEntity
  8
YAKUMONO
 48
0.4999999993549407
100
AcDbLine
 10
401.6899361170119
 20
293.0692253990619
 30
0.0000000000076729
 11
401.6899361170119
 21
302.8621183864261
 31
0.0000000000076729
  0
ARC
  5
55E
330
70
100
AcDbEntity
  8
YAKUMONO
 48
0.4999999993549407
100
AcDbCircle
 10
399.8899361193373
 20
251.8621184522217
 30
0.0000000000076729
 40
0.6499999991614228
100
AcDbArc
 50
180.0
 51
0.0
  0
ARC
  5
55F
330
70
100
AcDbEntity
  8
YAKUMONO
 48
0.4999999993549407
100
AcDbCircle
 10
399.8899361193373
 20
251.8621184522217
 30
0.0000000000076729
 40
0.9999999987098812
100
AcDbArc
 50
180.0
 51
0.0
  0
LINE
  5
560
330
70
100
AcDbEntity
  8
SI-RINGU
 48
0.4999999993549407
100
AcDbLine
 10
450.9109391300746
 20
307.6621183802299
 30
0.0000000000076729
 11
437.1005531478942
 21
307.6621183802299
 31
0.0000000000076729
  0
LINE
  5
561
330
70
100
AcDbEntity
  8
SI-RINGU
 48
0.4999999993549407
100
AcDbLine
 10
450.6899360537966
 20
305.0121183836536
 30
0.0000000000076729
 11
440.5003230669474
 21
305.0121183836473
 31
0.0000000000076729
  0
LINE
  5
562
330
70
100
AcDbEntity
  8
SI-RINGU
 48
0.4999999993549407
100
AcDbLine
 10
400.5399361184983
 20
254.8621184483514
 30
0.0000000000076729
 11
400.5399361184983
 21
265.0517314352082
 31
0.0000000000076729
  0
LINE
  5
563
330
70
100
AcDbEntity
  8
SI-RINGU
 48
0.4999999993549407
100
AcDbLine
 10
397.8899361219176
 20
268.6649946313282
 30
0.0000000000076729
 11
397.8899361219176
 21
254.8546076491443
 31
0.0000000000076729
  0
LINE
  5
564
330
70
100
AcDbEntity
  8
SONOTABUZAI
 48
0.4999999993549407
100
AcDbLine
 10
444.2973974422613
 20
324.2721759054525
 30
0.0000000000076729
 11
448.8855453459921
 21
323.0427852080256
 31
0.0000000000076729
  0
LINE
  5
565
330
70
100
AcDbEntity
  8
SONOTABUZAI
 48
0.4999999993549407
100
AcDbLine
 10
448.7949586034785
 20
322.704711092415
 30
0.0000000000076729
 11
444.2068106997478
 21
323.9341017898432
 31
0.0000000000076729
  0
ARC
  5
566
330
70
100
AcDbEntity
  8
SONOTABUZAI
 48
0.4999999993549407
100
AcDbCircle
 10
449.1184825232115
 20
323.9121184948308
 30
0.0000000000076729
 40
0.9000000511553023
100
AcDbArc
 50
254.9999984586981
 51
89.99999620220805
  0
ARC
  5
567
330
70
100
AcDbEntity
  8
SONOTABUZAI
 48
0.4999999993549407
100
AcDbCircle
 10
449.1184824757503
 20
323.9121184532087
 30
0.0000000000076729
 40
1.250000092331337
100
AcDbArc
 50
254.9999980071496
 51
89.99999508996777
  0
LINE
  5
568
330
70
100
AcDbEntity
  8
SONOTABUZAI
 48
0.4999999993549407
100
AcDbLine
 10
444.2068106997478
 20
323.9341017898432
 30
0.0000000000076729
 11
444.2973974422613
 21
324.2721759054525
 31
0.0000000000076729
  0
LINE
  5
569
330
70
100
AcDbEntity
  8
SONOTABUZAI
 48
0.4999999993549407
100
AcDbLine
 10
449.118482582867
 20
324.812118545989
 30
0.0000000000076729
 11
380.9001699875555
 21
324.8121181747915
 31
0.0000000000076729
  0
LINE
  5
56A
330
70
100
AcDbEntity
  8
SONOTABUZAI
 48
0.4999999993549407
100
AcDbLine
 10
380.4001717897838
 20
256.4438084928188
 30
0.0000000000076729
 11
380.4001699890152
 21
324.6621181617793
 31
0.0000000000076729
  0
LINE
  5
56B
330
70
100
AcDbEntity
  8
SONOTABUZAI
 48
0.4999999993549407
100
AcDbLine
 10
380.7501719683489
 20
324.662888844513
 30
0.0000000000076729
 11
380.7501719683489
 21
256.4438077857139
 31
0.0000000000076729
  0
LINE
  5
56C
330
70
100
AcDbEntity
  8
SONOTABUZAI
 48
0.4999999993549407
100
AcDbLine
 10
444.2973974422613
 20
324.2721759054525
 30
0.0000000000076729
 11
448.8855453459921
 21
323.0427852080274
 31
0.0000000000076729
  0
LINE
  5
56D
330
70
100
AcDbEntity
  8
SONOTABUZAI
 48
0.4999999993549407
100
AcDbLine
 10
448.7949586034785
 20
322.7047110924168
 30
0.0000000000076729
 11
444.2068106997478
 21
323.934101789845
 31
0.0000000000076729
  0
ARC
  5
56E
330
70
100
AcDbEntity
  8
SONOTABUZAI
 48
0.4999999993549407
100
AcDbCircle
 10
449.1184825232115
 20
323.9121184948326
 30
0.0000000000076729
 40
0.9000000511553023
100
AcDbArc
 50
254.9999984586981
 51
89.99999620220805
  0
ARC
  5
56F
330
70
100
AcDbEntity
  8
SONOTABUZAI
 48
0.4999999993549407
100
AcDbCircle
 10
449.1184824757503
 20
323.9121184532087
 30
0.0000000000076729
 40
1.250000092331337
100
AcDbArc
 50
254.9999980071496
 51
89.99999508996777
  0
LINE
  5
570
330
70
100
AcDbEntity
  8
SONOTABUZAI
 48
0.4999999993549407
100
AcDbLine
 10
444.2068106997478
 20
323.934101789845
 30
0.0000000000076729
 11
444.2973974422613
 21
324.2721759054525
 31
0.0000000000076729
  0
LINE
  5
571
330
70
100
AcDbEntity
  8
SONOTABUZAI
 48
0.4999999993549407
100
AcDbLine
 10
380.9001699856492
 20
325.1621181743331
 30
0.0000000000076729
 11
449.1184825828707
 21
325.1621185455415
 31
0.0000000000076729
  0
LINE
  5
572
330
70
100
AcDbEntity
  8
SI-RINGU
 48
0.4999999993549407
100
AcDbLine
 10
450.6899360537966
 20
305.0121183836536
 30
0.0000000000076729
 11
450.6899360537966
 21
307.662118380229
 31
0.0000000000076729
  0
LINE
  5
573
330
70
100
AcDbEntity
  8
SI-RINGU
 48
0.4999999993549407
100
AcDbLine
 10
436.8795500716162
 20
305.0121183836545
 30
0.0000000000076729
 11
436.8795500716162
 21
307.662118380229
 31
0.0000000000076729
  0
LINE
  5
574
330
70
100
AcDbEntity
  8
SI-RINGU
 48
0.4999999993549407
100
AcDbLine
 10
397.8899361219176
 20
307.6621183802299
 30
0.0000000000076729
 11
397.8899361219176
 21
300.1621183899056
 31
0.0000000000076729
  0
LINE
  5
575
330
70
100
AcDbEntity
  8
SI-RINGU
 48
0.4999999993549407
100
AcDbLine
 10
405.3899361122415
 20
307.6621183802299
 30
0.0000000000076729
 11
397.8899361219176
 21
307.662118380229
 31
0.0000000000076729
  0
ARC
  5
576
330
70
100
AcDbEntity
  8
SI-RINGU
 48
0.4999999993549407
100
AcDbCircle
 10
415.2672528015657
 20
290.2848017005804
 30
0.0000000000076729
 40
19.99999997419762
100
AcDbArc
 50
119.6140242966303
 51
150.3397747507473
  0
HATCH
  5
577
330
70
100
AcDbEntity
  8
SI-RINGU
 48
0.4999999993549407
100
AcDbHatch
 10
0.0
 20
0.0
 30
0.0000000000076729
210
0.0
220
0.0
230
1.0
  2
ANSI37
 70
     0
 71
     0
 91
        1
 92
        7
 72
     1
 73
     1
 93
        3
 10
397.8899361219176
 20
307.662118380229
 42
0.0
 10
405.3663001209827
 20
307.6621183802299
 42
0.1345576340139575
 10
397.8899361219176
 20
300.1857543811639
 42
0.0
 97
        0
 75
     0
 76
     1
 52
180.0
 41
1.199999999999999
 77
     0
 78
     2
 53
225.0
 43
397.8899361219176
 44
269.9736722507369
 45
1.347038416422532
 46
-1.347038416422533
 79
     0
 53
315.0
 43
397.8899361219176
 44
269.9736722507369
 45
1.347038416422533
 46
1.347038416422532
 79
     0
 47
0.0987767009926001
 98
        1
 10
399.6166010943154
 20
305.7503100985132
  0
HATCH
  5
578
330
70
100
AcDbEntity
  8
SI-RINGU
 48
0.4999999993549407
100
AcDbHatch
 10
0.0
 20
0.0
 30
0.0000000000076729
210
0.0
220
0.0
230
1.0
  2
ANSI37
 70
     0
 71
     0
 91
        1
 92
        7
 72
     1
 73
     1
 93
        7
 10
450.6899360537966
 20
307.6621183802299
 42
0.0
 10
450.6899360537966
 20
305.0121183836545
 42
0.0
 10
440.5004716525357
 20
305.0121183836473
 42
0.2908078058441301
 10
439.7309084233922
 20
304.5233683917786
 42
-0.6349834233395839
 10
437.6492982789125
 20
304.5226564486165
 42
0.2910111557846787
 10
436.8795500716162
 20
305.0121183836473
 42
0.0
 10
436.8795500716162
 20
307.662118380229
 42
0.0
 97
        0
 75
     0
 76
     1
 52
180.0
 41
1.199999999999999
 77
     0
 78
     2
 53
225.0
 43
436.8795500716162
 44
269.9736722507369
 45
1.347038416422532
 46
-1.347038416422533
 79
     0
 53
315.0
 43
436.8795500716162
 44
269.9736722507369
 45
1.347038416422533
 46
1.347038416422532
 79
     0
 47
0.0951142078903706
 98
        1
 10
445.7286682356055
 20
306.3549167868232
  0
LINE
  5
579
330
70
100
AcDbEntity
  8
SI-RINGU
 48
0.4999999993549407
100
AcDbLine
 10
400.5399361184974
 20
254.8621184483541
 30
0.0000000000076729
 11
397.8899361219221
 21
254.8621184483541
 31
0.0000000000076729
  0
LINE
  5
57A
330
70
100
AcDbEntity
  8
SI-RINGU
 48
0.4999999993549407
100
AcDbLine
 10
400.5399361184966
 20
268.6725044305344
 30
0.0000000000076729
 11
397.8899361219221
 21
268.6725044305344
 31
0.0000000000076729
  0
HATCH
  5
57B
330
70
100
AcDbEntity
  8
SI-RINGU
 48
0.4999999993549407
100
AcDbHatch
 10
0.0
 20
0.0
 30
0.0000000000076729
210
0.0
220
0.0
230
1.0
  2
ANSI37
 70
     0
 71
     0
 91
        1
 92
        7
 72
     1
 73
     1
 93
        7
 10
397.8899361219212
 20
254.8621184483541
 42
0.0
 10
400.5399361184966
 20
254.8621184483541
 42
0.0
 10
400.539936118503
 20
265.0515828496154
 42
-0.2908078058441301
 10
401.0286861103716
 20
265.8211460787588
 42
0.6349834233395839
 10
401.0293980535327
 20
267.9027562232382
 42
-0.2910111557846787
 10
400.539936118503
 20
268.6725044305344
 42
0.0
 10
397.8899361219221
 20
268.6725044305344
 42
0.0
 97
        0
 75
     0
 76
     1
 52
180.0
 41
1.199999999999999
 77
     0
 78
     2
 53
225.0
 43
397.8899361219212
 44
308.9632862004318
 45
-1.347038416422533
 46
1.347038416422533
 79
     0
 53
134.9999999999999
 43
397.8899361219212
 44
308.9632862004318
 45
1.347038416422533
 46
1.347038416422533
 79
     0
 47
0.0951142078903706
 98
        1
 10
399.197137715327
 20
259.8233862665447
  0
ARC
  5
57C
330
70
100
AcDbEntity
  8
SONOTABUZAI
 48
0.4999999993549407
100
AcDbCircle
 10
380.9001699883713
 20
324.6621181749779
 30
0.0000000000076729
 40
0.4999999993549407
100
AcDbArc
 50
90.00000031172326
 51
180.0000015124467
  0
ARC
  5
57D
330
70
100
AcDbEntity
  8
SONOTABUZAI
 48
0.4999999993549407
100
AcDbCircle
 10
380.9001699883713
 20
324.6621181749779
 30
0.0000000000076729
 40
0.1499999998064822
100
AcDbArc
 50
90.00000031172326
 51
180.0000015124467
  0
LINE
  5
57E
330
70
100
AcDbEntity
  8
TEKUSU
  6
DASHED2
 48
0.5
100
AcDbLine
 10
434.1675922014108
 20
305.6057014291227
 30
0.0000000000076729
 11
434.1675922014108
 21
328.7321234393244
 31
0.0000000000076729
  0
LINE
  5
57F
330
70
100
AcDbEntity
  8
TEKUSU
100
AcDbLine
 10
434.1675922014108
 20
328.7321234393244
 30
0.0000000000076729
 11
434.1675922014108
 21
334.1621183840991
 31
0.0000000000076729
  0
LINE
  5
580
330
70
100
AcDbEntity
  8
TEKUSU
  6
DASHED2
 48
0.5
100
AcDbLine
 10
430.1675922014108
 20
305.6057014291227
 30
0.0000000000076729
 11
430.1675922014108
 21
328.7321234393244
 31
0.0000000000076729
  0
LINE
  5
581
330
70
100
AcDbEntity
  8
TEKUSU
100
AcDbLine
 10
430.1675922014108
 20
328.7321234393244
 30
0.0000000000076729
 11
430.1675922014108
 21
334.1621183840991
 31
0.0000000000076729
  0
LINE
  5
582
330
70
100
AcDbEntity
  8
TEKUSU
100
AcDbLine
 10
433.9075922014106
 20
338.4437567566438
 30
0.0000000000076729
 11
433.9075922014096
 21
334.1621183840991
 31
0.0000000000076729
  0
LINE
  5
583
330
70
100
AcDbEntity
  8
TEKUSU
100
AcDbLine
 10
430.4275922014119
 20
338.4437567566402
 30
0.0000000000076729
 11
430.4275922014128
 21
334.1621183840989
 31
0.0000000000076729
  0
LINE
  5
584
330
70
100
AcDbEntity
  8
TEKUSU
100
AcDbLine
 10
432.1675922014107
 20
339.6621183840991
 30
0.0000000000076729
 11
433.9075922014132
 21
338.443756756642
 31
0.0000000000076729
  0
LINE
  5
585
330
70
100
AcDbEntity
  8
TEKUSU
100
AcDbLine
 10
432.1675922014107
 20
339.6621183840991
 30
0.0000000000076729
 11
430.4275922014119
 21
338.4437567566402
 31
0.0000000000076729
  0
LINE
  5
586
330
70
100
AcDbEntity
  8
TEKUSU
100
AcDbLine
 10
430.1675922014108
 20
334.1621183840991
 30
0.0000000000076729
 11
434.1675922014108
 21
334.1621183840991
 31
0.0000000000076729
  0
LINE
  5
587
330
70
100
AcDbEntity
  8
TEKUSU
100
AcDbLine
 10
430.7549022393711
 20
334.1621183840991
 30
0.0000000000076729
 11
432.167592201418
 21
339.6621183840989
 31
0.0000000000076729
  0
LINE
  5
588
330
70
100
AcDbEntity
  8
TEKUSU
  6
CENTER2
370
     5
100
AcDbLine
 10
432.1675927014118
 20
297.1621183840991
 30
0.0000000000076729
 11
432.1675927014118
 21
344.6621183841055
 31
0.0000000000076729
  0
LINE
  5
589
330
70
100
AcDbEntity
  8
TEKUSU
  6
DASHED2
 48
0.5
100
AcDbLine
 10
434.1675922014108
 20
305.6057014291227
 30
0.0000000000076729
 11
430.1675922014108
 21
305.6057014291227
 31
0.0000000000076729
  0
LINE
  5
58A
330
70
100
AcDbEntity
  8
TEKUSU
100
AcDbLine
 10
437.3100666236338
 20
304.6621183840989
 30
0.0000000000076729
 11
427.0251187791898
 21
304.6621183840989
 31
0.0000000000076729
  0
LINE
  5
58B
330
70
100
AcDbEntity
  8
TEKUSU
100
AcDbLine
 10
437.6675927014118
 20
304.0621183840985
 30
0.0000000000076729
 11
437.6675927014118
 21
304.3621183840987
 31
0.0000000000076729
  0
LINE
  5
58C
330
70
100
AcDbEntity
  8
TEKUSU
100
AcDbLine
 10
426.6675927014119
 20
304.0621183840985
 30
0.0000000000076729
 11
426.6675927014119
 21
304.3621183840987
 31
0.0000000000076729
  0
ARC
  5
58D
330
70
100
AcDbEntity
  8
TEKUSU
100
AcDbCircle
 10
432.1675917014115
 20
308.5621183840985
 30
0.0000000000076729
 40
6.299999999999998
100
AcDbArc
 50
240.0000105015001
 51
299.9999894984998
  0
LINE
  5
58E
330
70
100
AcDbEntity
  8
TEKUSU
100
AcDbLine
 10
429.0175927014113
 20
303.1061577629071
 30
0.0000000000076729
 11
435.3175927014115
 21
303.1061577629071
 31
0.0000000000076729
  0
ARC
  5
58F
330
70
100
AcDbEntity
  8
TEKUSU
100
AcDbCircle
 10
430.2447504626805
 20
309.4892670232093
 30
0.0000000000076729
 40
6.5
100
AcDbArc
 50
236.6102099832983
 51
259.1176172862623
  0
ARC
  5
590
330
70
100
AcDbEntity
  8
TEKUSU
100
AcDbCircle
 10
434.0904349401433
 20
309.4892670232093
 30
0.0000000000076729
 40
6.5
100
AcDbArc
 50
280.8823827137377
 51
303.3897900167017
  0
LINE
  5
591
330
70
100
AcDbEntity
  8
TEKUSU
100
AcDbLine
 10
437.6675927014118
 20
304.3621183840987
 30
0.0000000000076729
 11
437.3100666236338
 21
304.6621183840989
 31
0.0000000000076729
  0
LINE
  5
592
330
70
100
AcDbEntity
  8
TEKUSU
100
AcDbLine
 10
426.6675927014119
 20
304.3621183840987
 30
0.0000000000076729
 11
427.0251187791898
 21
304.6621183840989
 31
0.0000000000076729
  0
LINE
  5
593
330
70
100
AcDbEntity
  8
TEKUSU
  6
DASHED2
 48
0.5
100
AcDbLine
 10
434.8546984825986
 20
304.6621183840989
 30
0.0000000000076729
 11
434.1675922014108
 21
305.6057014291227
 31
0.0000000000076729
  0
LINE
  5
594
330
70
100
AcDbEntity
  8
TEKUSU
  6
DASHED2
 48
0.5
100
AcDbLine
 10
429.4804849202253
 20
304.6621183840989
 30
0.0000000000076729
 11
430.1675922014108
 21
305.6057014291227
 31
0.0000000000076729
  0
LINE
  5
59C
330
70
100
AcDbEntity
  8
TEKUSU
100
AcDbLine
 10
362.8899361219176
 20
293.1621038085511
 30
-0.0000000000569426
 11
364.1082977493763
 21
291.4221038085523
 31
-0.0000000000569426
  0
LINE
  5
59F
330
70
100
AcDbEntity
  8
TEKUSU
  6
CENTER2
370
     5
100
AcDbLine
 10
405.3899361219175
 20
293.1621043085522
 30
-0.0000000000569426
 11
357.8899361219112
 21
293.1621043085522
 31
-0.0000000000569426
  0
LINE
  5
5AC
330
70
100
AcDbEntity
  8
TEKUSU
  6
DASHED2
 48
0.5
100
AcDbLine
 10
399.9463530730238
 20
275.3621179244856
 30
0.0000000000076729
 11
376.8199310628227
 21
275.3621179244856
 31
0.0000000000076729
  0
LINE
  5
5AD
330
70
100
AcDbEntity
  8
TEKUSU
100
AcDbLine
 10
376.8199310628227
 20
275.3621179244856
 30
0.0000000000076729
 11
371.3899361180477
 21
275.3621179244856
 31
0.0000000000076729
  0
LINE
  5
5AE
330
70
100
AcDbEntity
  8
TEKUSU
  6
DASHED2
 48
0.5
100
AcDbLine
 10
399.9463530730238
 20
271.3621179244856
 30
0.0000000000076729
 11
376.8199310628227
 21
271.3621179244856
 31
0.0000000000076729
  0
LINE
  5
5AF
330
70
100
AcDbEntity
  8
TEKUSU
100
AcDbLine
 10
376.8199310628227
 20
271.3621179244856
 30
0.0000000000076729
 11
371.3899361180477
 21
271.3621179244856
 31
0.0000000000076729
  0
LINE
  5
5B0
330
70
100
AcDbEntity
  8
TEKUSU
100
AcDbLine
 10
367.1082977455028
 20
275.1021179244854
 30
0.0000000000076729
 11
371.3899361180477
 21
275.1021179244844
 31
0.0000000000076729
  0
LINE
  5
5B1
330
70
100
AcDbEntity
  8
TEKUSU
100
AcDbLine
 10
367.1082977455065
 20
271.6221179244867
 30
0.0000000000076729
 11
371.3899361180477
 21
271.6221179244876
 31
0.0000000000076729
  0
LINE
  5
5B2
330
70
100
AcDbEntity
  8
TEKUSU
100
AcDbLine
 10
365.8899361180477
 20
273.3621179244856
 30
0.0000000000076729
 11
367.1082977455046
 21
275.1021179244881
 31
0.0000000000076729
  0
LINE
  5
5B3
330
70
100
AcDbEntity
  8
TEKUSU
100
AcDbLine
 10
365.8899361180477
 20
273.3621179244856
 30
0.0000000000076729
 11
367.1082977455065
 21
271.6221179244867
 31
0.0000000000076729
  0
LINE
  5
5B4
330
70
100
AcDbEntity
  8
TEKUSU
100
AcDbLine
 10
371.3899361180477
 20
271.3621179244856
 30
0.0000000000076729
 11
371.3899361180477
 21
275.3621179244856
 31
0.0000000000076729
  0
LINE
  5
5B5
330
70
100
AcDbEntity
  8
TEKUSU
100
AcDbLine
 10
371.3899361180477
 20
271.949427962446
 30
0.0000000000076729
 11
365.8899361180477
 21
273.3621179244928
 31
0.0000000000076729
  0
LINE
  5
5B6
330
70
100
AcDbEntity
  8
TEKUSU
  6
CENTER2
370
     5
100
AcDbLine
 10
408.3899361180476
 20
273.3621184244867
 30
0.0000000000076729
 11
360.8899361180413
 21
273.3621184244867
 31
0.0000000000076729
  0
LINE
  5
5B7
330
70
100
AcDbEntity
  8
TEKUSU
  6
DASHED2
 48
0.5
100
AcDbLine
 10
399.9463530730238
 20
275.3621179244856
 30
0.0000000000076729
 11
399.9463530730238
 21
271.3621179244856
 31
0.0000000000076729
  0
LINE
  5
5B8
330
70
100
AcDbEntity
  8
TEKUSU
100
AcDbLine
 10
400.8899361180477
 20
278.5045923467085
 30
0.0000000000076729
 11
400.8899361180477
 21
268.2196445022648
 31
0.0000000000076729
  0
LINE
  5
5B9
330
70
100
AcDbEntity
  8
TEKUSU
100
AcDbLine
 10
401.489936118048
 20
278.8621184244864
 30
0.0000000000076729
 11
401.1899361180478
 21
278.8621184244864
 31
0.0000000000076729
  0
LINE
  5
5BA
330
70
100
AcDbEntity
  8
TEKUSU
100
AcDbLine
 10
401.489936118048
 20
267.8621184244864
 30
0.0000000000076729
 11
401.1899361180478
 21
267.8621184244864
 31
0.0000000000076729
  0
ARC
  5
5BB
330
70
100
AcDbEntity
  8
TEKUSU
100
AcDbCircle
 10
396.989936118048
 20
273.3621174244865
 30
0.0000000000076729
 40
6.299999999999998
100
AcDbArc
 50
330.0000105015075
 51
29.99998949849253
  0
LINE
  5
5BC
330
70
100
AcDbEntity
  8
TEKUSU
100
AcDbLine
 10
402.4458967392395
 20
270.2121184244863
 30
0.0000000000076729
 11
402.4458967392395
 21
276.5121184244865
 31
0.0000000000076729
  0
ARC
  5
5BD
330
70
100
AcDbEntity
  8
TEKUSU
100
AcDbCircle
 10
396.0627874789373
 20
271.439276185755
 30
0.0000000000076729
 40
6.5
100
AcDbArc
 50
326.6102099832983
 51
349.1176172862652
  0
ARC
  5
5BE
330
70
100
AcDbEntity
  8
TEKUSU
100
AcDbCircle
 10
396.0627874789373
 20
275.2849606632183
 30
0.0000000000076729
 40
6.5
100
AcDbArc
 50
10.88238271373458
 51
33.38979001670169
  0
LINE
  5
5BF
330
70
100
AcDbEntity
  8
TEKUSU
100
AcDbLine
 10
401.1899361180478
 20
278.8621184244864
 30
0.0000000000076729
 11
400.8899361180477
 21
278.5045923467085
 31
0.0000000000076729
  0
LINE
  5
5C0
330
70
100
AcDbEntity
  8
TEKUSU
100
AcDbLine
 10
401.1899361180478
 20
267.8621184244864
 30
0.0000000000076729
 11
400.8899361180477
 21
268.2196445022648
 31
0.0000000000076729
  0
LINE
  5
5C1
330
70
100
AcDbEntity
  8
TEKUSU
  6
DASHED2
 48
0.5
100
AcDbLine
 10
400.8899361180477
 20
276.0492242056732
 30
0.0000000000076729
 11
399.9463530730238
 21
275.3621179244856
 31
0.0000000000076729
  0
LINE
  5
5C2
330
70
100
AcDbEntity
  8
TEKUSU
  6
DASHED2
 48
0.5
100
AcDbLine
 10
400.8899361180477
 20
270.6750106432998
 30
0.0000000000076729
 11
399.9463530730238
 21
271.3621179244856
 31
0.0000000000076729
  0
LINE
  5
5C3
330
70
100
AcDbEntity
  8
MOJI
100
AcDbLine
 10
427.8899363601611
 20
186.0724932204036
 30
0.0000000000076729
 11
432.889936360161
 21
186.0724932204036
 31
0.0000000000076729
  0
TEXT
  5
5C4
330
70
100
AcDbEntity
  8
MOJI
100
AcDbText
 10
435.2066346236669
 20
182.0724932204036
 30
0.0000000000076729
 40
8.0
  1
捨板（現場加工）
 50
0.0000000000014388
  7
CAD-DL
 11
435.2066346236667
 21
186.0724932204036
 31
0.0000000000076729
100
AcDbText
 73
     2
  0
LINE
  5
5C5
330
70
100
AcDbEntity
  8
MOJI
100
AcDbLine
 10
400.6197440740108
 20
306.2119661422179
 30
0.0
 11
442.0922855949704
 21
236.4341740004066
 31
0.0
  0
LINE
  5
5C6
330
70
100
AcDbEntity
  8
MOJI
100
AcDbLine
 10
442.09228559497
 20
236.4341740004065
 30
0.0
 11
447.09228559497
 21
236.4341740004065
 31
0.0
  0
TEXT
  5
5C7
330
70
100
AcDbEntity
  8
MOJI
100
AcDbText
 10
449.4089838584758
 20
232.4341740004065
 30
0.0
 40
8.0
  1
捨てシーリング
 50
0.0000000000014388
  7
CAD-DL
 11
449.4089838584756
 21
236.4341740004065
 31
0.0
100
AcDbText
 73
     2
  0
LINE
  5
5C8
330
70
100
AcDbEntity
  8
SONOTABUZAI
 48
0.4999999993549407
100
AcDbLine
 10
381.2901122578958
 20
261.2648907051671
 30
0.0000000000076729
 11
382.5195029553226
 21
256.6767428014364
 31
0.0000000000076729
  0
LINE
  5
5C9
330
70
100
AcDbEntity
  8
SONOTABUZAI
 48
0.4999999993549407
100
AcDbLine
 10
382.8575770709333
 20
256.7673295439499
 30
0.0000000000076729
 11
381.6281863735051
 21
261.3554774476806
 31
0.0000000000076729
  0
ARC
  5
5CA
330
70
100
AcDbEntity
  8
SONOTABUZAI
 48
0.4999999993549407
100
AcDbCircle
 10
381.6501696685175
 20
256.443805624217
 30
0.0000000000076729
 40
0.9000000511553023
100
AcDbArc
 50
180.0000037977919
 51
15.00000154130589
  0
ARC
  5
5CB
330
70
100
AcDbEntity
  8
SONOTABUZAI
 48
0.4999999993549407
100
AcDbCircle
 10
381.6501697101396
 20
256.4438056716781
 30
0.0000000000076729
 40
1.250000092331337
100
AcDbArc
 50
180.0000049100322
 51
15.00000199284901
  0
LINE
  5
5CC
330
70
100
AcDbEntity
  8
SONOTABUZAI
 48
0.4999999993549407
100
AcDbLine
 10
381.6281863735051
 20
261.3554774476806
 30
0.0000000000076729
 11
381.2901122578958
 21
261.2648907051671
 31
0.0000000000076729
  0
LINE
  5
5CD
330
70
100
AcDbEntity
  8
SONOTABUZAI
 48
0.4999999993549407
100
AcDbLine
 10
381.2901122578958
 20
261.2648907051671
 30
0.0000000000076729
 11
382.5195029553208
 21
256.6767428014364
 31
0.0000000000076729
  0
LINE
  5
5CE
330
70
100
AcDbEntity
  8
SONOTABUZAI
 48
0.4999999993549407
100
AcDbLine
 10
382.8575770709315
 20
256.7673295439499
 30
0.0000000000076729
 11
381.6281863735032
 21
261.3554774476806
 31
0.0000000000076729
  0
ARC
  5
5CF
330
70
100
AcDbEntity
  8
SONOTABUZAI
 48
0.4999999993549407
100
AcDbCircle
 10
381.6501696685157
 20
256.443805624217
 30
0.0000000000076729
 40
0.9000000511553023
100
AcDbArc
 50
180.0000037977919
 51
15.00000154130589
  0
ARC
  5
5D0
330
70
100
AcDbEntity
  8
SONOTABUZAI
 48
0.4999999993549407
100
AcDbCircle
 10
381.6501697101396
 20
256.4438056716781
 30
0.0000000000076729
 40
1.250000092331337
100
AcDbArc
 50
180.0000049100322
 51
15.00000199284901
  0
LINE
  5
5D1
330
70
100
AcDbEntity
  8
SONOTABUZAI
 48
0.4999999993549407
100
AcDbLine
 10
381.6281863735032
 20
261.3554774476806
 30
0.0000000000076729
 11
381.2901122578958
 21
261.2648907051671
 31
0.0000000000076729
  0
LINE
  5
5D2
330
70
100
AcDbEntity
  8
SEIHIN
 48
0.4999999993549407
100
AcDbLine
 10
382.8899361412698
 20
306.1621183802289
 30
0.0000000000076729
 11
382.8899361412689
 21
96.66210456206682
 31
0.0000000000076729
  0
LINE
  5
5D3
330
70
100
AcDbEntity
  8
SEIHIN
 48
0.4999999993549407
100
AcDbLine
 10
610.4330577500984
 20
322.6621183608777
 30
0.0000000000076729
 11
382.8899361412693
 21
322.6621183608777
 31
0.0000000000076729
  0
LINE
  5
811
102
{ACAD_REACTORS
330
84D
102
}
330
70
100
AcDbEntity
  8
TEKUSU
  6
CENTER2
370
     5
100
AcDbLine
 10
412.3899501935845
 20
300.1621183802289
 30
0.0000000000076729
 11
412.3899501935845
 21
347.6621183802354
 31
0.0000000000076729
  0
LINE
  5
813
102
{ACAD_REACTORS
330
84D
102
}
330
70
100
AcDbEntity
  8
TEKUSU
100
AcDbLine
 10
407.3899501935841
 20
307.662118380229
 30
0.0000000000076729
 11
417.389950193585
 21
307.662118380229
 31
0.0000000000076729
  0
LINE
  5
814
102
{ACAD_REACTORS
330
84D
102
}
330
70
100
AcDbEntity
  8
TEKUSU
100
AcDbLine
 10
414.4899501935844
 20
340.5621183802286
 30
0.0000000000076729
 11
414.4899501935844
 21
336.6621183802281
 31
0.0000000000076729
  0
LINE
  5
815
102
{ACAD_REACTORS
330
84D
102
}
330
70
100
AcDbEntity
  8
TEKUSU
100
AcDbLine
 10
410.2899501935846
 20
340.5621183802286
 30
0.0000000000076729
 11
410.2899501935846
 21
336.6621183802281
 31
0.0000000000076729
  0
LINE
  5
816
102
{ACAD_REACTORS
330
84D
102
}
330
70
100
AcDbEntity
  8
TEKUSU
100
AcDbLine
 10
417.389950193585
 20
307.662118380229
 30
0.0000000000076729
 11
417.389950193585
 21
306.6621183802289
 31
0.0000000000076729
  0
LINE
  5
817
102
{ACAD_REACTORS
330
84D
102
}
330
70
100
AcDbEntity
  8
TEKUSU
100
AcDbLine
 10
407.389950193585
 20
307.662118380229
 30
0.0000000000076729
 11
407.389950193585
 21
306.6621183802289
 31
0.0000000000076729
  0
LINE
  5
818
102
{ACAD_REACTORS
330
84D
102
}
330
70
100
AcDbEntity
  8
TEKUSU
100
AcDbLine
 10
414.889950193585
 20
336.6621183802281
 30
0.0000000000076729
 11
414.8899501935849
 21
329.4621321110594
 31
0.0000000000076729
  0
LINE
  5
819
102
{ACAD_REACTORS
330
84D
102
}
330
70
100
AcDbEntity
  8
TEKUSU
  6
DASHED2
 48
0.5
100
AcDbLine
 10
414.889950193585
 20
329.4621321110594
 30
0.0000000000076729
 11
414.889950193585
 21
307.662118380229
 31
0.0000000000076729
  0
LINE
  5
81A
102
{ACAD_REACTORS
330
84D
102
}
330
70
100
AcDbEntity
  8
TEKUSU
100
AcDbLine
 10
409.889950193585
 20
336.6621183802281
 30
0.0000000000076729
 11
409.889950193585
 21
329.4621321110594
 31
0.0000000000076729
  0
LINE
  5
81B
102
{ACAD_REACTORS
330
84D
102
}
330
70
100
AcDbEntity
  8
TEKUSU
  6
DASHED2
 48
0.5
100
AcDbLine
 10
409.889950193585
 20
329.4621321110594
 30
0.0000000000076729
 11
409.889950193585
 21
307.662118380229
 31
0.0000000000076729
  0
LINE
  5
81C
102
{ACAD_REACTORS
330
84D
102
}
330
70
100
AcDbEntity
  8
TEKUSU
100
AcDbLine
 10
409.8899501935846
 20
336.6621183802281
 30
0.0000000000076729
 11
414.8899501935845
 21
336.6621183802281
 31
0.0000000000076729
  0
LINE
  5
81D
102
{ACAD_REACTORS
330
84D
102
}
330
70
100
AcDbEntity
  8
TEKUSU
100
AcDbLine
 10
407.3899501935841
 20
306.6621183802289
 30
0.0000000000076729
 11
417.389950193585
 21
306.6621183802289
 31
0.0000000000076729
  0
LINE
  5
81E
102
{ACAD_REACTORS
330
84D
102
}
330
70
100
AcDbEntity
  8
TEKUSU
100
AcDbLine
 10
412.3899501935845
 20
342.6621183802281
 30
0.0000000000076729
 11
414.4899501935844
 21
340.5621183802286
 31
0.0000000000076729
  0
LINE
  5
81F
102
{ACAD_REACTORS
330
84D
102
}
330
70
100
AcDbEntity
  8
TEKUSU
100
AcDbLine
 10
412.3899501935845
 20
342.662118380229
 30
0.0000000000076729
 11
410.2899501935846
 21
340.5621183802286
 31
0.0000000000076729
  0
LINE
  5
820
102
{ACAD_REACTORS
330
84D
102
}
330
70
100
AcDbEntity
  8
TEKUSU
100
AcDbLine
 10
411.4609035009809
 20
336.6621183802281
 30
0.0000000000076729
 11
412.3899501935845
 21
342.662118380229
 31
0.0000000000076729
  0
LINE
  5
821
102
{ACAD_REACTORS
330
84D
102
}
330
70
100
AcDbEntity
  8
TEKUSU
  6
CENTER2
370
     5
100
AcDbLine
 10
412.3899501935841
 20
300.1621164336153
 30
0.0000000000076729
 11
412.3899501935841
 21
347.6621164336217
 31
0.0000000000076729
  0
LINE
  5
839
102
{ACAD_REACTORS
330
84C
102
}
330
70
100
AcDbEntity
  8
TEKUSU
  6
CENTER2
370
     5
100
AcDbLine
 10
405.389936121918
 20
293.1621043085522
 30
-0.0000000000569426
 11
357.8899361219117
 21
293.1621043085522
 31
-0.0000000000569426
  0
LINE
  5
83B
102
{ACAD_REACTORS
330
84C
102
}
330
70
100
AcDbEntity
  8
TEKUSU
100
AcDbLine
 10
397.889936121918
 20
288.1621043085518
 30
-0.0000000000569426
 11
397.889936121918
 21
298.1621043085527
 31
-0.0000000000569426
  0
LINE
  5
83C
102
{ACAD_REACTORS
330
84C
102
}
330
70
100
AcDbEntity
  8
TEKUSU
100
AcDbLine
 10
364.9899361219184
 20
295.2621043085521
 30
-0.0000000000569426
 11
368.8899361219189
 21
295.2621043085521
 31
-0.0000000000569426
  0
LINE
  5
83D
102
{ACAD_REACTORS
330
84C
102
}
330
70
100
AcDbEntity
  8
TEKUSU
100
AcDbLine
 10
364.9899361219184
 20
291.0621043085523
 30
-0.0000000000569426
 11
368.8899361219189
 21
291.0621043085523
 31
-0.0000000000569426
  0
LINE
  5
83E
102
{ACAD_REACTORS
330
84C
102
}
330
70
100
AcDbEntity
  8
TEKUSU
100
AcDbLine
 10
397.889936121918
 20
298.1621043085527
 30
-0.0000000000569426
 11
398.889936121918
 21
298.1621043085527
 31
-0.0000000000569426
  0
LINE
  5
83F
102
{ACAD_REACTORS
330
84C
102
}
330
70
100
AcDbEntity
  8
TEKUSU
100
AcDbLine
 10
397.889936121918
 20
288.1621043085527
 30
-0.0000000000569426
 11
398.889936121918
 21
288.1621043085527
 31
-0.0000000000569426
  0
LINE
  5
840
102
{ACAD_REACTORS
330
84C
102
}
330
70
100
AcDbEntity
  8
TEKUSU
100
AcDbLine
 10
368.8899361219189
 20
295.6621043085527
 30
-0.0000000000569426
 11
377.0899502619624
 21
295.6621043085527
 31
-0.0000000000569426
  0
LINE
  5
841
102
{ACAD_REACTORS
330
84C
102
}
330
70
100
AcDbEntity
  8
TEKUSU
  6
DASHED2
 48
0.5
100
AcDbLine
 10
377.0899502619624
 20
295.6621043085527
 30
-0.0000000000569426
 11
397.889936121918
 21
295.6621043085527
 31
-0.0000000000569426
  0
LINE
  5
842
102
{ACAD_REACTORS
330
84C
102
}
330
70
100
AcDbEntity
  8
TEKUSU
100
AcDbLine
 10
368.8899361219189
 20
290.6621043085527
 30
-0.0000000000569426
 11
377.0899502619624
 21
290.6621043085527
 31
-0.0000000000569426
  0
LINE
  5
843
102
{ACAD_REACTORS
330
84C
102
}
330
70
100
AcDbEntity
  8
TEKUSU
  6
DASHED2
 48
0.5
100
AcDbLine
 10
377.0899502619624
 20
290.6621043085527
 30
-0.0000000000569426
 11
397.889936121918
 21
290.6621043085527
 31
-0.0000000000569426
  0
LINE
  5
844
102
{ACAD_REACTORS
330
84C
102
}
330
70
100
AcDbEntity
  8
TEKUSU
100
AcDbLine
 10
368.8899361219189
 20
290.6621043085522
 30
-0.0000000000569426
 11
368.8899361219189
 21
295.6621043085522
 31
-0.0000000000569426
  0
LINE
  5
845
102
{ACAD_REACTORS
330
84C
102
}
330
70
100
AcDbEntity
  8
TEKUSU
100
AcDbLine
 10
398.889936121918
 20
288.1621043085518
 30
-0.0000000000569426
 11
398.889936121918
 21
298.1621043085527
 31
-0.0000000000569426
  0
LINE
  5
846
102
{ACAD_REACTORS
330
84C
102
}
330
70
100
AcDbEntity
  8
TEKUSU
100
AcDbLine
 10
362.8899361219189
 20
293.1621043085522
 30
-0.0000000000569426
 11
364.9899361219184
 21
295.2621043085521
 31
-0.0000000000569426
  0
LINE
  5
847
102
{ACAD_REACTORS
330
84C
102
}
330
70
100
AcDbEntity
  8
TEKUSU
100
AcDbLine
 10
362.889936121918
 20
293.1621043085522
 30
-0.0000000000569426
 11
364.9899361219184
 21
291.0621043085523
 31
-0.0000000000569426
  0
LINE
  5
848
102
{ACAD_REACTORS
330
84C
102
}
330
70
100
AcDbEntity
  8
TEKUSU
100
AcDbLine
 10
368.8899361219189
 20
292.2330576159486
 30
-0.0000000000569426
 11
362.889936121918
 21
293.1621043085522
 31
-0.0000000000569426
  0
LINE
  5
849
102
{ACAD_REACTORS
330
84C
102
}
330
70
100
AcDbEntity
  8
TEKUSU
  6
CENTER2
370
     5
100
AcDbLine
 10
405.3899380685315
 20
293.1621043085518
 30
-0.0000000000569426
 11
357.8899380685252
 21
293.1621043085518
 31
-0.0000000000569426
  0
ENDSEC
  0
SECTION
  2
OBJECTS
  0
DICTIONARY
  5
C
330
0
100
AcDbDictionary
281
     1
  3
ACAD_CIP_PREVIOUS_PRODUCT_INFO
350
2EE
  3
ACAD_COLOR
350
63
  3
ACAD_DETAILVIEWSTYLE
350
6A
  3
ACAD_GROUP
350
D
  3
ACAD_LAYOUT
350
62
  3
ACAD_MATERIAL
350
10
  3
ACAD_MLEADERSTYLE
350
66
  3
ACAD_MLINESTYLE
350
5F
  3
ACAD_PLOTSETTINGS
350
61
  3
ACAD_PLOTSTYLENAME
350
E
  3
ACAD_RENDER_ACTIVE_RAPIDRT_SETTINGS
350
7F9
  3
ACAD_RENDER_ACTIVE_SETTINGS
350
8AF
  3
ACAD_SCALELIST
350
42
  3
ACAD_SECTIONVIEWSTYLE
350
68
  3
ACAD_TABLESTYLE
350
64
  3
ACAD_VISUALSTYLE
350
29
  3
ACDB_RECOMPOSE_DATA
350
86C
  3
AcDbVariableDictionary
350
1D4
  3
AcDsDecomposeData
350
872
  0
DICTIONARY
  5
73B
330
8
100
AcDbDictionary
280
     1
281
     1
  0
DICTIONARY
  5
338
330
2
100
AcDbDictionary
280
     1
281
     1
  3
ACAD_LAYERSTATES
360
339
  0
DICTIONARY
  5
716
330
54
100
AcDbDictionary
280
     1
281
     1
  3
ADSK_XREC_LAYER_RECONCILED
360
717
  0
DICTIONARY
  5
8F
330
8E
100
AcDbDictionary
280
     1
281
     1
  3
ADSK_XREC_LAYER_RECONCILED
360
90
  0
DICTIONARY
  5
94
330
93
100
AcDbDictionary
280
     1
281
     1
  3
ADSK_XREC_LAYER_RECONCILED
360
95
  0
DICTIONARY
  5
9A
330
99
100
AcDbDictionary
280
     1
281
     1
  3
ADSK_XREC_LAYER_RECONCILED
360
9B
  0
DICTIONARY
  5
A4
330
A3
100
AcDbDictionary
280
     1
281
     1
  3
ADSK_XREC_LAYER_RECONCILED
360
A5
  0
DICTIONARY
  5
BB
330
BA
100
AcDbDictionary
280
     1
281
     1
  3
ADSK_XREC_LAYER_RECONCILED
360
BC
  0
DICTIONARY
  5
100
330
FF
100
AcDbDictionary
280
     1
281
     1
  3
ADSK_XREC_LAYER_RECONCILED
360
101
  0
DICTIONARY
  5
143
330
142
100
AcDbDictionary
280
     1
281
     1
  3
ADSK_XREC_LAYER_RECONCILED
360
144
  0
DICTIONARY
  5
152
330
151
100
AcDbDictionary
280
     1
281
     1
  3
ADSK_XREC_LAYER_RECONCILED
360
153
  0
DICTIONARY
  5
18F
330
18E
100
AcDbDictionary
280
     1
281
     1
  3
ADSK_XREC_LAYER_RECONCILED
360
190
  0
DICTIONARY
  5
196
330
195
100
AcDbDictionary
280
     1
281
     1
  3
ADSK_XREC_LAYER_RECONCILED
360
197
  0
DICTIONARY
  5
32D
330
32C
100
AcDbDictionary
280
     1
281
     1
  3
ADSK_XREC_LAYER_RECONCILED
360
718
  0
DICTIONARY
  5
32F
330
32E
100
AcDbDictionary
280
     1
281
     1
  3
ADSK_XREC_LAYER_RECONCILED
360
719
  0
DICTIONARY
  5
331
330
330
100
AcDbDictionary
280
     1
281
     1
  3
ADSK_XREC_LAYER_RECONCILED
360
71A
  0
DICTIONARY
  5
333
330
332
100
AcDbDictionary
280
     1
281
     1
  3
ADSK_XREC_LAYER_RECONCILED
360
71B
  0
DICTIONARY
  5
1CC
330
70
100
AcDbDictionary
280
     1
281
     1
  3
ACAD_SORTENTS
360
2DE
  0
XRECORD
  5
2EE
102
{ACAD_REACTORS
330
C
102
}
330
C
100
AcDbXrecord
280
     1
300
ACD
300
2022
300

  0
DICTIONARY
  5
63
102
{ACAD_REACTORS
330
C
102
}
330
C
100
AcDbDictionary
281
     1
  0
DICTIONARY
  5
6A
102
{ACAD_REACTORS
330
C
102
}
330
C
100
AcDbDictionary
281
     1
  3
Imperial24
350
6B
  3
Metric50
350
1E1
  0
DICTIONARY
  5
D
102
{ACAD_REACTORS
330
C
102
}
330
C
100
AcDbDictionary
281
     1
  3
*A3
350
84C
  3
*A4
350
84D
  0
DICTIONARY
  5
62
102
{ACAD_REACTORS
330
C
102
}
330
C
100
AcDbDictionary
281
     1
  3
Model
350
73
  3
レイアウト1
350
6F
  3
レイアウト2
350
77
  0
DICTIONARY
  5
10
102
{ACAD_REACTORS
330
C
102
}
330
C
100
AcDbDictionary
281
     1
  3
ByBlock
350
19
  3
ByLayer
350
11
  3
Global
350
21
  0
DICTIONARY
  5
66
102
{ACAD_REACTORS
330
C
102
}
330
C
100
AcDbDictionary
281
     1
  3
Standard
350
67
  0
DICTIONARY
  5
5F
102
{ACAD_REACTORS
330
C
102
}
330
C
100
AcDbDictionary
281
     1
  3
Standard
350
60
  0
DICTIONARY
  5
61
102
{ACAD_REACTORS
330
C
102
}
330
C
100
AcDbDictionary
281
     1
  0
ACDBDICTIONARYWDFLT
  5
E
102
{ACAD_REACTORS
330
C
102
}
330
C
100
AcDbDictionary
281
     1
  3
Normal
350
F
  3
スタイル 1
350
8B
100
AcDbDictionaryWithDefault
340
F
  0
RAPIDRTRENDERSETTINGS
  5
7F9
102
{ACAD_REACTORS
330
C
102
}
330
C
100
AcDbRenderSettings
 90
        2
  1
中
290
     1
290
     0
290
     1
290
     1
  1

  1
5 レンダリング レベルを適用
 90
        0
100
AcDbRapidRTRenderSettings
 90
        3
 70
     0
 90
        5
 90
        1
 70
     1
 70
     2
 40
3.0
 40
3.0
290
     1
  0
MENTALRAYRENDERSETTINGS
  5
8AF
102
{ACAD_XDICTIONARY
360
8B0
102
}
102
{ACAD_REACTORS
330
C
102
}
330
C
100
AcDbRenderSettings
 90
        2
  1
中間
290
     1
290
     1
290
     1
290
     1
  1

  1

 90
        0
100
AcDbMentalRayRenderSettings
 90
        2
 90
        0
 90
        1
 70
     2
 40
3.0
 40
3.0
 40
0.0500000007450581
 40
0.0500000007450581
 40
0.0500000007450581
 40
0.0500000007450581
 70
     0
290
     0
290
     1
 90
        5
 90
        5
 90
        5
290
     0
 90
      500
290
     0
 40
1.0
 90
    10000
 90
        5
 90
        5
 90
        5
290
     0
 90
      200
290
     0
290
     0
290
     0
 40
1.0
 40
1.0
 40
1500.0
 70
     0
 70
     0
 40
10.0
 70
     0
 70
     0
290
     0
  1

 90
       32
 70
     0
 90
     1048
290
     0
 40
1.0
  0
DICTIONARY
  5
42
102
{ACAD_REACTORS
330
C
102
}
330
C
100
AcDbDictionary
281
     1
  3
A0
350
43
  3
A1
350
44
  3
A2
350
45
  3
A3
350
46
  3
A4
350
47
  3
A5
350
48
  3
A6
350
49
  3
A7
350
4A
  3
A8
350
4B
  3
A9
350
4C
  3
B0
350
4D
  3
B1
350
4E
  3
B2
350
4F
  3
B3
350
50
  3
B4
350
51
  3
B5
350
52
  3
B6
350
53
  0
DICTIONARY
  5
68
102
{ACAD_REACTORS
330
C
102
}
330
C
100
AcDbDictionary
281
     1
  3
Imperial24
350
69
  3
Metric50
350
1E0
  0
DICTIONARY
  5
64
102
{ACAD_REACTORS
330
C
102
}
330
C
100
AcDbDictionary
281
     1
  3
Standard
350
65
  0
DICTIONARY
  5
29
102
{ACAD_REACTORS
330
C
102
}
330
C
100
AcDbDictionary
281
     1
  3
2dWireframe
350
2F
  3
Basic
350
2E
  3
Brighten
350
35
  3
ColorChange
350
39
  3
Conceptual
350
32
  3
Dim
350
34
  3
EdgeColorOff
350
41
  3
Facepattern
350
38
  3
Flat
350
2A
  3
FlatWithEdges
350
2B
  3
Gouraud
350
2C
  3
GouraudWithEdges
350
2D
  3
Hidden
350
31
  3
JitterOff
350
3F
  3
Linepattern
350
37
  3
OverhangOff
350
40
  3
Realistic
350
33
  3
Shaded
350
3E
  3
Shaded with edges
350
3D
  3
Shades of Gray
350
3A
  3
Sketchy
350
3B
  3
Thicken
350
36
  3
Wireframe
350
30
  3
X-Ray
350
3C
  0
XRECORD
  5
86C
102
{ACAD_REACTORS
330
C
102
}
330
C
100
AcDbXrecord
280
     1
 90
        1
330
65
330
4E0
330
4E4
  0
DICTIONARY
  5
1D4
102
{ACAD_REACTORS
330
C
102
}
330
C
100
AcDbDictionary
281
     1
  3
ANNOALLVISIBLE
350
1DA
  3
CANNOSCALE
350
1DB
  3
CMLEADERSTYLE
350
1D6
  3
CTABLESTYLE
350
1D5
  3
CVIEWDETAILSTYLE
350
1D7
  3
CVIEWSECTIONSTYLE
350
1D8
  3
LAYEREVAL
350
1DD
  3
LAYERNOTIFY
350
1DE
  3
LIGHTINGUNITS
350
1DC
  3
MSLTSCALE
350
1D9
  0
DICTIONARY
  5
872
102
{ACAD_REACTORS
330
C
102
}
330
C
100
AcDbDictionary
281
     1
  3
AcDsRecords
350
874
  3
AcDsSchemas
350
873
1001
ACAD
1070
     2
  0
DICTIONARY
  5
339
102
{ACAD_REACTORS
330
338
102
}
330
338
100
AcDbDictionary
281
     1
  0
XRECORD
  5
717
102
{ACAD_REACTORS
330
716
102
}
330
716
100
AcDbXrecord
280
     1
290
     1
  0
XRECORD
  5
90
102
{ACAD_REACTORS
330
8F
102
}
330
8F
100
AcDbXrecord
280
     1
290
     1
  0
XRECORD
  5
95
102
{ACAD_REACTORS
330
94
102
}
330
94
100
AcDbXrecord
280
     1
290
     1
  0
XRECORD
  5
9B
102
{ACAD_REACTORS
330
9A
102
}
330
9A
100
AcDbXrecord
280
     1
290
     1
  0
XRECORD
  5
A5
102
{ACAD_REACTORS
330
A4
102
}
330
A4
100
AcDbXrecord
280
     1
290
     1
  0
XRECORD
  5
BC
102
{ACAD_REACTORS
330
BB
102
}
330
BB
100
AcDbXrecord
280
     1
290
     1
  0
XRECORD
  5
101
102
{ACAD_REACTORS
330
100
102
}
330
100
100
AcDbXrecord
280
     1
290
     1
  0
XRECORD
  5
144
102
{ACAD_REACTORS
330
143
102
}
330
143
100
AcDbXrecord
280
     1
290
     1
  0
XRECORD
  5
153
102
{ACAD_REACTORS
330
152
102
}
330
152
100
AcDbXrecord
280
     1
290
     1
  0
XRECORD
  5
190
102
{ACAD_REACTORS
330
18F
102
}
330
18F
100
AcDbXrecord
280
     1
290
     1
  0
XRECORD
  5
197
102
{ACAD_REACTORS
330
196
102
}
330
196
100
AcDbXrecord
280
     1
290
     1
  0
XRECORD
  5
718
102
{ACAD_REACTORS
330
32D
102
}
330
32D
100
AcDbXrecord
280
     1
290
     1
  0
XRECORD
  5
719
102
{ACAD_REACTORS
330
32F
102
}
330
32F
100
AcDbXrecord
280
     1
290
     1
  0
XRECORD
  5
71A
102
{ACAD_REACTORS
330
331
102
}
330
331
100
AcDbXrecord
280
     1
290
     1
  0
XRECORD
  5
71B
102
{ACAD_REACTORS
330
333
102
}
330
333
100
AcDbXrecord
280
     1
290
     1
  0
SORTENTSTABLE
  5
2DE
102
{ACAD_REACTORS
330
1CC
102
}
330
1CC
100
AcDbSortentsTable
330
70
  0
ACDBDETAILVIEWSTYLE
  5
6B
102
{ACAD_XDICTIONARY
360
8A9
102
}
102
{ACAD_REACTORS
330
6A
102
}
330
6A
100
AcDbModelDocViewStyle
 70
     0
  3
Imperial24
290
     0
100
AcDbDetailViewStyle
 70
     0
 71
     0
 90
        3
 71
     1
340
55
 62
   256
 40
0.24
340
0
 62
   256
 40
0.24
300

 40
0.36
280
     3
 71
     2
340
5D
 90
       25
 62
   256
 71
     3
340
55
 62
   256
 40
0.24
 90
        1
 40
0.75
 90
        1
300
%<\AcVar ViewType \f "%tc1">% %<\AcVar ViewDetailId>%\PSCALE %<\AcVar ViewScale \f "%sn">%
 71
     4
340
5D
 90
       25
 62
   256
340
5D
 90
       25
 62
   256
280
     0
  0
ACDBDETAILVIEWSTYLE
  5
1E1
102
{ACAD_XDICTIONARY
360
8AD
102
}
102
{ACAD_REACTORS
330
6A
102
}
330
6A
100
AcDbModelDocViewStyle
 70
     0
  3
Metric50
290
     0
100
AcDbDetailViewStyle
 70
     0
 71
     0
 90
        3
 71
     1
340
55
 62
   256
 40
5.0
340
0
 62
   256
 40
5.0
300

 40
0.0
280
     1
 71
     2
340
5D
 90
       25
 62
   256
 71
     3
340
55
 62
   256
 40
5.0
 90
        0
 40
15.0
 90
        1
300
%<\AcVar ViewDetailId>% (%<\AcVar ViewScale \f "%sn">%)
 71
     4
340
5D
 90
       25
 62
   256
340
5D
 90
       25
 62
   256
280
     0
  0
GROUP
  5
84C
102
{ACAD_REACTORS
330
D
102
}
330
D
100
AcDbGroup
300

 70
     1
 71
     1
340
849
340
845
340
843
340
841
340
83E
340
83B
340
839
340
83F
340
848
340
847
340
846
340
844
340
842
340
840
340
83D
340
83C
  0
GROUP
  5
84D
102
{ACAD_REACTORS
330
D
102
}
330
D
100
AcDbGroup
300

 70
     1
 71
     1
340
821
340
81D
340
81B
340
819
340
817
340
816
340
813
340
811
340
820
340
81F
340
81E
340
81C
340
81A
340
818
340
815
340
814
  0
LAYOUT
  5
73
102
{ACAD_XDICTIONARY
360
776
102
}
102
{ACAD_REACTORS
330
62
102
}
330
62
100
AcDbPlotSettings
  1

  2
Adobe PDF
  4
A3
  6

 40
3.174999952316284
 41
3.174999952316284
 42
3.17498779296875
 43
3.17498779296875
 44
297.0318298339844
 45
420.1583251953125
 46
-3.159078764067686
 47
-3.09583100406121
 48
0.0
 49
0.0
140
0.0
141
0.0
142
1.0
143
1.205645122963792
 70
 11952
 72
     1
 73
     1
 74
     0
  7
monochrome.ctb
 75
     0
147
0.829431464494077
 76
     1
 77
     2
 78
   300
148
-2.080514772623473
149
3.008657837766122
100
AcDbLayout
  1
Model
 70
     1
 71
     0
 10
0.0
 20
0.0
 11
12.0
 21
9.0
 12
0.0
 22
0.0
 32
0.0
 14
0.0
 24
0.0
 34
0.0
 15
0.0
 25
0.0
 35
0.0
146
0.0
 13
0.0
 23
0.0
 33
0.0
 16
1.0
 26
0.0
 36
0.0
 17
0.0
 27
1.0
 37
0.0
 76
     0
330
70
331
57
1001
ACAD_PSEXT
1000
Adobe PDF
1000
Adobe PDF Converter
1000
Documents\*.pdf
1000

1070
     0
  0
LAYOUT
  5
6F
102
{ACAD_REACTORS
330
62
102
}
330
62
100
AcDbPlotSettings
  1

  2
ApeosPort-IV C4475
  4

  6

 40
0.0
 41
0.0
 42
0.0
 43
0.0
 44
0.0
 45
0.0
 46
0.0
 47
0.0
 48
0.0
 49
0.0
140
0.0
141
0.0
142
1.0
143
1.0
 70
   688
 72
     0
 73
     0
 74
     5
  7
monochrome.ctb
 75
    16
147
1.0
 76
     0
 77
     2
 78
   300
148
0.0
149
0.0
100
AcDbLayout
  1
レイアウト1
 70
     0
 71
     1
 10
0.0
 20
0.0
 11
12.0
 21
9.0
 12
0.0
 22
0.0
 32
0.0
 14
1.000000000000000E+20
 24
1.000000000000000E+20
 34
1.000000000000000E+20
 15
-1.000000000000000E+20
 25
-1.000000000000000E+20
 35
-1.000000000000000E+20
146
0.0
 13
0.0
 23
0.0
 33
0.0
 16
1.0
 26
0.0
 36
0.0
 17
0.0
 27
1.0
 37
0.0
 76
     0
330
6C
  0
LAYOUT
  5
77
102
{ACAD_REACTORS
330
62
102
}
330
62
100
AcDbPlotSettings
  1

  2
ApeosPort-IV C4475
  4

  6

 40
0.0
 41
0.0
 42
0.0
 43
0.0
 44
0.0
 45
0.0
 46
0.0
 47
0.0
 48
0.0
 49
0.0
140
0.0
141
0.0
142
1.0
143
1.0
 70
   688
 72
     0
 73
     0
 74
     5
  7
monochrome.ctb
 75
    16
147
1.0
 76
     0
 77
     2
 78
   300
148
0.0
149
0.0
100
AcDbLayout
  1
レイアウト2
 70
     1
 71
     2
 10
0.0
 20
0.0
 11
12.0
 21
9.0
 12
0.0
 22
0.0
 32
0.0
 14
0.0
 24
0.0
 34
0.0
 15
0.0
 25
0.0
 35
0.0
146
0.0
 13
0.0
 23
0.0
 33
0.0
 16
1.0
 26
0.0
 36
0.0
 17
0.0
 27
1.0
 37
0.0
 76
     0
330
74
  0
MATERIAL
  5
19
102
{ACAD_XDICTIONARY
360
1A
102
}
102
{ACAD_REACTORS
330
10
102
}
330
10
100
AcDbMaterial
  1
ByBlock
 72
     0
 43
0.0208333333333333
 43
0.0
 43
0.0
 43
0.0
 43
0.0
 43
0.0208333333333333
 43
0.0
 43
0.0
 43
0.0
 43
0.0
 43
1.0
 43
0.0
 43
0.0
 43
0.0
 43
0.0
 43
1.0
 77
     0
 47
0.0208333333333333
 47
0.0
 47
0.0
 47
0.0
 47
0.0
 47
0.0208333333333333
 47
0.0
 47
0.0
 47
0.0
 47
0.0
 47
1.0
 47
0.0
 47
0.0
 47
0.0
 47
0.0
 47
1.0
171
     0
 49
0.0208333333333333
 49
0.0
 49
0.0
 49
0.0
 49
0.0
 49
0.0208333333333333
 49
0.0
 49
0.0
 49
0.0
 49
0.0
 49
1.0
 49
0.0
 49
0.0
 49
0.0
 49
0.0
 49
1.0
175
     0
142
0.0208333333333333
142
0.0
142
0.0
142
0.0
142
0.0
142
0.0208333333333333
142
0.0
142
0.0
142
0.0
142
0.0
142
1.0
142
0.0
142
0.0
142
0.0
142
0.0
142
1.0
179
     0
144
0.0208333333333333
144
0.0
144
0.0
144
0.0
144
0.0
144
0.0208333333333333
144
0.0
144
0.0
144
0.0
144
0.0
144
1.0
144
0.0
144
0.0
144
0.0
144
0.0
144
1.0
147
0.0208333333333333
147
0.0
147
0.0
147
0.0
147
0.0
147
0.0208333333333333
147
0.0
147
0.0
147
0.0
147
0.0
147
1.0
147
0.0
147
0.0
147
0.0
147
0.0
147
1.0
  0
MATERIAL
  5
11
102
{ACAD_XDICTIONARY
360
12
102
}
102
{ACAD_REACTORS
330
10
102
}
330
10
100
AcDbMaterial
  1
ByLayer
 72
     0
 43
0.0208333333333333
 43
0.0
 43
0.0
 43
0.0
 43
0.0
 43
0.0208333333333333
 43
0.0
 43
0.0
 43
0.0
 43
0.0
 43
1.0
 43
0.0
 43
0.0
 43
0.0
 43
0.0
 43
1.0
 77
     0
 47
0.0208333333333333
 47
0.0
 47
0.0
 47
0.0
 47
0.0
 47
0.0208333333333333
 47
0.0
 47
0.0
 47
0.0
 47
0.0
 47
1.0
 47
0.0
 47
0.0
 47
0.0
 47
0.0
 47
1.0
171
     0
 49
0.0208333333333333
 49
0.0
 49
0.0
 49
0.0
 49
0.0
 49
0.0208333333333333
 49
0.0
 49
0.0
 49
0.0
 49
0.0
 49
1.0
 49
0.0
 49
0.0
 49
0.0
 49
0.0
 49
1.0
175
     0
142
0.0208333333333333
142
0.0
142
0.0
142
0.0
142
0.0
142
0.0208333333333333
142
0.0
142
0.0
142
0.0
142
0.0
142
1.0
142
0.0
142
0.0
142
0.0
142
0.0
142
1.0
179
     0
144
0.0208333333333333
144
0.0
144
0.0
144
0.0
144
0.0
144
0.0208333333333333
144
0.0
144
0.0
144
0.0
144
0.0
144
1.0
144
0.0
144
0.0
144
0.0
144
0.0
144
1.0
147
0.0208333333333333
147
0.0
147
0.0
147
0.0
147
0.0
147
0.0208333333333333
147
0.0
147
0.0
147
0.0
147
0.0
147
1.0
147
0.0
147
0.0
147
0.0
147
0.0
147
1.0
  0
MATERIAL
  5
21
102
{ACAD_XDICTIONARY
360
22
102
}
102
{ACAD_REACTORS
330
10
102
}
330
10
100
AcDbMaterial
  1
Global
 72
     0
 43
0.0208333333333333
 43
0.0
 43
0.0
 43
0.0
 43
0.0
 43
0.0208333333333333
 43
0.0
 43
0.0
 43
0.0
 43
0.0
 43
1.0
 43
0.0
 43
0.0
 43
0.0
 43
0.0
 43
1.0
 77
     0
 47
0.0208333333333333
 47
0.0
 47
0.0
 47
0.0
 47
0.0
 47
0.0208333333333333
 47
0.0
 47
0.0
 47
0.0
 47
0.0
 47
1.0
 47
0.0
 47
0.0
 47
0.0
 47
0.0
 47
1.0
171
     0
 49
0.0208333333333333
 49
0.0
 49
0.0
 49
0.0
 49
0.0
 49
0.0208333333333333
 49
0.0
 49
0.0
 49
0.0
 49
0.0
 49
1.0
 49
0.0
 49
0.0
 49
0.0
 49
0.0
 49
1.0
175
     0
142
0.0208333333333333
142
0.0
142
0.0
142
0.0
142
0.0
142
0.0208333333333333
142
0.0
142
0.0
142
0.0
142
0.0
142
1.0
142
0.0
142
0.0
142
0.0
142
0.0
142
1.0
179
     0
144
0.0208333333333333
144
0.0
144
0.0
144
0.0
144
0.0
144
0.0208333333333333
144
0.0
144
0.0
144
0.0
144
0.0
144
1.0
144
0.0
144
0.0
144
0.0
144
0.0
144
1.0
147
0.0208333333333333
147
0.0
147
0.0
147
0.0
147
0.0
147
0.0208333333333333
147
0.0
147
0.0
147
0.0
147
0.0
147
1.0
147
0.0
147
0.0
147
0.0
147
0.0
147
1.0
  0
MLEADERSTYLE
  5
67
102
{ACAD_XDICTIONARY
360
8A5
102
}
102
{ACAD_REACTORS
330
66
102
}
330
66
100
AcDbMLeaderStyle
179
     2
170
     2
171
     1
172
     0
 90
        2
 40
0.0
 41
0.0
173
     1
 91
-1056964608
340
5B
 92
       -2
290
     1
 42
0.09
291
     1
 43
0.36
  3
Standard
 44
0.18
300

342
55
174
     1
178
     6
175
     1
176
     0
 93
-1056964608
 45
0.18
292
     0
297
     0
 46
0.18
 94
-1056964608
 47
1.0
 49
1.0
140
1.0
293
     1
141
0.0
294
     1
177
     0
142
1.0
295
     0
296
     0
143
0.125
271
     0
272
     9
273
     9
  0
MLINESTYLE
  5
60
102
{ACAD_REACTORS
330
5F
102
}
330
5F
100
AcDbMlineStyle
  2
STANDARD
 70
     0
  3

 62
   256
 51
90.0
 52
90.0
 71
     2
 49
0.5
 62
   256
  6
BYLAYER
 49
-0.5
 62
   256
  6
BYLAYER
  0
ACDBPLACEHOLDER
  5
F
102
{ACAD_REACTORS
330
E
102
}
330
E
  0
ACDBPLACEHOLDER
  5
8B
102
{ACAD_REACTORS
330
E
102
}
330
E
  0
DICTIONARY
  5
8B0
330
8AF
100
AcDbDictionary
280
     1
281
     1
  3
ADSK_XREC_MENTALRAYSETTINGSINFO
360
8B1
  0
SCALE
  5
43
102
{ACAD_REACTORS
330
42
102
}
330
42
100
AcDbScale
 70
     0
300
1:1
140
1.0
141
1.0
290
     1
  0
SCALE
  5
44
102
{ACAD_REACTORS
330
42
102
}
330
42
100
AcDbScale
 70
     0
300
1:2
140
1.0
141
2.0
290
     0
  0
SCALE
  5
45
102
{ACAD_REACTORS
330
42
102
}
330
42
100
AcDbScale
 70
     0
300
1:4
140
1.0
141
4.0
290
     0
  0
SCALE
  5
46
102
{ACAD_REACTORS
330
42
102
}
330
42
100
AcDbScale
 70
     0
300
1:5
140
1.0
141
5.0
290
     0
  0
SCALE
  5
47
102
{ACAD_REACTORS
330
42
102
}
330
42
100
AcDbScale
 70
     0
300
1:8
140
1.0
141
8.0
290
     0
  0
SCALE
  5
48
102
{ACAD_REACTORS
330
42
102
}
330
42
100
AcDbScale
 70
     0
300
1:10
140
1.0
141
10.0
290
     0
  0
SCALE
  5
49
102
{ACAD_REACTORS
330
42
102
}
330
42
100
AcDbScale
 70
     0
300
1:16
140
1.0
141
16.0
290
     0
  0
SCALE
  5
4A
102
{ACAD_REACTORS
330
42
102
}
330
42
100
AcDbScale
 70
     0
300
1:20
140
1.0
141
20.0
290
     0
  0
SCALE
  5
4B
102
{ACAD_REACTORS
330
42
102
}
330
42
100
AcDbScale
 70
     0
300
1:30
140
1.0
141
30.0
290
     0
  0
SCALE
  5
4C
102
{ACAD_REACTORS
330
42
102
}
330
42
100
AcDbScale
 70
     0
300
1:40
140
1.0
141
40.0
290
     0
  0
SCALE
  5
4D
102
{ACAD_REACTORS
330
42
102
}
330
42
100
AcDbScale
 70
     0
300
1:50
140
1.0
141
50.0
290
     0
  0
SCALE
  5
4E
102
{ACAD_REACTORS
330
42
102
}
330
42
100
AcDbScale
 70
     0
300
1:100
140
1.0
141
100.0
290
     0
  0
SCALE
  5
4F
102
{ACAD_REACTORS
330
42
102
}
330
42
100
AcDbScale
 70
     0
300
2:1
140
2.0
141
1.0
290
     0
  0
SCALE
  5
50
102
{ACAD_REACTORS
330
42
102
}
330
42
100
AcDbScale
 70
     0
300
4:1
140
4.0
141
1.0
290
     0
  0
SCALE
  5
51
102
{ACAD_REACTORS
330
42
102
}
330
42
100
AcDbScale
 70
     0
300
8:1
140
8.0
141
1.0
290
     0
  0
SCALE
  5
52
102
{ACAD_REACTORS
330
42
102
}
330
42
100
AcDbScale
 70
     0
300
10:1
140
10.0
141
1.0
290
     0
  0
SCALE
  5
53
102
{ACAD_REACTORS
330
42
102
}
330
42
100
AcDbScale
 70
     0
300
100:1
140
100.0
141
1.0
290
     0
  0
ACDBSECTIONVIEWSTYLE
  5
69
102
{ACAD_XDICTIONARY
360
8A7
102
}
102
{ACAD_REACTORS
330
68
102
}
330
68
100
AcDbModelDocViewStyle
 70
     0
  3
Imperial24
290
     0
100
AcDbSectionViewStyle
 70
     0
 71
     0
 90
       78
 71
     1
340
55
 62
   256
 40
0.24
340
0
340
0
 62
   256
 40
0.24
300
I, O, Q, S, X, Z
 40
0.48
 90
        3
 40
0.18
 90
        1
 71
     2
340
5D
 90
       25
 62
   256
340
5D
 90
       50
 62
   256
 40
0.24
 40
0.0
 40
0.24
 71
     3
340
55
 62
   256
 40
0.24
 90
        1
 40
0.75
 90
        1
300
%<\AcVar ViewType \f "%tc1">% %<\AcVar ViewSectionStartId>%-%<\AcVar ViewSectionEndId>%\PSCALE %<\AcVar ViewScale \f "%sn">%
 71
     4
 62
   256
 62
   257
300
ANSI31
 40
1.0
 90
        0
290
     0
290
     0
 90
        6
 40
0.0
 40
1.570796326794896
 40
0.2617993877991494
 40
1.308996938995747
 40
-0.2617993877991494
 40
1.832595714594046
  0
ACDBSECTIONVIEWSTYLE
  5
1E0
102
{ACAD_XDICTIONARY
360
8AB
102
}
102
{ACAD_REACTORS
330
68
102
}
330
68
100
AcDbModelDocViewStyle
 70
     0
  3
Metric50
290
     0
100
AcDbSectionViewStyle
 70
     0
 71
     0
 90
      102
 71
     1
340
55
 62
   256
 40
5.0
340
0
340
0
 62
   256
 40
5.0
300
I, O, Q, S, X, Z
 40
10.0
 90
        0
 40
2.5
 90
        0
 71
     2
340
5D
 90
       25
 62
   256
340
5D
 90
       50
 62
   256
 40
5.0
 40
2.5
 40
5.0
 71
     3
340
55
 62
   256
 40
5.0
 90
        0
 40
15.0
 90
        1
300
%<\AcVar ViewSectionStartId>%-%<\AcVar ViewSectionEndId>% (%<\AcVar ViewScale \f "%sn">%)
 71
     4
 62
   256
 62
   257
300
ANSI31
 40
1.0
 90
        0
290
     0
290
     0
 90
        6
 40
0.0
 40
1.570796326794896
 40
0.2617993877991494
 40
1.308996938995747
 40
-0.2617993877991494
 40
1.832595714594046
  0
TABLESTYLE
  5
65
102
{ACAD_XDICTIONARY
360
730
102
}
102
{ACAD_REACTORS
330
64
102
}
330
64
100
AcDbTableStyle
280
     0
  3
Standard
 70
     0
 71
     3
 40
1.5
 41
1.5
280
     0
281
     0
  7
STANDARD
140
4.5
170
     2
 62
     0
 63
     7
283
     0
 90
      512
 91
        0
  1

274
    -2
284
     1
 64
     0
275
    -2
285
     1
 65
     0
276
    -2
286
     1
 66
     0
277
    -2
287
     1
 67
     0
278
    -2
288
     1
 68
     0
279
    -2
289
     1
 69
     0
  7
STANDARD
140
6.0
170
     5
 62
     0
 63
     7
283
     0
 90
      512
 91
        0
  1

274
    -2
284
     1
 64
     0
275
    -2
285
     1
 65
     0
276
    -2
286
     1
 66
     0
277
    -2
287
     1
 67
     0
278
    -2
288
     1
 68
     0
279
    -2
289
     1
 69
     0
  7
STANDARD
140
4.5
170
     5
 62
     0
 63
     7
283
     0
 90
      512
 91
        0
  1

274
    -2
284
     1
 64
     0
275
    -2
285
     1
 65
     0
276
    -2
286
     1
 66
     0
277
    -2
287
     1
 67
     0
278
    -2
288
     1
 68
     0
279
    -2
289
     1
 69
     0
  0
VISUALSTYLE
  5
2F
102
{ACAD_XDICTIONARY
360
87F
102
}
102
{ACAD_REACTORS
330
29
102
}
330
29
100
AcDbVisualStyle
  2
2dWireframe
 70
     4
177
     2
291
     0
 71
     0
176
     1
 72
     2
176
     1
 73
     0
176
     1
 90
        0
176
     1
 40
0.6
176
     1
 41
30.0
176
     1
 63
     7
421
 16777215
176
     1
 74
     1
176
     1
 91
        4
176
     1
 64
     7
176
     1
 65
   257
176
     1
 75
     1
176
     1
175
     1
176
     1
 42
1.0
176
     1
 92
        0
176
     1
 66
   257
176
     1
 43
1.0
176
     1
 76
     1
176
     1
 77
     6
176
     1
 78
     2
176
     1
 67
     7
176
     1
 79
     5
176
     1
170
     0
176
     1
171
     0
176
     1
290
     0
176
     1
 93
        1
176
     1
 44
0.0
176
     1
173
     0
176
     1
1001
ACAD
1000
AcDbSavedByObjectVersion
1070
     0
  0
VISUALSTYLE
  5
2E
102
{ACAD_XDICTIONARY
360
87D
102
}
102
{ACAD_REACTORS
330
29
102
}
330
29
100
AcDbVisualStyle
  2
Basic
 70
     7
177
     2
291
     1
 71
     1
176
     1
 72
     0
176
     1
 73
     1
176
     1
 90
        0
176
     1
 40
0.6
176
     1
 41
30.0
176
     1
 63
     7
421
 16777215
176
     1
 74
     0
176
     1
 91
        4
176
     1
 64
     7
176
     1
 65
   257
176
     1
 75
     1
176
     1
175
     1
176
     1
 42
1.0
176
     1
 92
        8
176
     1
 66
     7
176
     1
 43
1.0
176
     1
 76
     1
176
     1
 77
     6
176
     1
 78
     2
176
     1
 67
     7
176
     1
 79
     5
176
     1
170
     0
176
     1
171
     0
176
     1
290
     0
176
     1
 93
        1
176
     1
 44
0.0
176
     1
173
     0
176
     1
1001
ACAD
1000
AcDbSavedByObjectVersion
1070
     0
  0
VISUALSTYLE
  5
35
102
{ACAD_XDICTIONARY
360
88B
102
}
102
{ACAD_REACTORS
330
29
102
}
330
29
100
AcDbVisualStyle
  2
Brighten
 70
    12
177
     2
291
     1
 71
     2
176
     1
 72
     2
176
     1
 73
     0
176
     1
 90
        0
176
     1
 40
0.6
176
     1
 41
30.0
176
     1
 63
     7
421
 16777215
176
     1
 74
     1
176
     1
 91
        4
176
     1
 64
     7
176
     1
 65
   257
176
     1
 75
     1
176
     1
175
     1
176
     1
 42
1.0
176
     1
 92
        8
176
     1
 66
     7
176
     1
 43
1.0
176
     1
 76
     1
176
     1
 77
     6
176
     1
 78
     2
176
     1
 67
     7
176
     1
 79
     5
176
     1
170
     0
176
     1
171
     0
176
     1
290
     0
176
     1
 93
        1
176
     1
 44
50.0
176
     1
173
     0
176
     1
1001
ACAD
1000
AcDbSavedByObjectVersion
1070
     0
  0
VISUALSTYLE
  5
39
102
{ACAD_XDICTIONARY
360
893
102
}
102
{ACAD_REACTORS
330
29
102
}
330
29
100
AcDbVisualStyle
  2
ColorChange
 70
    16
177
     2
291
     1
 71
     2
176
     1
 72
     2
176
     1
 73
     3
176
     1
 90
        0
176
     1
 40
0.6
176
     1
 41
30.0
176
     1
 63
     8
421
  8421504
176
     1
 74
     1
176
     1
 91
        4
176
     1
 64
     7
176
     1
 65
   257
176
     1
 75
     1
176
     1
175
     1
176
     1
 42
1.0
176
     1
 92
        8
176
     1
 66
     8
424
  8421504
176
     1
 43
1.0
176
     1
 76
     1
176
     1
 77
     6
176
     1
 78
     2
176
     1
 67
     7
176
     1
 79
     5
176
     1
170
     0
176
     1
171
     0
176
     1
290
     0
176
     1
 93
        1
176
     1
 44
0.0
176
     1
173
     0
176
     1
1001
ACAD
1000
AcDbSavedByObjectVersion
1070
     0
  0
VISUALSTYLE
  5
32
102
{ACAD_XDICTIONARY
360
885
102
}
102
{ACAD_REACTORS
330
29
102
}
330
29
100
AcDbVisualStyle
  2
Conceptual
 70
     9
177
     2
291
     0
 71
     3
176
     1
 72
     2
176
     1
 73
     0
176
     1
 90
        0
176
     1
 40
0.6
176
     1
 41
30.0
176
     1
 63
     7
421
 16777215
176
     1
 74
     2
176
     1
 91
        2
176
     1
 64
     7
176
     1
 65
   257
176
     1
 75
     1
176
     1
175
     1
176
     1
 42
179.0
176
     1
 92
        8
176
     1
 66
     7
176
     1
 43
1.0
176
     1
 76
     1
176
     1
 77
     6
176
     1
 78
     2
176
     1
 67
     7
176
     1
 79
     3
176
     1
170
     0
176
     1
171
     0
176
     1
290
     0
176
     1
 93
        1
176
     1
 44
0.0
176
     1
173
     0
176
     1
1001
ACAD
1000
AcDbSavedByObjectVersion
1070
     0
  0
VISUALSTYLE
  5
34
102
{ACAD_XDICTIONARY
360
889
102
}
102
{ACAD_REACTORS
330
29
102
}
330
29
100
AcDbVisualStyle
  2
Dim
 70
    11
177
     2
291
     1
 71
     2
176
     1
 72
     2
176
     1
 73
     0
176
     1
 90
        0
176
     1
 40
0.6
176
     1
 41
30.0
176
     1
 63
     7
421
 16777215
176
     1
 74
     1
176
     1
 91
        4
176
     1
 64
     7
176
     1
 65
   257
176
     1
 75
     1
176
     1
175
     1
176
     1
 42
1.0
176
     1
 92
        8
176
     1
 66
     7
176
     1
 43
1.0
176
     1
 76
     1
176
     1
 77
     6
176
     1
 78
     2
176
     1
 67
     7
176
     1
 79
     5
176
     1
170
     0
176
     1
171
     0
176
     1
290
     0
176
     1
 93
        1
176
     1
 44
-50.0
176
     1
173
     0
176
     1
1001
ACAD
1000
AcDbSavedByObjectVersion
1070
     0
  0
VISUALSTYLE
  5
41
102
{ACAD_XDICTIONARY
360
8A3
102
}
102
{ACAD_REACTORS
330
29
102
}
330
29
100
AcDbVisualStyle
  2
EdgeColorOff
 70
    22
177
     2
291
     1
 71
     2
176
     0
 72
     2
176
     0
 73
     0
176
     0
 90
        0
176
     0
 40
0.6
176
     0
 41
30.0
176
     0
 63
     7
421
 16777215
176
     0
 74
     1
176
     0
 91
        4
176
     0
 64
     7
176
     0
 65
   257
176
     0
 75
     1
176
     0
175
     1
176
     0
 42
1.0
176
     0
 92
        8
176
     2
 66
     7
176
     0
 43
1.0
176
     0
 76
     1
176
     0
 77
     6
176
     0
 78
     2
176
     0
 67
     7
176
     0
 79
     5
176
     0
170
     0
176
     0
171
     0
176
     0
290
     0
176
     0
 93
        1
176
     0
 44
0.0
176
     0
173
     0
176
     0
1001
ACAD
1000
AcDbSavedByObjectVersion
1070
     0
  0
VISUALSTYLE
  5
38
102
{ACAD_XDICTIONARY
360
891
102
}
102
{ACAD_REACTORS
330
29
102
}
330
29
100
AcDbVisualStyle
  2
Facepattern
 70
    15
177
     2
291
     1
 71
     2
176
     1
 72
     2
176
     1
 73
     0
176
     1
 90
        0
176
     1
 40
0.6
176
     1
 41
30.0
176
     1
 63
     7
421
 16777215
176
     1
 74
     1
176
     1
 91
        4
176
     1
 64
     7
176
     1
 65
   257
176
     1
 75
     1
176
     1
175
     1
176
     1
 42
1.0
176
     1
 92
        8
176
     1
 66
     7
176
     1
 43
1.0
176
     1
 76
     1
176
     1
 77
     6
176
     1
 78
     2
176
     1
 67
     7
176
     1
 79
     5
176
     1
170
     0
176
     1
171
     0
176
     1
290
     0
176
     1
 93
        1
176
     1
 44
0.0
176
     1
173
     0
176
     1
1001
ACAD
1000
AcDbSavedByObjectVersion
1070
     0
  0
VISUALSTYLE
  5
2A
102
{ACAD_XDICTIONARY
360
875
102
}
102
{ACAD_REACTORS
330
29
102
}
330
29
100
AcDbVisualStyle
  2
Flat
 70
     0
177
     2
291
     1
 71
     2
176
     1
 72
     1
176
     1
 73
     1
176
     1
 90
        2
176
     1
 40
0.6
176
     1
 41
30.0
176
     1
 63
     7
421
 16777215
176
     1
 74
     0
176
     1
 91
        0
176
     1
 64
     7
176
     1
 65
   257
176
     1
 75
     1
176
     1
175
     1
176
     1
 42
1.0
176
     1
 92
        8
176
     1
 66
     7
176
     1
 43
1.0
176
     1
 76
     1
176
     1
 77
     6
176
     1
 78
     2
176
     1
 67
     7
176
     1
 79
     5
176
     1
170
     0
176
     1
171
     0
176
     1
290
     0
176
     1
 93
       13
176
     1
 44
0.0
176
     1
173
     0
176
     1
1001
ACAD
1000
AcDbSavedByObjectVersion
1070
     0
  0
VISUALSTYLE
  5
2B
102
{ACAD_XDICTIONARY
360
877
102
}
102
{ACAD_REACTORS
330
29
102
}
330
29
100
AcDbVisualStyle
  2
FlatWithEdges
 70
     1
177
     2
291
     1
 71
     2
176
     1
 72
     1
176
     1
 73
     1
176
     1
 90
        2
176
     1
 40
0.6
176
     1
 41
30.0
176
     1
 63
     7
421
 16777215
176
     1
 74
     1
176
     1
 91
        0
176
     1
 64
     7
176
     1
 65
   257
176
     1
 75
     1
176
     1
175
     1
176
     1
 42
1.0
176
     1
 92
        0
176
     1
 66
   257
176
     1
 43
1.0
176
     1
 76
     1
176
     1
 77
     6
176
     1
 78
     2
176
     1
 67
     7
176
     1
 79
     5
176
     1
170
     0
176
     1
171
     0
176
     1
290
     0
176
     1
 93
       13
176
     1
 44
0.0
176
     1
173
     0
176
     1
1001
ACAD
1000
AcDbSavedByObjectVersion
1070
     0
  0
VISUALSTYLE
  5
2C
102
{ACAD_XDICTIONARY
360
879
102
}
102
{ACAD_REACTORS
330
29
102
}
330
29
100
AcDbVisualStyle
  2
Gouraud
 70
     2
177
     2
291
     1
 71
     2
176
     1
 72
     2
176
     1
 73
     1
176
     1
 90
        2
176
     1
 40
0.6
176
     1
 41
30.0
176
     1
 63
     7
421
 16777215
176
     1
 74
     0
176
     1
 91
        0
176
     1
 64
     7
176
     1
 65
   257
176
     1
 75
     1
176
     1
175
     1
176
     1
 42
1.0
176
     1
 92
        0
176
     1
 66
     7
176
     1
 43
1.0
176
     1
 76
     1
176
     1
 77
     6
176
     1
 78
     2
176
     1
 67
     7
176
     1
 79
     5
176
     1
170
     0
176
     1
171
     0
176
     1
290
     0
176
     1
 93
       13
176
     1
 44
0.0
176
     1
173
     0
176
     1
1001
ACAD
1000
AcDbSavedByObjectVersion
1070
     0
  0
VISUALSTYLE
  5
2D
102
{ACAD_XDICTIONARY
360
87B
102
}
102
{ACAD_REACTORS
330
29
102
}
330
29
100
AcDbVisualStyle
  2
GouraudWithEdges
 70
     3
177
     2
291
     1
 71
     2
176
     1
 72
     2
176
     1
 73
     1
176
     1
 90
        2
176
     1
 40
0.6
176
     1
 41
30.0
176
     1
 63
     7
421
 16777215
176
     1
 74
     1
176
     1
 91
        0
176
     1
 64
     7
176
     1
 65
   257
176
     1
 75
     1
176
     1
175
     1
176
     1
 42
1.0
176
     1
 92
        0
176
     1
 66
   257
176
     1
 43
1.0
176
     1
 76
     1
176
     1
 77
     6
176
     1
 78
     2
176
     1
 67
     7
176
     1
 79
     5
176
     1
170
     0
176
     1
171
     0
176
     1
290
     0
176
     1
 93
       13
176
     1
 44
0.0
176
     1
173
     0
176
     1
1001
ACAD
1000
AcDbSavedByObjectVersion
1070
     0
  0
VISUALSTYLE
  5
31
102
{ACAD_XDICTIONARY
360
883
102
}
102
{ACAD_REACTORS
330
29
102
}
330
29
100
AcDbVisualStyle
  2
Hidden
 70
     6
177
     2
291
     0
 71
     1
176
     1
 72
     2
176
     1
 73
     2
176
     1
 90
        0
176
     1
 40
0.6
176
     1
 41
30.0
176
     1
 63
     7
421
 16777215
176
     1
 74
     2
176
     1
 91
        2
176
     1
 64
     7
176
     1
 65
   257
176
     1
 75
     2
176
     1
175
     1
176
     1
 42
40.0
176
     1
 92
        0
176
     1
 66
   257
176
     1
 43
1.0
176
     1
 76
     1
176
     1
 77
     6
176
     1
 78
     2
176
     1
 67
     7
176
     1
 79
     3
176
     1
170
     0
176
     1
171
     0
176
     1
290
     0
176
     1
 93
        1
176
     1
 44
0.0
176
     1
173
     0
176
     1
1001
ACAD
1000
AcDbSavedByObjectVersion
1070
     0
  0
VISUALSTYLE
  5
3F
102
{ACAD_XDICTIONARY
360
89F
102
}
102
{ACAD_REACTORS
330
29
102
}
330
29
100
AcDbVisualStyle
  2
JitterOff
 70
    20
177
     2
291
     1
 71
     2
176
     0
 72
     2
176
     0
 73
     0
176
     0
 90
        0
176
     0
 40
0.6
176
     0
 41
30.0
176
     0
 63
     7
421
 16777215
176
     0
 74
     1
176
     0
 91
        4
176
     0
 64
     7
176
     0
 65
   257
176
     0
 75
     1
176
     0
175
     1
176
     0
 42
1.0
176
     0
 92
       10
176
     2
 66
     7
176
     0
 43
1.0
176
     0
 76
     1
176
     0
 77
     6
176
     0
 78
     2
176
     0
 67
     7
176
     0
 79
     5
176
     0
170
     0
176
     0
171
     0
176
     0
290
     0
176
     0
 93
        1
176
     0
 44
0.0
176
     0
173
     0
176
     0
1001
ACAD
1000
AcDbSavedByObjectVersion
1070
     0
  0
VISUALSTYLE
  5
37
102
{ACAD_XDICTIONARY
360
88F
102
}
102
{ACAD_REACTORS
330
29
102
}
330
29
100
AcDbVisualStyle
  2
Linepattern
 70
    14
177
     2
291
     1
 71
     2
176
     1
 72
     2
176
     1
 73
     0
176
     1
 90
        0
176
     1
 40
0.6
176
     1
 41
30.0
176
     1
 63
     7
421
 16777215
176
     1
 74
     1
176
     1
 91
        4
176
     1
 64
     7
176
     1
 65
   257
176
     1
 75
     7
176
     1
175
     7
176
     1
 42
1.0
176
     1
 92
        8
176
     1
 66
     7
176
     1
 43
1.0
176
     1
 76
     1
176
     1
 77
     6
176
     1
 78
     2
176
     1
 67
     7
176
     1
 79
     5
176
     1
170
     0
176
     1
171
     0
176
     1
290
     0
176
     1
 93
        1
176
     1
 44
0.0
176
     1
173
     0
176
     1
1001
ACAD
1000
AcDbSavedByObjectVersion
1070
     0
  0
VISUALSTYLE
  5
40
102
{ACAD_XDICTIONARY
360
8A1
102
}
102
{ACAD_REACTORS
330
29
102
}
330
29
100
AcDbVisualStyle
  2
OverhangOff
 70
    21
177
     2
291
     1
 71
     2
176
     0
 72
     2
176
     0
 73
     0
176
     0
 90
        0
176
     0
 40
0.6
176
     0
 41
30.0
176
     0
 63
     7
421
 16777215
176
     0
 74
     1
176
     0
 91
        4
176
     0
 64
     7
176
     0
 65
   257
176
     0
 75
     1
176
     0
175
     1
176
     0
 42
1.0
176
     0
 92
        9
176
     2
 66
     7
176
     0
 43
1.0
176
     0
 76
     1
176
     0
 77
     6
176
     0
 78
     2
176
     0
 67
     7
176
     0
 79
     5
176
     0
170
     0
176
     0
171
     0
176
     0
290
     0
176
     0
 93
        1
176
     0
 44
0.0
176
     0
173
     0
176
     0
1001
ACAD
1000
AcDbSavedByObjectVersion
1070
     0
  0
VISUALSTYLE
  5
33
102
{ACAD_XDICTIONARY
360
887
102
}
102
{ACAD_REACTORS
330
29
102
}
330
29
100
AcDbVisualStyle
  2
Realistic
 70
     8
177
     2
291
     0
 71
     2
176
     1
 72
     2
176
     1
 73
     0
176
     1
 90
        2
176
     1
 40
0.6
176
     1
 41
30.0
176
     1
 63
     7
421
 16777215
176
     1
 74
     0
176
     1
 91
        0
176
     1
 64
     7
176
     1
 65
   257
176
     1
 75
     1
176
     1
175
     1
176
     1
 42
1.0
176
     1
 92
        8
176
     1
 66
   257
176
     1
 43
1.0
176
     1
 76
     1
176
     1
 77
     6
176
     1
 78
     2
176
     1
 67
     7
176
     1
 79
     3
176
     1
170
     0
176
     1
171
     0
176
     1
290
     0
176
     1
 93
       13
176
     1
 44
0.0
176
     1
173
     0
176
     1
1001
ACAD
1000
AcDbSavedByObjectVersion
1070
     0
  0
VISUALSTYLE
  5
3E
102
{ACAD_XDICTIONARY
360
89D
102
}
102
{ACAD_REACTORS
330
29
102
}
330
29
100
AcDbVisualStyle
  2
Shaded
 70
    27
177
     2
291
     0
 71
     2
176
     1
 72
     2
176
     1
 73
     1
176
     1
 90
        2
176
     1
 40
0.6
176
     1
 41
30.0
176
     1
 63
     7
421
 16777215
176
     1
 74
     0
176
     1
 91
        4
176
     1
 64
     7
176
     1
 65
   257
176
     1
 75
     1
176
     1
175
     1
176
     1
 42
1.0
176
     1
 92
        8
176
     1
 66
   257
176
     1
 43
1.0
176
     1
 76
     1
176
     1
 77
     6
176
     1
 78
     2
176
     1
 67
     8
425
  7895160
176
     1
 79
     3
176
     1
170
     0
176
     1
171
     0
176
     1
290
     0
176
     1
 93
        5
176
     1
 44
0.0
176
     1
173
     0
176
     1
1001
ACAD
1000
AcDbSavedByObjectVersion
1070
     0
  0
VISUALSTYLE
  5
3D
102
{ACAD_XDICTIONARY
360
89B
102
}
102
{ACAD_REACTORS
330
29
102
}
330
29
100
AcDbVisualStyle
  2
Shaded with edges
 70
    26
177
     2
291
     0
 71
     2
176
     1
 72
     2
176
     1
 73
     1
176
     1
 90
        2
176
     1
 40
0.6
176
     1
 41
30.0
176
     1
 63
     7
421
 16777215
176
     1
 74
     1
176
     1
 91
        2
176
     1
 64
     7
176
     1
 65
   257
176
     1
 75
     2
176
     1
175
     1
176
     1
 42
1.0
176
     1
 92
        8
176
     1
 66
   257
176
     1
 43
1.0
176
     1
 76
     1
176
     1
 77
     6
176
     1
 78
     2
176
     1
 67
     7
176
     1
 79
     3
176
     1
170
     0
176
     1
171
     0
176
     1
290
     0
176
     1
 93
        5
176
     1
 44
0.0
176
     1
173
     0
176
     1
1001
ACAD
1000
AcDbSavedByObjectVersion
1070
     0
  0
VISUALSTYLE
  5
3A
102
{ACAD_XDICTIONARY
360
895
102
}
102
{ACAD_REACTORS
330
29
102
}
330
29
100
AcDbVisualStyle
  2
Shades of Gray
 70
    23
177
     2
291
     0
 71
     2
176
     1
 72
     2
176
     1
 73
     3
176
     1
 90
        0
176
     1
 40
0.6
176
     1
 41
30.0
176
     1
 63
     7
421
 16777215
176
     1
 74
     2
176
     1
 91
        2
176
     1
 64
     7
176
     1
 65
     7
176
     1
 75
     1
176
     1
175
     1
176
     1
 42
40.0
176
     1
 92
        8
176
     1
 66
     7
176
     1
 43
1.0
176
     1
 76
     1
176
     1
 77
     6
176
     1
 78
     2
176
     1
 67
     7
176
     1
 79
     3
176
     1
170
     0
176
     1
171
     0
176
     1
290
     0
176
     1
 93
        1
176
     1
 44
0.0
176
     1
173
     0
176
     1
1001
ACAD
1000
AcDbSavedByObjectVersion
1070
     0
  0
VISUALSTYLE
  5
3B
102
{ACAD_XDICTIONARY
360
897
102
}
102
{ACAD_REACTORS
330
29
102
}
330
29
100
AcDbVisualStyle
  2
Sketchy
 70
    24
177
     2
291
     0
 71
     1
176
     1
 72
     2
176
     1
 73
     2
176
     1
 90
        0
176
     1
 40
0.6
176
     1
 41
30.0
176
     1
 63
     7
421
 16777215
176
     1
 74
     2
176
     1
 91
        2
176
     1
 64
     7
176
     1
 65
     7
176
     1
 75
     1
176
     1
175
     1
176
     1
 42
40.0
176
     1
 92
       11
176
     1
 66
     7
176
     1
 43
1.0
176
     1
 76
     1
176
     1
 77
     6
176
     1
 78
     2
176
     1
 67
     7
176
     1
 79
     6
176
     1
170
     0
176
     1
171
     0
176
     1
290
     0
176
     1
 93
        1
176
     1
 44
0.0
176
     1
173
     0
176
     1
1001
ACAD
1000
AcDbSavedByObjectVersion
1070
     0
  0
VISUALSTYLE
  5
36
102
{ACAD_XDICTIONARY
360
88D
102
}
102
{ACAD_REACTORS
330
29
102
}
330
29
100
AcDbVisualStyle
  2
Thicken
 70
    13
177
     2
291
     1
 71
     2
176
     1
 72
     2
176
     1
 73
     0
176
     1
 90
        0
176
     1
 40
0.6
176
     1
 41
30.0
176
     1
 63
     7
421
 16777215
176
     1
 74
     1
176
     1
 91
        4
176
     1
 64
     7
176
     1
 65
   257
176
     1
 75
     1
176
     1
175
     1
176
     1
 42
1.0
176
     1
 92
       12
176
     1
 66
     7
176
     1
 43
1.0
176
     1
 76
     1
176
     1
 77
     6
176
     1
 78
     2
176
     1
 67
     7
176
     1
 79
     5
176
     1
170
     0
176
     1
171
     0
176
     1
290
     0
176
     1
 93
        1
176
     1
 44
0.0
176
     1
173
     0
176
     1
1001
ACAD
1000
AcDbSavedByObjectVersion
1070
     0
  0
VISUALSTYLE
  5
30
102
{ACAD_XDICTIONARY
360
881
102
}
102
{ACAD_REACTORS
330
29
102
}
330
29
100
AcDbVisualStyle
  2
Wireframe
 70
     5
177
     2
291
     0
 71
     0
176
     1
 72
     2
176
     1
 73
     0
176
     1
 90
        0
176
     1
 40
0.6
176
     1
 41
30.0
176
     1
 63
     7
421
 16777215
176
     1
 74
     1
176
     1
 91
        4
176
     1
 64
     7
176
     1
 65
   257
176
     1
 75
     1
176
     1
175
     1
176
     1
 42
1.0
176
     1
 92
        0
176
     1
 66
   257
176
     1
 43
1.0
176
     1
 76
     1
176
     1
 77
     6
176
     1
 78
     2
176
     1
 67
     7
176
     1
 79
     3
176
     1
170
     0
176
     1
171
     0
176
     1
290
     0
176
     1
 93
        1
176
     1
 44
0.0
176
     1
173
     0
176
     1
1001
ACAD
1000
AcDbSavedByObjectVersion
1070
     0
  0
VISUALSTYLE
  5
3C
102
{ACAD_XDICTIONARY
360
899
102
}
102
{ACAD_REACTORS
330
29
102
}
330
29
100
AcDbVisualStyle
  2
X-Ray
 70
    25
177
     2
291
     0
 71
     2
176
     1
 72
     2
176
     1
 73
     1
176
     1
 90
        1
176
     1
 40
0.5
176
     1
 41
30.0
176
     1
 63
     7
421
 16777215
176
     1
 74
     1
176
     1
 91
        0
176
     1
 64
     7
176
     1
 65
   257
176
     1
 75
     1
176
     1
175
     1
176
     1
 42
1.0
176
     1
 92
        8
176
     1
 66
     7
176
     1
 43
1.0
176
     1
 76
     1
176
     1
 77
     6
176
     1
 78
     2
176
     1
 67
     7
176
     1
 79
     3
176
     1
170
     0
176
     1
171
     0
176
     1
290
     0
176
     1
 93
       13
176
     1
 44
0.0
176
     1
173
     0
176
     1
1001
ACAD
1000
AcDbSavedByObjectVersion
1070
     0
  0
DICTIONARYVAR
  5
1DA
102
{ACAD_REACTORS
330
1D4
102
}
330
1D4
100
DictionaryVariables
280
     0
  1
0
  0
DICTIONARYVAR
  5
1DB
102
{ACAD_REACTORS
330
1D4
102
}
330
1D4
100
DictionaryVariables
280
     0
  1
1:1
  0
DICTIONARYVAR
  5
1D6
102
{ACAD_REACTORS
330
1D4
102
}
330
1D4
100
DictionaryVariables
280
     0
  1
STANDARD
  0
DICTIONARYVAR
  5
1D5
102
{ACAD_REACTORS
330
1D4
102
}
330
1D4
100
DictionaryVariables
280
     0
  1
STANDARD
  0
DICTIONARYVAR
  5
1D7
102
{ACAD_REACTORS
330
1D4
102
}
330
1D4
100
DictionaryVariables
280
     0
  1
Imperial24
  0
DICTIONARYVAR
  5
1D8
102
{ACAD_REACTORS
330
1D4
102
}
330
1D4
100
DictionaryVariables
280
     0
  1
Imperial24
  0
DICTIONARYVAR
  5
1DD
102
{ACAD_REACTORS
330
1D4
102
}
330
1D4
100
DictionaryVariables
280
     0
  1
1
  0
DICTIONARYVAR
  5
1DE
102
{ACAD_REACTORS
330
1D4
102
}
330
1D4
100
DictionaryVariables
280
     0
  1
15
  0
DICTIONARYVAR
  5
1DC
102
{ACAD_REACTORS
330
1D4
102
}
330
1D4
100
DictionaryVariables
280
     0
  1
0
  0
DICTIONARYVAR
  5
1D9
102
{ACAD_REACTORS
330
1D4
102
}
330
1D4
100
DictionaryVariables
280
     0
  1
0
  0
DICTIONARY
  5
874
102
{ACAD_REACTORS
330
872
102
}
330
872
100
AcDbDictionary
281
     1
  0
DICTIONARY
  5
873
102
{ACAD_REACTORS
330
872
102
}
330
872
100
AcDbDictionary
281
     1
  3
2527601658448
350
86D
  3
2527601658464
350
86E
  3
2527601658480
350
86F
  3
2527601658496
350
870
  3
2527601658512
350
871
  0
DICTIONARY
  5
8A9
330
6B
100
AcDbDictionary
280
     1
281
     1
  3
ACAD_XREC_ROUNDTRIP
360
8AA
  0
DICTIONARY
  5
8AD
330
1E1
100
AcDbDictionary
280
     1
281
     1
  3
ACAD_XREC_ROUNDTRIP
360
8AE
  0
DICTIONARY
  5
776
330
73
100
AcDbDictionary
280
     1
281
     1
  0
DICTIONARY
  5
1A
330
19
100
AcDbDictionary
280
     1
281
     1
  3
BUMPTILE
360
1C
  3
DIFFUSETILE
360
1B
  3
OPACITYTILE
360
1F
  3
REFLECTIONTILE
360
1E
  3
REFRACTIONTILE
360
20
  3
SPECULARTILE
360
1D
  0
DICTIONARY
  5
12
330
11
100
AcDbDictionary
280
     1
281
     1
  3
BUMPTILE
360
14
  3
DIFFUSETILE
360
13
  3
OPACITYTILE
360
17
  3
REFLECTIONTILE
360
16
  3
REFRACTIONTILE
360
18
  3
SPECULARTILE
360
15
  0
DICTIONARY
  5
22
330
21
100
AcDbDictionary
280
     1
281
     1
  3
BUMPTILE
360
24
  3
DIFFUSETILE
360
23
  3
OPACITYTILE
360
27
  3
REFLECTIONTILE
360
26
  3
REFRACTIONTILE
360
28
  3
SPECULARTILE
360
25
  0
DICTIONARY
  5
8A5
330
67
100
AcDbDictionary
280
     1
281
     1
  3
ACAD_XREC_ROUNDTRIP
360
8A6
  0
XRECORD
  5
8B1
102
{ACAD_REACTORS
330
8B0
102
}
330
8B0
100
AcDbXrecord
280
     1
 70
     2
 71
     3
 72
     0
  0
DICTIONARY
  5
8A7
330
69
100
AcDbDictionary
280
     1
281
     1
  3
ACAD_XREC_ROUNDTRIP
360
8A8
  0
DICTIONARY
  5
8AB
330
1E0
100
AcDbDictionary
280
     1
281
     1
  3
ACAD_XREC_ROUNDTRIP
360
8AC
  0
DICTIONARY
  5
730
330
65
100
AcDbDictionary
280
     1
281
     1
  3
ACAD_ROUNDTRIP_2008_TABLESTYLE_CELLSTYLEMAP
360
86B
  0
DICTIONARY
  5
87F
330
2F
100
AcDbDictionary
280
     1
281
     1
  3
ACAD_XREC_ROUNDTRIP
360
880
  0
DICTIONARY
  5
87D
330
2E
100
AcDbDictionary
280
     1
281
     1
  3
ACAD_XREC_ROUNDTRIP
360
87E
  0
DICTIONARY
  5
88B
330
35
100
AcDbDictionary
280
     1
281
     1
  3
ACAD_XREC_ROUNDTRIP
360
88C
  0
DICTIONARY
  5
893
330
39
100
AcDbDictionary
280
     1
281
     1
  3
ACAD_XREC_ROUNDTRIP
360
894
  0
DICTIONARY
  5
885
330
32
100
AcDbDictionary
280
     1
281
     1
  3
ACAD_XREC_ROUNDTRIP
360
886
  0
DICTIONARY
  5
889
330
34
100
AcDbDictionary
280
     1
281
     1
  3
ACAD_XREC_ROUNDTRIP
360
88A
  0
DICTIONARY
  5
8A3
330
41
100
AcDbDictionary
280
     1
281
     1
  3
ACAD_XREC_ROUNDTRIP
360
8A4
  0
DICTIONARY
  5
891
330
38
100
AcDbDictionary
280
     1
281
     1
  3
ACAD_XREC_ROUNDTRIP
360
892
  0
DICTIONARY
  5
875
330
2A
100
AcDbDictionary
280
     1
281
     1
  3
ACAD_XREC_ROUNDTRIP
360
876
  0
DICTIONARY
  5
877
330
2B
100
AcDbDictionary
280
     1
281
     1
  3
ACAD_XREC_ROUNDTRIP
360
878
  0
DICTIONARY
  5
879
330
2C
100
AcDbDictionary
280
     1
281
     1
  3
ACAD_XREC_ROUNDTRIP
360
87A
  0
DICTIONARY
  5
87B
330
2D
100
AcDbDictionary
280
     1
281
     1
  3
ACAD_XREC_ROUNDTRIP
360
87C
  0
DICTIONARY
  5
883
330
31
100
AcDbDictionary
280
     1
281
     1
  3
ACAD_XREC_ROUNDTRIP
360
884
  0
DICTIONARY
  5
89F
330
3F
100
AcDbDictionary
280
     1
281
     1
  3
ACAD_XREC_ROUNDTRIP
360
8A0
  0
DICTIONARY
  5
88F
330
37
100
AcDbDictionary
280
     1
281
     1
  3
ACAD_XREC_ROUNDTRIP
360
890
  0
DICTIONARY
  5
8A1
330
40
100
AcDbDictionary
280
     1
281
     1
  3
ACAD_XREC_ROUNDTRIP
360
8A2
  0
DICTIONARY
  5
887
330
33
100
AcDbDictionary
280
     1
281
     1
  3
ACAD_XREC_ROUNDTRIP
360
888
  0
DICTIONARY
  5
89D
330
3E
100
AcDbDictionary
280
     1
281
     1
  3
ACAD_XREC_ROUNDTRIP
360
89E
  0
DICTIONARY
  5
89B
330
3D
100
AcDbDictionary
280
     1
281
     1
  3
ACAD_XREC_ROUNDTRIP
360
89C
  0
DICTIONARY
  5
895
330
3A
100
AcDbDictionary
280
     1
281
     1
  3
ACAD_XREC_ROUNDTRIP
360
896
  0
DICTIONARY
  5
897
330
3B
100
AcDbDictionary
280
     1
281
     1
  3
ACAD_XREC_ROUNDTRIP
360
898
  0
DICTIONARY
  5
88D
330
36
100
AcDbDictionary
280
     1
281
     1
  3
ACAD_XREC_ROUNDTRIP
360
88E
  0
DICTIONARY
  5
881
330
30
100
AcDbDictionary
280
     1
281
     1
  3
ACAD_XREC_ROUNDTRIP
360
882
  0
DICTIONARY
  5
899
330
3C
100
AcDbDictionary
280
     1
281
     1
  3
ACAD_XREC_ROUNDTRIP
360
89A
  0
XRECORD
  5
86D
102
{ACAD_REACTORS
330
873
102
}
330
873
100
AcDbXrecord
280
     1
  1
AcDb_Thumbnail_Schema
102
{ATTRRECORD
341
86E
  2
AcDbDs::TreatedAsObjectData
280
     1
291
     1
102
ATTRRECORD}
102
{ATTRRECORD
341
86F
  2
AcDbDs::Legacy
280
     1
291
     1
102
ATTRRECORD}
  2
AcDbDs::ID
280
    10
 91
        8
102
{ATTRRECORD
341
870
  2
AcDs:Indexable
280
     1
291
     1
102
ATTRRECORD}
102
{ATTRRECORD
341
871
  2
AcDbDs::HandleAttribute
280
     7
282
     1
102
ATTRRECORD}
  2
Thumbnail_Data
280
    15
 91
        0
  0
XRECORD
  5
86E
102
{ACAD_REACTORS
330
873
102
}
330
873
100
AcDbXrecord
280
     1
  1
AcDbDs::TreatedAsObjectDataSchema
  2
AcDbDs::TreatedAsObjectData
280
     1
 91
        0
  0
XRECORD
  5
86F
102
{ACAD_REACTORS
330
873
102
}
330
873
100
AcDbXrecord
280
     1
  1
AcDbDs::LegacySchema
  2
AcDbDs::Legacy
280
     1
 91
        0
  0
XRECORD
  5
870
102
{ACAD_REACTORS
330
873
102
}
330
873
100
AcDbXrecord
280
     1
  1
AcDbDs::IndexedPropertySchema
  2
AcDs:Indexable
280
     1
 91
        0
  0
XRECORD
  5
871
102
{ACAD_REACTORS
330
873
102
}
330
873
100
AcDbXrecord
280
     1
  1
AcDbDs::HandleAttributeSchema
  2
AcDbDs::HandleAttribute
280
     7
 91
        1
284
     1
  0
XRECORD
  5
8AA
102
{ACAD_REACTORS
330
8A9
102
}
330
8A9
100
AcDbXrecord
280
     1
102
DISPLAYNAME
  1
Imperial24
102
FLAGS
 90
        0
  0
XRECORD
  5
8AE
102
{ACAD_REACTORS
330
8AD
102
}
330
8AD
100
AcDbXrecord
280
     1
102
DISPLAYNAME
  1
Metric50
102
FLAGS
 90
        0
  0
XRECORD
  5
1C
102
{ACAD_REACTORS
330
1A
102
}
330
1A
100
AcDbXrecord
280
     1
270
     1
271
     1
  0
XRECORD
  5
1B
102
{ACAD_REACTORS
330
1A
102
}
330
1A
100
AcDbXrecord
280
     1
270
     1
271
     1
  0
XRECORD
  5
1F
102
{ACAD_REACTORS
330
1A
102
}
330
1A
100
AcDbXrecord
280
     1
270
     1
271
     1
  0
XRECORD
  5
1E
102
{ACAD_REACTORS
330
1A
102
}
330
1A
100
AcDbXrecord
280
     1
270
     1
271
     1
  0
XRECORD
  5
20
102
{ACAD_REACTORS
330
1A
102
}
330
1A
100
AcDbXrecord
280
     1
270
     1
271
     1
  0
XRECORD
  5
1D
102
{ACAD_REACTORS
330
1A
102
}
330
1A
100
AcDbXrecord
280
     1
270
     1
271
     1
  0
XRECORD
  5
14
102
{ACAD_REACTORS
330
12
102
}
330
12
100
AcDbXrecord
280
     1
270
     1
271
     1
  0
XRECORD
  5
13
102
{ACAD_REACTORS
330
12
102
}
330
12
100
AcDbXrecord
280
     1
270
     1
271
     1
  0
XRECORD
  5
17
102
{ACAD_REACTORS
330
12
102
}
330
12
100
AcDbXrecord
280
     1
270
     1
271
     1
  0
XRECORD
  5
16
102
{ACAD_REACTORS
330
12
102
}
330
12
100
AcDbXrecord
280
     1
270
     1
271
     1
  0
XRECORD
  5
18
102
{ACAD_REACTORS
330
12
102
}
330
12
100
AcDbXrecord
280
     1
270
     1
271
     1
  0
XRECORD
  5
15
102
{ACAD_REACTORS
330
12
102
}
330
12
100
AcDbXrecord
280
     1
270
     1
271
     1
  0
XRECORD
  5
24
102
{ACAD_REACTORS
330
22
102
}
330
22
100
AcDbXrecord
280
     1
270
     1
271
     1
  0
XRECORD
  5
23
102
{ACAD_REACTORS
330
22
102
}
330
22
100
AcDbXrecord
280
     1
270
     1
271
     1
  0
XRECORD
  5
27
102
{ACAD_REACTORS
330
22
102
}
330
22
100
AcDbXrecord
280
     1
270
     1
271
     1
  0
XRECORD
  5
26
102
{ACAD_REACTORS
330
22
102
}
330
22
100
AcDbXrecord
280
     1
270
     1
271
     1
  0
XRECORD
  5
28
102
{ACAD_REACTORS
330
22
102
}
330
22
100
AcDbXrecord
280
     1
270
     1
271
     1
  0
XRECORD
  5
25
102
{ACAD_REACTORS
330
22
102
}
330
22
100
AcDbXrecord
280
     1
270
     1
271
     1
  0
XRECORD
  5
8A6
102
{ACAD_REACTORS
330
8A5
102
}
330
8A5
100
AcDbXrecord
280
     1
102
ACAD_ROUNDTRIP_2012_MLEADER_STYLE
298
     1
  0
XRECORD
  5
8A8
102
{ACAD_REACTORS
330
8A7
102
}
330
8A7
100
AcDbXrecord
280
     1
102
DISPLAYNAME
  1
Imperial24
102
FLAGS
 90
        0
  0
XRECORD
  5
8AC
102
{ACAD_REACTORS
330
8AB
102
}
330
8AB
100
AcDbXrecord
280
     1
102
DISPLAYNAME
  1
Metric50
102
FLAGS
 90
        0
  0
CELLSTYLEMAP
  5
86B
102
{ACAD_REACTORS
330
730
102
}
330
730
100
AcDbCellStyleMap
 90
        3
300
CELLSTYLE
  1
TABLEFORMAT_BEGIN
 90
        5
170
     1
 91
        0
 92
    32768
 62
   257
 93
        1
300
CONTENTFORMAT
  1
CONTENTFORMAT_BEGIN
 90
        0
 91
        0
 92
      512
 93
        0
300

 40
0.0
140
1.0
 94
        5
 62
     0
340
55
144
6.0
309
CONTENTFORMAT_END
171
     1
301
MARGIN
  1
CELLMARGIN_BEGIN
 40
1.5
 40
1.5
 40
1.5
 40
1.5
 40
4.5
 40
4.5
309
CELLMARGIN_END
 94
        6
 95
        1
302
GRIDFORMAT
  1
GRIDFORMAT_BEGIN
 90
        0
 91
        1
 62
     0
 92
       -2
340
0
 93
        0
 40
1.125
309
GRIDFORMAT_END
 95
        2
302
GRIDFORMAT
  1
GRIDFORMAT_BEGIN
 90
        0
 91
        1
 62
     0
 92
       -2
340
0
 93
        0
 40
1.125
309
GRIDFORMAT_END
 95
        4
302
GRIDFORMAT
  1
GRIDFORMAT_BEGIN
 90
        0
 91
        1
 62
     0
 92
       -2
340
0
 93
        0
 40
1.125
309
GRIDFORMAT_END
 95
        8
302
GRIDFORMAT
  1
GRIDFORMAT_BEGIN
 90
        0
 91
        1
 62
     0
 92
       -2
340
0
 93
        0
 40
1.125
309
GRIDFORMAT_END
 95
       16
302
GRIDFORMAT
  1
GRIDFORMAT_BEGIN
 90
        0
 91
        1
 62
     0
 92
       -2
340
0
 93
        0
 40
1.125
309
GRIDFORMAT_END
 95
       32
302
GRIDFORMAT
  1
GRIDFORMAT_BEGIN
 90
        0
 91
        1
 62
     0
 92
       -2
340
0
 93
        0
 40
1.125
309
GRIDFORMAT_END
309
TABLEFORMAT_END
  1
CELLSTYLE_BEGIN
 90
        1
 91
        1
300
_TITLE
309
CELLSTYLE_END
300
CELLSTYLE
  1
TABLEFORMAT_BEGIN
 90
        5
170
     1
 91
        0
 92
        0
 62
   257
 93
        1
300
CONTENTFORMAT
  1
CONTENTFORMAT_BEGIN
 90
        0
 91
        0
 92
      512
 93
        0
300

 40
0.0
140
1.0
 94
        5
 62
     0
340
55
144
4.5
309
CONTENTFORMAT_END
171
     1
301
MARGIN
  1
CELLMARGIN_BEGIN
 40
1.5
 40
1.5
 40
1.5
 40
1.5
 40
4.5
 40
4.5
309
CELLMARGIN_END
 94
        6
 95
        1
302
GRIDFORMAT
  1
GRIDFORMAT_BEGIN
 90
        0
 91
        1
 62
     0
 92
       -2
340
0
 93
        0
 40
1.125
309
GRIDFORMAT_END
 95
        2
302
GRIDFORMAT
  1
GRIDFORMAT_BEGIN
 90
        0
 91
        1
 62
     0
 92
       -2
340
0
 93
        0
 40
1.125
309
GRIDFORMAT_END
 95
        4
302
GRIDFORMAT
  1
GRIDFORMAT_BEGIN
 90
        0
 91
        1
 62
     0
 92
       -2
340
0
 93
        0
 40
1.125
309
GRIDFORMAT_END
 95
        8
302
GRIDFORMAT
  1
GRIDFORMAT_BEGIN
 90
        0
 91
        1
 62
     0
 92
       -2
340
0
 93
        0
 40
1.125
309
GRIDFORMAT_END
 95
       16
302
GRIDFORMAT
  1
GRIDFORMAT_BEGIN
 90
        0
 91
        1
 62
     0
 92
       -2
340
0
 93
        0
 40
1.125
309
GRIDFORMAT_END
 95
       32
302
GRIDFORMAT
  1
GRIDFORMAT_BEGIN
 90
        0
 91
        1
 62
     0
 92
       -2
340
0
 93
        0
 40
1.125
309
GRIDFORMAT_END
309
TABLEFORMAT_END
  1
CELLSTYLE_BEGIN
 90
        2
 91
        1
300
_HEADER
309
CELLSTYLE_END
300
CELLSTYLE
  1
TABLEFORMAT_BEGIN
 90
        5
170
     1
 91
        0
 92
        0
 62
   257
 93
        1
300
CONTENTFORMAT
  1
CONTENTFORMAT_BEGIN
 90
        0
 91
        0
 92
      512
 93
        0
300

 40
0.0
140
1.0
 94
        2
 62
     0
340
55
144
4.5
309
CONTENTFORMAT_END
171
     1
301
MARGIN
  1
CELLMARGIN_BEGIN
 40
1.5
 40
1.5
 40
1.5
 40
1.5
 40
4.5
 40
4.5
309
CELLMARGIN_END
 94
        6
 95
        1
302
GRIDFORMAT
  1
GRIDFORMAT_BEGIN
 90
        0
 91
        1
 62
     0
 92
       -2
340
0
 93
        0
 40
1.125
309
GRIDFORMAT_END
 95
        2
302
GRIDFORMAT
  1
GRIDFORMAT_BEGIN
 90
        0
 91
        1
 62
     0
 92
       -2
340
0
 93
        0
 40
1.125
309
GRIDFORMAT_END
 95
        4
302
GRIDFORMAT
  1
GRIDFORMAT_BEGIN
 90
        0
 91
        1
 62
     0
 92
       -2
340
0
 93
        0
 40
1.125
309
GRIDFORMAT_END
 95
        8
302
GRIDFORMAT
  1
GRIDFORMAT_BEGIN
 90
        0
 91
        1
 62
     0
 92
       -2
340
0
 93
        0
 40
1.125
309
GRIDFORMAT_END
 95
       16
302
GRIDFORMAT
  1
GRIDFORMAT_BEGIN
 90
        0
 91
        1
 62
     0
 92
       -2
340
0
 93
        0
 40
1.125
309
GRIDFORMAT_END
 95
       32
302
GRIDFORMAT
  1
GRIDFORMAT_BEGIN
 90
        0
 91
        1
 62
     0
 92
       -2
340
0
 93
        0
 40
1.125
309
GRIDFORMAT_END
309
TABLEFORMAT_END
  1
CELLSTYLE_BEGIN
 90
        3
 91
        2
300
_DATA
309
CELLSTYLE_END
  0
XRECORD
  5
880
102
{ACAD_REACTORS
330
87F
102
}
330
87F
100
AcDbXrecord
280
     1
102
RTVSPost2010Prop28
280
     1
102
RTVSPost2010PropOp28
 70
     1
102
RTVSPost2010Prop29
280
     1
102
RTVSPost2010PropOp29
 70
     1
102
RTVSPost2010Prop30
280
     0
102
RTVSPost2010PropOp30
 70
     1
102
RTVSPost2010Prop31
280
     0
102
RTVSPost2010PropOp31
 70
     1
102
RTVSPost2010Prop32
280
     0
102
RTVSPost2010PropOp32
 70
     1
102
RTVSPost2010Prop33
280
     0
102
RTVSPost2010PropOp33
 70
     1
102
RTVSPost2010Prop34
280
     0
102
RTVSPost2010PropOp34
 70
     1
102
RTVSPost2010Prop35
280
     0
102
RTVSPost2010PropOp35
 70
     1
102
RTVSPost2010Prop36
280
     0
102
RTVSPost2010PropOp36
 70
     1
102
RTVSPost2010Prop37
 90
       50
102
RTVSPost2010PropOp37
 70
     1
102
RTVSPost2010Prop38
140
0.0
102
RTVSPost2010PropOp38
 70
     1
102
RTVSPost2010Prop39
140
1.0
102
RTVSPost2010PropOp39
 70
     1
102
RTVSPost2010Prop40
 90
        0
102
RTVSPost2010PropOp40
 70
     1
102
RTVSPost2010Prop41ColorIndex
 90
       18
102
RTVSPost2010Prop41ColorRGB
 90
        0
102
RTVSPost2010PropOp41
 70
     1
102
RTVSPost2010Prop42
 90
       50
102
RTVSPost2010PropOp42
 70
     1
102
RTVSPost2010Prop43
 90
        3
102
RTVSPost2010PropOp43
 70
     1
102
RTVSPost2010Prop44ColorIndex
 90
        5
102
RTVSPost2010Prop44ColorRGB
 90
      255
102
RTVSPost2010PropOp44
 70
     1
102
RTVSPost2010Prop45
280
     0
102
RTVSPost2010PropOp45
 70
     1
102
RTVSPost2010Prop46
 90
       50
102
RTVSPost2010PropOp46
 70
     1
102
RTVSPost2010Prop47
 90
       50
102
RTVSPost2010PropOp47
 70
     1
102
RTVSPost2010Prop48
 90
       50
102
RTVSPost2010PropOp48
 70
     1
102
RTVSPost2010Prop49
280
     0
102
RTVSPost2010PropOp49
 70
     1
102
RTVSPost2010Prop50
 90
       50
102
RTVSPost2010PropOp50
 70
     1
102
RTVSPost2010Prop51ColorIndex
 90
      256
102
RTVSPost2010Prop51ColorRGB
 90
-16777216
102
RTVSPost2010PropOp51
 70
     0
102
RTVSPost2010Prop52
140
1.0
102
RTVSPost2010PropOp52
 70
     0
102
RTVSPost2010Prop53
 90
        2
102
RTVSPost2010PropOp53
 70
     1
102
RTVSPost2010Prop54
  1
strokes_ogs.tif
102
RTVSPost2010PropOp54
 70
     1
102
RTVSPost2010Prop55
280
     0
102
RTVSPost2010PropOp55
 70
     1
102
RTVSPost2010Prop56
140
1.0
102
RTVSPost2010PropOp56
 70
     1
102
RTVSPost2010Prop57
140
1.0
102
RTVSPost2010PropOp57
 70
     1
  0
XRECORD
  5
87E
102
{ACAD_REACTORS
330
87D
102
}
330
87D
100
AcDbXrecord
280
     1
102
RTVSPost2010Prop28
280
     0
102
RTVSPost2010PropOp28
 70
     1
102
RTVSPost2010Prop29
280
     1
102
RTVSPost2010PropOp29
 70
     1
102
RTVSPost2010Prop30
280
     1
102
RTVSPost2010PropOp30
 70
     1
102
RTVSPost2010Prop31
280
     0
102
RTVSPost2010PropOp31
 70
     1
102
RTVSPost2010Prop32
280
     0
102
RTVSPost2010PropOp32
 70
     1
102
RTVSPost2010Prop33
280
     0
102
RTVSPost2010PropOp33
 70
     1
102
RTVSPost2010Prop34
280
     0
102
RTVSPost2010PropOp34
 70
     1
102
RTVSPost2010Prop35
280
     0
102
RTVSPost2010PropOp35
 70
     1
102
RTVSPost2010Prop36
280
     0
102
RTVSPost2010PropOp36
 70
     1
102
RTVSPost2010Prop37
 90
       50
102
RTVSPost2010PropOp37
 70
     1
102
RTVSPost2010Prop38
140
0.0
102
RTVSPost2010PropOp38
 70
     1
102
RTVSPost2010Prop39
140
1.0
102
RTVSPost2010PropOp39
 70
     1
102
RTVSPost2010Prop40
 90
        0
102
RTVSPost2010PropOp40
 70
     1
102
RTVSPost2010Prop41ColorIndex
 90
       18
102
RTVSPost2010Prop41ColorRGB
 90
        0
102
RTVSPost2010PropOp41
 70
     1
102
RTVSPost2010Prop42
 90
       50
102
RTVSPost2010PropOp42
 70
     1
102
RTVSPost2010Prop43
 90
        3
102
RTVSPost2010PropOp43
 70
     1
102
RTVSPost2010Prop44ColorIndex
 90
        5
102
RTVSPost2010Prop44ColorRGB
 90
      255
102
RTVSPost2010PropOp44
 70
     1
102
RTVSPost2010Prop45
280
     0
102
RTVSPost2010PropOp45
 70
     1
102
RTVSPost2010Prop46
 90
       50
102
RTVSPost2010PropOp46
 70
     1
102
RTVSPost2010Prop47
 90
       50
102
RTVSPost2010PropOp47
 70
     1
102
RTVSPost2010Prop48
 90
       50
102
RTVSPost2010PropOp48
 70
     1
102
RTVSPost2010Prop49
280
     0
102
RTVSPost2010PropOp49
 70
     1
102
RTVSPost2010Prop50
 90
       50
102
RTVSPost2010PropOp50
 70
     1
102
RTVSPost2010Prop51ColorIndex
 90
      256
102
RTVSPost2010Prop51ColorRGB
 90
-16777216
102
RTVSPost2010PropOp51
 70
     0
102
RTVSPost2010Prop52
140
1.0
102
RTVSPost2010PropOp52
 70
     0
102
RTVSPost2010Prop53
 90
        2
102
RTVSPost2010PropOp53
 70
     1
102
RTVSPost2010Prop54
  1
strokes_ogs.tif
102
RTVSPost2010PropOp54
 70
     1
102
RTVSPost2010Prop55
280
     0
102
RTVSPost2010PropOp55
 70
     1
102
RTVSPost2010Prop56
140
1.0
102
RTVSPost2010PropOp56
 70
     1
102
RTVSPost2010Prop57
140
1.0
102
RTVSPost2010PropOp57
 70
     1
  0
XRECORD
  5
88C
102
{ACAD_REACTORS
330
88B
102
}
330
88B
100
AcDbXrecord
280
     1
102
RTVSPost2010Prop28
280
     0
102
RTVSPost2010PropOp28
 70
     1
102
RTVSPost2010Prop29
280
     1
102
RTVSPost2010PropOp29
 70
     1
102
RTVSPost2010Prop30
280
     1
102
RTVSPost2010PropOp30
 70
     1
102
RTVSPost2010Prop31
280
     0
102
RTVSPost2010PropOp31
 70
     1
102
RTVSPost2010Prop32
280
     0
102
RTVSPost2010PropOp32
 70
     1
102
RTVSPost2010Prop33
280
     0
102
RTVSPost2010PropOp33
 70
     1
102
RTVSPost2010Prop34
280
     0
102
RTVSPost2010PropOp34
 70
     1
102
RTVSPost2010Prop35
280
     0
102
RTVSPost2010PropOp35
 70
     1
102
RTVSPost2010Prop36
280
     0
102
RTVSPost2010PropOp36
 70
     1
102
RTVSPost2010Prop37
 90
       50
102
RTVSPost2010PropOp37
 70
     1
102
RTVSPost2010Prop38
140
0.0
102
RTVSPost2010PropOp38
 70
     1
102
RTVSPost2010Prop39
140
1.0
102
RTVSPost2010PropOp39
 70
     1
102
RTVSPost2010Prop40
 90
        0
102
RTVSPost2010PropOp40
 70
     1
102
RTVSPost2010Prop41ColorIndex
 90
       18
102
RTVSPost2010Prop41ColorRGB
 90
        0
102
RTVSPost2010PropOp41
 70
     1
102
RTVSPost2010Prop42
 90
       50
102
RTVSPost2010PropOp42
 70
     1
102
RTVSPost2010Prop43
 90
        3
102
RTVSPost2010PropOp43
 70
     1
102
RTVSPost2010Prop44ColorIndex
 90
        5
102
RTVSPost2010Prop44ColorRGB
 90
      255
102
RTVSPost2010PropOp44
 70
     1
102
RTVSPost2010Prop45
280
     0
102
RTVSPost2010PropOp45
 70
     1
102
RTVSPost2010Prop46
 90
       50
102
RTVSPost2010PropOp46
 70
     1
102
RTVSPost2010Prop47
 90
       50
102
RTVSPost2010PropOp47
 70
     1
102
RTVSPost2010Prop48
 90
       50
102
RTVSPost2010PropOp48
 70
     1
102
RTVSPost2010Prop49
280
     0
102
RTVSPost2010PropOp49
 70
     1
102
RTVSPost2010Prop50
 90
       50
102
RTVSPost2010PropOp50
 70
     1
102
RTVSPost2010Prop51ColorIndex
 90
      256
102
RTVSPost2010Prop51ColorRGB
 90
-16777216
102
RTVSPost2010PropOp51
 70
     0
102
RTVSPost2010Prop52
140
1.0
102
RTVSPost2010PropOp52
 70
     0
102
RTVSPost2010Prop53
 90
        2
102
RTVSPost2010PropOp53
 70
     1
102
RTVSPost2010Prop54
  1
strokes_ogs.tif
102
RTVSPost2010PropOp54
 70
     1
102
RTVSPost2010Prop55
280
     0
102
RTVSPost2010PropOp55
 70
     1
102
RTVSPost2010Prop56
140
1.0
102
RTVSPost2010PropOp56
 70
     1
102
RTVSPost2010Prop57
140
1.0
102
RTVSPost2010PropOp57
 70
     1
  0
XRECORD
  5
894
102
{ACAD_REACTORS
330
893
102
}
330
893
100
AcDbXrecord
280
     1
102
RTVSPost2010Prop28
280
     0
102
RTVSPost2010PropOp28
 70
     1
102
RTVSPost2010Prop29
280
     1
102
RTVSPost2010PropOp29
 70
     1
102
RTVSPost2010Prop30
280
     1
102
RTVSPost2010PropOp30
 70
     1
102
RTVSPost2010Prop31
280
     0
102
RTVSPost2010PropOp31
 70
     1
102
RTVSPost2010Prop32
280
     0
102
RTVSPost2010PropOp32
 70
     1
102
RTVSPost2010Prop33
280
     0
102
RTVSPost2010PropOp33
 70
     1
102
RTVSPost2010Prop34
280
     0
102
RTVSPost2010PropOp34
 70
     1
102
RTVSPost2010Prop35
280
     0
102
RTVSPost2010PropOp35
 70
     1
102
RTVSPost2010Prop36
280
     0
102
RTVSPost2010PropOp36
 70
     1
102
RTVSPost2010Prop37
 90
       50
102
RTVSPost2010PropOp37
 70
     1
102
RTVSPost2010Prop38
140
0.0
102
RTVSPost2010PropOp38
 70
     1
102
RTVSPost2010Prop39
140
1.0
102
RTVSPost2010PropOp39
 70
     1
102
RTVSPost2010Prop40
 90
        0
102
RTVSPost2010PropOp40
 70
     1
102
RTVSPost2010Prop41ColorIndex
 90
       18
102
RTVSPost2010Prop41ColorRGB
 90
        0
102
RTVSPost2010PropOp41
 70
     1
102
RTVSPost2010Prop42
 90
       50
102
RTVSPost2010PropOp42
 70
     1
102
RTVSPost2010Prop43
 90
        3
102
RTVSPost2010PropOp43
 70
     1
102
RTVSPost2010Prop44ColorIndex
 90
        5
102
RTVSPost2010Prop44ColorRGB
 90
      255
102
RTVSPost2010PropOp44
 70
     1
102
RTVSPost2010Prop45
280
     0
102
RTVSPost2010PropOp45
 70
     1
102
RTVSPost2010Prop46
 90
       50
102
RTVSPost2010PropOp46
 70
     1
102
RTVSPost2010Prop47
 90
       50
102
RTVSPost2010PropOp47
 70
     1
102
RTVSPost2010Prop48
 90
       50
102
RTVSPost2010PropOp48
 70
     1
102
RTVSPost2010Prop49
280
     0
102
RTVSPost2010PropOp49
 70
     1
102
RTVSPost2010Prop50
 90
       50
102
RTVSPost2010PropOp50
 70
     1
102
RTVSPost2010Prop51ColorIndex
 90
      256
102
RTVSPost2010Prop51ColorRGB
 90
-16777216
102
RTVSPost2010PropOp51
 70
     0
102
RTVSPost2010Prop52
140
1.0
102
RTVSPost2010PropOp52
 70
     0
102
RTVSPost2010Prop53
 90
        2
102
RTVSPost2010PropOp53
 70
     1
102
RTVSPost2010Prop54
  1
strokes_ogs.tif
102
RTVSPost2010PropOp54
 70
     1
102
RTVSPost2010Prop55
280
     0
102
RTVSPost2010PropOp55
 70
     1
102
RTVSPost2010Prop56
140
1.0
102
RTVSPost2010PropOp56
 70
     1
102
RTVSPost2010Prop57
140
1.0
102
RTVSPost2010PropOp57
 70
     1
  0
XRECORD
  5
886
102
{ACAD_REACTORS
330
885
102
}
330
885
100
AcDbXrecord
280
     1
102
RTVSPost2010Prop28
280
     0
102
RTVSPost2010PropOp28
 70
     1
102
RTVSPost2010Prop29
280
     1
102
RTVSPost2010PropOp29
 70
     1
102
RTVSPost2010Prop30
280
     1
102
RTVSPost2010PropOp30
 70
     1
102
RTVSPost2010Prop31
280
     0
102
RTVSPost2010PropOp31
 70
     1
102
RTVSPost2010Prop32
280
     0
102
RTVSPost2010PropOp32
 70
     1
102
RTVSPost2010Prop33
280
     0
102
RTVSPost2010PropOp33
 70
     1
102
RTVSPost2010Prop34
280
     0
102
RTVSPost2010PropOp34
 70
     1
102
RTVSPost2010Prop35
280
     0
102
RTVSPost2010PropOp35
 70
     1
102
RTVSPost2010Prop36
280
     0
102
RTVSPost2010PropOp36
 70
     1
102
RTVSPost2010Prop37
 90
       50
102
RTVSPost2010PropOp37
 70
     1
102
RTVSPost2010Prop38
140
0.0
102
RTVSPost2010PropOp38
 70
     1
102
RTVSPost2010Prop39
140
1.0
102
RTVSPost2010PropOp39
 70
     1
102
RTVSPost2010Prop40
 90
        0
102
RTVSPost2010PropOp40
 70
     1
102
RTVSPost2010Prop41ColorIndex
 90
       18
102
RTVSPost2010Prop41ColorRGB
 90
        0
102
RTVSPost2010PropOp41
 70
     1
102
RTVSPost2010Prop42
 90
       50
102
RTVSPost2010PropOp42
 70
     1
102
RTVSPost2010Prop43
 90
        3
102
RTVSPost2010PropOp43
 70
     1
102
RTVSPost2010Prop44ColorIndex
 90
        5
102
RTVSPost2010Prop44ColorRGB
 90
      255
102
RTVSPost2010PropOp44
 70
     1
102
RTVSPost2010Prop45
280
     0
102
RTVSPost2010PropOp45
 70
     1
102
RTVSPost2010Prop46
 90
       50
102
RTVSPost2010PropOp46
 70
     1
102
RTVSPost2010Prop47
 90
       50
102
RTVSPost2010PropOp47
 70
     1
102
RTVSPost2010Prop48
 90
       50
102
RTVSPost2010PropOp48
 70
     1
102
RTVSPost2010Prop49
280
     0
102
RTVSPost2010PropOp49
 70
     1
102
RTVSPost2010Prop50
 90
       50
102
RTVSPost2010PropOp50
 70
     1
102
RTVSPost2010Prop51ColorIndex
 90
      256
102
RTVSPost2010Prop51ColorRGB
 90
-16777216
102
RTVSPost2010PropOp51
 70
     0
102
RTVSPost2010Prop52
140
1.0
102
RTVSPost2010PropOp52
 70
     0
102
RTVSPost2010Prop53
 90
        2
102
RTVSPost2010PropOp53
 70
     1
102
RTVSPost2010Prop54
  1
strokes_ogs.tif
102
RTVSPost2010PropOp54
 70
     1
102
RTVSPost2010Prop55
280
     0
102
RTVSPost2010PropOp55
 70
     1
102
RTVSPost2010Prop56
140
1.0
102
RTVSPost2010PropOp56
 70
     1
102
RTVSPost2010Prop57
140
1.0
102
RTVSPost2010PropOp57
 70
     1
  0
XRECORD
  5
88A
102
{ACAD_REACTORS
330
889
102
}
330
889
100
AcDbXrecord
280
     1
102
RTVSPost2010Prop28
280
     0
102
RTVSPost2010PropOp28
 70
     1
102
RTVSPost2010Prop29
280
     1
102
RTVSPost2010PropOp29
 70
     1
102
RTVSPost2010Prop30
280
     1
102
RTVSPost2010PropOp30
 70
     1
102
RTVSPost2010Prop31
280
     0
102
RTVSPost2010PropOp31
 70
     1
102
RTVSPost2010Prop32
280
     0
102
RTVSPost2010PropOp32
 70
     1
102
RTVSPost2010Prop33
280
     0
102
RTVSPost2010PropOp33
 70
     1
102
RTVSPost2010Prop34
280
     0
102
RTVSPost2010PropOp34
 70
     1
102
RTVSPost2010Prop35
280
     0
102
RTVSPost2010PropOp35
 70
     1
102
RTVSPost2010Prop36
280
     0
102
RTVSPost2010PropOp36
 70
     1
102
RTVSPost2010Prop37
 90
       50
102
RTVSPost2010PropOp37
 70
     1
102
RTVSPost2010Prop38
140
0.0
102
RTVSPost2010PropOp38
 70
     1
102
RTVSPost2010Prop39
140
1.0
102
RTVSPost2010PropOp39
 70
     1
102
RTVSPost2010Prop40
 90
        0
102
RTVSPost2010PropOp40
 70
     1
102
RTVSPost2010Prop41ColorIndex
 90
       18
102
RTVSPost2010Prop41ColorRGB
 90
        0
102
RTVSPost2010PropOp41
 70
     1
102
RTVSPost2010Prop42
 90
       50
102
RTVSPost2010PropOp42
 70
     1
102
RTVSPost2010Prop43
 90
        3
102
RTVSPost2010PropOp43
 70
     1
102
RTVSPost2010Prop44ColorIndex
 90
        5
102
RTVSPost2010Prop44ColorRGB
 90
      255
102
RTVSPost2010PropOp44
 70
     1
102
RTVSPost2010Prop45
280
     0
102
RTVSPost2010PropOp45
 70
     1
102
RTVSPost2010Prop46
 90
       50
102
RTVSPost2010PropOp46
 70
     1
102
RTVSPost2010Prop47
 90
       50
102
RTVSPost2010PropOp47
 70
     1
102
RTVSPost2010Prop48
 90
       50
102
RTVSPost2010PropOp48
 70
     1
102
RTVSPost2010Prop49
280
     0
102
RTVSPost2010PropOp49
 70
     1
102
RTVSPost2010Prop50
 90
       50
102
RTVSPost2010PropOp50
 70
     1
102
RTVSPost2010Prop51ColorIndex
 90
      256
102
RTVSPost2010Prop51ColorRGB
 90
-16777216
102
RTVSPost2010PropOp51
 70
     0
102
RTVSPost2010Prop52
140
1.0
102
RTVSPost2010PropOp52
 70
     0
102
RTVSPost2010Prop53
 90
        2
102
RTVSPost2010PropOp53
 70
     1
102
RTVSPost2010Prop54
  1
strokes_ogs.tif
102
RTVSPost2010PropOp54
 70
     1
102
RTVSPost2010Prop55
280
     0
102
RTVSPost2010PropOp55
 70
     1
102
RTVSPost2010Prop56
140
1.0
102
RTVSPost2010PropOp56
 70
     1
102
RTVSPost2010Prop57
140
1.0
102
RTVSPost2010PropOp57
 70
     1
  0
XRECORD
  5
8A4
102
{ACAD_REACTORS
330
8A3
102
}
330
8A3
100
AcDbXrecord
280
     1
102
RTVSPost2010Prop28
280
     0
102
RTVSPost2010PropOp28
 70
     0
102
RTVSPost2010Prop29
280
     1
102
RTVSPost2010PropOp29
 70
     0
102
RTVSPost2010Prop30
280
     1
102
RTVSPost2010PropOp30
 70
     0
102
RTVSPost2010Prop31
280
     0
102
RTVSPost2010PropOp31
 70
     0
102
RTVSPost2010Prop32
280
     0
102
RTVSPost2010PropOp32
 70
     0
102
RTVSPost2010Prop33
280
     0
102
RTVSPost2010PropOp33
 70
     0
102
RTVSPost2010Prop34
280
     0
102
RTVSPost2010PropOp34
 70
     0
102
RTVSPost2010Prop35
280
     0
102
RTVSPost2010PropOp35
 70
     0
102
RTVSPost2010Prop36
280
     0
102
RTVSPost2010PropOp36
 70
     0
102
RTVSPost2010Prop37
 90
       50
102
RTVSPost2010PropOp37
 70
     0
102
RTVSPost2010Prop38
140
0.0
102
RTVSPost2010PropOp38
 70
     0
102
RTVSPost2010Prop39
140
1.0
102
RTVSPost2010PropOp39
 70
     0
102
RTVSPost2010Prop40
 90
        0
102
RTVSPost2010PropOp40
 70
     0
102
RTVSPost2010Prop41ColorIndex
 90
       18
102
RTVSPost2010Prop41ColorRGB
 90
        0
102
RTVSPost2010PropOp41
 70
     0
102
RTVSPost2010Prop42
 90
       50
102
RTVSPost2010PropOp42
 70
     0
102
RTVSPost2010Prop43
 90
        3
102
RTVSPost2010PropOp43
 70
     0
102
RTVSPost2010Prop44ColorIndex
 90
        5
102
RTVSPost2010Prop44ColorRGB
 90
      255
102
RTVSPost2010PropOp44
 70
     0
102
RTVSPost2010Prop45
280
     0
102
RTVSPost2010PropOp45
 70
     0
102
RTVSPost2010Prop46
 90
       50
102
RTVSPost2010PropOp46
 70
     0
102
RTVSPost2010Prop47
 90
       50
102
RTVSPost2010PropOp47
 70
     0
102
RTVSPost2010Prop48
 90
       50
102
RTVSPost2010PropOp48
 70
     0
102
RTVSPost2010Prop49
280
     0
102
RTVSPost2010PropOp49
 70
     0
102
RTVSPost2010Prop50
 90
       50
102
RTVSPost2010PropOp50
 70
     0
102
RTVSPost2010Prop51ColorIndex
 90
      256
102
RTVSPost2010Prop51ColorRGB
 90
-16777216
102
RTVSPost2010PropOp51
 70
     0
102
RTVSPost2010Prop52
140
1.0
102
RTVSPost2010PropOp52
 70
     0
102
RTVSPost2010Prop53
 90
        2
102
RTVSPost2010PropOp53
 70
     0
102
RTVSPost2010Prop54
  1
strokes_ogs.tif
102
RTVSPost2010PropOp54
 70
     0
102
RTVSPost2010Prop55
280
     0
102
RTVSPost2010PropOp55
 70
     0
102
RTVSPost2010Prop56
140
1.0
102
RTVSPost2010PropOp56
 70
     0
102
RTVSPost2010Prop57
140
1.0
102
RTVSPost2010PropOp57
 70
     0
  0
XRECORD
  5
892
102
{ACAD_REACTORS
330
891
102
}
330
891
100
AcDbXrecord
280
     1
102
RTVSPost2010Prop28
280
     0
102
RTVSPost2010PropOp28
 70
     1
102
RTVSPost2010Prop29
280
     1
102
RTVSPost2010PropOp29
 70
     1
102
RTVSPost2010Prop30
280
     1
102
RTVSPost2010PropOp30
 70
     1
102
RTVSPost2010Prop31
280
     0
102
RTVSPost2010PropOp31
 70
     1
102
RTVSPost2010Prop32
280
     0
102
RTVSPost2010PropOp32
 70
     1
102
RTVSPost2010Prop33
280
     0
102
RTVSPost2010PropOp33
 70
     1
102
RTVSPost2010Prop34
280
     0
102
RTVSPost2010PropOp34
 70
     1
102
RTVSPost2010Prop35
280
     0
102
RTVSPost2010PropOp35
 70
     1
102
RTVSPost2010Prop36
280
     0
102
RTVSPost2010PropOp36
 70
     1
102
RTVSPost2010Prop37
 90
       50
102
RTVSPost2010PropOp37
 70
     1
102
RTVSPost2010Prop38
140
0.0
102
RTVSPost2010PropOp38
 70
     1
102
RTVSPost2010Prop39
140
1.0
102
RTVSPost2010PropOp39
 70
     1
102
RTVSPost2010Prop40
 90
        0
102
RTVSPost2010PropOp40
 70
     1
102
RTVSPost2010Prop41ColorIndex
 90
       18
102
RTVSPost2010Prop41ColorRGB
 90
        0
102
RTVSPost2010PropOp41
 70
     1
102
RTVSPost2010Prop42
 90
       50
102
RTVSPost2010PropOp42
 70
     1
102
RTVSPost2010Prop43
 90
        3
102
RTVSPost2010PropOp43
 70
     1
102
RTVSPost2010Prop44ColorIndex
 90
        5
102
RTVSPost2010Prop44ColorRGB
 90
      255
102
RTVSPost2010PropOp44
 70
     1
102
RTVSPost2010Prop45
280
     0
102
RTVSPost2010PropOp45
 70
     1
102
RTVSPost2010Prop46
 90
       50
102
RTVSPost2010PropOp46
 70
     1
102
RTVSPost2010Prop47
 90
       50
102
RTVSPost2010PropOp47
 70
     1
102
RTVSPost2010Prop48
 90
       50
102
RTVSPost2010PropOp48
 70
     1
102
RTVSPost2010Prop49
280
     0
102
RTVSPost2010PropOp49
 70
     1
102
RTVSPost2010Prop50
 90
       50
102
RTVSPost2010PropOp50
 70
     1
102
RTVSPost2010Prop51ColorIndex
 90
      256
102
RTVSPost2010Prop51ColorRGB
 90
-16777216
102
RTVSPost2010PropOp51
 70
     0
102
RTVSPost2010Prop52
140
1.0
102
RTVSPost2010PropOp52
 70
     0
102
RTVSPost2010Prop53
 90
        2
102
RTVSPost2010PropOp53
 70
     1
102
RTVSPost2010Prop54
  1
strokes_ogs.tif
102
RTVSPost2010PropOp54
 70
     1
102
RTVSPost2010Prop55
280
     0
102
RTVSPost2010PropOp55
 70
     1
102
RTVSPost2010Prop56
140
1.0
102
RTVSPost2010PropOp56
 70
     1
102
RTVSPost2010Prop57
140
1.0
102
RTVSPost2010PropOp57
 70
     1
  0
XRECORD
  5
876
102
{ACAD_REACTORS
330
875
102
}
330
875
100
AcDbXrecord
280
     1
102
RTVSPost2010Prop28
280
     0
102
RTVSPost2010PropOp28
 70
     1
102
RTVSPost2010Prop29
280
     1
102
RTVSPost2010PropOp29
 70
     1
102
RTVSPost2010Prop30
280
     1
102
RTVSPost2010PropOp30
 70
     1
102
RTVSPost2010Prop31
280
     0
102
RTVSPost2010PropOp31
 70
     1
102
RTVSPost2010Prop32
280
     0
102
RTVSPost2010PropOp32
 70
     1
102
RTVSPost2010Prop33
280
     0
102
RTVSPost2010PropOp33
 70
     1
102
RTVSPost2010Prop34
280
     0
102
RTVSPost2010PropOp34
 70
     1
102
RTVSPost2010Prop35
280
     0
102
RTVSPost2010PropOp35
 70
     1
102
RTVSPost2010Prop36
280
     0
102
RTVSPost2010PropOp36
 70
     1
102
RTVSPost2010Prop37
 90
       50
102
RTVSPost2010PropOp37
 70
     1
102
RTVSPost2010Prop38
140
0.0
102
RTVSPost2010PropOp38
 70
     1
102
RTVSPost2010Prop39
140
1.0
102
RTVSPost2010PropOp39
 70
     1
102
RTVSPost2010Prop40
 90
        0
102
RTVSPost2010PropOp40
 70
     1
102
RTVSPost2010Prop41ColorIndex
 90
       18
102
RTVSPost2010Prop41ColorRGB
 90
        0
102
RTVSPost2010PropOp41
 70
     1
102
RTVSPost2010Prop42
 90
       50
102
RTVSPost2010PropOp42
 70
     1
102
RTVSPost2010Prop43
 90
        3
102
RTVSPost2010PropOp43
 70
     1
102
RTVSPost2010Prop44ColorIndex
 90
        5
102
RTVSPost2010Prop44ColorRGB
 90
      255
102
RTVSPost2010PropOp44
 70
     1
102
RTVSPost2010Prop45
280
     0
102
RTVSPost2010PropOp45
 70
     1
102
RTVSPost2010Prop46
 90
       50
102
RTVSPost2010PropOp46
 70
     1
102
RTVSPost2010Prop47
 90
       50
102
RTVSPost2010PropOp47
 70
     1
102
RTVSPost2010Prop48
 90
       50
102
RTVSPost2010PropOp48
 70
     1
102
RTVSPost2010Prop49
280
     0
102
RTVSPost2010PropOp49
 70
     1
102
RTVSPost2010Prop50
 90
       50
102
RTVSPost2010PropOp50
 70
     1
102
RTVSPost2010Prop51ColorIndex
 90
      256
102
RTVSPost2010Prop51ColorRGB
 90
-16777216
102
RTVSPost2010PropOp51
 70
     0
102
RTVSPost2010Prop52
140
1.0
102
RTVSPost2010PropOp52
 70
     0
102
RTVSPost2010Prop53
 90
        2
102
RTVSPost2010PropOp53
 70
     1
102
RTVSPost2010Prop54
  1
strokes_ogs.tif
102
RTVSPost2010PropOp54
 70
     1
102
RTVSPost2010Prop55
280
     0
102
RTVSPost2010PropOp55
 70
     1
102
RTVSPost2010Prop56
140
1.0
102
RTVSPost2010PropOp56
 70
     1
102
RTVSPost2010Prop57
140
1.0
102
RTVSPost2010PropOp57
 70
     1
  0
XRECORD
  5
878
102
{ACAD_REACTORS
330
877
102
}
330
877
100
AcDbXrecord
280
     1
102
RTVSPost2010Prop28
280
     0
102
RTVSPost2010PropOp28
 70
     1
102
RTVSPost2010Prop29
280
     1
102
RTVSPost2010PropOp29
 70
     1
102
RTVSPost2010Prop30
280
     1
102
RTVSPost2010PropOp30
 70
     1
102
RTVSPost2010Prop31
280
     0
102
RTVSPost2010PropOp31
 70
     1
102
RTVSPost2010Prop32
280
     0
102
RTVSPost2010PropOp32
 70
     1
102
RTVSPost2010Prop33
280
     0
102
RTVSPost2010PropOp33
 70
     1
102
RTVSPost2010Prop34
280
     0
102
RTVSPost2010PropOp34
 70
     1
102
RTVSPost2010Prop35
280
     0
102
RTVSPost2010PropOp35
 70
     1
102
RTVSPost2010Prop36
280
     0
102
RTVSPost2010PropOp36
 70
     1
102
RTVSPost2010Prop37
 90
       50
102
RTVSPost2010PropOp37
 70
     1
102
RTVSPost2010Prop38
140
0.0
102
RTVSPost2010PropOp38
 70
     1
102
RTVSPost2010Prop39
140
1.0
102
RTVSPost2010PropOp39
 70
     1
102
RTVSPost2010Prop40
 90
        0
102
RTVSPost2010PropOp40
 70
     1
102
RTVSPost2010Prop41ColorIndex
 90
       18
102
RTVSPost2010Prop41ColorRGB
 90
        0
102
RTVSPost2010PropOp41
 70
     1
102
RTVSPost2010Prop42
 90
       50
102
RTVSPost2010PropOp42
 70
     1
102
RTVSPost2010Prop43
 90
        3
102
RTVSPost2010PropOp43
 70
     1
102
RTVSPost2010Prop44ColorIndex
 90
        5
102
RTVSPost2010Prop44ColorRGB
 90
      255
102
RTVSPost2010PropOp44
 70
     1
102
RTVSPost2010Prop45
280
     0
102
RTVSPost2010PropOp45
 70
     1
102
RTVSPost2010Prop46
 90
       50
102
RTVSPost2010PropOp46
 70
     1
102
RTVSPost2010Prop47
 90
       50
102
RTVSPost2010PropOp47
 70
     1
102
RTVSPost2010Prop48
 90
       50
102
RTVSPost2010PropOp48
 70
     1
102
RTVSPost2010Prop49
280
     0
102
RTVSPost2010PropOp49
 70
     1
102
RTVSPost2010Prop50
 90
       50
102
RTVSPost2010PropOp50
 70
     1
102
RTVSPost2010Prop51ColorIndex
 90
      256
102
RTVSPost2010Prop51ColorRGB
 90
-16777216
102
RTVSPost2010PropOp51
 70
     0
102
RTVSPost2010Prop52
140
1.0
102
RTVSPost2010PropOp52
 70
     0
102
RTVSPost2010Prop53
 90
        2
102
RTVSPost2010PropOp53
 70
     1
102
RTVSPost2010Prop54
  1
strokes_ogs.tif
102
RTVSPost2010PropOp54
 70
     1
102
RTVSPost2010Prop55
280
     0
102
RTVSPost2010PropOp55
 70
     1
102
RTVSPost2010Prop56
140
1.0
102
RTVSPost2010PropOp56
 70
     1
102
RTVSPost2010Prop57
140
1.0
102
RTVSPost2010PropOp57
 70
     1
  0
XRECORD
  5
87A
102
{ACAD_REACTORS
330
879
102
}
330
879
100
AcDbXrecord
280
     1
102
RTVSPost2010Prop28
280
     0
102
RTVSPost2010PropOp28
 70
     1
102
RTVSPost2010Prop29
280
     1
102
RTVSPost2010PropOp29
 70
     1
102
RTVSPost2010Prop30
280
     1
102
RTVSPost2010PropOp30
 70
     1
102
RTVSPost2010Prop31
280
     0
102
RTVSPost2010PropOp31
 70
     1
102
RTVSPost2010Prop32
280
     0
102
RTVSPost2010PropOp32
 70
     1
102
RTVSPost2010Prop33
280
     0
102
RTVSPost2010PropOp33
 70
     1
102
RTVSPost2010Prop34
280
     0
102
RTVSPost2010PropOp34
 70
     1
102
RTVSPost2010Prop35
280
     0
102
RTVSPost2010PropOp35
 70
     1
102
RTVSPost2010Prop36
280
     0
102
RTVSPost2010PropOp36
 70
     1
102
RTVSPost2010Prop37
 90
       50
102
RTVSPost2010PropOp37
 70
     1
102
RTVSPost2010Prop38
140
0.0
102
RTVSPost2010PropOp38
 70
     1
102
RTVSPost2010Prop39
140
1.0
102
RTVSPost2010PropOp39
 70
     1
102
RTVSPost2010Prop40
 90
        0
102
RTVSPost2010PropOp40
 70
     1
102
RTVSPost2010Prop41ColorIndex
 90
       18
102
RTVSPost2010Prop41ColorRGB
 90
        0
102
RTVSPost2010PropOp41
 70
     1
102
RTVSPost2010Prop42
 90
       50
102
RTVSPost2010PropOp42
 70
     1
102
RTVSPost2010Prop43
 90
        3
102
RTVSPost2010PropOp43
 70
     1
102
RTVSPost2010Prop44ColorIndex
 90
        5
102
RTVSPost2010Prop44ColorRGB
 90
      255
102
RTVSPost2010PropOp44
 70
     1
102
RTVSPost2010Prop45
280
     0
102
RTVSPost2010PropOp45
 70
     1
102
RTVSPost2010Prop46
 90
       50
102
RTVSPost2010PropOp46
 70
     1
102
RTVSPost2010Prop47
 90
       50
102
RTVSPost2010PropOp47
 70
     1
102
RTVSPost2010Prop48
 90
       50
102
RTVSPost2010PropOp48
 70
     1
102
RTVSPost2010Prop49
280
     0
102
RTVSPost2010PropOp49
 70
     1
102
RTVSPost2010Prop50
 90
       50
102
RTVSPost2010PropOp50
 70
     1
102
RTVSPost2010Prop51ColorIndex
 90
      256
102
RTVSPost2010Prop51ColorRGB
 90
-16777216
102
RTVSPost2010PropOp51
 70
     0
102
RTVSPost2010Prop52
140
1.0
102
RTVSPost2010PropOp52
 70
     0
102
RTVSPost2010Prop53
 90
        2
102
RTVSPost2010PropOp53
 70
     1
102
RTVSPost2010Prop54
  1
strokes_ogs.tif
102
RTVSPost2010PropOp54
 70
     1
102
RTVSPost2010Prop55
280
     0
102
RTVSPost2010PropOp55
 70
     1
102
RTVSPost2010Prop56
140
1.0
102
RTVSPost2010PropOp56
 70
     1
102
RTVSPost2010Prop57
140
1.0
102
RTVSPost2010PropOp57
 70
     1
  0
XRECORD
  5
87C
102
{ACAD_REACTORS
330
87B
102
}
330
87B
100
AcDbXrecord
280
     1
102
RTVSPost2010Prop28
280
     0
102
RTVSPost2010PropOp28
 70
     1
102
RTVSPost2010Prop29
280
     1
102
RTVSPost2010PropOp29
 70
     1
102
RTVSPost2010Prop30
280
     1
102
RTVSPost2010PropOp30
 70
     1
102
RTVSPost2010Prop31
280
     0
102
RTVSPost2010PropOp31
 70
     1
102
RTVSPost2010Prop32
280
     0
102
RTVSPost2010PropOp32
 70
     1
102
RTVSPost2010Prop33
280
     0
102
RTVSPost2010PropOp33
 70
     1
102
RTVSPost2010Prop34
280
     0
102
RTVSPost2010PropOp34
 70
     1
102
RTVSPost2010Prop35
280
     0
102
RTVSPost2010PropOp35
 70
     1
102
RTVSPost2010Prop36
280
     0
102
RTVSPost2010PropOp36
 70
     1
102
RTVSPost2010Prop37
 90
       50
102
RTVSPost2010PropOp37
 70
     1
102
RTVSPost2010Prop38
140
0.0
102
RTVSPost2010PropOp38
 70
     1
102
RTVSPost2010Prop39
140
1.0
102
RTVSPost2010PropOp39
 70
     1
102
RTVSPost2010Prop40
 90
        0
102
RTVSPost2010PropOp40
 70
     1
102
RTVSPost2010Prop41ColorIndex
 90
       18
102
RTVSPost2010Prop41ColorRGB
 90
        0
102
RTVSPost2010PropOp41
 70
     1
102
RTVSPost2010Prop42
 90
       50
102
RTVSPost2010PropOp42
 70
     1
102
RTVSPost2010Prop43
 90
        3
102
RTVSPost2010PropOp43
 70
     1
102
RTVSPost2010Prop44ColorIndex
 90
        5
102
RTVSPost2010Prop44ColorRGB
 90
      255
102
RTVSPost2010PropOp44
 70
     1
102
RTVSPost2010Prop45
280
     0
102
RTVSPost2010PropOp45
 70
     1
102
RTVSPost2010Prop46
 90
       50
102
RTVSPost2010PropOp46
 70
     1
102
RTVSPost2010Prop47
 90
       50
102
RTVSPost2010PropOp47
 70
     1
102
RTVSPost2010Prop48
 90
       50
102
RTVSPost2010PropOp48
 70
     1
102
RTVSPost2010Prop49
280
     0
102
RTVSPost2010PropOp49
 70
     1
102
RTVSPost2010Prop50
 90
       50
102
RTVSPost2010PropOp50
 70
     1
102
RTVSPost2010Prop51ColorIndex
 90
      256
102
RTVSPost2010Prop51ColorRGB
 90
-16777216
102
RTVSPost2010PropOp51
 70
     0
102
RTVSPost2010Prop52
140
1.0
102
RTVSPost2010PropOp52
 70
     0
102
RTVSPost2010Prop53
 90
        2
102
RTVSPost2010PropOp53
 70
     1
102
RTVSPost2010Prop54
  1
strokes_ogs.tif
102
RTVSPost2010PropOp54
 70
     1
102
RTVSPost2010Prop55
280
     0
102
RTVSPost2010PropOp55
 70
     1
102
RTVSPost2010Prop56
140
1.0
102
RTVSPost2010PropOp56
 70
     1
102
RTVSPost2010Prop57
140
1.0
102
RTVSPost2010PropOp57
 70
     1
  0
XRECORD
  5
884
102
{ACAD_REACTORS
330
883
102
}
330
883
100
AcDbXrecord
280
     1
102
RTVSPost2010Prop28
280
     0
102
RTVSPost2010PropOp28
 70
     1
102
RTVSPost2010Prop29
280
     1
102
RTVSPost2010PropOp29
 70
     1
102
RTVSPost2010Prop30
280
     1
102
RTVSPost2010PropOp30
 70
     1
102
RTVSPost2010Prop31
280
     0
102
RTVSPost2010PropOp31
 70
     1
102
RTVSPost2010Prop32
280
     0
102
RTVSPost2010PropOp32
 70
     1
102
RTVSPost2010Prop33
280
     0
102
RTVSPost2010PropOp33
 70
     1
102
RTVSPost2010Prop34
280
     0
102
RTVSPost2010PropOp34
 70
     1
102
RTVSPost2010Prop35
280
     0
102
RTVSPost2010PropOp35
 70
     1
102
RTVSPost2010Prop36
280
     0
102
RTVSPost2010PropOp36
 70
     1
102
RTVSPost2010Prop37
 90
       50
102
RTVSPost2010PropOp37
 70
     1
102
RTVSPost2010Prop38
140
0.0
102
RTVSPost2010PropOp38
 70
     1
102
RTVSPost2010Prop39
140
1.0
102
RTVSPost2010PropOp39
 70
     1
102
RTVSPost2010Prop40
 90
        0
102
RTVSPost2010PropOp40
 70
     1
102
RTVSPost2010Prop41ColorIndex
 90
       18
102
RTVSPost2010Prop41ColorRGB
 90
        0
102
RTVSPost2010PropOp41
 70
     1
102
RTVSPost2010Prop42
 90
       50
102
RTVSPost2010PropOp42
 70
     1
102
RTVSPost2010Prop43
 90
        3
102
RTVSPost2010PropOp43
 70
     1
102
RTVSPost2010Prop44ColorIndex
 90
        5
102
RTVSPost2010Prop44ColorRGB
 90
      255
102
RTVSPost2010PropOp44
 70
     1
102
RTVSPost2010Prop45
280
     0
102
RTVSPost2010PropOp45
 70
     1
102
RTVSPost2010Prop46
 90
       50
102
RTVSPost2010PropOp46
 70
     1
102
RTVSPost2010Prop47
 90
       50
102
RTVSPost2010PropOp47
 70
     1
102
RTVSPost2010Prop48
 90
       50
102
RTVSPost2010PropOp48
 70
     1
102
RTVSPost2010Prop49
280
     0
102
RTVSPost2010PropOp49
 70
     1
102
RTVSPost2010Prop50
 90
       50
102
RTVSPost2010PropOp50
 70
     1
102
RTVSPost2010Prop51ColorIndex
 90
      256
102
RTVSPost2010Prop51ColorRGB
 90
-16777216
102
RTVSPost2010PropOp51
 70
     0
102
RTVSPost2010Prop52
140
1.0
102
RTVSPost2010PropOp52
 70
     0
102
RTVSPost2010Prop53
 90
        2
102
RTVSPost2010PropOp53
 70
     1
102
RTVSPost2010Prop54
  1
strokes_ogs.tif
102
RTVSPost2010PropOp54
 70
     1
102
RTVSPost2010Prop55
280
     0
102
RTVSPost2010PropOp55
 70
     1
102
RTVSPost2010Prop56
140
1.0
102
RTVSPost2010PropOp56
 70
     1
102
RTVSPost2010Prop57
140
1.0
102
RTVSPost2010PropOp57
 70
     1
  0
XRECORD
  5
8A0
102
{ACAD_REACTORS
330
89F
102
}
330
89F
100
AcDbXrecord
280
     1
102
RTVSPost2010Prop28
280
     0
102
RTVSPost2010PropOp28
 70
     0
102
RTVSPost2010Prop29
280
     1
102
RTVSPost2010PropOp29
 70
     0
102
RTVSPost2010Prop30
280
     1
102
RTVSPost2010PropOp30
 70
     0
102
RTVSPost2010Prop31
280
     0
102
RTVSPost2010PropOp31
 70
     0
102
RTVSPost2010Prop32
280
     0
102
RTVSPost2010PropOp32
 70
     0
102
RTVSPost2010Prop33
280
     0
102
RTVSPost2010PropOp33
 70
     0
102
RTVSPost2010Prop34
280
     0
102
RTVSPost2010PropOp34
 70
     0
102
RTVSPost2010Prop35
280
     0
102
RTVSPost2010PropOp35
 70
     0
102
RTVSPost2010Prop36
280
     0
102
RTVSPost2010PropOp36
 70
     0
102
RTVSPost2010Prop37
 90
       50
102
RTVSPost2010PropOp37
 70
     0
102
RTVSPost2010Prop38
140
0.0
102
RTVSPost2010PropOp38
 70
     0
102
RTVSPost2010Prop39
140
1.0
102
RTVSPost2010PropOp39
 70
     0
102
RTVSPost2010Prop40
 90
        0
102
RTVSPost2010PropOp40
 70
     0
102
RTVSPost2010Prop41ColorIndex
 90
       18
102
RTVSPost2010Prop41ColorRGB
 90
        0
102
RTVSPost2010PropOp41
 70
     0
102
RTVSPost2010Prop42
 90
       50
102
RTVSPost2010PropOp42
 70
     0
102
RTVSPost2010Prop43
 90
        3
102
RTVSPost2010PropOp43
 70
     0
102
RTVSPost2010Prop44ColorIndex
 90
        5
102
RTVSPost2010Prop44ColorRGB
 90
      255
102
RTVSPost2010PropOp44
 70
     0
102
RTVSPost2010Prop45
280
     0
102
RTVSPost2010PropOp45
 70
     0
102
RTVSPost2010Prop46
 90
       50
102
RTVSPost2010PropOp46
 70
     0
102
RTVSPost2010Prop47
 90
       50
102
RTVSPost2010PropOp47
 70
     0
102
RTVSPost2010Prop48
 90
       50
102
RTVSPost2010PropOp48
 70
     0
102
RTVSPost2010Prop49
280
     0
102
RTVSPost2010PropOp49
 70
     0
102
RTVSPost2010Prop50
 90
       50
102
RTVSPost2010PropOp50
 70
     0
102
RTVSPost2010Prop51ColorIndex
 90
      256
102
RTVSPost2010Prop51ColorRGB
 90
-16777216
102
RTVSPost2010PropOp51
 70
     0
102
RTVSPost2010Prop52
140
1.0
102
RTVSPost2010PropOp52
 70
     0
102
RTVSPost2010Prop53
 90
        2
102
RTVSPost2010PropOp53
 70
     0
102
RTVSPost2010Prop54
  1
strokes_ogs.tif
102
RTVSPost2010PropOp54
 70
     0
102
RTVSPost2010Prop55
280
     0
102
RTVSPost2010PropOp55
 70
     0
102
RTVSPost2010Prop56
140
1.0
102
RTVSPost2010PropOp56
 70
     0
102
RTVSPost2010Prop57
140
1.0
102
RTVSPost2010PropOp57
 70
     0
  0
XRECORD
  5
890
102
{ACAD_REACTORS
330
88F
102
}
330
88F
100
AcDbXrecord
280
     1
102
RTVSPost2010Prop28
280
     0
102
RTVSPost2010PropOp28
 70
     1
102
RTVSPost2010Prop29
280
     1
102
RTVSPost2010PropOp29
 70
     1
102
RTVSPost2010Prop30
280
     1
102
RTVSPost2010PropOp30
 70
     1
102
RTVSPost2010Prop31
280
     0
102
RTVSPost2010PropOp31
 70
     1
102
RTVSPost2010Prop32
280
     0
102
RTVSPost2010PropOp32
 70
     1
102
RTVSPost2010Prop33
280
     0
102
RTVSPost2010PropOp33
 70
     1
102
RTVSPost2010Prop34
280
     0
102
RTVSPost2010PropOp34
 70
     1
102
RTVSPost2010Prop35
280
     0
102
RTVSPost2010PropOp35
 70
     1
102
RTVSPost2010Prop36
280
     0
102
RTVSPost2010PropOp36
 70
     1
102
RTVSPost2010Prop37
 90
       50
102
RTVSPost2010PropOp37
 70
     1
102
RTVSPost2010Prop38
140
0.0
102
RTVSPost2010PropOp38
 70
     1
102
RTVSPost2010Prop39
140
1.0
102
RTVSPost2010PropOp39
 70
     1
102
RTVSPost2010Prop40
 90
        0
102
RTVSPost2010PropOp40
 70
     1
102
RTVSPost2010Prop41ColorIndex
 90
       18
102
RTVSPost2010Prop41ColorRGB
 90
        0
102
RTVSPost2010PropOp41
 70
     1
102
RTVSPost2010Prop42
 90
       50
102
RTVSPost2010PropOp42
 70
     1
102
RTVSPost2010Prop43
 90
        3
102
RTVSPost2010PropOp43
 70
     1
102
RTVSPost2010Prop44ColorIndex
 90
        5
102
RTVSPost2010Prop44ColorRGB
 90
      255
102
RTVSPost2010PropOp44
 70
     1
102
RTVSPost2010Prop45
280
     0
102
RTVSPost2010PropOp45
 70
     1
102
RTVSPost2010Prop46
 90
       50
102
RTVSPost2010PropOp46
 70
     1
102
RTVSPost2010Prop47
 90
       50
102
RTVSPost2010PropOp47
 70
     1
102
RTVSPost2010Prop48
 90
       50
102
RTVSPost2010PropOp48
 70
     1
102
RTVSPost2010Prop49
280
     0
102
RTVSPost2010PropOp49
 70
     1
102
RTVSPost2010Prop50
 90
       50
102
RTVSPost2010PropOp50
 70
     1
102
RTVSPost2010Prop51ColorIndex
 90
      256
102
RTVSPost2010Prop51ColorRGB
 90
-16777216
102
RTVSPost2010PropOp51
 70
     0
102
RTVSPost2010Prop52
140
1.0
102
RTVSPost2010PropOp52
 70
     0
102
RTVSPost2010Prop53
 90
        2
102
RTVSPost2010PropOp53
 70
     1
102
RTVSPost2010Prop54
  1
strokes_ogs.tif
102
RTVSPost2010PropOp54
 70
     1
102
RTVSPost2010Prop55
280
     0
102
RTVSPost2010PropOp55
 70
     1
102
RTVSPost2010Prop56
140
1.0
102
RTVSPost2010PropOp56
 70
     1
102
RTVSPost2010Prop57
140
1.0
102
RTVSPost2010PropOp57
 70
     1
  0
XRECORD
  5
8A2
102
{ACAD_REACTORS
330
8A1
102
}
330
8A1
100
AcDbXrecord
280
     1
102
RTVSPost2010Prop28
280
     0
102
RTVSPost2010PropOp28
 70
     0
102
RTVSPost2010Prop29
280
     1
102
RTVSPost2010PropOp29
 70
     0
102
RTVSPost2010Prop30
280
     1
102
RTVSPost2010PropOp30
 70
     0
102
RTVSPost2010Prop31
280
     0
102
RTVSPost2010PropOp31
 70
     0
102
RTVSPost2010Prop32
280
     0
102
RTVSPost2010PropOp32
 70
     0
102
RTVSPost2010Prop33
280
     0
102
RTVSPost2010PropOp33
 70
     0
102
RTVSPost2010Prop34
280
     0
102
RTVSPost2010PropOp34
 70
     0
102
RTVSPost2010Prop35
280
     0
102
RTVSPost2010PropOp35
 70
     0
102
RTVSPost2010Prop36
280
     0
102
RTVSPost2010PropOp36
 70
     0
102
RTVSPost2010Prop37
 90
       50
102
RTVSPost2010PropOp37
 70
     0
102
RTVSPost2010Prop38
140
0.0
102
RTVSPost2010PropOp38
 70
     0
102
RTVSPost2010Prop39
140
1.0
102
RTVSPost2010PropOp39
 70
     0
102
RTVSPost2010Prop40
 90
        0
102
RTVSPost2010PropOp40
 70
     0
102
RTVSPost2010Prop41ColorIndex
 90
       18
102
RTVSPost2010Prop41ColorRGB
 90
        0
102
RTVSPost2010PropOp41
 70
     0
102
RTVSPost2010Prop42
 90
       50
102
RTVSPost2010PropOp42
 70
     0
102
RTVSPost2010Prop43
 90
        3
102
RTVSPost2010PropOp43
 70
     0
102
RTVSPost2010Prop44ColorIndex
 90
        5
102
RTVSPost2010Prop44ColorRGB
 90
      255
102
RTVSPost2010PropOp44
 70
     0
102
RTVSPost2010Prop45
280
     0
102
RTVSPost2010PropOp45
 70
     0
102
RTVSPost2010Prop46
 90
       50
102
RTVSPost2010PropOp46
 70
     0
102
RTVSPost2010Prop47
 90
       50
102
RTVSPost2010PropOp47
 70
     0
102
RTVSPost2010Prop48
 90
       50
102
RTVSPost2010PropOp48
 70
     0
102
RTVSPost2010Prop49
280
     0
102
RTVSPost2010PropOp49
 70
     0
102
RTVSPost2010Prop50
 90
       50
102
RTVSPost2010PropOp50
 70
     0
102
RTVSPost2010Prop51ColorIndex
 90
      256
102
RTVSPost2010Prop51ColorRGB
 90
-16777216
102
RTVSPost2010PropOp51
 70
     0
102
RTVSPost2010Prop52
140
1.0
102
RTVSPost2010PropOp52
 70
     0
102
RTVSPost2010Prop53
 90
        2
102
RTVSPost2010PropOp53
 70
     0
102
RTVSPost2010Prop54
  1
strokes_ogs.tif
102
RTVSPost2010PropOp54
 70
     0
102
RTVSPost2010Prop55
280
     0
102
RTVSPost2010PropOp55
 70
     0
102
RTVSPost2010Prop56
140
1.0
102
RTVSPost2010PropOp56
 70
     0
102
RTVSPost2010Prop57
140
1.0
102
RTVSPost2010PropOp57
 70
     0
  0
XRECORD
  5
888
102
{ACAD_REACTORS
330
887
102
}
330
887
100
AcDbXrecord
280
     1
102
RTVSPost2010Prop28
280
     0
102
RTVSPost2010PropOp28
 70
     1
102
RTVSPost2010Prop29
280
     1
102
RTVSPost2010PropOp29
 70
     1
102
RTVSPost2010Prop30
280
     1
102
RTVSPost2010PropOp30
 70
     1
102
RTVSPost2010Prop31
280
     0
102
RTVSPost2010PropOp31
 70
     1
102
RTVSPost2010Prop32
280
     0
102
RTVSPost2010PropOp32
 70
     1
102
RTVSPost2010Prop33
280
     0
102
RTVSPost2010PropOp33
 70
     1
102
RTVSPost2010Prop34
280
     0
102
RTVSPost2010PropOp34
 70
     1
102
RTVSPost2010Prop35
280
     0
102
RTVSPost2010PropOp35
 70
     1
102
RTVSPost2010Prop36
280
     0
102
RTVSPost2010PropOp36
 70
     1
102
RTVSPost2010Prop37
 90
       50
102
RTVSPost2010PropOp37
 70
     1
102
RTVSPost2010Prop38
140
0.0
102
RTVSPost2010PropOp38
 70
     1
102
RTVSPost2010Prop39
140
1.0
102
RTVSPost2010PropOp39
 70
     1
102
RTVSPost2010Prop40
 90
        0
102
RTVSPost2010PropOp40
 70
     1
102
RTVSPost2010Prop41ColorIndex
 90
       18
102
RTVSPost2010Prop41ColorRGB
 90
        0
102
RTVSPost2010PropOp41
 70
     1
102
RTVSPost2010Prop42
 90
       50
102
RTVSPost2010PropOp42
 70
     1
102
RTVSPost2010Prop43
 90
        3
102
RTVSPost2010PropOp43
 70
     1
102
RTVSPost2010Prop44ColorIndex
 90
        5
102
RTVSPost2010Prop44ColorRGB
 90
      255
102
RTVSPost2010PropOp44
 70
     1
102
RTVSPost2010Prop45
280
     0
102
RTVSPost2010PropOp45
 70
     1
102
RTVSPost2010Prop46
 90
       50
102
RTVSPost2010PropOp46
 70
     1
102
RTVSPost2010Prop47
 90
       50
102
RTVSPost2010PropOp47
 70
     1
102
RTVSPost2010Prop48
 90
       50
102
RTVSPost2010PropOp48
 70
     1
102
RTVSPost2010Prop49
280
     0
102
RTVSPost2010PropOp49
 70
     1
102
RTVSPost2010Prop50
 90
       50
102
RTVSPost2010PropOp50
 70
     1
102
RTVSPost2010Prop51ColorIndex
 90
      256
102
RTVSPost2010Prop51ColorRGB
 90
-16777216
102
RTVSPost2010PropOp51
 70
     0
102
RTVSPost2010Prop52
140
1.0
102
RTVSPost2010PropOp52
 70
     0
102
RTVSPost2010Prop53
 90
        2
102
RTVSPost2010PropOp53
 70
     1
102
RTVSPost2010Prop54
  1
strokes_ogs.tif
102
RTVSPost2010PropOp54
 70
     1
102
RTVSPost2010Prop55
280
     0
102
RTVSPost2010PropOp55
 70
     1
102
RTVSPost2010Prop56
140
1.0
102
RTVSPost2010PropOp56
 70
     1
102
RTVSPost2010Prop57
140
1.0
102
RTVSPost2010PropOp57
 70
     1
  0
XRECORD
  5
89E
102
{ACAD_REACTORS
330
89D
102
}
330
89D
100
AcDbXrecord
280
     1
102
RTVSPost2010Prop28
280
     0
102
RTVSPost2010PropOp28
 70
     1
102
RTVSPost2010Prop29
280
     1
102
RTVSPost2010PropOp29
 70
     1
102
RTVSPost2010Prop30
280
     1
102
RTVSPost2010PropOp30
 70
     1
102
RTVSPost2010Prop31
280
     0
102
RTVSPost2010PropOp31
 70
     1
102
RTVSPost2010Prop32
280
     0
102
RTVSPost2010PropOp32
 70
     1
102
RTVSPost2010Prop33
280
     0
102
RTVSPost2010PropOp33
 70
     1
102
RTVSPost2010Prop34
280
     0
102
RTVSPost2010PropOp34
 70
     1
102
RTVSPost2010Prop35
280
     0
102
RTVSPost2010PropOp35
 70
     1
102
RTVSPost2010Prop36
280
     0
102
RTVSPost2010PropOp36
 70
     1
102
RTVSPost2010Prop37
 90
       50
102
RTVSPost2010PropOp37
 70
     1
102
RTVSPost2010Prop38
140
0.0
102
RTVSPost2010PropOp38
 70
     1
102
RTVSPost2010Prop39
140
1.0
102
RTVSPost2010PropOp39
 70
     1
102
RTVSPost2010Prop40
 90
        0
102
RTVSPost2010PropOp40
 70
     1
102
RTVSPost2010Prop41ColorIndex
 90
       18
102
RTVSPost2010Prop41ColorRGB
 90
        0
102
RTVSPost2010PropOp41
 70
     1
102
RTVSPost2010Prop42
 90
       50
102
RTVSPost2010PropOp42
 70
     1
102
RTVSPost2010Prop43
 90
        3
102
RTVSPost2010PropOp43
 70
     1
102
RTVSPost2010Prop44ColorIndex
 90
        5
102
RTVSPost2010Prop44ColorRGB
 90
      255
102
RTVSPost2010PropOp44
 70
     1
102
RTVSPost2010Prop45
280
     0
102
RTVSPost2010PropOp45
 70
     1
102
RTVSPost2010Prop46
 90
       50
102
RTVSPost2010PropOp46
 70
     1
102
RTVSPost2010Prop47
 90
       50
102
RTVSPost2010PropOp47
 70
     1
102
RTVSPost2010Prop48
 90
       50
102
RTVSPost2010PropOp48
 70
     1
102
RTVSPost2010Prop49
280
     0
102
RTVSPost2010PropOp49
 70
     1
102
RTVSPost2010Prop50
 90
       50
102
RTVSPost2010PropOp50
 70
     1
102
RTVSPost2010Prop51ColorIndex
 90
      256
102
RTVSPost2010Prop51ColorRGB
 90
-16777216
102
RTVSPost2010PropOp51
 70
     0
102
RTVSPost2010Prop52
140
1.0
102
RTVSPost2010PropOp52
 70
     0
102
RTVSPost2010Prop53
 90
        2
102
RTVSPost2010PropOp53
 70
     1
102
RTVSPost2010Prop54
  1
strokes_ogs.tif
102
RTVSPost2010PropOp54
 70
     1
102
RTVSPost2010Prop55
280
     0
102
RTVSPost2010PropOp55
 70
     1
102
RTVSPost2010Prop56
140
1.0
102
RTVSPost2010PropOp56
 70
     1
102
RTVSPost2010Prop57
140
1.0
102
RTVSPost2010PropOp57
 70
     1
  0
XRECORD
  5
89C
102
{ACAD_REACTORS
330
89B
102
}
330
89B
100
AcDbXrecord
280
     1
102
RTVSPost2010Prop28
280
     0
102
RTVSPost2010PropOp28
 70
     1
102
RTVSPost2010Prop29
280
     1
102
RTVSPost2010PropOp29
 70
     1
102
RTVSPost2010Prop30
280
     1
102
RTVSPost2010PropOp30
 70
     1
102
RTVSPost2010Prop31
280
     0
102
RTVSPost2010PropOp31
 70
     1
102
RTVSPost2010Prop32
280
     0
102
RTVSPost2010PropOp32
 70
     1
102
RTVSPost2010Prop33
280
     0
102
RTVSPost2010PropOp33
 70
     1
102
RTVSPost2010Prop34
280
     0
102
RTVSPost2010PropOp34
 70
     1
102
RTVSPost2010Prop35
280
     0
102
RTVSPost2010PropOp35
 70
     1
102
RTVSPost2010Prop36
280
     0
102
RTVSPost2010PropOp36
 70
     1
102
RTVSPost2010Prop37
 90
       50
102
RTVSPost2010PropOp37
 70
     1
102
RTVSPost2010Prop38
140
0.0
102
RTVSPost2010PropOp38
 70
     1
102
RTVSPost2010Prop39
140
1.0
102
RTVSPost2010PropOp39
 70
     1
102
RTVSPost2010Prop40
 90
        0
102
RTVSPost2010PropOp40
 70
     1
102
RTVSPost2010Prop41ColorIndex
 90
       18
102
RTVSPost2010Prop41ColorRGB
 90
        0
102
RTVSPost2010PropOp41
 70
     1
102
RTVSPost2010Prop42
 90
       50
102
RTVSPost2010PropOp42
 70
     1
102
RTVSPost2010Prop43
 90
        3
102
RTVSPost2010PropOp43
 70
     1
102
RTVSPost2010Prop44ColorIndex
 90
        5
102
RTVSPost2010Prop44ColorRGB
 90
      255
102
RTVSPost2010PropOp44
 70
     1
102
RTVSPost2010Prop45
280
     0
102
RTVSPost2010PropOp45
 70
     1
102
RTVSPost2010Prop46
 90
       50
102
RTVSPost2010PropOp46
 70
     1
102
RTVSPost2010Prop47
 90
       50
102
RTVSPost2010PropOp47
 70
     1
102
RTVSPost2010Prop48
 90
       50
102
RTVSPost2010PropOp48
 70
     1
102
RTVSPost2010Prop49
280
     0
102
RTVSPost2010PropOp49
 70
     1
102
RTVSPost2010Prop50
 90
       50
102
RTVSPost2010PropOp50
 70
     1
102
RTVSPost2010Prop51ColorIndex
 90
      256
102
RTVSPost2010Prop51ColorRGB
 90
-16777216
102
RTVSPost2010PropOp51
 70
     0
102
RTVSPost2010Prop52
140
1.0
102
RTVSPost2010PropOp52
 70
     0
102
RTVSPost2010Prop53
 90
        2
102
RTVSPost2010PropOp53
 70
     1
102
RTVSPost2010Prop54
  1
strokes_ogs.tif
102
RTVSPost2010PropOp54
 70
     1
102
RTVSPost2010Prop55
280
     0
102
RTVSPost2010PropOp55
 70
     1
102
RTVSPost2010Prop56
140
1.0
102
RTVSPost2010PropOp56
 70
     1
102
RTVSPost2010Prop57
140
1.0
102
RTVSPost2010PropOp57
 70
     1
  0
XRECORD
  5
896
102
{ACAD_REACTORS
330
895
102
}
330
895
100
AcDbXrecord
280
     1
102
RTVSPost2010Prop28
280
     0
102
RTVSPost2010PropOp28
 70
     1
102
RTVSPost2010Prop29
280
     1
102
RTVSPost2010PropOp29
 70
     1
102
RTVSPost2010Prop30
280
     1
102
RTVSPost2010PropOp30
 70
     1
102
RTVSPost2010Prop31
280
     0
102
RTVSPost2010PropOp31
 70
     1
102
RTVSPost2010Prop32
280
     0
102
RTVSPost2010PropOp32
 70
     1
102
RTVSPost2010Prop33
280
     0
102
RTVSPost2010PropOp33
 70
     1
102
RTVSPost2010Prop34
280
     0
102
RTVSPost2010PropOp34
 70
     1
102
RTVSPost2010Prop35
280
     0
102
RTVSPost2010PropOp35
 70
     1
102
RTVSPost2010Prop36
280
     0
102
RTVSPost2010PropOp36
 70
     1
102
RTVSPost2010Prop37
 90
       50
102
RTVSPost2010PropOp37
 70
     1
102
RTVSPost2010Prop38
140
0.0
102
RTVSPost2010PropOp38
 70
     1
102
RTVSPost2010Prop39
140
1.0
102
RTVSPost2010PropOp39
 70
     1
102
RTVSPost2010Prop40
 90
        0
102
RTVSPost2010PropOp40
 70
     1
102
RTVSPost2010Prop41ColorIndex
 90
       18
102
RTVSPost2010Prop41ColorRGB
 90
        0
102
RTVSPost2010PropOp41
 70
     1
102
RTVSPost2010Prop42
 90
       50
102
RTVSPost2010PropOp42
 70
     1
102
RTVSPost2010Prop43
 90
        3
102
RTVSPost2010PropOp43
 70
     1
102
RTVSPost2010Prop44ColorIndex
 90
        5
102
RTVSPost2010Prop44ColorRGB
 90
      255
102
RTVSPost2010PropOp44
 70
     1
102
RTVSPost2010Prop45
280
     0
102
RTVSPost2010PropOp45
 70
     1
102
RTVSPost2010Prop46
 90
       50
102
RTVSPost2010PropOp46
 70
     1
102
RTVSPost2010Prop47
 90
       50
102
RTVSPost2010PropOp47
 70
     1
102
RTVSPost2010Prop48
 90
       50
102
RTVSPost2010PropOp48
 70
     1
102
RTVSPost2010Prop49
280
     0
102
RTVSPost2010PropOp49
 70
     1
102
RTVSPost2010Prop50
 90
       50
102
RTVSPost2010PropOp50
 70
     1
102
RTVSPost2010Prop51ColorIndex
 90
      256
102
RTVSPost2010Prop51ColorRGB
 90
-16777216
102
RTVSPost2010PropOp51
 70
     0
102
RTVSPost2010Prop52
140
1.0
102
RTVSPost2010PropOp52
 70
     0
102
RTVSPost2010Prop53
 90
        2
102
RTVSPost2010PropOp53
 70
     1
102
RTVSPost2010Prop54
  1
strokes_ogs.tif
102
RTVSPost2010PropOp54
 70
     1
102
RTVSPost2010Prop55
280
     0
102
RTVSPost2010PropOp55
 70
     1
102
RTVSPost2010Prop56
140
1.0
102
RTVSPost2010PropOp56
 70
     1
102
RTVSPost2010Prop57
140
1.0
102
RTVSPost2010PropOp57
 70
     1
  0
XRECORD
  5
898
102
{ACAD_REACTORS
330
897
102
}
330
897
100
AcDbXrecord
280
     1
102
RTVSPost2010Prop28
280
     0
102
RTVSPost2010PropOp28
 70
     1
102
RTVSPost2010Prop29
280
     1
102
RTVSPost2010PropOp29
 70
     1
102
RTVSPost2010Prop30
280
     1
102
RTVSPost2010PropOp30
 70
     1
102
RTVSPost2010Prop31
280
     0
102
RTVSPost2010PropOp31
 70
     1
102
RTVSPost2010Prop32
280
     0
102
RTVSPost2010PropOp32
 70
     1
102
RTVSPost2010Prop33
280
     0
102
RTVSPost2010PropOp33
 70
     1
102
RTVSPost2010Prop34
280
     0
102
RTVSPost2010PropOp34
 70
     1
102
RTVSPost2010Prop35
280
     0
102
RTVSPost2010PropOp35
 70
     1
102
RTVSPost2010Prop36
280
     0
102
RTVSPost2010PropOp36
 70
     1
102
RTVSPost2010Prop37
 90
       50
102
RTVSPost2010PropOp37
 70
     1
102
RTVSPost2010Prop38
140
0.0
102
RTVSPost2010PropOp38
 70
     1
102
RTVSPost2010Prop39
140
1.0
102
RTVSPost2010PropOp39
 70
     1
102
RTVSPost2010Prop40
 90
        0
102
RTVSPost2010PropOp40
 70
     1
102
RTVSPost2010Prop41ColorIndex
 90
       18
102
RTVSPost2010Prop41ColorRGB
 90
        0
102
RTVSPost2010PropOp41
 70
     1
102
RTVSPost2010Prop42
 90
       50
102
RTVSPost2010PropOp42
 70
     1
102
RTVSPost2010Prop43
 90
        3
102
RTVSPost2010PropOp43
 70
     1
102
RTVSPost2010Prop44ColorIndex
 90
        5
102
RTVSPost2010Prop44ColorRGB
 90
      255
102
RTVSPost2010PropOp44
 70
     1
102
RTVSPost2010Prop45
280
     0
102
RTVSPost2010PropOp45
 70
     1
102
RTVSPost2010Prop46
 90
       50
102
RTVSPost2010PropOp46
 70
     1
102
RTVSPost2010Prop47
 90
       50
102
RTVSPost2010PropOp47
 70
     1
102
RTVSPost2010Prop48
 90
       50
102
RTVSPost2010PropOp48
 70
     1
102
RTVSPost2010Prop49
280
     0
102
RTVSPost2010PropOp49
 70
     1
102
RTVSPost2010Prop50
 90
       50
102
RTVSPost2010PropOp50
 70
     1
102
RTVSPost2010Prop51ColorIndex
 90
      256
102
RTVSPost2010Prop51ColorRGB
 90
-16777216
102
RTVSPost2010PropOp51
 70
     0
102
RTVSPost2010Prop52
140
1.0
102
RTVSPost2010PropOp52
 70
     0
102
RTVSPost2010Prop53
 90
        2
102
RTVSPost2010PropOp53
 70
     1
102
RTVSPost2010Prop54
  1
strokes_ogs.tif
102
RTVSPost2010PropOp54
 70
     1
102
RTVSPost2010Prop55
280
     0
102
RTVSPost2010PropOp55
 70
     1
102
RTVSPost2010Prop56
140
1.0
102
RTVSPost2010PropOp56
 70
     1
102
RTVSPost2010Prop57
140
1.0
102
RTVSPost2010PropOp57
 70
     1
  0
XRECORD
  5
88E
102
{ACAD_REACTORS
330
88D
102
}
330
88D
100
AcDbXrecord
280
     1
102
RTVSPost2010Prop28
280
     0
102
RTVSPost2010PropOp28
 70
     1
102
RTVSPost2010Prop29
280
     1
102
RTVSPost2010PropOp29
 70
     1
102
RTVSPost2010Prop30
280
     1
102
RTVSPost2010PropOp30
 70
     1
102
RTVSPost2010Prop31
280
     0
102
RTVSPost2010PropOp31
 70
     1
102
RTVSPost2010Prop32
280
     0
102
RTVSPost2010PropOp32
 70
     1
102
RTVSPost2010Prop33
280
     0
102
RTVSPost2010PropOp33
 70
     1
102
RTVSPost2010Prop34
280
     0
102
RTVSPost2010PropOp34
 70
     1
102
RTVSPost2010Prop35
280
     0
102
RTVSPost2010PropOp35
 70
     1
102
RTVSPost2010Prop36
280
     0
102
RTVSPost2010PropOp36
 70
     1
102
RTVSPost2010Prop37
 90
       50
102
RTVSPost2010PropOp37
 70
     1
102
RTVSPost2010Prop38
140
0.0
102
RTVSPost2010PropOp38
 70
     1
102
RTVSPost2010Prop39
140
1.0
102
RTVSPost2010PropOp39
 70
     1
102
RTVSPost2010Prop40
 90
        0
102
RTVSPost2010PropOp40
 70
     1
102
RTVSPost2010Prop41ColorIndex
 90
       18
102
RTVSPost2010Prop41ColorRGB
 90
        0
102
RTVSPost2010PropOp41
 70
     1
102
RTVSPost2010Prop42
 90
       50
102
RTVSPost2010PropOp42
 70
     1
102
RTVSPost2010Prop43
 90
        3
102
RTVSPost2010PropOp43
 70
     1
102
RTVSPost2010Prop44ColorIndex
 90
        5
102
RTVSPost2010Prop44ColorRGB
 90
      255
102
RTVSPost2010PropOp44
 70
     1
102
RTVSPost2010Prop45
280
     0
102
RTVSPost2010PropOp45
 70
     1
102
RTVSPost2010Prop46
 90
       50
102
RTVSPost2010PropOp46
 70
     1
102
RTVSPost2010Prop47
 90
       50
102
RTVSPost2010PropOp47
 70
     1
102
RTVSPost2010Prop48
 90
       50
102
RTVSPost2010PropOp48
 70
     1
102
RTVSPost2010Prop49
280
     0
102
RTVSPost2010PropOp49
 70
     1
102
RTVSPost2010Prop50
 90
       50
102
RTVSPost2010PropOp50
 70
     1
102
RTVSPost2010Prop51ColorIndex
 90
      256
102
RTVSPost2010Prop51ColorRGB
 90
-16777216
102
RTVSPost2010PropOp51
 70
     0
102
RTVSPost2010Prop52
140
1.0
102
RTVSPost2010PropOp52
 70
     0
102
RTVSPost2010Prop53
 90
        2
102
RTVSPost2010PropOp53
 70
     1
102
RTVSPost2010Prop54
  1
strokes_ogs.tif
102
RTVSPost2010PropOp54
 70
     1
102
RTVSPost2010Prop55
280
     0
102
RTVSPost2010PropOp55
 70
     1
102
RTVSPost2010Prop56
140
1.0
102
RTVSPost2010PropOp56
 70
     1
102
RTVSPost2010Prop57
140
1.0
102
RTVSPost2010PropOp57
 70
     1
  0
XRECORD
  5
882
102
{ACAD_REACTORS
330
881
102
}
330
881
100
AcDbXrecord
280
     1
102
RTVSPost2010Prop28
280
     0
102
RTVSPost2010PropOp28
 70
     1
102
RTVSPost2010Prop29
280
     1
102
RTVSPost2010PropOp29
 70
     1
102
RTVSPost2010Prop30
280
     1
102
RTVSPost2010PropOp30
 70
     1
102
RTVSPost2010Prop31
280
     0
102
RTVSPost2010PropOp31
 70
     1
102
RTVSPost2010Prop32
280
     0
102
RTVSPost2010PropOp32
 70
     1
102
RTVSPost2010Prop33
280
     0
102
RTVSPost2010PropOp33
 70
     1
102
RTVSPost2010Prop34
280
     0
102
RTVSPost2010PropOp34
 70
     1
102
RTVSPost2010Prop35
280
     0
102
RTVSPost2010PropOp35
 70
     1
102
RTVSPost2010Prop36
280
     0
102
RTVSPost2010PropOp36
 70
     1
102
RTVSPost2010Prop37
 90
       50
102
RTVSPost2010PropOp37
 70
     1
102
RTVSPost2010Prop38
140
0.0
102
RTVSPost2010PropOp38
 70
     1
102
RTVSPost2010Prop39
140
1.0
102
RTVSPost2010PropOp39
 70
     1
102
RTVSPost2010Prop40
 90
        0
102
RTVSPost2010PropOp40
 70
     1
102
RTVSPost2010Prop41ColorIndex
 90
       18
102
RTVSPost2010Prop41ColorRGB
 90
        0
102
RTVSPost2010PropOp41
 70
     1
102
RTVSPost2010Prop42
 90
       50
102
RTVSPost2010PropOp42
 70
     1
102
RTVSPost2010Prop43
 90
        3
102
RTVSPost2010PropOp43
 70
     1
102
RTVSPost2010Prop44ColorIndex
 90
        5
102
RTVSPost2010Prop44ColorRGB
 90
      255
102
RTVSPost2010PropOp44
 70
     1
102
RTVSPost2010Prop45
280
     0
102
RTVSPost2010PropOp45
 70
     1
102
RTVSPost2010Prop46
 90
       50
102
RTVSPost2010PropOp46
 70
     1
102
RTVSPost2010Prop47
 90
       50
102
RTVSPost2010PropOp47
 70
     1
102
RTVSPost2010Prop48
 90
       50
102
RTVSPost2010PropOp48
 70
     1
102
RTVSPost2010Prop49
280
     0
102
RTVSPost2010PropOp49
 70
     1
102
RTVSPost2010Prop50
 90
       50
102
RTVSPost2010PropOp50
 70
     1
102
RTVSPost2010Prop51ColorIndex
 90
      256
102
RTVSPost2010Prop51ColorRGB
 90
-16777216
102
RTVSPost2010PropOp51
 70
     0
102
RTVSPost2010Prop52
140
1.0
102
RTVSPost2010PropOp52
 70
     0
102
RTVSPost2010Prop53
 90
        2
102
RTVSPost2010PropOp53
 70
     1
102
RTVSPost2010Prop54
  1
strokes_ogs.tif
102
RTVSPost2010PropOp54
 70
     1
102
RTVSPost2010Prop55
280
     0
102
RTVSPost2010PropOp55
 70
     1
102
RTVSPost2010Prop56
140
1.0
102
RTVSPost2010PropOp56
 70
     1
102
RTVSPost2010Prop57
140
1.0
102
RTVSPost2010PropOp57
 70
     1
  0
XRECORD
  5
89A
102
{ACAD_REACTORS
330
899
102
}
330
899
100
AcDbXrecord
280
     1
102
RTVSPost2010Prop28
280
     0
102
RTVSPost2010PropOp28
 70
     1
102
RTVSPost2010Prop29
280
     1
102
RTVSPost2010PropOp29
 70
     1
102
RTVSPost2010Prop30
280
     1
102
RTVSPost2010PropOp30
 70
     1
102
RTVSPost2010Prop31
280
     0
102
RTVSPost2010PropOp31
 70
     1
102
RTVSPost2010Prop32
280
     0
102
RTVSPost2010PropOp32
 70
     1
102
RTVSPost2010Prop33
280
     0
102
RTVSPost2010PropOp33
 70
     1
102
RTVSPost2010Prop34
280
     0
102
RTVSPost2010PropOp34
 70
     1
102
RTVSPost2010Prop35
280
     0
102
RTVSPost2010PropOp35
 70
     1
102
RTVSPost2010Prop36
280
     0
102
RTVSPost2010PropOp36
 70
     1
102
RTVSPost2010Prop37
 90
       50
102
RTVSPost2010PropOp37
 70
     1
102
RTVSPost2010Prop38
140
0.0
102
RTVSPost2010PropOp38
 70
     1
102
RTVSPost2010Prop39
140
1.0
102
RTVSPost2010PropOp39
 70
     1
102
RTVSPost2010Prop40
 90
        0
102
RTVSPost2010PropOp40
 70
     1
102
RTVSPost2010Prop41ColorIndex
 90
       18
102
RTVSPost2010Prop41ColorRGB
 90
        0
102
RTVSPost2010PropOp41
 70
     1
102
RTVSPost2010Prop42
 90
       50
102
RTVSPost2010PropOp42
 70
     1
102
RTVSPost2010Prop43
 90
        3
102
RTVSPost2010PropOp43
 70
     1
102
RTVSPost2010Prop44ColorIndex
 90
        5
102
RTVSPost2010Prop44ColorRGB
 90
      255
102
RTVSPost2010PropOp44
 70
     1
102
RTVSPost2010Prop45
280
     0
102
RTVSPost2010PropOp45
 70
     1
102
RTVSPost2010Prop46
 90
       50
102
RTVSPost2010PropOp46
 70
     1
102
RTVSPost2010Prop47
 90
       50
102
RTVSPost2010PropOp47
 70
     1
102
RTVSPost2010Prop48
 90
       50
102
RTVSPost2010PropOp48
 70
     1
102
RTVSPost2010Prop49
280
     0
102
RTVSPost2010PropOp49
 70
     1
102
RTVSPost2010Prop50
 90
       50
102
RTVSPost2010PropOp50
 70
     1
102
RTVSPost2010Prop51ColorIndex
 90
      256
102
RTVSPost2010Prop51ColorRGB
 90
-16777216
102
RTVSPost2010PropOp51
 70
     0
102
RTVSPost2010Prop52
140
1.0
102
RTVSPost2010PropOp52
 70
     0
102
RTVSPost2010Prop53
 90
        2
102
RTVSPost2010PropOp53
 70
     1
102
RTVSPost2010Prop54
  1
strokes_ogs.tif
102
RTVSPost2010PropOp54
 70
     1
102
RTVSPost2010Prop55
280
     0
102
RTVSPost2010PropOp55
 70
     1
102
RTVSPost2010Prop56
140
1.0
102
RTVSPost2010PropOp56
 70
     1
102
RTVSPost2010Prop57
140
1.0
102
RTVSPost2010PropOp57
 70
     1
  0
ENDSEC
  0
EOF
