  0
SECTION
  2
HEADER
  9
$ACADVER
  1
AC1024
  9
$ACADMAINTVER
 70
   225
  9
$DWGCODEPAGE
  3
ANSI_932
  9
$LASTSAVEDBY
  1
takanashi
  9
$INSBASE
 10
0.0
 20
0.0
 30
0.0
  9
$EXTMIN
 10
19.9694844009
 20
9.997285330199247
 30
-0.0000000000034581
  9
$EXTMAX
 10
800.0354022998775
 20
560.0291761481542
 30
0.0000000000041104
  9
$LIMMIN
 10
0.0
 20
0.0
  9
$LIMMAX
 10
840.0
 20
594.0
  9
$ORTHOMODE
 70
     0
  9
$REGENMODE
 70
     1
  9
$FILLMODE
 70
     1
  9
$QTEXTMODE
 70
     0
  9
$MIRRTEXT
 70
     1
  9
$LTSCALE
 40
1.0
  9
$ATTMODE
 70
     1
  9
$TEXTSIZE
 40
5.0
  9
$TRACEWID
 40
1.0
  9
$TEXTSTYLE
  7
STANDARD
  9
$CLAYER
  8
0
  9
$CELTYPE
  6
BYLAYER
  9
$CECOLOR
 62
   256
  9
$CELTSCALE
 40
1.0
  9
$DISPSILH
 70
     0
  9
$DIMSCALE
 40
1.0
  9
$DIMASZ
 40
1.5
  9
$DIMEXO
 40
5.0
  9
$DIMDLI
 40
3.75
  9
$DIMRND
 40
0.0
  9
$DIMDLE
 40
0.0
  9
$DIMEXE
 40
0.0
  9
$DIMTP
 40
0.0
  9
$DIMTM
 40
0.0
  9
$DIMTXT
 40
5.0
  9
$DIMCEN
 40
2.5
  9
$DIMTSZ
 40
0.0
  9
$DIMTOL
 70
     0
  9
$DIMLIM
 70
     0
  9
$DIMTIH
 70
     0
  9
$DIMTOH
 70
     0
  9
$DIMSE1
 70
     0
  9
$DIMSE2
 70
     0
  9
$DIMTAD
 70
     1
  9
$DIMZIN
 70
     8
  9
$DIMBLK
  1
DotBlank
  9
$DIMASO
 70
     1
  9
$DIMSHO
 70
     1
  9
$DIMPOST
  1

  9
$DIMAPOST
  1

  9
$DIMALT
 70
     0
  9
$DIMALTD
 70
     2
  9
$DIMALTF
 40
25.4
  9
$DIMLFAC
 40
1.0
  9
$DIMTOFL
 70
     1
  9
$DIMTVP
 40
0.0
  9
$DIMTIX
 70
     0
  9
$DIMSOXD
 70
     0
  9
$DIMSAH
 70
     0
  9
$DIMBLK1
  1

  9
$DIMBLK2
  1

  9
$DIMSTYLE
  2
STANDARD
  9
$DIMCLRD
 70
     0
  9
$DIMCLRE
 70
     0
  9
$DIMCLRT
 70
     0
  9
$DIMTFAC
 40
1.0
  9
$DIMGAP
 40
0.625
  9
$DIMJUST
 70
     0
  9
$DIMSD1
 70
     0
  9
$DIMSD2
 70
     0
  9
$DIMTOLJ
 70
     1
  9
$DIMTZIN
 70
     0
  9
$DIMALTZ
 70
     0
  9
$DIMALTTZ
 70
     0
  9
$DIMUPT
 70
     0
  9
$DIMDEC
 70
     4
  9
$DIMTDEC
 70
     4
  9
$DIMALTU
 70
     2
  9
$DIMALTTD
 70
     2
  9
$DIMTXSTY
  7
STANDARD
  9
$DIMAUNIT
 70
     0
  9
$DIMADEC
 70
     0
  9
$DIMALTRND
 40
0.0
  9
$DIMAZIN
 70
     0
  9
$DIMDSEP
 70
    46
  9
$DIMATFIT
 70
     3
  9
$DIMFRAC
 70
     0
  9
$DIMLDRBLK
  1

  9
$DIMLUNIT
 70
     2
  9
$DIMLWD
 70
    -2
  9
$DIMLWE
 70
    -2
  9
$DIMTMOVE
 70
     0
  9
$DIMFXL
 40
1.0
  9
$DIMFXLON
 70
     0
  9
$DIMJOGANG
 40
0.7853981633974483
  9
$DIMTFILL
 70
     0
  9
$DIMTFILLCLR
 70
     0
  9
$DIMARCSYM
 70
     0
  9
$DIMLTYPE
  6

  9
$DIMLTEX1
  6

  9
$DIMLTEX2
  6

  9
$DIMTXTDIRECTION
 70
     0
  9
$LUNITS
 70
     2
  9
$LUPREC
 70
     4
  9
$SKETCHINC
 40
1.0
  9
$FILLETRAD
 40
3.0
  9
$AUNITS
 70
     0
  9
$AUPREC
 70
     1
  9
$MENU
  1
.
  9
$ELEVATION
 40
0.0
  9
$PELEVATION
 40
0.0
  9
$THICKNESS
 40
0.0
  9
$LIMCHECK
 70
     0
  9
$CHAMFERA
 40
10.0
  9
$CHAMFERB
 40
10.0
  9
$CHAMFERC
 40
20.0
  9
$CHAMFERD
 40
0.0
  9
$SKPOLY
 70
     0
  9
$TDCREATE
 40
2450431.623194444
  9
$TDUCREATE
 40
2450431.248202778
  9
$TDUPDATE
 40
2458822.397766204
  9
$TDUUPDATE
 40
2458822.022766204
  9
$TDINDWG
 40
1.6465610880
  9
$TDUSRTIMER
 40
1.6465607639
  9
$USRTIMER
 70
     1
  9
$ANGBASE
 50
0.0
  9
$ANGDIR
 70
     0
  9
$PDMODE
 70
     0
  9
$PDSIZE
 40
0.0
  9
$PLINEWID
 40
0.0
  9
$SPLFRAME
 70
     0
  9
$SPLINETYPE
 70
     6
  9
$SPLINESEGS
 70
     8
  9
$HANDSEED
  5
5E1B
  9
$SURFTAB1
 70
     6
  9
$SURFTAB2
 70
     6
  9
$SURFTYPE
 70
     6
  9
$SURFU
 70
     6
  9
$SURFV
 70
     6
  9
$UCSBASE
  2

  9
$UCSNAME
  2

  9
$UCSORG
 10
0.0
 20
0.0
 30
0.0
  9
$UCSXDIR
 10
1.0
 20
0.0
 30
0.0
  9
$UCSYDIR
 10
0.0
 20
1.0
 30
0.0
  9
$UCSORTHOREF
  2

  9
$UCSORTHOVIEW
 70
     1
  9
$UCSORGTOP
 10
0.0
 20
0.0
 30
0.0
  9
$UCSORGBOTTOM
 10
0.0
 20
0.0
 30
0.0
  9
$UCSORGLEFT
 10
0.0
 20
0.0
 30
0.0
  9
$UCSORGRIGHT
 10
0.0
 20
0.0
 30
0.0
  9
$UCSORGFRONT
 10
0.0
 20
0.0
 30
0.0
  9
$UCSORGBACK
 10
0.0
 20
0.0
 30
0.0
  9
$PUCSBASE
  2

  9
$PUCSNAME
  2

  9
$PUCSORG
 10
0.0
 20
0.0
 30
0.0
  9
$PUCSXDIR
 10
1.0
 20
0.0
 30
0.0
  9
$PUCSYDIR
 10
0.0
 20
1.0
 30
0.0
  9
$PUCSORTHOREF
  2

  9
$PUCSORTHOVIEW
 70
     0
  9
$PUCSORGTOP
 10
0.0
 20
0.0
 30
0.0
  9
$PUCSORGBOTTOM
 10
0.0
 20
0.0
 30
0.0
  9
$PUCSORGLEFT
 10
0.0
 20
0.0
 30
0.0
  9
$PUCSORGRIGHT
 10
0.0
 20
0.0
 30
0.0
  9
$PUCSORGFRONT
 10
0.0
 20
0.0
 30
0.0
  9
$PUCSORGBACK
 10
0.0
 20
0.0
 30
0.0
  9
$USERI1
 70
     0
  9
$USERI2
 70
     0
  9
$USERI3
 70
     0
  9
$USERI4
 70
     0
  9
$USERI5
 70
     0
  9
$USERR1
 40
0.0
  9
$USERR2
 40
0.0
  9
$USERR3
 40
0.0
  9
$USERR4
 40
0.0
  9
$USERR5
 40
0.0
  9
$WORLDVIEW
 70
     1
  9
$SHADEDGE
 70
     3
  9
$SHADEDIF
 70
    70
  9
$TILEMODE
 70
     1
  9
$MAXACTVP
 70
    16
  9
$PINSBASE
 10
0.0
 20
0.0
 30
0.0
  9
$PLIMCHECK
 70
     0
  9
$PEXTMIN
 10
1.000000000000000E+20
 20
1.000000000000000E+20
 30
1.000000000000000E+20
  9
$PEXTMAX
 10
-1.000000000000000E+20
 20
-1.000000000000000E+20
 30
-1.000000000000000E+20
  9
$PLIMMIN
 10
0.0
 20
0.0
  9
$PLIMMAX
 10
420.0
 20
297.0
  9
$UNITMODE
 70
     0
  9
$VISRETAIN
 70
     0
  9
$PLINEGEN
 70
     0
  9
$PSLTSCALE
 70
     1
  9
$TREEDEPTH
 70
  3020
  9
$CMLSTYLE
  2
STANDARD
  9
$CMLJUST
 70
     0
  9
$CMLSCALE
 40
1.0
  9
$PROXYGRAPHICS
 70
     1
  9
$MEASUREMENT
 70
     1
  9
$CELWEIGHT
370
    -1
  9
$ENDCAPS
280
     0
  9
$JOINSTYLE
280
     0
  9
$LWDISPLAY
290
     0
  9
$INSUNITS
 70
     0
  9
$HYPERLINKBASE
  1

  9
$STYLESHEET
  1
SCREENING 100%.CTB
  9
$XEDIT
290
     1
  9
$CEPSNTYPE
380
     0
  9
$PSTYLEMODE
290
     1
  9
$FINGERPRINTGUID
  2
{87E49A17-DA8C-4230-82A7-C569D142D783}
  9
$VERSIONGUID
  2
{8ABE7C49-2204-624D-A84D-E06CF3C8AD90}
  9
$EXTNAMES
290
     1
  9
$PSVPSCALE
 40
0.0
  9
$OLESTARTUP
290
     0
  9
$SORTENTS
280
   127
  9
$INDEXCTL
280
     0
  9
$HIDETEXT
280
     0
  9
$XCLIPFRAME
280
     2
  9
$HALOGAP
280
     0
  9
$OBSCOLOR
 70
   257
  9
$OBSLTYPE
280
     0
  9
$INTERSECTIONDISPLAY
280
     0
  9
$INTERSECTIONCOLOR
 70
   257
  9
$DIMASSOC
280
     1
  9
$PROJECTNAME
  1

  9
$CAMERADISPLAY
290
     0
  9
$LENSLENGTH
 40
50.0
  9
$CAMERAHEIGHT
 40
0.0
  9
$STEPSPERSEC
 40
2.0
  9
$STEPSIZE
 40
6.0
  9
$3DDWFPREC
 40
2.0
  9
$PSOLWIDTH
 40
0.25
  9
$PSOLHEIGHT
 40
4.0
  9
$LOFTANG1
 40
1.570796326794896
  9
$LOFTANG2
 40
1.570796326794896
  9
$LOFTMAG1
 40
0.0
  9
$LOFTMAG2
 40
0.0
  9
$LOFTPARAM
 70
     7
  9
$LOFTNORMALS
280
     1
  9
$LATITUDE
 40
37.795
  9
$LONGITUDE
 40
-122.394
  9
$NORTHDIRECTION
 40
0.0
  9
$TIMEZONE
 70
 -8000
  9
$LIGHTGLYPHDISPLAY
280
     1
  9
$TILEMODELIGHTSYNCH
280
     1
  9
$CMATERIAL
347
1832
  9
$SOLIDHIST
280
     0
  9
$SHOWHIST
280
     1
  9
$DWFFRAME
280
     2
  9
$DGNFRAME
280
     0
  9
$REALWORLDSCALE
290
     1
  9
$INTERFERECOLOR
 62
     1
  9
$INTERFEREOBJVS
345
183F
  9
$INTERFEREVPVS
346
244C
  9
$CSHADOW
280
     0
  9
$SHADOWPLANELOCATION
 40
0.0
  0
ENDSEC
  0
SECTION
  2
CLASSES
  0
CLASS
  1
ACDBDICTIONARYWDFLT
  2
AcDbDictionaryWithDefault
  3
ObjectDBX Classes
 90
        0
 91
        1
280
     0
281
     0
  0
CLASS
  1
DICTIONARYVAR
  2
AcDbDictionaryVar
  3
ObjectDBX Classes
 90
        0
 91
       14
280
     0
281
     0
  0
CLASS
  1
MATERIAL
  2
AcDbMaterial
  3
ObjectDBX Classes
 90
     1153
 91
        3
280
     0
281
     0
  0
CLASS
  1
VISUALSTYLE
  2
AcDbVisualStyle
  3
ObjectDBX Classes
 90
     4095
 91
       26
280
     0
281
     0
  0
CLASS
  1
TABLESTYLE
  2
AcDbTableStyle
  3
ObjectDBX Classes
 90
     4095
 91
        1
280
     0
281
     0
  0
CLASS
  1
SORTENTSTABLE
  2
AcDbSortentsTable
  3
ObjectDBX Classes
 90
        0
 91
        1
280
     0
281
     0
  0
CLASS
  1
SCALE
  2
AcDbScale
  3
ObjectDBX Classes
 90
     1153
 91
       17
280
     0
281
     0
  0
CLASS
  1
MLEADERSTYLE
  2
AcDbMLeaderStyle
  3
ACDB_MLEADERSTYLE_CLASS
 90
     4095
 91
        1
280
     0
281
     0
  0
CLASS
  1
MULTILEADER
  2
AcDbMLeader
  3
ACDB_MLEADER_CLASS
 90
     1025
 91
        9
280
     0
281
     1
  0
CLASS
  1
CELLSTYLEMAP
  2
AcDbCellStyleMap
  3
ObjectDBX Classes
 90
     1152
 91
        2
280
     0
281
     0
  0
CLASS
  1
ACDBSECTIONVIEWSTYLE
  2
AcDbSectionViewStyle
  3
ObjectDBX Classes
 90
     1025
 91
        1
280
     0
281
     0
  0
CLASS
  1
ACDBDETAILVIEWSTYLE
  2
AcDbDetailViewStyle
  3
ObjectDBX Classes
 90
     1025
 91
        1
280
     0
281
     0
  0
CLASS
  1
DIMASSOC
  2
AcDbDimAssoc
  3
"AcDbDimAssoc|Product Desc:     AcDim ARX App For Dimension|Company:          Autodesk, Inc.|WEB Address:      www.autodesk.com"
 90
        0
 91
        0
280
     0
281
     0
  0
ENDSEC
  0
SECTION
  2
TABLES
  0
TABLE
  2
VPORT
  5
8
102
{ACAD_XDICTIONARY
360
223F
102
}
330
0
100
AcDbSymbolTable
 70
     1
  0
VPORT
  5
244A
330
8
100
AcDbSymbolTableRecord
100
AcDbViewportTableRecord
  2
*Active
 70
     0
 10
0.0
 20
0.0
 11
1.0
 21
1.0
 12
420.0000000000001
 22
297.0
 13
0.0
 23
0.0
 14
5.0
 24
5.0
 15
10.0
 25
10.0
 16
0.0
 26
0.0
 36
1.0
 17
0.0
 27
0.0
 37
0.0
 40
598.1684210526316
 41
1.84192037470726
 42
50.0
 43
0.0
 44
0.0
 50
0.0
 51
0.0
 71
     0
 72
   100
 73
     1
 74
     0
 75
     0
 76
     0
 77
     0
 78
     0
281
     0
 65
     1
110
0.0
120
0.0
130
0.0
111
1.0
121
0.0
131
0.0
112
0.0
122
1.0
132
0.0
 79
     0
146
0.0
348
183B
 60
     3
 61
     5
292
     1
282
     1
141
0.0
142
0.0
 63
   250
421
  3355443
1001
ACAD_NAV_VCDISPLAY
1070
     3
  0
ENDTAB
  0
TABLE
  2
LTYPE
  5
5
330
0
100
AcDbSymbolTable
 70
     3
  0
LTYPE
  5
14
330
5
100
AcDbSymbolTableRecord
100
AcDbLinetypeTableRecord
  2
BYBLOCK
 70
     0
  3

 72
    65
 73
     0
 40
0.0
  0
LTYPE
  5
15
330
5
100
AcDbSymbolTableRecord
100
AcDbLinetypeTableRecord
  2
BYLAYER
 70
     0
  3

 72
    65
 73
     0
 40
0.0
  0
LTYPE
  5
16
330
5
100
AcDbSymbolTableRecord
100
AcDbLinetypeTableRecord
  2
CONTINUOUS
 70
     0
  3
Solid line
 72
    65
 73
     0
 40
0.0
  0
LTYPE
  5
E7E
330
5
100
AcDbSymbolTableRecord
100
AcDbLinetypeTableRecord
  2
DASHED2
 70
     0
  3
Dashed (.5x) _ _ _ _ _ _ _ _ _ _ _ _ _ _ _ _ _
 72
    65
 73
     2
 40
9.524999999999996
 49
6.349999999999997
 74
     0
 49
-3.174999999999998
 74
     0
  0
LTYPE
  5
1514
330
5
100
AcDbSymbolTableRecord
100
AcDbLinetypeTableRecord
  2
CENTER2
 70
     0
  3
Center (.5x) ___ _ ___ _ ___ _ ___ _ ___ _ ___
 72
    65
 73
     4
 40
28.57499999999999
 49
19.05
 74
     0
 49
-3.174999999999998
 74
     0
 49
3.174999999999998
 74
     0
 49
-3.174999999999998
 74
     0
  0
ENDTAB
  0
TABLE
  2
LAYER
  5
2
102
{ACAD_XDICTIONARY
360
1884
102
}
330
0
100
AcDbSymbolTable
 70
    13
  0
LAYER
  5
F
102
{ACAD_XDICTIONARY
360
24B7
102
}
330
2
100
AcDbSymbolTableRecord
100
AcDbLayerTableRecord
  2
0
 70
     0
 62
     7
  6
CONTINUOUS
370
    -3
390
3AE
347
1834
  0
LAYER
  5
87
102
{ACAD_XDICTIONARY
360
24B9
102
}
330
2
100
AcDbSymbolTableRecord
100
AcDbLayerTableRecord
  2
WAKU
 70
     0
 62
     7
  6
CONTINUOUS
370
    -3
390
3AE
347
1834
  0
LAYER
  5
9C
330
2
100
AcDbSymbolTableRecord
100
AcDbLayerTableRecord
  2
DEFPOINTS
 70
     0
 62
     7
  6
CONTINUOUS
290
     0
370
    -3
390
3AE
347
1834
  0
LAYER
  5
1515
102
{ACAD_XDICTIONARY
360
24BB
102
}
330
2
100
AcDbSymbolTableRecord
100
AcDbLayerTableRecord
  2
SUTEITA
 70
     0
 62
     1
  6
CONTINUOUS
370
    -3
390
3AE
347
1834
  0
LAYER
  5
1516
102
{ACAD_XDICTIONARY
360
24BD
102
}
330
2
100
AcDbSymbolTableRecord
100
AcDbLayerTableRecord
  2
SEIHIN
 70
     0
 62
     4
  6
CONTINUOUS
370
    -3
390
3AE
347
1834
  0
LAYER
  5
1517
102
{ACAD_XDICTIONARY
360
24BF
102
}
330
2
100
AcDbSymbolTableRecord
100
AcDbLayerTableRecord
  2
SITAJI
 70
     0
 62
     7
  6
CONTINUOUS
370
    -3
390
3AE
347
1834
  0
LAYER
  5
1518
102
{ACAD_XDICTIONARY
360
24C1
102
}
330
2
100
AcDbSymbolTableRecord
100
AcDbLayerTableRecord
  2
TEKUSU
 70
     0
 62
     7
  6
CONTINUOUS
370
    -3
390
3AE
347
1834
  0
LAYER
  5
1519
102
{ACAD_XDICTIONARY
360
24C3
102
}
330
2
100
AcDbSymbolTableRecord
100
AcDbLayerTableRecord
  2
SEALING
 70
     0
 62
     7
  6
CONTINUOUS
370
     9
390
3AE
347
1834
  0
LAYER
  5
151A
102
{ACAD_XDICTIONARY
360
24C5
102
}
330
2
100
AcDbSymbolTableRecord
100
AcDbLayerTableRecord
  2
SUNPOU
 70
     0
 62
     7
  6
CONTINUOUS
370
     5
390
3AE
347
1834
  0
LAYER
  5
151B
102
{ACAD_XDICTIONARY
360
24C7
102
}
330
2
100
AcDbSymbolTableRecord
100
AcDbLayerTableRecord
  2
HIKIDASI
 70
     0
 62
     7
  6
CONTINUOUS
370
     5
390
3AE
347
1834
  0
LAYER
  5
151C
102
{ACAD_XDICTIONARY
360
24C9
102
}
330
2
100
AcDbSymbolTableRecord
100
AcDbLayerTableRecord
  2
KASAGI
 70
     0
 62
     7
  6
CONTINUOUS
370
    -3
390
3AE
347
1834
  0
LAYER
  5
290E
102
{ACAD_XDICTIONARY
360
290F
102
}
330
2
100
AcDbSymbolTableRecord
100
AcDbLayerTableRecord
  2
PACKING
 70
     0
 62
     7
  6
CONTINUOUS
370
     9
390
3AE
347
1834
  0
LAYER
  5
3798
102
{ACAD_XDICTIONARY
360
3799
102
}
330
2
100
AcDbSymbolTableRecord
100
AcDbLayerTableRecord
  2
YAKUMONO
 70
     0
 62
     1
  6
CONTINUOUS
370
    -3
390
3AE
347
1834
  0
ENDTAB
  0
TABLE
  2
STYLE
  5
3
330
0
100
AcDbSymbolTable
 70
     2
  0
STYLE
  5
10
330
3
100
AcDbSymbolTableRecord
100
AcDbTextStyleTableRecord
  2
STANDARD
 70
     0
 40
5.0
 41
1.0
 50
0.0
 71
     0
 42
5.0
  3
txt.shx
  4
extfont.shx
  0
STYLE
  5
EA1
330
3
100
AcDbSymbolTableRecord
100
AcDbTextStyleTableRecord
  2
WAKU
 70
     0
 40
5.0
 41
1.0
 50
0.0
 71
     0
 42
5.0
  3

  4

1001
ACAD
1000
MS Gothic
1071
    32817
  0
ENDTAB
  0
TABLE
  2
VIEW
  5
6
330
0
100
AcDbSymbolTable
 70
     1
  0
ENDTAB
  0
TABLE
  2
UCS
  5
7
330
0
100
AcDbSymbolTable
 70
     0
  0
ENDTAB
  0
TABLE
  2
APPID
  5
9
330
0
100
AcDbSymbolTable
 70
    11
  0
APPID
  5
11
330
9
100
AcDbSymbolTableRecord
100
AcDbRegAppTableRecord
  2
ACAD
 70
     0
  0
APPID
  5
1883
330
9
100
AcDbSymbolTableRecord
100
AcDbRegAppTableRecord
  2
ACAD_PSEXT
 70
     0
  0
APPID
  5
189E
330
9
100
AcDbSymbolTableRecord
100
AcDbRegAppTableRecord
  2
GENIUS_GENODEF_13
 70
     0
  0
APPID
  5
189F
330
9
100
AcDbSymbolTableRecord
100
AcDbRegAppTableRecord
  2
GENIUS_GENOBJ-N-FIL_13
 70
     0
  0
APPID
  5
2473
330
9
100
AcDbSymbolTableRecord
100
AcDbRegAppTableRecord
  2
ACAD_EXEMPT_FROM_CAD_STANDARDS
 70
     0
  0
APPID
  5
24A1
330
9
100
AcDbSymbolTableRecord
100
AcDbRegAppTableRecord
  2
ACAD_NAV_VCDISPLAY
 70
     0
  0
APPID
  5
2574
330
9
100
AcDbSymbolTableRecord
100
AcDbRegAppTableRecord
  2
ACAD_MLEADERVER
 70
     0
  0
APPID
  5
2751
330
9
100
AcDbSymbolTableRecord
100
AcDbRegAppTableRecord
  2
GradientColor1ACI
 70
     0
  0
APPID
  5
2752
330
9
100
AcDbSymbolTableRecord
100
AcDbRegAppTableRecord
  2
GradientColor2ACI
 70
     0
  0
APPID
  5
2A3C
330
9
100
AcDbSymbolTableRecord
100
AcDbRegAppTableRecord
  2
AcAecLayerStandard
 70
     0
  0
APPID
  5
2D9C
330
9
100
AcDbSymbolTableRecord
100
AcDbRegAppTableRecord
  2
AcCmTransparency
 70
     0
  0
ENDTAB
  0
TABLE
  2
DIMSTYLE
  5
A
330
0
100
AcDbSymbolTable
 70
     2
100
AcDbDimStyleTable
 71
     1
340
1D
  0
DIMSTYLE
105
1D
102
{ACAD_REACTORS
330
3E44
330
3E45
330
3E89
330
3E8A
102
}
330
A
100
AcDbSymbolTableRecord
100
AcDbDimStyleTableRecord
  2
STANDARD
 70
     0
 41
1.5
 42
5.0
 43
3.75
 44
0.0
 73
     0
 74
     0
 77
     1
 78
     8
140
5.0
141
2.5
147
0.625
172
     1
340
10
341
B0
342
14C3
  0
DIMSTYLE
105
3C9A
330
A
100
AcDbSymbolTableRecord
100
AcDbDimStyleTableRecord
  2
ISO-25
 70
     0
 41
2.5
 42
0.625
 43
3.75
 44
1.25
 73
     0
 74
     0
 77
     1
 78
     8
140
2.5
141
2.5
143
0.03937007874016
147
0.625
171
     3
172
     1
271
     2
272
     2
274
     3
278
    44
283
     0
284
     8
340
10
  0
ENDTAB
  0
TABLE
  2
BLOCK_RECORD
  5
1
330
0
100
AcDbSymbolTable
 70
     7
  0
BLOCK_RECORD
  5
1A
102
{ACAD_XDICTIONARY
360
1F05
102
}
330
1
100
AcDbSymbolTableRecord
100
AcDbBlockTableRecord
  2
*MODEL_SPACE
340
3B3
 70
     0
280
     1
281
     0
  0
BLOCK_RECORD
  5
17
330
1
100
AcDbSymbolTableRecord
100
AcDbBlockTableRecord
  2
*PAPER_SPACE
340
3B4
 70
     0
280
     1
281
     0
  0
BLOCK_RECORD
  5
B0
330
1
100
AcDbSymbolTableRecord
100
AcDbBlockTableRecord
  2
_NONE
340
0
 70
     0
280
     1
281
     0
  0
BLOCK_RECORD
  5
E1F
330
1
100
AcDbSymbolTableRecord
100
AcDbBlockTableRecord
  2
IGロゴ
340
0
 70
     0
280
     1
281
     0
  0
BLOCK_RECORD
  5
14C3
330
1
100
AcDbSymbolTableRecord
100
AcDbBlockTableRecord
  2
_DotBlank
340
0
102
{BLKREFS
331
406A
331
406B
331
4085
331
4086
331
543F
331
5440
331
5475
331
5476
102
}
 70
     0
280
     1
281
     0
  0
BLOCK_RECORD
  5
3FDF
330
1
100
AcDbSymbolTableRecord
100
AcDbBlockTableRecord
  2
*D3
340
0
 70
     0
280
     1
281
     0
  0
BLOCK_RECORD
  5
3FEB
330
1
100
AcDbSymbolTableRecord
100
AcDbBlockTableRecord
  2
*D4
340
0
 70
     0
280
     1
281
     0
  0
BLOCK_RECORD
  5
3FF7
330
1
100
AcDbSymbolTableRecord
100
AcDbBlockTableRecord
  2
*D5
340
0
 70
     0
280
     1
281
     0
  0
BLOCK_RECORD
  5
4003
330
1
100
AcDbSymbolTableRecord
100
AcDbBlockTableRecord
  2
*D6
340
0
 70
     0
280
     1
281
     0
  0
ENDTAB
  0
ENDSEC
  0
SECTION
  2
BLOCKS
  0
BLOCK
  5
1B
330
1A
100
AcDbEntity
  8
0
100
AcDbBlockBegin
  2
*MODEL_SPACE
 70
     0
 10
0.0
 20
0.0
 30
0.0
  3
*MODEL_SPACE
  1

  0
ENDBLK
  5
1C
330
1A
100
AcDbEntity
  8
0
100
AcDbBlockEnd
  0
BLOCK
  5
18
330
17
100
AcDbEntity
 67
     1
  8
0
100
AcDbBlockBegin
  2
*PAPER_SPACE
 70
     0
 10
0.0
 20
0.0
 30
0.0
  3
*PAPER_SPACE
  1

  0
ENDBLK
  5
19
330
17
100
AcDbEntity
 67
     1
  8
0
100
AcDbBlockEnd
  0
BLOCK
  5
B1
330
B0
100
AcDbEntity
  8
0
100
AcDbBlockBegin
  2
_NONE
 70
     0
 10
0.0
 20
0.0
 30
0.0
  3
_NONE
  1

  0
CIRCLE
  5
B2
330
B0
100
AcDbEntity
  8
0
  6
ByBlock
 62
     0
100
AcDbCircle
 10
0.0
 20
0.0
 30
0.0
 40
0.25
  0
ENDBLK
  5
B3
330
B0
100
AcDbEntity
  8
0
100
AcDbBlockEnd
  0
BLOCK
  5
E20
330
E1F
100
AcDbEntity
  8
0
100
AcDbBlockBegin
  2
IGロゴ
 70
     0
 10
0.0
 20
0.0
 30
0.0
  3
IGロゴ
  1

  0
CIRCLE
  5
E21
330
E1F
100
AcDbEntity
  8
WAKU
100
AcDbCircle
 10
-7.133294257549736
 20
40.74217652150603
 30
0.0
 40
0.8702311197916666
  0
POLYLINE
  5
E22
330
E1F
100
AcDbEntity
  8
WAKU
100
AcDb2dPolyline
 66
     1
 10
0.0
 20
0.0
 30
0.0
 70
     1
  0
VERTEX
  5
E23
330
E22
100
AcDbEntity
  8
WAKU
100
AcDbVertex
100
AcDb2dVertex
 10
-6.558996840015013
 20
36.03789863522132
 30
0.0
  0
VERTEX
  5
E24
330
E22
100
AcDbEntity
  8
WAKU
100
AcDbVertex
100
AcDb2dVertex
 10
-7.774082017966402
 20
36.03789863522132
 30
0.0
  0
VERTEX
  5
E25
330
E22
100
AcDbEntity
  8
WAKU
100
AcDbVertex
100
AcDb2dVertex
 10
-7.774082017966402
 20
38.72059449025604
 30
0.0
  0
VERTEX
  5
E26
330
E22
100
AcDbEntity
  8
WAKU
100
AcDbVertex
100
AcDb2dVertex
 10
-6.558996840015013
 20
38.72059449025604
 30
0.0
  0
SEQEND
  5
E27
330
E22
100
AcDbEntity
  8
WAKU
  0
SPLINE
  5
E28
330
E1F
100
AcDbEntity
  8
WAKU
100
AcDbSpline
210
0.0
220
0.0
230
1.0
 70
     9
 71
     3
 72
    56
 73
    52
 74
     0
 42
0.000000001
 43
0.0000000001
 40
0.0
 40
0.0
 40
0.0
 40
0.0
 40
1.0
 40
1.0
 40
1.0
 40
2.0
 40
2.0
 40
2.0
 40
3.0
 40
3.0
 40
3.0
 40
4.0
 40
4.0
 40
4.0
 40
5.0
 40
5.0
 40
5.0
 40
6.0
 40
6.0
 40
6.0
 40
7.0
 40
7.0
 40
7.0
 40
8.0
 40
8.0
 40
8.0
 40
9.0
 40
9.0
 40
9.0
 40
10.0
 40
10.0
 40
10.0
 40
11.0
 40
11.0
 40
11.0
 40
12.0
 40
12.0
 40
12.0
 40
13.0
 40
13.0
 40
13.0
 40
14.0
 40
14.0
 40
14.0
 40
15.0
 40
15.0
 40
15.0
 40
16.0
 40
16.0
 40
16.0
 40
17.0
 40
17.0
 40
17.0
 40
17.0
 10
-3.33025335043168
 20
41.50009752845046
 30
0.0
 10
-3.33025335043168
 20
41.50009752845046
 30
0.0
 10
-3.254805759285846
 20
41.50698771942269
 30
0.0
 10
-3.254805759285846
 20
41.50698771942269
 30
0.0
 10
-3.014682603903903
 20
41.57795668643657
 30
0.0
 10
-2.824513333070568
 20
41.68785523244353
 30
0.0
 10
-2.840016262758068
 20
42.06302613088103
 30
0.0
 10
-2.853107625605291
 20
42.38342001108935
 30
0.0
 10
-3.100120971959456
 20
42.65248196855464
 30
0.0
 10
-3.420170342619181
 20
42.65248196855464
 30
0.0
 10
-3.420170342619181
 20
42.65248196855464
 30
0.0
 10
-7.55359590685529
 20
42.652137459006
 30
0.0
 10
-7.55359590685529
 20
42.652137459006
 30
0.0
 10
-8.404534491924735
 20
42.68383233747825
 30
0.0
 10
-8.989167195917787
 20
42.06509318817269
 30
0.0
 10
-8.989167195917787
 20
41.3305988305338
 30
0.0
 10
-8.989167195917787
 20
40.88411445553381
 30
0.0
 10
-8.740431301820567
 20
40.46932495900603
 30
0.0
 10
-8.381796861716402
 20
40.22816827497825
 30
0.0
 10
-8.381796861716402
 20
40.22816827497825
 30
0.0
 10
-8.354925116924736
 20
40.20715319251297
 30
0.0
 10
-8.354925116924736
 20
40.20715319251297
 30
0.0
 10
-8.607450616056681
 20
40.05798055796435
 30
0.0
 10
-8.748355021438625
 20
39.8075221161241
 30
0.0
 10
-8.771781670744179
 20
39.50090861786021
 30
0.0
 10
-8.794863810501125
 20
39.19601766733936
 30
0.0
 10
-8.621230998001124
 20
38.83669420813798
 30
0.0
 10
-8.330464938973346
 20
38.69854587914492
 30
0.0
 10
-8.330464938973346
 20
38.69854587914492
 30
0.0
 10
-8.350446492792791
 20
38.68407647810325
 30
0.0
 10
-8.350446492792791
 20
38.68407647810325
 30
0.0
 10
-9.024996188973343
 20
38.26515286699215
 30
0.0
 10
-9.494562703730293
 20
37.59198120900604
 30
0.0
 10
-9.243070733244179
 20
36.46681302324215
 30
0.0
 10
-9.13076062039696
 20
35.96176202497826
 30
0.0
 10
-8.617441392966401
 20
35.58314603105465
 30
0.0
 10
-8.290501831334458
 20
35.41468086178382
 30
0.0
 10
-7.829203545744178
 20
35.17765829233937
 30
0.0
 10
-6.996523966751125
 20
35.05983602671437
 30
0.0
 10
-6.482860229771957
 20
35.04467760657548
 30
0.0
 10
-6.482860229771957
 20
35.04467760657548
 30
0.0
 10
-3.647891154251123
 20
34.73668607011715
 30
0.0
 10
-3.247571058765013
 20
36.70865872636714
 30
0.0
 10
-2.847250963278903
 20
38.68028687306853
 30
0.0
 10
-4.534658732376124
 20
39.39479967688798
 30
0.0
 10
-4.775126397306681
 20
39.40513496334631
 30
0.0
 10
-5.015594062237235
 20
39.41478123070742
 30
0.0
 10
-3.57830022543168
 20
39.8912379364366
 30
0.0
 10
-3.738497165535846
 20
41.33438843556853
 30
0.0
 10
-3.738497165535846
 20
41.33438843556853
 30
0.0
 10
-3.640656453730291
 20
41.4573783444227
 30
0.0
 10
-3.33025335043168
 20
41.50009752845046
 30
0.0
  0
ELLIPSE
  5
E29
330
E1F
100
AcDbEntity
  8
WAKU
100
AcDbEllipse
 10
-6.072204847827513
 20
38.96691881751298
 30
0.0
 11
-5.716791449652776
 21
-5.716791449652776
 31
0.0
210
0.0
220
0.0
230
0.9999999999999998
 40
0.7036880800289264
 41
0.0
 42
6.283185307179584
  0
POLYLINE
  5
E2A
330
E1F
100
AcDbEntity
  8
WAKU
100
AcDb2dPolyline
 66
     1
 10
0.0
 20
0.0
 30
0.0
 70
     1
  0
VERTEX
  5
E2B
330
E2A
100
AcDbEntity
  8
WAKU
100
AcDbVertex
100
AcDb2dVertex
 10
38.86320910616554
 20
39.71657159529075
 30
0.0
  0
VERTEX
  5
E2C
330
E2A
100
AcDbEntity
  8
WAKU
100
AcDbVertex
100
AcDb2dVertex
 10
38.86320910616554
 20
38.31097263695742
 30
0.0
  0
VERTEX
  5
E2D
330
E2A
100
AcDbEntity
  8
WAKU
100
AcDbVertex
100
AcDb2dVertex
 10
31.17513401935998
 20
38.31097263695742
 30
0.0
  0
VERTEX
  5
E2E
330
E2A
100
AcDbEntity
  8
WAKU
100
AcDbVertex
100
AcDb2dVertex
 10
31.17513401935998
 20
39.71657159529075
 30
0.0
  0
SEQEND
  5
E2F
330
E2A
100
AcDbEntity
  8
WAKU
  0
SPLINE
  5
E30
330
E1F
100
AcDbEntity
  8
WAKU
100
AcDbSpline
210
0.0
220
0.0
230
1.0
 70
     9
 71
     3
 72
    53
 73
    49
 74
     0
 42
0.000000001
 43
0.0000000001
 40
0.0
 40
0.0
 40
0.0
 40
0.0
 40
1.0
 40
1.0
 40
1.0
 40
2.0
 40
2.0
 40
2.0
 40
3.0
 40
3.0
 40
3.0
 40
4.0
 40
4.0
 40
4.0
 40
5.0
 40
5.0
 40
5.0
 40
6.0
 40
6.0
 40
6.0
 40
7.0
 40
7.0
 40
7.0
 40
8.0
 40
8.0
 40
8.0
 40
9.0
 40
9.0
 40
9.0
 40
10.0
 40
10.0
 40
10.0
 40
11.0
 40
11.0
 40
11.0
 40
12.0
 40
12.0
 40
12.0
 40
13.0
 40
13.0
 40
13.0
 40
14.0
 40
14.0
 40
14.0
 40
15.0
 40
15.0
 40
15.0
 40
16.0
 40
16.0
 40
16.0
 40
16.0
 10
92.00725207491553
 20
42.91637628279075
 30
0.0
 10
92.00725207491553
 20
42.87055651282547
 30
0.0
 10
92.00725207491553
 20
40.82899292775603
 30
0.0
 10
92.00725207491553
 20
40.82899292775603
 30
0.0
 10
92.00725207491553
 20
40.82899292775603
 30
0.0
 10
90.36945368081831
 20
40.82899292775603
 30
0.0
 10
90.32397842040165
 20
40.82899292775603
 30
0.0
 10
90.32397842040165
 20
40.78489570553379
 30
0.0
 10
90.32397842040165
 20
39.62424303626298
 30
0.0
 10
90.32397842040165
 20
39.57980130449215
 30
0.0
 10
90.36945368081831
 20
39.57980130449215
 30
0.0
 10
92.00725207491553
 20
39.57980130449215
 30
0.0
 10
92.00725207491553
 20
39.57980130449215
 30
0.0
 10
92.00725207491553
 20
39.57980130449215
 30
0.0
 10
92.00725207491553
 20
36.45303264129771
 30
0.0
 10
92.00725207491553
 20
36.45303264129771
 30
0.0
 10
92.00725207491553
 20
36.45303264129771
 30
0.0
 10
89.91194500026276
 20
36.45303264129771
 30
0.0
 10
89.86646973984608
 20
36.45303264129771
 30
0.0
 10
89.86646973984608
 20
36.40893541907548
 30
0.0
 10
89.86646973984608
 20
35.26481920813797
 30
0.0
 10
89.86646973984608
 20
35.22037747636714
 30
0.0
 10
89.91228950981136
 20
35.22037747636714
 30
0.0
 10
95.3272905948808
 20
35.22037747636714
 30
0.0
 10
95.3734548743947
 20
35.22037747636714
 30
0.0
 10
95.3734548743947
 20
35.26481920813797
 30
0.0
 10
95.3734548743947
 20
36.40893541907548
 30
0.0
 10
95.3734548743947
 20
36.45303264129771
 30
0.0
 10
95.32763510442942
 20
36.45303264129771
 30
0.0
 10
93.41905220512387
 20
36.45303264129771
 30
0.0
 10
93.41905220512387
 20
36.45303264129771
 30
0.0
 10
93.41905220512387
 20
36.45303264129771
 30
0.0
 10
93.41905220512387
 20
39.57980130449215
 30
0.0
 10
93.41905220512387
 20
39.57980130449215
 30
0.0
 10
93.41905220512387
 20
39.57980130449215
 30
0.0
 10
95.18776422769331
 20
39.57980130449215
 30
0.0
 10
95.23323948810995
 20
39.57980130449215
 30
0.0
 10
95.23323948810995
 20
39.62424303626298
 30
0.0
 10
95.23323948810995
 20
40.78489570553379
 30
0.0
 10
95.23323948810995
 20
40.82899292775603
 30
0.0
 10
95.18776422769331
 20
40.82899292775603
 30
0.0
 10
93.41905220512387
 20
40.82899292775603
 30
0.0
 10
93.41905220512387
 20
40.82899292775603
 30
0.0
 10
93.41905220512387
 20
40.82899292775603
 30
0.0
 10
93.41905220512387
 20
42.87055651282547
 30
0.0
 10
93.41905220512387
 20
42.91637628279075
 30
0.0
 10
93.37461047335304
 20
42.91637628279075
 30
0.0
 10
92.05134929713777
 20
42.91637628279075
 30
0.0
 10
92.00725207491553
 20
42.91637628279075
 30
0.0
  0
SPLINE
  5
E31
330
E1F
100
AcDbEntity
  8
WAKU
100
AcDbSpline
210
0.0
220
0.0
230
1.0
 70
     9
 71
     3
 72
    74
 73
    70
 74
     0
 42
0.000000001
 43
0.0000000001
 40
0.0
 40
0.0
 40
0.0
 40
0.0
 40
1.0
 40
1.0
 40
1.0
 40
2.0
 40
2.0
 40
2.0
 40
3.0
 40
3.0
 40
3.0
 40
4.0
 40
4.0
 40
4.0
 40
5.0
 40
5.0
 40
5.0
 40
6.0
 40
6.0
 40
6.0
 40
7.0
 40
7.0
 40
7.0
 40
8.0
 40
8.0
 40
8.0
 40
9.0
 40
9.0
 40
9.0
 40
10.0
 40
10.0
 40
10.0
 40
11.0
 40
11.0
 40
11.0
 40
12.0
 40
12.0
 40
12.0
 40
13.0
 40
13.0
 40
13.0
 40
14.0
 40
14.0
 40
14.0
 40
15.0
 40
15.0
 40
15.0
 40
16.0
 40
16.0
 40
16.0
 40
17.0
 40
17.0
 40
17.0
 40
18.0
 40
18.0
 40
18.0
 40
19.0
 40
19.0
 40
19.0
 40
20.0
 40
20.0
 40
20.0
 40
21.0
 40
21.0
 40
21.0
 40
22.0
 40
22.0
 40
22.0
 40
23.0
 40
23.0
 40
23.0
 40
23.0
 10
87.80871420599192
 20
42.92464451195741
 30
0.0
 10
87.80871420599192
 20
42.87951376108935
 30
0.0
 10
87.80871420599192
 20
41.76330282358935
 30
0.0
 10
87.80871420599192
 20
41.76330282358935
 30
0.0
 10
87.80871420599192
 20
41.76330282358935
 30
0.0
 10
86.67562230060999
 20
41.76330282358935
 30
0.0
 10
86.63083605929054
 20
41.76330282358935
 30
0.0
 10
86.63083605929054
 20
41.71920560136714
 30
0.0
 10
86.63083605929054
 20
40.67603068817269
 30
0.0
 10
86.63083605929054
 20
40.63193346595046
 30
0.0
 10
86.6763113197072
 20
40.63193346595046
 30
0.0
 10
88.69479276501968
 20
40.63193346595046
 30
0.0
 10
88.69479276501968
 20
40.63193346595046
 30
0.0
 10
88.69479276501968
 20
40.63193346595046
 30
0.0
 10
88.67550023029748
 20
40.59713800154074
 30
0.0
 10
88.67550023029748
 20
40.59713800154074
 30
0.0
 10
88.34959419731138
 20
40.01112725935325
 30
0.0
 10
87.48694228758914
 20
39.1315943817491
 30
0.0
 10
86.4654714759572
 20
38.57727851803382
 30
0.0
 10
86.47305068602666
 20
38.54558363956158
 30
0.0
 10
86.79516711397804
 20
37.19545071855464
 30
0.0
 10
86.8092920054711
 20
37.13585056664492
 30
0.0
 10
87.15896919731136
 20
37.34944648678381
 30
0.0
 10
87.41011665824888
 20
37.51377754147132
 30
0.0
 10
87.77116266519332
 20
37.79076321855465
 30
0.0
 10
87.77116266519332
 20
37.79076321855465
 30
0.0
 10
87.80871420599192
 20
37.81970202063798
 30
0.0
 10
87.80871420599192
 20
37.81970202063798
 30
0.0
 10
87.80871420599192
 20
37.81970202063798
 30
0.0
 10
87.80871420599192
 20
35.03089722463104
 30
0.0
 10
87.80871420599192
 20
34.98507745466576
 30
0.0
 10
87.85315593776275
 20
34.98507745466576
 30
0.0
 10
89.13886557317942
 20
34.98507745466576
 30
0.0
 10
89.18330730495027
 20
34.98507745466576
 30
0.0
 10
89.18330730495027
 20
35.03089722463104
 30
0.0
 10
89.18330730495027
 20
38.15973294511714
 30
0.0
 10
89.18330730495027
 20
38.15973294511714
 30
0.0
 10
89.18330730495027
 20
38.15973294511714
 30
0.0
 10
89.22499296033221
 20
38.10667847463103
 30
0.0
 10
89.22499296033221
 20
38.10667847463103
 30
0.0
 10
89.51128039522803
 20
37.74494344858937
 30
0.0
 10
89.71695259574886
 20
37.5471949676866
 30
0.0
 10
89.98635906276275
 20
37.32050768470048
 30
0.0
 10
90.01323080755442
 20
37.36598294511714
 30
0.0
 10
90.63782661918637
 20
38.43051745032548
 30
0.0
 10
90.6609087589433
 20
38.47013604841576
 30
0.0
 10
90.28470433186001
 20
38.66168335744354
 30
0.0
 10
89.8726709117211
 20
38.9052516083116
 30
0.0
 10
89.40551596380442
 20
39.37171753713104
 30
0.0
 10
89.40551596380442
 20
39.37171753713104
 30
0.0
 10
89.39070205321415
 20
39.38618693817272
 30
0.0
 10
89.39070205321415
 20
39.38618693817272
 30
0.0
 10
89.39070205321415
 20
39.38618693817272
 30
0.0
 10
89.40344890651275
 20
39.40237888695742
 30
0.0
 10
89.40344890651275
 20
39.40237888695742
 30
0.0
 10
89.81479330755439
 20
39.93740221595048
 30
0.0
 10
89.99256023463775
 20
40.29224705101992
 30
0.0
 10
90.13932130234607
 20
40.60988485483934
 30
0.0
 10
90.13932130234607
 20
40.60988485483934
 30
0.0
 10
90.13725424505443
 20
41.71851658226992
 30
0.0
 10
90.13725424505443
 20
41.76330282358935
 30
0.0
 10
90.09281251328358
 20
41.76330282358935
 30
0.0
 10
89.18330730495027
 20
41.76330282358935
 30
0.0
 10
89.18330730495027
 20
41.76330282358935
 30
0.0
 10
89.18330730495027
 20
41.76330282358935
 30
0.0
 10
89.18330730495027
 20
42.87951376108935
 30
0.0
 10
89.18330730495027
 20
42.92464451195741
 30
0.0
 10
89.13886557317942
 20
42.92464451195741
 30
0.0
 10
87.85315593776275
 20
42.92464451195741
 30
0.0
 10
87.80871420599192
 20
42.92464451195741
 30
0.0
  0
SPLINE
  5
E32
330
E1F
100
AcDbEntity
  8
WAKU
100
AcDbSpline
210
0.0
220
0.0
230
1.0
 70
     9
 71
     3
 72
    35
 73
    31
 74
     0
 42
0.000000001
 43
0.0000000001
 40
0.0
 40
0.0
 40
0.0
 40
0.0
 40
1.0
 40
1.0
 40
1.0
 40
2.0
 40
2.0
 40
2.0
 40
3.0
 40
3.0
 40
3.0
 40
4.0
 40
4.0
 40
4.0
 40
5.0
 40
5.0
 40
5.0
 40
6.0
 40
6.0
 40
6.0
 40
7.0
 40
7.0
 40
7.0
 40
8.0
 40
8.0
 40
8.0
 40
9.0
 40
9.0
 40
9.0
 40
10.0
 40
10.0
 40
10.0
 40
10.0
 10
80.33940268255442
 20
36.44579794077686
 30
0.0
 10
80.62155600286692
 20
36.95360501542964
 30
0.0
 10
80.80621312092246
 20
37.32808689476993
 30
0.0
 10
81.06804037786693
 20
37.88343628713104
 30
0.0
 10
81.06804037786693
 20
37.88343628713104
 30
0.0
 10
81.07424154974195
 20
37.89652764997825
 30
0.0
 10
81.07424154974195
 20
37.89652764997825
 30
0.0
 10
81.07424154974195
 20
37.89652764997825
 30
0.0
 10
83.71697429713776
 20
37.89652764997825
 30
0.0
 10
83.71697429713776
 20
37.89652764997825
 30
0.0
 10
83.71697429713776
 20
37.89652764997825
 30
0.0
 10
83.72593154540162
 20
37.85174140865882
 30
0.0
 10
83.72593154540162
 20
37.85174140865882
 30
0.0
 10
83.72593154540162
 20
37.85174140865882
 30
0.0
 10
82.7082503388044
 20
37.41731486786021
 30
0.0
 10
82.65209528238081
 20
37.39354370900603
 30
0.0
 10
82.69309191866554
 20
37.34669041039492
 30
0.0
 10
83.43034235269332
 20
36.50505358313797
 30
0.0
 10
83.43034235269332
 20
36.50505358313797
 30
0.0
 10
83.43034235269332
 20
36.50505358313797
 30
0.0
 10
83.38073297769332
 20
36.50367554494354
 30
0.0
 10
83.38073297769332
 20
36.50367554494354
 30
0.0
 10
83.38073297769332
 20
36.50367554494354
 30
0.0
 10
81.27750218342248
 20
36.41927070553381
 30
0.0
 10
81.27750218342248
 20
36.41927070553381
 30
0.0
 10
81.27750218342248
 20
36.41927070553381
 30
0.0
 10
80.3197656382836
 20
36.41065796681854
 30
0.0
 10
80.3197656382836
 20
36.41065796681854
 30
0.0
 10
80.3197656382836
 20
36.41065796681854
 30
0.0
 10
80.33940268255442
 20
36.44579794077686
 30
0.0
 10
80.33940268255442
 20
36.44579794077686
 30
0.0
  0
SPLINE
  5
E33
330
E1F
100
AcDbEntity
  8
WAKU
100
AcDbSpline
210
0.0
220
0.0
230
1.0
 70
     9
 71
     3
 72
    56
 73
    52
 74
     0
 42
0.000000001
 43
0.0000000001
 40
0.0
 40
0.0
 40
0.0
 40
0.0
 40
1.0
 40
1.0
 40
1.0
 40
2.0
 40
2.0
 40
2.0
 40
3.0
 40
3.0
 40
3.0
 40
4.0
 40
4.0
 40
4.0
 40
5.0
 40
5.0
 40
5.0
 40
6.0
 40
6.0
 40
6.0
 40
7.0
 40
7.0
 40
7.0
 40
8.0
 40
8.0
 40
8.0
 40
9.0
 40
9.0
 40
9.0
 40
10.0
 40
10.0
 40
10.0
 40
11.0
 40
11.0
 40
11.0
 40
12.0
 40
12.0
 40
12.0
 40
13.0
 40
13.0
 40
13.0
 40
14.0
 40
14.0
 40
14.0
 40
15.0
 40
15.0
 40
15.0
 40
16.0
 40
16.0
 40
16.0
 40
17.0
 40
17.0
 40
17.0
 40
17.0
 10
77.46619304713775
 20
39.06165894338104
 30
0.0
 10
77.46619304713775
 20
39.01756172115881
 30
0.0
 10
77.46619304713775
 20
37.94062487220048
 30
0.0
 10
77.46619304713775
 20
37.89652764997825
 30
0.0
 10
77.51166830755443
 20
37.89652764997825
 30
0.0
 10
79.56081110269329
 20
37.89652764997825
 30
0.0
 10
79.56081110269329
 20
37.89652764997825
 30
0.0
 10
79.56081110269329
 20
37.89652764997825
 30
0.0
 10
79.54978679713774
 20
37.86552179060326
 30
0.0
 10
79.54978679713774
 20
37.86552179060326
 30
0.0
 10
79.3306787242211
 20
37.2557398895616
 30
0.0
 10
79.0891775306447
 20
36.76998142601993
 30
0.0
 10
78.9031423743947
 20
36.41513659095048
 30
0.0
 10
78.9031423743947
 20
36.41513659095048
 30
0.0
 10
78.8965966929711
 20
36.40273424720048
 30
0.0
 10
78.8965966929711
 20
36.40273424720048
 30
0.0
 10
78.8965966929711
 20
36.40273424720048
 30
0.0
 10
77.83481826415166
 20
36.39446601803382
 30
0.0
 10
77.83481826415166
 20
36.39446601803382
 30
0.0
 10
77.83481826415166
 20
36.39446601803382
 30
0.0
 10
77.58367080321416
 20
36.40066718990882
 30
0.0
 10
77.53543946640859
 20
36.40170071855465
 30
0.0
 10
77.54474122422109
 20
36.34899075761715
 30
0.0
 10
77.74524578151275
 20
35.18317044511714
 30
0.0
 10
77.75179146293637
 20
35.14527439476992
 30
0.0
 10
79.81230307317942
 20
35.20280748938797
 30
0.0
 10
80.21331218776275
 20
35.23140178192271
 30
0.0
 10
83.93367080321414
 20
35.4980521725477
 30
0.0
 10
83.93367080321414
 20
35.4980521725477
 30
0.0
 10
84.18688532144331
 20
35.51596666907548
 30
0.0
 10
84.18688532144331
 20
35.51596666907548
 30
0.0
 10
84.18688532144331
 20
35.51596666907548
 30
0.0
 10
84.54483074245024
 20
34.9585502194227
 30
0.0
 10
84.56653484401275
 20
34.92409926456159
 30
0.0
 10
84.60236383706831
 20
34.94098023244354
 30
0.0
 10
85.82123862005444
 20
35.52010078365881
 30
0.0
 10
85.86946995685995
 20
35.54283841386715
 30
0.0
 10
85.40300402804053
 20
36.20670831404075
 30
0.0
 10
84.80769152804054
 20
36.99804674720048
 30
0.0
 10
83.92505806449888
 20
37.85656454233937
 30
0.0
 10
83.92505806449888
 20
37.85656454233937
 30
0.0
 10
83.88337240911694
 20
37.89652764997825
 30
0.0
 10
83.88337240911694
 20
37.89652764997825
 30
0.0
 10
83.88337240911694
 20
37.89652764997825
 30
0.0
 10
85.80814725720719
 20
37.89652764997825
 30
0.0
 10
85.85362251762388
 20
37.89652764997825
 30
0.0
 10
85.85362251762388
 20
37.94062487220048
 30
0.0
 10
85.85362251762388
 20
39.01756172115881
 30
0.0
 10
85.85362251762388
 20
39.06165894338104
 30
0.0
 10
85.80711372856137
 20
39.06165894338104
 30
0.0
 10
77.51235732665165
 20
39.06165894338104
 30
0.0
 10
77.46619304713775
 20
39.06165894338104
 30
0.0
  0
SPLINE
  5
E34
330
E1F
100
AcDbEntity
  8
WAKU
100
AcDbSpline
210
0.0
220
0.0
230
1.0
 70
     9
 71
     3
 72
    26
 73
    22
 74
     0
 42
0.000000001
 43
0.0000000001
 40
0.0
 40
0.0
 40
0.0
 40
0.0
 40
1.0
 40
1.0
 40
1.0
 40
2.0
 40
2.0
 40
2.0
 40
3.0
 40
3.0
 40
3.0
 40
4.0
 40
4.0
 40
4.0
 40
5.0
 40
5.0
 40
5.0
 40
6.0
 40
6.0
 40
6.0
 40
7.0
 40
7.0
 40
7.0
 40
7.0
 10
80.22502551241553
 20
40.82141371768659
 30
0.0
 10
81.11627171467246
 20
41.42912856143659
 30
0.0
 10
81.43356500894331
 20
41.75055597029075
 30
0.0
 10
81.66094131102665
 20
42.00445950761714
 30
0.0
 10
81.66094131102665
 20
42.00445950761714
 30
0.0
 10
81.67747776935998
 20
42.02237400414492
 30
0.0
 10
81.67747776935998
 20
42.02237400414492
 30
0.0
 10
81.67747776935998
 20
42.02237400414492
 30
0.0
 10
81.69504775633914
 20
42.00514852671434
 30
0.0
 10
81.69504775633914
 20
42.00514852671434
 30
0.0
 10
81.95584148463778
 20
41.74676636525602
 30
0.0
 10
82.3137869056447
 20
41.39226603973519
 30
0.0
 10
83.14991158012388
 20
40.82141371768659
 30
0.0
 10
83.14991158012388
 20
40.82141371768659
 30
0.0
 10
83.21261231797109
 20
40.77869453365879
 30
0.0
 10
83.21261231797109
 20
40.77869453365879
 30
0.0
 10
83.21261231797109
 20
40.77869453365879
 30
0.0
 10
80.1623247745683
 20
40.77869453365879
 30
0.0
 10
80.1623247745683
 20
40.77869453365879
 30
0.0
 10
80.1623247745683
 20
40.77869453365879
 30
0.0
 10
80.22502551241553
 20
40.82141371768659
 30
0.0
 10
80.22502551241553
 20
40.82141371768659
 30
0.0
  0
SPLINE
  5
E35
330
E1F
100
AcDbEntity
  8
WAKU
100
AcDbSpline
210
0.0
220
0.0
230
1.0
 70
     9
 71
     3
 72
    44
 73
    40
 74
     0
 42
0.000000001
 43
0.0000000001
 40
0.0
 40
0.0
 40
0.0
 40
0.0
 40
1.0
 40
1.0
 40
1.0
 40
2.0
 40
2.0
 40
2.0
 40
3.0
 40
3.0
 40
3.0
 40
4.0
 40
4.0
 40
4.0
 40
5.0
 40
5.0
 40
5.0
 40
6.0
 40
6.0
 40
6.0
 40
7.0
 40
7.0
 40
7.0
 40
8.0
 40
8.0
 40
8.0
 40
9.0
 40
9.0
 40
9.0
 40
10.0
 40
10.0
 40
10.0
 40
11.0
 40
11.0
 40
11.0
 40
12.0
 40
12.0
 40
12.0
 40
13.0
 40
13.0
 40
13.0
 40
13.0
 10
80.86581327283218
 20
42.98355564476993
 30
0.0
 10
80.20504395859608
 20
42.15363214216576
 30
0.0
 10
79.03681207925581
 20
41.47322578365881
 30
0.0
 10
77.08344293863081
 20
40.78110610049907
 30
0.0
 10
77.10859213567943
 20
40.73597534963103
 30
0.0
 10
77.7528249915822
 20
39.57635620900603
 30
0.0
 10
77.7714285072072
 20
39.54328329233937
 30
0.0
 10
77.7776296790822
 20
39.54535034963104
 30
0.0
 10
77.7838308509572
 20
39.54776191647132
 30
0.0
 10
77.7838308509572
 20
39.54776191647132
 30
0.0
 10
78.0573714325544
 20
39.64594713782548
 30
0.0
 10
78.46974936224192
 20
39.79443075327687
 30
0.0
 10
79.17048178411693
 20
40.17476929494352
 30
0.0
 10
79.17048178411693
 20
40.17476929494352
 30
0.0
 10
79.20493273897804
 20
40.19337281056853
 30
0.0
 10
79.20493273897804
 20
40.19337281056853
 30
0.0
 10
79.20493273897804
 20
40.19337281056853
 30
0.0
 10
79.20493273897804
 20
39.73999824459632
 30
0.0
 10
79.20493273897804
 20
39.69762357011715
 30
0.0
 10
79.25075250894329
 20
39.69762357011715
 30
0.0
 10
84.08663304279745
 20
39.69762357011715
 30
0.0
 10
84.13279732231137
 20
39.69762357011715
 30
0.0
 10
84.13279732231137
 20
39.74034275414492
 30
0.0
 10
84.13279732231137
 20
40.22679023678381
 30
0.0
 10
84.13279732231137
 20
40.22679023678381
 30
0.0
 10
84.13279732231137
 20
40.22679023678381
 30
0.0
 10
84.16724827717247
 20
40.20818672115882
 30
0.0
 10
84.16724827717247
 20
40.20818672115882
 30
0.0
 10
84.8438650306447
 20
39.83956150414492
 30
0.0
 10
85.26003256536695
 20
39.67695299720047
 30
0.0
 10
85.53874079019331
 20
39.5687769989366
 30
0.0
 10
85.55803332491553
 20
39.60219442515187
 30
0.0
 10
86.21845812960302
 20
40.75216729841574
 30
0.0
 10
86.2446408552975
 20
40.79798706838103
 30
0.0
 10
84.61338814262388
 20
41.35195842254769
 30
0.0
 10
83.39106826415164
 20
42.06681573591575
 30
0.0
 10
82.51015734835304
 20
42.98355564476993
 30
0.0
 10
82.49155383272805
 20
42.98355564476993
 30
0.0
 10
80.88648384574886
 20
42.98355564476993
 30
0.0
 10
80.86581327283218
 20
42.98355564476993
 30
0.0
  0
SPLINE
  5
E36
330
E1F
100
AcDbEntity
  8
WAKU
100
AcDbSpline
210
0.0
220
0.0
230
1.0
 70
     9
 71
     3
 72
    50
 73
    46
 74
     0
 42
0.000000001
 43
0.0000000001
 40
0.0
 40
0.0
 40
0.0
 40
0.0
 40
1.0
 40
1.0
 40
1.0
 40
2.0
 40
2.0
 40
2.0
 40
3.0
 40
3.0
 40
3.0
 40
4.0
 40
4.0
 40
4.0
 40
5.0
 40
5.0
 40
5.0
 40
6.0
 40
6.0
 40
6.0
 40
7.0
 40
7.0
 40
7.0
 40
8.0
 40
8.0
 40
8.0
 40
9.0
 40
9.0
 40
9.0
 40
10.0
 40
10.0
 40
10.0
 40
11.0
 40
11.0
 40
11.0
 40
12.0
 40
12.0
 40
12.0
 40
13.0
 40
13.0
 40
13.0
 40
14.0
 40
14.0
 40
14.0
 40
15.0
 40
15.0
 40
15.0
 40
15.0
 10
68.10483508272804
 20
39.81096721161021
 30
0.0
 10
68.10483508272804
 20
39.76686998938798
 30
0.0
 10
68.10483508272804
 20
38.68166491126298
 30
0.0
 10
68.10483508272804
 20
38.63756768904075
 30
0.0
 10
68.1499658335961
 20
38.63756768904075
 30
0.0
 10
69.59139378498497
 20
38.63756768904075
 30
0.0
 10
69.59139378498497
 20
38.63756768904075
 30
0.0
 10
69.59139378498497
 20
38.63756768904075
 30
0.0
 10
69.59139378498497
 20
36.56396471595048
 30
0.0
 10
69.59139378498497
 20
36.56396471595048
 30
0.0
 10
69.59139378498497
 20
36.56396471595048
 30
0.0
 10
68.2130110809919
 20
36.46991360917964
 30
0.0
 10
68.2130110809919
 20
36.46991360917964
 30
0.0
 10
68.21370010008914
 20
36.46991360917964
 30
0.0
 10
68.00596084227665
 20
36.46026734181854
 30
0.0
 10
68.00596084227665
 20
36.46026734181854
 30
0.0
 10
68.00596084227665
 20
36.46026734181854
 30
0.0
 10
67.88297093342248
 20
36.45578871768659
 30
0.0
 10
67.84541939262386
 20
36.45441067949214
 30
0.0
 10
67.85127605495026
 20
36.40686836178382
 30
0.0
 10
67.99355849852665
 20
35.22347806230464
 30
0.0
 10
67.99872614175581
 20
35.18041436872825
 30
0.0
 10
71.1575341929711
 20
35.4825492428602
 30
0.0
 10
71.73286513915164
 20
35.54077135657548
 30
0.0
 10
72.7794851478322
 20
35.73851983747825
 30
0.0
 10
72.77914063828359
 20
35.77572686872826
 30
0.0
 10
72.76260417995023
 20
36.83509373070742
 30
0.0
 10
72.76191516085304
 20
36.88642565345047
 30
0.0
 10
72.42085070772803
 20
36.82820353973522
 30
0.0
 10
72.03121040824886
 20
36.76205770640186
 30
0.0
 10
71.00078234835304
 20
36.67179620466575
 30
0.0
 10
71.00078234835304
 20
36.67179620466575
 30
0.0
 10
70.9749441322072
 20
36.6697291473741
 30
0.0
 10
70.9749441322072
 20
36.6697291473741
 30
0.0
 10
70.9749441322072
 20
36.6697291473741
 30
0.0
 10
70.9749441322072
 20
38.63756768904075
 30
0.0
 10
70.9749441322072
 20
38.63756768904075
 30
0.0
 10
70.9749441322072
 20
38.63756768904075
 30
0.0
 10
72.3888113197072
 20
38.63756768904075
 30
0.0
 10
72.43394207057527
 20
38.63756768904075
 30
0.0
 10
72.43394207057527
 20
38.68166491126298
 30
0.0
 10
72.43394207057527
 20
39.76686998938798
 30
0.0
 10
72.43394207057527
 20
39.81096721161021
 30
0.0
 10
72.38812230060998
 20
39.81096721161021
 30
0.0
 10
68.15065485269332
 20
39.81096721161021
 30
0.0
 10
68.10483508272804
 20
39.81096721161021
 30
0.0
  0
SPLINE
  5
E37
330
E1F
100
AcDbEntity
  8
WAKU
100
AcDbSpline
210
0.0
220
0.0
230
1.0
 70
     9
 71
     3
 72
    89
 73
    85
 74
     0
 42
0.000000001
 43
0.0000000001
 40
0.0
 40
0.0
 40
0.0
 40
0.0
 40
1.0
 40
1.0
 40
1.0
 40
2.0
 40
2.0
 40
2.0
 40
3.0
 40
3.0
 40
3.0
 40
4.0
 40
4.0
 40
4.0
 40
5.0
 40
5.0
 40
5.0
 40
6.0
 40
6.0
 40
6.0
 40
7.0
 40
7.0
 40
7.0
 40
8.0
 40
8.0
 40
8.0
 40
9.0
 40
9.0
 40
9.0
 40
10.0
 40
10.0
 40
10.0
 40
11.0
 40
11.0
 40
11.0
 40
12.0
 40
12.0
 40
12.0
 40
13.0
 40
13.0
 40
13.0
 40
14.0
 40
14.0
 40
14.0
 40
15.0
 40
15.0
 40
15.0
 40
16.0
 40
16.0
 40
16.0
 40
17.0
 40
17.0
 40
17.0
 40
18.0
 40
18.0
 40
18.0
 40
19.0
 40
19.0
 40
19.0
 40
20.0
 40
20.0
 40
20.0
 40
21.0
 40
21.0
 40
21.0
 40
22.0
 40
22.0
 40
22.0
 40
23.0
 40
23.0
 40
23.0
 40
24.0
 40
24.0
 40
24.0
 40
25.0
 40
25.0
 40
25.0
 40
26.0
 40
26.0
 40
26.0
 40
27.0
 40
27.0
 40
27.0
 40
28.0
 40
28.0
 40
28.0
 40
28.0
 10
74.36939671467247
 20
42.55980889997824
 30
0.0
 10
74.59573948810998
 20
42.36481649546436
 30
0.0
 10
74.79762208359609
 20
42.10436727671435
 30
0.0
 10
75.02844348116553
 20
41.80085436438797
 30
0.0
 10
75.02844348116553
 20
41.80085436438797
 30
0.0
 10
75.05703777370027
 20
41.76330282358935
 30
0.0
 10
75.05703777370027
 20
41.76330282358935
 30
0.0
 10
75.05703777370027
 20
41.76330282358935
 30
0.0
 10
74.07036242647802
 20
41.76330282358935
 30
0.0
 10
74.07036242647802
 20
41.76330282358935
 30
0.0
 10
74.07036242647802
 20
41.76330282358935
 30
0.0
 10
74.07036242647802
 20
42.88743748070742
 30
0.0
 10
74.07036242647802
 20
42.93325725067268
 30
0.0
 10
74.0259206947072
 20
42.93325725067268
 30
0.0
 10
72.6678640540822
 20
42.93325725067268
 30
0.0
 10
72.62169977456832
 20
42.93325725067268
 30
0.0
 10
72.62307781276277
 20
42.89122708574214
 30
0.0
 10
72.6306570228322
 20
42.66178372636714
 30
0.0
 10
72.6306570228322
 20
42.66178372636714
 30
0.0
 10
72.6303125132836
 20
42.66316176456157
 30
0.0
 10
72.64857151935998
 20
42.2325248287977
 30
0.0
 10
72.64857151935998
 20
42.2325248287977
 30
0.0
 10
72.64857151935998
 20
42.2325248287977
 30
0.0
 10
72.66855307317944
 20
41.76399184268658
 30
0.0
 10
72.66855307317944
 20
41.76399184268658
 30
0.0
 10
72.66855307317944
 20
41.76399184268658
 30
0.0
 10
72.64409289522801
 20
41.76330282358935
 30
0.0
 10
72.64409289522801
 20
41.76330282358935
 30
0.0
 10
72.64409289522801
 20
41.76330282358935
 30
0.0
 10
67.97288792560998
 20
41.76330282358935
 30
0.0
 10
67.92672364609609
 20
41.76330282358935
 30
0.0
 10
67.92672364609609
 20
41.71920560136714
 30
0.0
 10
67.92672364609609
 20
40.63400052324214
 30
0.0
 10
67.92672364609609
 20
40.58990330101992
 30
0.0
 10
67.97288792560998
 20
40.58990330101992
 30
0.0
 10
72.71333931449887
 20
40.58990330101992
 30
0.0
 10
72.71333931449887
 20
40.58990330101992
 30
0.0
 10
72.71333931449887
 20
40.58990330101992
 30
0.0
 10
72.71540637179054
 20
40.54511705970047
 30
0.0
 10
72.71540637179054
 20
40.54511705970047
 30
0.0
 10
72.7698388804711
 20
39.22702352671436
 30
0.0
 10
72.87112468776277
 20
36.77411554060326
 30
0.0
 10
74.21333388915164
 20
35.44086358747826
 30
0.0
 10
74.44415528672109
 20
35.21004218990881
 30
0.0
 10
74.88133790390858
 20
34.97646471595048
 30
0.0
 10
75.33712403672109
 20
34.97646471595048
 30
0.0
 10
76.16050185790166
 20
34.97646471595048
 30
0.0
 10
76.64005914956831
 20
35.85393053626297
 30
0.0
 10
76.85503310790164
 20
36.38344171247825
 30
0.0
 10
76.84676487873497
 20
36.40135620900603
 30
0.0
 10
76.32104330755443
 20
37.58371297983936
 30
0.0
 10
76.28176921901277
 20
37.67259644338103
 30
0.0
 10
76.0533593882836
 20
37.11449097463103
 30
0.0
 10
75.56966798203359
 20
36.56224216820742
 30
0.0
 10
75.2999170054711
 20
36.56224216820742
 30
0.0
 10
75.01294055147804
 20
36.56224216820742
 30
0.0
 10
74.7576589759572
 20
37.16754544511714
 30
0.0
 10
74.6611963023461
 20
37.42765015431853
 30
0.0
 10
74.25088542995027
 20
38.53455933400603
 30
0.0
 10
74.14512099852666
 20
39.68591024546436
 30
0.0
 10
74.09861220946416
 20
40.56509861351992
 30
0.0
 10
74.09861220946416
 20
40.56509861351992
 30
0.0
 10
74.0972341712697
 20
40.58990330101992
 30
0.0
 10
74.0972341712697
 20
40.58990330101992
 30
0.0
 10
74.0972341712697
 20
40.58990330101992
 30
0.0
 10
76.6521169837697
 20
40.58990330101992
 30
0.0
 10
76.69793675373495
 20
40.58990330101992
 30
0.0
 10
76.69793675373495
 20
40.63400052324214
 30
0.0
 10
76.69793675373495
 20
41.71920560136714
 30
0.0
 10
76.69793675373495
 20
41.76330282358935
 30
0.0
 10
76.65349502196416
 20
41.76330282358935
 30
0.0
 10
75.84217503498497
 20
41.76330282358935
 30
0.0
 10
75.84217503498497
 20
41.76330282358935
 30
0.0
 10
75.84217503498497
 20
41.76330282358935
 30
0.0
 10
75.83390680581832
 20
41.80843357445739
 30
0.0
 10
75.83390680581832
 20
41.80843357445739
 30
0.0
 10
75.83390680581832
 20
41.80843357445739
 30
0.0
 10
76.34929309054053
 20
42.01169420813797
 30
0.0
 10
76.40269207057524
 20
42.03270929060325
 30
0.0
 10
75.78636448810998
 20
42.81061185136714
 30
0.0
 10
75.65889595512387
 20
42.89639472897131
 30
0.0
 10
75.52625977890859
 20
42.98424466386713
 30
0.0
 10
75.52591526935998
 20
42.97976603973518
 30
0.0
 10
74.53579482665166
 20
42.6200980709852
 30
0.0
 10
74.36939671467247
 20
42.55980889997824
 30
0.0
  0
SPLINE
  5
E38
330
E1F
100
AcDbEntity
  8
WAKU
100
AcDbSpline
210
0.0
220
0.0
230
1.0
 70
     9
 71
     3
 72
   197
 73
   193
 74
     0
 42
0.000000001
 43
0.0000000001
 40
0.0
 40
0.0
 40
0.0
 40
0.0
 40
1.0
 40
1.0
 40
1.0
 40
2.0
 40
2.0
 40
2.0
 40
3.0
 40
3.0
 40
3.0
 40
4.0
 40
4.0
 40
4.0
 40
5.0
 40
5.0
 40
5.0
 40
6.0
 40
6.0
 40
6.0
 40
7.0
 40
7.0
 40
7.0
 40
8.0
 40
8.0
 40
8.0
 40
9.0
 40
9.0
 40
9.0
 40
10.0
 40
10.0
 40
10.0
 40
11.0
 40
11.0
 40
11.0
 40
12.0
 40
12.0
 40
12.0
 40
13.0
 40
13.0
 40
13.0
 40
14.0
 40
14.0
 40
14.0
 40
15.0
 40
15.0
 40
15.0
 40
16.0
 40
16.0
 40
16.0
 40
17.0
 40
17.0
 40
17.0
 40
18.0
 40
18.0
 40
18.0
 40
19.0
 40
19.0
 40
19.0
 40
20.0
 40
20.0
 40
20.0
 40
21.0
 40
21.0
 40
21.0
 40
22.0
 40
22.0
 40
22.0
 40
23.0
 40
23.0
 40
23.0
 40
24.0
 40
24.0
 40
24.0
 40
25.0
 40
25.0
 40
25.0
 40
26.0
 40
26.0
 40
26.0
 40
27.0
 40
27.0
 40
27.0
 40
28.0
 40
28.0
 40
28.0
 40
29.0
 40
29.0
 40
29.0
 40
30.0
 40
30.0
 40
30.0
 40
31.0
 40
31.0
 40
31.0
 40
32.0
 40
32.0
 40
32.0
 40
33.0
 40
33.0
 40
33.0
 40
34.0
 40
34.0
 40
34.0
 40
35.0
 40
35.0
 40
35.0
 40
36.0
 40
36.0
 40
36.0
 40
37.0
 40
37.0
 40
37.0
 40
38.0
 40
38.0
 40
38.0
 40
39.0
 40
39.0
 40
39.0
 40
40.0
 40
40.0
 40
40.0
 40
41.0
 40
41.0
 40
41.0
 40
42.0
 40
42.0
 40
42.0
 40
43.0
 40
43.0
 40
43.0
 40
44.0
 40
44.0
 40
44.0
 40
45.0
 40
45.0
 40
45.0
 40
46.0
 40
46.0
 40
46.0
 40
47.0
 40
47.0
 40
47.0
 40
48.0
 40
48.0
 40
48.0
 40
49.0
 40
49.0
 40
49.0
 40
50.0
 40
50.0
 40
50.0
 40
51.0
 40
51.0
 40
51.0
 40
52.0
 40
52.0
 40
52.0
 40
53.0
 40
53.0
 40
53.0
 40
54.0
 40
54.0
 40
54.0
 40
55.0
 40
55.0
 40
55.0
 40
56.0
 40
56.0
 40
56.0
 40
57.0
 40
57.0
 40
57.0
 40
58.0
 40
58.0
 40
58.0
 40
59.0
 40
59.0
 40
59.0
 40
60.0
 40
60.0
 40
60.0
 40
61.0
 40
61.0
 40
61.0
 40
62.0
 40
62.0
 40
62.0
 40
63.0
 40
63.0
 40
63.0
 40
64.0
 40
64.0
 40
64.0
 40
64.0
 10
64.0265310462697
 20
42.91637628279075
 30
0.0
 10
64.0265310462697
 20
42.87193455101991
 30
0.0
 10
64.0265310462697
 20
41.85563138261714
 30
0.0
 10
64.0265310462697
 20
41.85563138261714
 30
0.0
 10
64.0265310462697
 20
41.85563138261714
 30
0.0
 10
63.48737360269332
 20
41.85563138261714
 30
0.0
 10
63.48737360269332
 20
41.85563138261714
 30
0.0
 10
63.48737360269332
 20
41.85563138261714
 30
0.0
 10
63.66341798203359
 20
42.60872925588103
 30
0.0
 10
63.67478679713776
 20
42.65730510223519
 30
0.0
 10
63.6237993839433
 20
42.66143921681853
 30
0.0
 10
62.49966472682526
 20
42.75170071855463
 30
0.0
 10
62.4603906382836
 20
42.75480130449214
 30
0.0
 10
62.36013835963776
 20
42.10781237220047
 30
0.0
 10
62.1599783118947
 20
41.52317966820739
 30
0.0
 10
61.86301108099192
 20
41.01778416039493
 30
0.0
 10
61.86301108099192
 20
41.01778416039493
 30
0.0
 10
61.81960287786693
 20
40.94337009789492
 30
0.0
 10
61.81960287786693
 20
40.94337009789492
 30
0.0
 10
61.81960287786693
 20
40.94337009789492
 30
0.0
 10
61.81960287786693
 20
41.48493910831159
 30
0.0
 10
61.81960287786693
 20
41.52765829233937
 30
0.0
 10
61.77516114609609
 20
41.52765829233937
 30
0.0
 10
60.93145726154748
 20
41.52765829233937
 30
0.0
 10
60.93145726154748
 20
41.52765829233937
 30
0.0
 10
60.93145726154748
 20
41.52765829233937
 30
0.0
 10
60.93145726154748
 20
42.8712455319227
 30
0.0
 10
60.93145726154748
 20
42.91637628279075
 30
0.0
 10
60.88736003932526
 20
42.91637628279075
 30
0.0
 10
59.73187501328361
 20
42.91637628279075
 30
0.0
 10
59.68777779106137
 20
42.91637628279075
 30
0.0
 10
59.68777779106137
 20
42.8712455319227
 30
0.0
 10
59.68777779106137
 20
41.52765829233937
 30
0.0
 10
59.68777779106137
 20
41.52765829233937
 30
0.0
 10
59.68777779106137
 20
41.52765829233937
 30
0.0
 10
58.59154840738082
 20
41.52765829233937
 30
0.0
 10
58.54710667560998
 20
41.52765829233937
 30
0.0
 10
58.54710667560998
 20
41.48390557966575
 30
0.0
 10
58.54710667560998
 20
40.45692261525603
 30
0.0
 10
58.54710667560998
 20
40.41282539303379
 30
0.0
 10
58.59154840738082
 20
40.41282539303379
 30
0.0
 10
59.59372668429054
 20
40.41282539303379
 30
0.0
 10
59.59372668429054
 20
40.41282539303379
 30
0.0
 10
59.59372668429054
 20
40.41282539303379
 30
0.0
 10
59.58373590738081
 20
40.38250855275602
 30
0.0
 10
59.58373590738081
 20
40.38250855275602
 30
0.0
 10
59.15378799071415
 20
39.0327201412977
 30
0.0
 10
58.73314183185998
 20
38.4835719208116
 30
0.0
 10
58.37140680581832
 20
38.0777396725477
 30
0.0
 10
58.3776079776933
 20
38.05500204233937
 30
0.0
 10
58.77276042995024
 20
36.56534275414492
 30
0.0
 10
58.7958425697072
 20
36.47818183834632
 30
0.0
 10
58.99462457925581
 20
36.74035360483936
 30
0.0
 10
59.3350000132836
 20
37.21164266733936
 30
0.0
 10
59.64230253064471
 20
38.16662313608937
 30
0.0
 10
59.64230253064471
 20
38.16662313608937
 30
0.0
 10
59.68777779106137
 20
38.15973294511714
 30
0.0
 10
59.68777779106137
 20
38.15973294511714
 30
0.0
 10
59.68777779106137
 20
38.15973294511714
 30
0.0
 10
59.68777779106137
 20
35.0391654537977
 30
0.0
 10
59.68777779106137
 20
34.99334568383242
 30
0.0
 10
59.73187501328361
 20
34.99334568383242
 30
0.0
 10
60.88736003932526
 20
34.99334568383242
 30
0.0
 10
60.93145726154748
 20
34.99334568383242
 30
0.0
 10
60.93145726154748
 20
35.0391654537977
 30
0.0
 10
60.93145726154748
 20
38.47943780622826
 30
0.0
 10
60.93145726154748
 20
38.47943780622826
 30
0.0
 10
60.93145726154748
 20
38.47943780622826
 30
0.0
 10
60.97899957925581
 20
38.47943780622826
 30
0.0
 10
60.97899957925581
 20
38.47943780622826
 30
0.0
 10
61.07063911918636
 20
38.14112942949214
 30
0.0
 10
61.11921496554053
 20
37.96611857879771
 30
0.0
 10
61.49128527804053
 20
37.34152276716576
 30
0.0
 10
61.5305593665822
 20
37.38872057532547
 30
0.0
 10
62.2312917884572
 20
38.22450074025603
 30
0.0
 10
62.2591970618947
 20
38.25791816647131
 30
0.0
 10
62.13689617213774
 20
38.36092652150603
 30
0.0
 10
62.03044272161693
 20
38.45601115692272
 30
0.0
 10
61.84440756536693
 20
38.66581747202687
 30
0.0
 10
61.84440756536693
 20
38.66581747202687
 30
0.0
 10
61.8099566105058
 20
38.70474705101992
 30
0.0
 10
61.8099566105058
 20
38.70474705101992
 30
0.0
 10
61.8099566105058
 20
38.70474705101992
 30
0.0
 10
61.81719131102664
 20
38.70474705101992
 30
0.0
 10
61.82098091606136
 20
38.70474705101992
 30
0.0
 10
61.5832693275197
 20
38.98207723765187
 30
0.0
 10
61.15642199679054
 20
39.51572252845048
 30
0.0
 10
60.93386882838776
 20
40.00974922115879
 30
0.0
 10
60.93386882838776
 20
40.00974922115879
 30
0.0
 10
60.93145726154748
 20
40.01422784529075
 30
0.0
 10
60.93145726154748
 20
40.01422784529075
 30
0.0
 10
60.93145726154748
 20
40.01422784529075
 30
0.0
 10
60.93145726154748
 20
40.41282539303379
 30
0.0
 10
60.93145726154748
 20
40.41282539303379
 30
0.0
 10
60.93145726154748
 20
40.41282539303379
 30
0.0
 10
61.81512425373497
 20
40.41282539303379
 30
0.0
 10
61.81512425373497
 20
40.41282539303379
 30
0.0
 10
61.82856012613082
 20
40.40869127845048
 30
0.0
 10
62.54824057317943
 20
39.90364028018659
 30
0.0
 10
62.54824057317943
 20
39.90364028018659
 30
0.0
 10
62.54824057317943
 20
39.90364028018659
 30
0.0
 10
62.5940603431447
 20
39.87228991126297
 30
0.0
 10
62.6033621009572
 20
39.86574422983937
 30
0.0
 10
62.60818523463774
 20
39.87194540171437
 30
0.0
 10
62.62885580755442
 20
39.89916165605464
 30
0.0
 10
62.62885580755442
 20
39.89916165605464
 30
0.0
 10
62.74323297769331
 20
40.05040134789489
 30
0.0
 10
62.91721029974192
 20
40.31085056664492
 30
0.0
 10
63.09359918863082
 20
40.69394518470047
 30
0.0
 10
63.09359918863082
 20
40.69394518470047
 30
0.0
 10
63.10014487005442
 20
40.70738105709629
 30
0.0
 10
63.10014487005442
 20
40.70738105709629
 30
0.0
 10
63.10014487005442
 20
40.70738105709629
 30
0.0
 10
64.0265310462697
 20
40.70738105709629
 30
0.0
 10
64.0265310462697
 20
40.70738105709629
 30
0.0
 10
64.0265310462697
 20
40.70738105709629
 30
0.0
 10
64.0265310462697
 20
39.86161011525604
 30
0.0
 10
64.0265310462697
 20
39.86161011525604
 30
0.0
 10
64.0265310462697
 20
39.86161011525604
 30
0.0
 10
61.90986437960305
 20
39.86161011525604
 30
0.0
 10
61.86645617647805
 20
39.86161011525604
 30
0.0
 10
61.86645617647805
 20
39.8168238739366
 30
0.0
 10
61.86645617647805
 20
38.70750312740881
 30
0.0
 10
61.86645617647805
 20
38.70474705101992
 30
0.0
 10
61.87506891519332
 20
38.70474705101992
 30
0.0
 10
63.55868707925582
 20
38.70474705101992
 30
0.0
 10
63.55868707925582
 20
38.70474705101992
 30
0.0
 10
63.55868707925582
 20
38.70474705101992
 30
0.0
 10
63.53698297769331
 20
38.66891805796436
 30
0.0
 10
63.53698297769331
 20
38.66891805796436
 30
0.0
 10
63.00816082057526
 20
37.8045436004991
 30
0.0
 10
62.30398330321413
 20
37.1165580319227
 30
0.0
 10
61.44581001762386
 20
36.62184232011714
 30
0.0
 10
61.47130372422109
 20
36.58429077931854
 30
0.0
 10
62.21096572508916
 20
35.51768921681853
 30
0.0
 10
62.23956001762386
 20
35.4763480709852
 30
0.0
 10
62.98749024765861
 20
36.09474271074214
 30
0.0
 10
63.5583425697072
 20
36.7940970944227
 30
0.0
 10
63.98208931449886
 20
37.61471883921436
 30
0.0
 10
63.98208931449886
 20
37.61471883921436
 30
0.0
 10
64.0265310462697
 20
37.60403904320742
 30
0.0
 10
64.0265310462697
 20
37.60403904320742
 30
0.0
 10
64.0265310462697
 20
37.60403904320742
 30
0.0
 10
64.0265310462697
 20
35.0391654537977
 30
0.0
 10
64.0265310462697
 20
34.99334568383242
 30
0.0
 10
64.07062826849193
 20
34.99334568383242
 30
0.0
 10
65.27262208359609
 20
34.99334568383242
 30
0.0
 10
65.31671930581831
 20
34.99334568383242
 30
0.0
 10
65.31671930581831
 20
35.0391654537977
 30
0.0
 10
65.31671930581831
 20
37.41042467688798
 30
0.0
 10
65.31671930581831
 20
37.41042467688798
 30
0.0
 10
65.31671930581831
 20
37.41042467688798
 30
0.0
 10
65.36081652804054
 20
37.42144898244354
 30
0.0
 10
65.36081652804054
 20
37.42144898244354
 30
0.0
 10
65.78800836831831
 20
36.60668389997825
 30
0.0
 10
66.33474502196415
 20
35.96038398678382
 30
0.0
 10
66.9848345401933
 20
35.49632962480465
 30
0.0
 10
67.00688315130442
 20
35.55248468122825
 30
0.0
 10
67.50504395859609
 20
36.83612725935326
 30
0.0
 10
67.51813532144331
 20
36.87092272376297
 30
0.0
 10
67.1488210853322
 20
37.09761000674909
 30
0.0
 10
66.40399144123498
 20
37.56373142601992
 30
0.0
 10
65.7039480384572
 20
38.66891805796436
 30
0.0
 10
65.7039480384572
 20
38.66891805796436
 30
0.0
 10
65.68121040824888
 20
38.70474705101992
 30
0.0
 10
65.68121040824888
 20
38.70474705101992
 30
0.0
 10
65.68121040824888
 20
38.70474705101992
 30
0.0
 10
67.31005155408221
 20
38.70474705101992
 30
0.0
 10
67.35552681449886
 20
38.70474705101992
 30
0.0
 10
67.35552681449886
 20
38.74884427324214
 30
0.0
 10
67.35552681449886
 20
39.81751289303382
 30
0.0
 10
67.35552681449886
 20
39.86161011525604
 30
0.0
 10
67.30970704453359
 20
39.86161011525604
 30
0.0
 10
65.31671930581831
 20
39.86161011525604
 30
0.0
 10
65.31671930581831
 20
39.86161011525604
 30
0.0
 10
65.31671930581831
 20
39.86161011525604
 30
0.0
 10
65.31671930581831
 20
40.70738105709629
 30
0.0
 10
65.31671930581831
 20
40.70738105709629
 30
0.0
 10
65.31671930581831
 20
40.70738105709629
 30
0.0
 10
67.16949165824885
 20
40.70738105709629
 30
0.0
 10
67.21496691866554
 20
40.70738105709629
 30
0.0
 10
67.21496691866554
 20
40.75147827931853
 30
0.0
 10
67.21496691866554
 20
41.81187866994353
 30
0.0
 10
67.21496691866554
 20
41.85563138261714
 30
0.0
 10
67.16949165824885
 20
41.85563138261714
 30
0.0
 10
65.31671930581831
 20
41.85563138261714
 30
0.0
 10
65.31671930581831
 20
41.85563138261714
 30
0.0
 10
65.31671930581831
 20
41.85563138261714
 30
0.0
 10
65.31671930581831
 20
42.87193455101991
 30
0.0
 10
65.31671930581831
 20
42.91637628279075
 30
0.0
 10
65.27262208359609
 20
42.91637628279075
 30
0.0
 10
64.07062826849193
 20
42.91637628279075
 30
0.0
 10
64.0265310462697
 20
42.91637628279075
 30
0.0
  0
SPLINE
  5
E39
330
E1F
100
AcDbEntity
  8
WAKU
100
AcDbSpline
210
0.0
220
0.0
230
1.0
 70
     9
 71
     3
 72
    29
 73
    25
 74
     0
 42
0.000000001
 43
0.0000000001
 40
0.0
 40
0.0
 40
0.0
 40
0.0
 40
1.0
 40
1.0
 40
1.0
 40
2.0
 40
2.0
 40
2.0
 40
3.0
 40
3.0
 40
3.0
 40
4.0
 40
4.0
 40
4.0
 40
5.0
 40
5.0
 40
5.0
 40
6.0
 40
6.0
 40
6.0
 40
7.0
 40
7.0
 40
7.0
 40
8.0
 40
8.0
 40
8.0
 40
8.0
 10
52.86201010442942
 20
40.47552613088103
 30
0.0
 10
52.84340658880442
 20
40.53271471595047
 30
0.0
 10
52.72213922769331
 20
40.83450508053378
 30
0.0
 10
52.68596572508915
 20
40.89996189476992
 30
0.0
 10
52.68596572508915
 20
40.89996189476992
 30
0.0
 10
52.66632868081831
 20
40.93475735917964
 30
0.0
 10
52.66632868081831
 20
40.93475735917964
 30
0.0
 10
52.66632868081831
 20
40.93475735917964
 30
0.0
 10
54.5883474525197
 20
40.93475735917964
 30
0.0
 10
54.5883474525197
 20
40.93475735917964
 30
0.0
 10
54.5883474525197
 20
40.93475735917964
 30
0.0
 10
54.58042373290165
 20
40.9054740475477
 30
0.0
 10
54.58042373290165
 20
40.9054740475477
 30
0.0
 10
54.5015310462697
 20
40.61401896942268
 30
0.0
 10
54.46329048637386
 20
40.53374824459631
 30
0.0
 10
54.42815051241554
 20
40.47104750674907
 30
0.0
 10
54.42815051241554
 20
40.47104750674907
 30
0.0
 10
54.42126032144331
 20
40.45898967254768
 30
0.0
 10
54.42126032144331
 20
40.45898967254768
 30
0.0
 10
54.42126032144331
 20
40.45898967254768
 30
0.0
 10
52.86683323810998
 20
40.45898967254768
 30
0.0
 10
52.86683323810998
 20
40.45898967254768
 30
0.0
 10
52.86683323810998
 20
40.45898967254768
 30
0.0
 10
52.86201010442942
 20
40.47552613088103
 30
0.0
 10
52.86201010442942
 20
40.47552613088103
 30
0.0
  0
SPLINE
  5
E3A
330
E1F
100
AcDbEntity
  8
WAKU
100
AcDbSpline
210
0.0
220
0.0
230
1.0
 70
     9
 71
     3
 72
   203
 73
   199
 74
     0
 42
0.000000001
 43
0.0000000001
 40
0.0
 40
0.0
 40
0.0
 40
0.0
 40
1.0
 40
1.0
 40
1.0
 40
2.0
 40
2.0
 40
2.0
 40
3.0
 40
3.0
 40
3.0
 40
4.0
 40
4.0
 40
4.0
 40
5.0
 40
5.0
 40
5.0
 40
6.0
 40
6.0
 40
6.0
 40
7.0
 40
7.0
 40
7.0
 40
8.0
 40
8.0
 40
8.0
 40
9.0
 40
9.0
 40
9.0
 40
10.0
 40
10.0
 40
10.0
 40
11.0
 40
11.0
 40
11.0
 40
12.0
 40
12.0
 40
12.0
 40
13.0
 40
13.0
 40
13.0
 40
14.0
 40
14.0
 40
14.0
 40
15.0
 40
15.0
 40
15.0
 40
16.0
 40
16.0
 40
16.0
 40
17.0
 40
17.0
 40
17.0
 40
18.0
 40
18.0
 40
18.0
 40
19.0
 40
19.0
 40
19.0
 40
20.0
 40
20.0
 40
20.0
 40
21.0
 40
21.0
 40
21.0
 40
22.0
 40
22.0
 40
22.0
 40
23.0
 40
23.0
 40
23.0
 40
24.0
 40
24.0
 40
24.0
 40
25.0
 40
25.0
 40
25.0
 40
26.0
 40
26.0
 40
26.0
 40
27.0
 40
27.0
 40
27.0
 40
28.0
 40
28.0
 40
28.0
 40
29.0
 40
29.0
 40
29.0
 40
30.0
 40
30.0
 40
30.0
 40
31.0
 40
31.0
 40
31.0
 40
32.0
 40
32.0
 40
32.0
 40
33.0
 40
33.0
 40
33.0
 40
34.0
 40
34.0
 40
34.0
 40
35.0
 40
35.0
 40
35.0
 40
36.0
 40
36.0
 40
36.0
 40
37.0
 40
37.0
 40
37.0
 40
38.0
 40
38.0
 40
38.0
 40
39.0
 40
39.0
 40
39.0
 40
40.0
 40
40.0
 40
40.0
 40
41.0
 40
41.0
 40
41.0
 40
42.0
 40
42.0
 40
42.0
 40
43.0
 40
43.0
 40
43.0
 40
44.0
 40
44.0
 40
44.0
 40
45.0
 40
45.0
 40
45.0
 40
46.0
 40
46.0
 40
46.0
 40
47.0
 40
47.0
 40
47.0
 40
48.0
 40
48.0
 40
48.0
 40
49.0
 40
49.0
 40
49.0
 40
50.0
 40
50.0
 40
50.0
 40
51.0
 40
51.0
 40
51.0
 40
52.0
 40
52.0
 40
52.0
 40
53.0
 40
53.0
 40
53.0
 40
54.0
 40
54.0
 40
54.0
 40
55.0
 40
55.0
 40
55.0
 40
56.0
 40
56.0
 40
56.0
 40
57.0
 40
57.0
 40
57.0
 40
58.0
 40
58.0
 40
58.0
 40
59.0
 40
59.0
 40
59.0
 40
60.0
 40
60.0
 40
60.0
 40
61.0
 40
61.0
 40
61.0
 40
62.0
 40
62.0
 40
62.0
 40
63.0
 40
63.0
 40
63.0
 40
64.0
 40
64.0
 40
64.0
 40
65.0
 40
65.0
 40
65.0
 40
66.0
 40
66.0
 40
66.0
 40
66.0
 10
50.02221789522804
 20
42.70346938174909
 30
0.0
 10
50.17380209661692
 20
42.45611152584632
 30
0.0
 10
50.30471572508915
 20
42.2077201412977
 30
0.0
 10
50.40841309922109
 20
41.96449639997825
 30
0.0
 10
50.40841309922109
 20
41.96449639997825
 30
0.0
 10
50.42253799071414
 20
41.93176799286018
 30
0.0
 10
50.42253799071414
 20
41.93176799286018
 30
0.0
 10
50.42253799071414
 20
41.93176799286018
 30
0.0
 10
49.28669000894331
 20
41.93176799286018
 30
0.0
 10
49.24190376762386
 20
41.93176799286018
 30
0.0
 10
49.24190376762386
 20
41.88801528018657
 30
0.0
 10
49.24190376762386
 20
40.97816556230464
 30
0.0
 10
49.24190376762386
 20
40.93475735917964
 30
0.0
 10
49.28737902804054
 20
40.93475735917964
 30
0.0
 10
51.28829048637386
 20
40.93475735917964
 30
0.0
 10
51.28829048637386
 20
40.93475735917964
 30
0.0
 10
51.28829048637386
 20
40.93475735917964
 30
0.0
 10
51.29518067734609
 20
40.9237330536241
 30
0.0
 10
51.29518067734609
 20
40.9237330536241
 30
0.0
 10
51.38130806449886
 20
40.78661825327685
 30
0.0
 10
51.40921333793636
 20
40.7104816430338
 30
0.0
 10
51.48500543863081
 20
40.4899955319227
 30
0.0
 10
51.48500543863081
 20
40.4899955319227
 30
0.0
 10
51.49568523463774
 20
40.45898967254768
 30
0.0
 10
51.49568523463774
 20
40.45898967254768
 30
0.0
 10
51.49568523463774
 20
40.45898967254768
 30
0.0
 10
49.6518701304711
 20
40.45898967254768
 30
0.0
 10
49.60639487005442
 20
40.45898967254768
 30
0.0
 10
49.60639487005442
 20
40.41558146942271
 30
0.0
 10
49.60639487005442
 20
39.6063285397352
 30
0.0
 10
49.60639487005442
 20
39.56326484615882
 30
0.0
 10
49.65255914956832
 20
39.56326484615882
 30
0.0
 10
52.95399415390861
 20
39.56326484615882
 30
0.0
 10
52.95399415390861
 20
39.56326484615882
 30
0.0
 10
52.95399415390861
 20
39.56326484615882
 30
0.0
 10
52.95399415390861
 20
39.17982571855464
 30
0.0
 10
52.95399415390861
 20
39.17982571855464
 30
0.0
 10
52.95399415390861
 20
39.17982571855464
 30
0.0
 10
49.89578289088774
 20
39.17982571855464
 30
0.0
 10
49.84961861137386
 20
39.17982571855464
 30
0.0
 10
49.84961861137386
 20
39.13676202497825
 30
0.0
 10
49.84961861137386
 20
38.46117880015187
 30
0.0
 10
49.84961861137386
 20
38.4184596161241
 30
0.0
 10
49.89578289088774
 20
38.4184596161241
 30
0.0
 10
52.95399415390861
 20
38.4184596161241
 30
0.0
 10
52.95399415390861
 20
38.4184596161241
 30
0.0
 10
52.95399415390861
 20
38.4184596161241
 30
0.0
 10
52.95399415390861
 20
38.03502048851992
 30
0.0
 10
52.95399415390861
 20
38.03502048851992
 30
0.0
 10
52.95399415390861
 20
38.03502048851992
 30
0.0
 10
49.28806804713776
 20
38.03502048851992
 30
0.0
 10
49.24190376762386
 20
38.03502048851992
 30
0.0
 10
49.24190376762386
 20
37.99161228539492
 30
0.0
 10
49.24190376762386
 20
37.14067370032547
 30
0.0
 10
49.24190376762386
 20
37.09726549720048
 30
0.0
 10
49.28772353758915
 20
37.09726549720048
 30
0.0
 10
51.88325847682524
 20
37.09726549720048
 30
0.0
 10
51.88325847682524
 20
37.09726549720048
 30
0.0
 10
51.88325847682524
 20
37.09726549720048
 30
0.0
 10
51.8935937632836
 20
37.05316827497826
 30
0.0
 10
51.8935937632836
 20
37.05316827497826
 30
0.0
 10
50.77669380668638
 20
36.51573337914492
 30
0.0
 10
49.73799751762386
 20
36.26286337046437
 30
0.0
 10
49.19884007404748
 20
36.15709893904075
 30
0.0
 10
49.22915691432526
 20
36.10438897810325
 30
0.0
 10
49.8103445228322
 20
35.10358873938797
 30
0.0
 10
49.82791450981136
 20
35.0732718991102
 30
0.0
 10
51.74442112873498
 20
35.62276462914493
 30
0.0
 10
52.36109322074886
 20
36.04582235483937
 30
0.0
 10
52.91575359401274
 20
36.50264201629771
 30
0.0
 10
52.91575359401274
 20
36.50264201629771
 30
0.0
 10
52.95399415390861
 20
36.53433689476992
 30
0.0
 10
52.95399415390861
 20
36.53433689476992
 30
0.0
 10
52.95399415390861
 20
36.53433689476992
 30
0.0
 10
52.95399415390861
 20
35.04674466386715
 30
0.0
 10
52.95399415390861
 20
35.00161391299909
 30
0.0
 10
52.99809137613081
 20
35.00161391299909
 30
0.0
 10
54.24659398029748
 20
35.00161391299909
 30
0.0
 10
54.2910357120683
 20
35.00161391299909
 30
0.0
 10
54.2910357120683
 20
35.04674466386715
 30
0.0
 10
54.2910357120683
 20
36.5674098114366
 30
0.0
 10
54.2910357120683
 20
36.5674098114366
 30
0.0
 10
54.2910357120683
 20
36.5674098114366
 30
0.0
 10
54.32927627196415
 20
36.5367484616102
 30
0.0
 10
54.32927627196415
 20
36.5367484616102
 30
0.0
 10
55.1619558509572
 20
35.86116523678381
 30
0.0
 10
55.75451227456831
 20
35.53663724199215
 30
0.0
 10
57.39920085963776
 20
35.0732718991102
 30
0.0
 10
57.41642633706831
 20
35.10255521074215
 30
0.0
 10
58.03998862005443
 20
36.13505032792964
 30
0.0
 10
58.07306153672111
 20
36.18982734615882
 30
0.0
 10
57.60142796467248
 20
36.27113159963104
 30
0.0
 10
56.43422961397804
 20
36.47887085744353
 30
0.0
 10
55.3324880775197
 20
37.05316827497826
 30
0.0
 10
55.3324880775197
 20
37.05316827497826
 30
0.0
 10
55.34316787352665
 20
37.09726549720048
 30
0.0
 10
55.34316787352665
 20
37.09726549720048
 30
0.0
 10
55.34316787352665
 20
37.09726549720048
 30
0.0
 10
57.93870281276276
 20
37.09726549720048
 30
0.0
 10
57.98486709227663
 20
37.09726549720048
 30
0.0
 10
57.98486709227663
 20
37.14067370032547
 30
0.0
 10
57.98486709227663
 20
37.99161228539492
 30
0.0
 10
57.98486709227663
 20
38.03502048851992
 30
0.0
 10
57.93870281276276
 20
38.03502048851992
 30
0.0
 10
54.2910357120683
 20
38.03502048851992
 30
0.0
 10
54.2910357120683
 20
38.03502048851992
 30
0.0
 10
54.2910357120683
 20
38.03502048851992
 30
0.0
 10
54.2910357120683
 20
38.4184596161241
 30
0.0
 10
54.2910357120683
 20
38.4184596161241
 30
0.0
 10
54.2910357120683
 20
38.4184596161241
 30
0.0
 10
57.36819500026276
 20
38.4184596161241
 30
0.0
 10
57.41435927977665
 20
38.4184596161241
 30
0.0
 10
57.41435927977665
 20
38.46117880015187
 30
0.0
 10
57.41435927977665
 20
39.13676202497825
 30
0.0
 10
57.41435927977665
 20
39.17982571855464
 30
0.0
 10
57.36819500026276
 20
39.17982571855464
 30
0.0
 10
54.2910357120683
 20
39.17982571855464
 30
0.0
 10
54.2910357120683
 20
39.17982571855464
 30
0.0
 10
54.2910357120683
 20
39.17982571855464
 30
0.0
 10
54.2910357120683
 20
39.56326484615882
 30
0.0
 10
54.2910357120683
 20
39.56326484615882
 30
0.0
 10
54.2910357120683
 20
39.56326484615882
 30
0.0
 10
57.62037598984609
 20
39.56326484615882
 30
0.0
 10
57.66654026935999
 20
39.56326484615882
 30
0.0
 10
57.66654026935999
 20
39.6063285397352
 30
0.0
 10
57.66654026935999
 20
40.41558146942271
 30
0.0
 10
57.66654026935999
 20
40.45898967254768
 30
0.0
 10
57.62140951849192
 20
40.45898967254768
 30
0.0
 10
55.77759441432526
 20
40.45898967254768
 30
0.0
 10
55.77759441432526
 20
40.45898967254768
 30
0.0
 10
55.77759441432526
 20
40.45898967254768
 30
0.0
 10
55.77759441432526
 20
40.48241632185325
 30
0.0
 10
55.77759441432526
 20
40.48241632185325
 30
0.0
 10
55.77759441432526
 20
40.50033081838103
 30
0.0
 10
55.94605958359609
 20
40.91684286265186
 30
0.0
 10
55.94812664088776
 20
40.92097697723519
 30
0.0
 10
55.94812664088776
 20
40.92097697723519
 30
0.0
 10
55.95432781276276
 20
40.93475735917964
 30
0.0
 10
55.95432781276276
 20
40.93475735917964
 30
0.0
 10
55.95432781276276
 20
40.93475735917964
 30
0.0
 10
57.93904732231136
 20
40.93475735917964
 30
0.0
 10
57.98452258272803
 20
40.93475735917964
 30
0.0
 10
57.98452258272803
 20
40.97816556230464
 30
0.0
 10
57.98452258272803
 20
41.88801528018657
 30
0.0
 10
57.98452258272803
 20
41.93176799286018
 30
0.0
 10
57.9400808509572
 20
41.93176799286018
 30
0.0
 10
56.83489421901274
 20
41.93176799286018
 30
0.0
 10
56.83489421901274
 20
41.93176799286018
 30
0.0
 10
56.83489421901274
 20
41.93176799286018
 30
0.0
 10
56.85659832057526
 20
41.96725247636714
 30
0.0
 10
56.85659832057526
 20
41.96725247636714
 30
0.0
 10
57.00645997422109
 20
42.21254327497825
 30
0.0
 10
57.1370290931447
 20
42.49883070987407
 30
0.0
 10
57.22625706623498
 20
42.70243585310325
 30
0.0
 10
57.17044651935998
 20
42.71208212046436
 30
0.0
 10
55.96707466606137
 20
42.91534275414489
 30
0.0
 10
55.92952312526275
 20
42.92154392601992
 30
0.0
 10
55.85993219644332
 20
42.69141154754769
 30
0.0
 10
55.69697917995025
 20
42.24079305796435
 30
0.0
 10
55.53195910616555
 20
41.94382582706157
 30
0.0
 10
55.53195910616555
 20
41.94382582706157
 30
0.0
 10
55.52506891519332
 20
41.93176799286018
 30
0.0
 10
55.52506891519332
 20
41.93176799286018
 30
0.0
 10
55.52506891519332
 20
41.93176799286018
 30
0.0
 10
55.11372451415165
 20
41.93176799286018
 30
0.0
 10
55.11372451415165
 20
41.93176799286018
 30
0.0
 10
55.11372451415165
 20
41.93176799286018
 30
0.0
 10
55.11372451415165
 20
42.85470907358936
 30
0.0
 10
55.11372451415165
 20
42.89949531490881
 30
0.0
 10
55.06997180147804
 20
42.89949531490881
 30
0.0
 10
53.96168458359611
 20
42.89949531490881
 30
0.0
 10
53.91724285182526
 20
42.89949531490881
 30
0.0
 10
53.91724285182526
 20
42.85470907358936
 30
0.0
 10
53.91724285182526
 20
41.93176799286018
 30
0.0
 10
53.91724285182526
 20
41.93176799286018
 30
0.0
 10
53.91724285182526
 20
41.93176799286018
 30
0.0
 10
53.34639052977665
 20
41.93176799286018
 30
0.0
 10
53.34639052977665
 20
41.93176799286018
 30
0.0
 10
53.34639052977665
 20
41.93176799286018
 30
0.0
 10
53.34639052977665
 20
42.85470907358936
 30
0.0
 10
53.34639052977665
 20
42.89949531490881
 30
0.0
 10
53.30229330755443
 20
42.89949531490881
 30
0.0
 10
52.20330784748497
 20
42.89949531490881
 30
0.0
 10
52.15921062526276
 20
42.89949531490881
 30
0.0
 10
52.15921062526276
 20
42.85470907358936
 30
0.0
 10
52.15921062526276
 20
41.93176799286018
 30
0.0
 10
52.15921062526276
 20
41.93176799286018
 30
0.0
 10
52.15921062526276
 20
41.93176799286018
 30
0.0
 10
51.72616212265859
 20
41.93176799286018
 30
0.0
 10
51.72616212265859
 20
41.93176799286018
 30
0.0
 10
51.72616212265859
 20
41.93176799286018
 30
0.0
 10
51.72099447942943
 20
41.94795994164493
 30
0.0
 10
51.72099447942943
 20
41.94795994164493
 30
0.0
 10
51.57836752630442
 20
42.40064548851992
 30
0.0
 10
51.46467937526274
 20
42.65007040171435
 30
0.0
 10
51.31860732665165
 20
42.92188843556853
 30
0.0
 10
51.28691244817943
 20
42.91672079233936
 30
0.0
 10
50.08422961397805
 20
42.7138046682074
 30
0.0
 10
50.02221789522804
 20
42.70346938174909
 30
0.0
  0
SPLINE
  5
E3B
330
E1F
100
AcDbEntity
  8
WAKU
100
AcDbSpline
210
0.0
220
0.0
230
1.0
 70
     9
 71
     3
 72
    41
 73
    37
 74
     0
 42
0.000000001
 43
0.0000000001
 40
0.0
 40
0.0
 40
0.0
 40
0.0
 40
1.0
 40
1.0
 40
1.0
 40
2.0
 40
2.0
 40
2.0
 40
3.0
 40
3.0
 40
3.0
 40
4.0
 40
4.0
 40
4.0
 40
5.0
 40
5.0
 40
5.0
 40
6.0
 40
6.0
 40
6.0
 40
7.0
 40
7.0
 40
7.0
 40
8.0
 40
8.0
 40
8.0
 40
9.0
 40
9.0
 40
9.0
 40
10.0
 40
10.0
 40
10.0
 40
11.0
 40
11.0
 40
11.0
 40
12.0
 40
12.0
 40
12.0
 40
12.0
 10
40.24538141519331
 20
42.52087932098517
 30
0.0
 10
40.24538141519331
 20
42.47678209876297
 30
0.0
 10
40.24538141519331
 20
41.33232137827685
 30
0.0
 10
40.24538141519331
 20
41.28822415605464
 30
0.0
 10
40.2912011851586
 20
41.28822415605464
 30
0.0
 10
43.54647190998497
 20
41.28822415605464
 30
0.0
 10
43.54647190998497
 20
41.28822415605464
 30
0.0
 10
43.54647190998497
 20
41.28822415605464
 30
0.0
 10
43.54647190998497
 20
36.63011054928381
 30
0.0
 10
43.54647190998497
 20
36.63011054928381
 30
0.0
 10
43.54647190998497
 20
36.63011054928381
 30
0.0
 10
39.91740832491553
 20
36.63011054928381
 30
0.0
 10
39.87124404540166
 20
36.63011054928381
 30
0.0
 10
39.87124404540166
 20
36.58566881751298
 30
0.0
 10
39.87124404540166
 20
35.43293986786022
 30
0.0
 10
39.87124404540166
 20
35.38884264563797
 30
0.0
 10
39.91775283446415
 20
35.38884264563797
 30
0.0
 10
48.60525012179054
 20
35.38884264563797
 30
0.0
 10
48.65141440130443
 20
35.38884264563797
 30
0.0
 10
48.65141440130443
 20
35.43293986786022
 30
0.0
 10
48.65141440130443
 20
36.58566881751298
 30
0.0
 10
48.65141440130443
 20
36.63011054928381
 30
0.0
 10
48.60525012179054
 20
36.63011054928381
 30
0.0
 10
44.9765310462697
 20
36.63011054928381
 30
0.0
 10
44.9765310462697
 20
36.63011054928381
 30
0.0
 10
44.9765310462697
 20
36.63011054928381
 30
0.0
 10
44.9765310462697
 20
41.28822415605464
 30
0.0
 10
44.9765310462697
 20
41.28822415605464
 30
0.0
 10
44.9765310462697
 20
41.28822415605464
 30
0.0
 10
48.24075901935998
 20
41.28822415605464
 30
0.0
 10
48.28692329887386
 20
41.28822415605464
 30
0.0
 10
48.28692329887386
 20
41.33232137827685
 30
0.0
 10
48.28692329887386
 20
42.47678209876297
 30
0.0
 10
48.28692329887386
 20
42.52087932098517
 30
0.0
 10
48.24041450981138
 20
42.52087932098517
 30
0.0
 10
40.29154569470721
 20
42.52087932098517
 30
0.0
 10
40.24538141519331
 20
42.52087932098517
 30
0.0
  0
SPLINE
  5
E3C
330
E1F
100
AcDbEntity
  8
WAKU
100
AcDbSpline
210
0.0
220
0.0
230
1.0
 70
     9
 71
     3
 72
    17
 73
    13
 74
     0
 42
0.000000001
 43
0.0000000001
 40
0.0
 40
0.0
 40
0.0
 40
0.0
 40
1.0
 40
1.0
 40
1.0
 40
2.0
 40
2.0
 40
2.0
 40
3.0
 40
3.0
 40
3.0
 40
4.0
 40
4.0
 40
4.0
 40
4.0
 10
22.23166613741554
 20
36.78789592254771
 30
0.0
 10
25.25198135008916
 20
37.05695788001297
 30
0.0
 10
27.22498753498499
 20
37.56200887827687
 30
0.0
 10
28.49691678845721
 20
41.30717218122825
 30
0.0
 10
28.49691678845721
 20
41.30717218122825
 30
0.0
 10
29.86186362005443
 20
40.66741794945742
 30
0.0
 10
29.86186362005443
 20
40.66741794945742
 30
0.0
 10
28.41251194904748
 20
36.82992608747826
 30
0.0
 10
26.33684191866554
 20
35.7860621551866
 30
0.0
 10
22.65265680581832
 20
35.3488795379991
 30
0.0
 10
22.65265680581832
 20
35.3488795379991
 30
0.0
 10
22.23166613741554
 20
36.78789592254771
 30
0.0
 10
22.23166613741554
 20
36.78789592254771
 30
0.0
  0
SPLINE
  5
E3D
330
E1F
100
AcDbEntity
  8
WAKU
100
AcDbSpline
210
0.0
220
0.0
230
1.0
 70
     9
 71
     3
 72
    17
 73
    13
 74
     0
 42
0.000000001
 43
0.0000000001
 40
0.0
 40
0.0
 40
0.0
 40
0.0
 40
1.0
 40
1.0
 40
1.0
 40
2.0
 40
2.0
 40
2.0
 40
3.0
 40
3.0
 40
3.0
 40
4.0
 40
4.0
 40
4.0
 40
4.0
 10
24.45719782144332
 20
38.40364570553381
 30
0.0
 10
23.34443197942943
 20
38.92523316213104
 30
0.0
 10
22.37188152370026
 20
39.2029078583116
 30
0.0
 10
21.70801162352665
 20
39.3799857662977
 30
0.0
 10
21.70801162352665
 20
39.3799857662977
 30
0.0
 10
22.20341635442943
 20
40.52444648678378
 30
0.0
 10
22.20341635442943
 20
40.52444648678378
 30
0.0
 10
22.75532065130443
 20
40.40662422115882
 30
0.0
 10
24.08306045165165
 20
40.06969388261715
 30
0.0
 10
25.00875760876971
 20
39.63216675588103
 30
0.0
 10
25.00875760876971
 20
39.63216675588103
 30
0.0
 10
24.45719782144332
 20
38.40364570553381
 30
0.0
 10
24.45719782144332
 20
38.40364570553381
 30
0.0
  0
SPLINE
  5
E3E
330
E1F
100
AcDbEntity
  8
WAKU
100
AcDbSpline
210
0.0
220
0.0
230
1.0
 70
     9
 71
     3
 72
    17
 73
    13
 74
     0
 42
0.000000001
 43
0.0000000001
 40
0.0
 40
0.0
 40
0.0
 40
0.0
 40
1.0
 40
1.0
 40
1.0
 40
2.0
 40
2.0
 40
2.0
 40
3.0
 40
3.0
 40
3.0
 40
4.0
 40
4.0
 40
4.0
 40
4.0
 10
29.31960559054054
 20
41.70266914303382
 30
0.0
 10
29.24484701849193
 20
42.03925497202686
 30
0.0
 10
29.09532987439471
 20
42.53569323157547
 30
0.0
 10
28.90826118949887
 20
42.92292196421437
 30
0.0
 10
28.90826118949887
 20
42.92292196421437
 30
0.0
 10
29.72130372422109
 20
43.04074422983936
 30
0.0
 10
29.72130372422109
 20
43.04074422983936
 30
0.0
 10
29.96487197508915
 20
42.56945516733935
 30
0.0
 10
30.13299263481137
 20
41.92970093556853
 30
0.0
 10
30.15159615043637
 20
41.85425334442268
 30
0.0
 10
30.15159615043637
 20
41.85425334442268
 30
0.0
 10
29.31960559054054
 20
41.70266914303382
 30
0.0
 10
29.31960559054054
 20
41.70266914303382
 30
0.0
  0
SPLINE
  5
E3F
330
E1F
100
AcDbEntity
  8
WAKU
100
AcDbSpline
210
0.0
220
0.0
230
1.0
 70
     9
 71
     3
 72
    17
 73
    13
 74
     0
 42
0.000000001
 43
0.0000000001
 40
0.0
 40
0.0
 40
0.0
 40
0.0
 40
1.0
 40
1.0
 40
1.0
 40
2.0
 40
2.0
 40
2.0
 40
3.0
 40
3.0
 40
3.0
 40
4.0
 40
4.0
 40
4.0
 40
4.0
 10
27.95431424939471
 20
41.50905477671435
 30
0.0
 10
27.91710721814471
 20
41.70266914303382
 30
0.0
 10
27.78584908012387
 20
42.36722806230464
 30
0.0
 10
27.58982314696415
 20
42.83851712480464
 30
0.0
 10
27.58982314696415
 20
42.83851712480464
 30
0.0
 10
28.42181370685999
 20
42.94772665171436
 30
0.0
 10
28.42181370685999
 20
42.94772665171436
 30
0.0
 10
28.5058740367211
 20
42.75445679494352
 30
0.0
 10
28.63678766519332
 20
42.48505032792964
 30
0.0
 10
28.83315810790165
 20
41.66890720726992
 30
0.0
 10
28.83315810790165
 20
41.66890720726992
 30
0.0
 10
27.95431424939471
 20
41.50905477671435
 30
0.0
 10
27.95431424939471
 20
41.50905477671435
 30
0.0
  0
SPLINE
  5
E40
330
E1F
100
AcDbEntity
  8
WAKU
100
AcDbSpline
210
0.0
220
0.0
230
1.0
 70
     9
 71
     3
 72
    17
 73
    13
 74
     0
 42
0.000000001
 43
0.0000000001
 40
0.0
 40
0.0
 40
0.0
 40
0.0
 40
1.0
 40
1.0
 40
1.0
 40
2.0
 40
2.0
 40
2.0
 40
3.0
 40
3.0
 40
3.0
 40
4.0
 40
4.0
 40
4.0
 40
4.0
 10
25.27988662352665
 20
40.4403861569227
 30
0.0
 10
24.27012913654749
 20
40.88618151282547
 30
0.0
 10
23.50359539088776
 20
41.11355781490881
 30
0.0
 10
22.45594185356138
 20
41.35747057532547
 30
0.0
 10
22.45594185356138
 20
41.35747057532547
 30
0.0
 10
22.98924263481137
 20
42.49366306664492
 30
0.0
 10
22.98924263481137
 20
42.49366306664492
 30
0.0
 10
24.05481066866554
 20
42.28316773244353
 30
0.0
 10
24.84993870685999
 20
42.06440416907547
 30
0.0
 10
25.86899795165165
 20
41.66890720726992
 30
0.0
 10
25.86899795165165
 20
41.66890720726992
 30
0.0
 10
25.27988662352665
 20
40.4403861569227
 30
0.0
 10
25.27988662352665
 20
40.4403861569227
 30
0.0
  0
SPLINE
  5
E41
330
E1F
100
AcDbEntity
  8
WAKU
100
AcDbSpline
210
0.0
220
0.0
230
1.0
 70
    11
 71
     3
 72
    32
 73
    28
 74
     0
 42
0.000000001
 43
0.0000000001
 40
0.0
 40
0.0
 40
0.0
 40
0.0
 40
1.0
 40
1.0
 40
1.0
 40
2.0
 40
2.0
 40
2.0
 40
3.0
 40
3.0
 40
3.0
 40
4.0
 40
4.0
 40
4.0
 40
5.0
 40
5.0
 40
5.0
 40
6.0
 40
6.0
 40
6.0
 40
7.0
 40
7.0
 40
7.0
 40
8.0
 40
8.0
 40
8.0
 40
9.0
 40
9.0
 40
9.0
 40
9.0
 10
17.82917861571415
 20
35.36541599633242
 30
0.0
 10
17.82917861571415
 20
35.36541599633242
 30
0.0
 10
16.24891331623498
 20
35.36541599633242
 30
0.0
 10
16.24891331623498
 20
35.36541599633242
 30
0.0
 10
16.24891331623498
 20
35.36541599633242
 30
0.0
 10
16.24891331623498
 20
38.79914266733937
 30
0.0
 10
16.24891331623498
 20
38.79914266733937
 30
0.0
 10
14.98663033012387
 20
38.13423923851992
 30
0.0
 10
13.86421822074886
 20
37.77250421247825
 30
0.0
 10
13.12558974852665
 20
37.54512791039493
 30
0.0
 10
13.12558974852665
 20
37.54512791039493
 30
0.0
 10
12.30290094644331
 20
38.68132040171437
 30
0.0
 10
12.30290094644331
 20
38.68132040171437
 30
0.0
 10
13.72400283446415
 20
39.04305542775603
 30
0.0
 10
15.06138890217249
 20
39.64077949459632
 30
0.0
 10
16.2864648570336
 20
40.3811305145616
 30
0.0
 10
17.63280817300582
 20
41.19761814476992
 30
0.0
 10
18.52129829887387
 20
42.06440416907547
 30
0.0
 10
19.20377171467248
 20
42.77133776282545
 30
0.0
 10
19.20377171467248
 20
42.77133776282545
 30
0.0
 10
20.54081327283221
 20
41.93831367428381
 30
0.0
 10
20.54081327283221
 20
41.93831367428381
 30
0.0
 10
19.74602974418637
 20
41.16385620900604
 30
0.0
 10
19.02600478758914
 20
40.5582084225477
 30
0.0
 10
17.82917861571415
 20
39.74998902150603
 30
0.0
 10
17.82917861571415
 20
39.74998902150603
 30
0.0
 10
17.82917861571415
 20
35.36541599633242
 30
0.0
 10
17.82917861571415
 20
35.36541599633242
 30
0.0
  0
SPLINE
  5
E42
330
E1F
100
AcDbEntity
  8
WAKU
100
AcDbSpline
210
0.0
220
0.0
230
1.0
 70
     9
 71
     3
 72
    41
 73
    37
 74
     0
 42
0.000000001
 43
0.0000000001
 40
0.0
 40
0.0
 40
0.0
 40
0.0
 40
1.0
 40
1.0
 40
1.0
 40
2.0
 40
2.0
 40
2.0
 40
3.0
 40
3.0
 40
3.0
 40
4.0
 40
4.0
 40
4.0
 40
5.0
 40
5.0
 40
5.0
 40
6.0
 40
6.0
 40
6.0
 40
7.0
 40
7.0
 40
7.0
 40
8.0
 40
8.0
 40
8.0
 40
9.0
 40
9.0
 40
9.0
 40
10.0
 40
10.0
 40
10.0
 40
11.0
 40
11.0
 40
11.0
 40
12.0
 40
12.0
 40
12.0
 40
12.0
 10
3.74907336397804
 20
36.2914576629991
 30
0.0
 10
4.515951619186372
 20
36.56051962046436
 30
0.0
 10
6.133423949915536
 20
37.12448175154076
 30
0.0
 10
6.526509344880821
 20
38.98448880449215
 30
0.0
 10
6.666724731165542
 20
39.62389852671437
 30
0.0
 10
6.657078463804432
 20
40.14548598331159
 30
0.0
 10
6.648121215540541
 20
40.58335761959629
 30
0.0
 10
6.648121215540541
 20
40.58335761959629
 30
0.0
 10
8.2094384898461
 20
40.57508939042963
 30
0.0
 10
8.2094384898461
 20
40.57508939042963
 30
0.0
 10
8.200136732033596
 20
40.21300985483935
 30
0.0
 10
8.190834974221097
 20
39.94360338782548
 30
0.0
 10
8.134335408248871
 20
39.48919529320742
 30
0.0
 10
8.836101358769711
 20
39.78375095726992
 30
0.0
 10
9.54682455755443
 20
40.21300985483935
 30
0.0
 10
9.9767724742211
 20
41.1473197506727
 30
0.0
 10
9.9767724742211
 20
41.1473197506727
 30
0.0
 10
3.67431479192943
 20
41.1473197506727
 30
0.0
 10
3.67431479192943
 20
41.1473197506727
 30
0.0
 10
3.67431479192943
 20
41.1473197506727
 30
0.0
 10
3.67431479192943
 20
42.43440742428381
 30
0.0
 10
3.67431479192943
 20
42.43440742428381
 30
0.0
 10
3.67431479192943
 20
42.43440742428381
 30
0.0
 10
11.88432184488082
 20
42.43440742428381
 30
0.0
 10
11.88432184488082
 20
42.43440742428381
 30
0.0
 10
11.59458931449887
 20
40.36424954667963
 30
0.0
 10
10.65924589001971
 20
39.27869995900604
 30
0.0
 10
9.097928615714151
 20
38.46255683834632
 30
0.0
 10
9.097928615714151
 20
38.46255683834632
 30
0.0
 10
8.115731892623877
 20
39.3799857662977
 30
0.0
 10
8.115731892623877
 20
39.3799857662977
 30
0.0
 10
7.86355090304054
 20
37.67121840518659
 30
0.0
 10
7.246189791929432
 20
36.34175605709631
 30
0.0
 10
4.721623819707209
 20
35.22244453365882
 30
0.0
 10
4.721623819707209
 20
35.22244453365882
 30
0.0
 10
3.74907336397804
 20
36.2914576629991
 30
0.0
 10
3.74907336397804
 20
36.2914576629991
 30
0.0
  0
ENDBLK
  5
E43
330
E1F
100
AcDbEntity
  8
0
100
AcDbBlockEnd
  0
BLOCK
  5
14C6
330
14C3
100
AcDbEntity
  8
0
100
AcDbBlockBegin
  2
_DotBlank
 70
     0
 10
0.0
 20
0.0
 30
0.0
  3
_DotBlank
  1

  0
CIRCLE
  5
14C4
330
14C3
100
AcDbEntity
  8
0
  6
ByBlock
 62
     0
370
    -2
100
AcDbCircle
 10
0.0
 20
0.0
 30
0.0
 40
0.5
  0
LINE
  5
14C5
330
14C3
100
AcDbEntity
  8
0
  6
ByBlock
 62
     0
370
    -2
100
AcDbLine
 10
-0.5
 20
0.0
 30
0.0
 11
-1.0
 21
0.0
 31
0.0
  0
ENDBLK
  5
14C7
330
14C3
100
AcDbEntity
  8
0
100
AcDbBlockEnd
  0
BLOCK
  5
3FE0
330
3FDF
100
AcDbEntity
  8
0
100
AcDbBlockBegin
  2
*D3
 70
     1
 10
0.0
 20
0.0
 30
0.0
  3
*D3
  1

  0
LINE
  5
4067
330
3FDF
100
AcDbEntity
  8
SUNPOU
 62
     0
440
 16777216
370
    -2
100
AcDbLine
 10
382.5710610912578
 20
140.3448455639637
 30
-0.000000000000733
 11
382.5710610912578
 21
111.338172809282
 31
-0.000000000000733
  0
LINE
  5
4068
330
3FDF
100
AcDbEntity
  8
SUNPOU
 62
     0
440
 16777216
370
    -2
100
AcDbLine
 10
482.5710610912578
 20
140.3448455639637
 30
-0.000000000000733
 11
482.5710610912578
 21
111.338172809282
 31
-0.000000000000733
  0
LINE
  5
4069
330
3FDF
100
AcDbEntity
  8
SUNPOU
 62
     0
440
 16777216
370
    -2
100
AcDbLine
 10
384.0710610912578
 20
111.338172809282
 30
-0.000000000000733
 11
481.0710610912577
 21
111.338172809282
 31
-0.000000000000733
  0
INSERT
  5
406A
330
3FDF
100
AcDbEntity
  8
SUNPOU
 62
     0
440
 16777216
370
    -2
100
AcDbBlockReference
  2
_DotBlank
 10
382.5710610912578
 20
111.338172809282
 30
-0.000000000000733
 41
1.5
 42
1.5
 43
1.5
 50
180.0
  0
INSERT
  5
406B
330
3FDF
100
AcDbEntity
  8
SUNPOU
 62
     0
440
 16777216
370
    -2
100
AcDbBlockReference
  2
_DotBlank
 10
482.5710610912578
 20
111.338172809282
 30
-0.000000000000733
 41
1.5
 42
1.5
 43
1.5
  0
MTEXT
  5
406C
330
3FDF
100
AcDbEntity
  8
SUNPOU
 62
     0
440
 16777216
100
AcDbMText
 10
432.5710610912578
 20
114.463172809282
 30
-0.000000000000733
 40
5.0
 41
0.0
 46
0.0
 71
     5
 72
     1
  1
\A1;100
 73
     1
 44
1.0
  0
POINT
  5
406D
330
3FDF
100
AcDbEntity
  8
DEFPOINTS
 62
     0
440
 16777216
100
AcDbPoint
 10
382.5710610912578
 20
145.3448455639636
 30
-0.000000000000733
  0
POINT
  5
406E
330
3FDF
100
AcDbEntity
  8
DEFPOINTS
 62
     0
440
 16777216
100
AcDbPoint
 10
482.5710610912578
 20
145.3448455639636
 30
-0.000000000000733
  0
POINT
  5
406F
330
3FDF
100
AcDbEntity
  8
DEFPOINTS
 62
     0
440
 16777216
100
AcDbPoint
 10
482.5710610912578
 20
111.338172809282
 30
-0.000000000000733
  0
ENDBLK
  5
3FE1
330
3FDF
100
AcDbEntity
  8
0
100
AcDbBlockEnd
  0
BLOCK
  5
3FEC
330
3FEB
100
AcDbEntity
  8
0
100
AcDbBlockBegin
  2
*D4
 70
     1
 10
0.0
 20
0.0
 30
0.0
  3
*D4
  1

  0
LINE
  5
543C
330
3FEB
100
AcDbEntity
  8
SUNPOU
 62
     0
440
 16777216
370
    -2
100
AcDbLine
 10
332.4710610912578
 20
140.3448455639638
 30
-0.000000000000733
 11
332.4710610912578
 21
111.338172809282
 31
-0.000000000000733
  0
LINE
  5
543D
330
3FEB
100
AcDbEntity
  8
SUNPOU
 62
     0
440
 16777216
370
    -2
100
AcDbLine
 10
382.4710610912577
 20
140.3448455639636
 30
-0.000000000000733
 11
382.4710610912577
 21
111.338172809282
 31
-0.000000000000733
  0
LINE
  5
543E
330
3FEB
100
AcDbEntity
  8
SUNPOU
 62
     0
440
 16777216
370
    -2
100
AcDbLine
 10
333.9710610912578
 20
111.338172809282
 30
-0.000000000000733
 11
380.9710610912578
 21
111.338172809282
 31
-0.000000000000733
  0
INSERT
  5
543F
330
3FEB
100
AcDbEntity
  8
SUNPOU
 62
     0
440
 16777216
370
    -2
100
AcDbBlockReference
  2
_DotBlank
 10
332.4710610912578
 20
111.338172809282
 30
-0.000000000000733
 41
1.5
 42
1.5
 43
1.5
 50
180.0
  0
INSERT
  5
5440
330
3FEB
100
AcDbEntity
  8
SUNPOU
 62
     0
440
 16777216
370
    -2
100
AcDbBlockReference
  2
_DotBlank
 10
382.4710610912577
 20
111.338172809282
 30
-0.000000000000733
 41
1.5
 42
1.5
 43
1.5
  0
MTEXT
  5
5441
330
3FEB
100
AcDbEntity
  8
SUNPOU
 62
     0
440
 16777216
100
AcDbMText
 10
357.4710610912577
 20
114.463172809282
 30
-0.000000000000733
 40
5.0
 41
0.0
 46
0.0
 71
     5
 72
     1
  1
\A1;50
 73
     1
 44
1.0
  0
POINT
  5
5442
330
3FEB
100
AcDbEntity
  8
DEFPOINTS
 62
     0
440
 16777216
100
AcDbPoint
 10
332.4710610912578
 20
145.3448455639638
 30
-0.000000000000733
  0
POINT
  5
5443
330
3FEB
100
AcDbEntity
  8
DEFPOINTS
 62
     0
440
 16777216
100
AcDbPoint
 10
382.4710610912577
 20
145.3448455639636
 30
-0.000000000000733
  0
POINT
  5
5444
330
3FEB
100
AcDbEntity
  8
DEFPOINTS
 62
     0
440
 16777216
100
AcDbPoint
 10
382.4710610912577
 20
111.338172809282
 30
-0.000000000000733
  0
ENDBLK
  5
3FED
330
3FEB
100
AcDbEntity
  8
0
100
AcDbBlockEnd
  0
BLOCK
  5
3FF8
330
3FF7
100
AcDbEntity
  8
0
100
AcDbBlockBegin
  2
*D5
 70
     1
 10
0.0
 20
0.0
 30
0.0
  3
*D5
  1

  0
LINE
  5
5472
330
3FF7
100
AcDbEntity
  8
SUNPOU
 62
     0
440
 16777216
370
    -2
100
AcDbLine
 10
322.5710610912581
 20
345.2395935369868
 30
-0.000000000000733
 11
291.7101628187596
 21
345.2395935369868
 31
-0.000000000000733
  0
LINE
  5
5473
330
3FF7
100
AcDbEntity
  8
SUNPOU
 62
     0
440
 16777216
370
    -2
100
AcDbLine
 10
286.7101628187596
 20
303.2395935369868
 30
-0.000000000000733
 11
291.7101628187596
 21
303.2395935369868
 31
-0.000000000000733
  0
LINE
  5
5474
330
3FF7
100
AcDbEntity
  8
SUNPOU
 62
     0
440
 16777216
370
    -2
100
AcDbLine
 10
291.7101628187596
 20
343.7395935369868
 30
-0.000000000000733
 11
291.7101628187596
 21
304.7395935369868
 31
-0.000000000000733
  0
INSERT
  5
5475
330
3FF7
100
AcDbEntity
  8
SUNPOU
 62
     0
440
 16777216
370
    -2
100
AcDbBlockReference
  2
_DotBlank
 10
291.7101628187596
 20
345.2395935369868
 30
-0.000000000000733
 41
1.5
 42
1.5
 43
1.5
 50
90.0
  0
INSERT
  5
5476
330
3FF7
100
AcDbEntity
  8
SUNPOU
 62
     0
440
 16777216
370
    -2
100
AcDbBlockReference
  2
_DotBlank
 10
291.7101628187596
 20
303.2395935369868
 30
-0.000000000000733
 41
1.5
 42
1.5
 43
1.5
 50
270.0
  0
MTEXT
  5
5477
330
3FF7
100
AcDbEntity
  8
SUNPOU
 62
     0
440
 16777216
100
AcDbMText
 10
288.5851628187595
 20
324.2395935369869
 30
-0.000000000000733
 40
5.0
 41
0.0
 46
0.0
 71
     5
 72
     1
  1
\A1;42
 11
0.0000000000000001
 21
1.0
 31
0.0
 73
     1
 44
1.0
  0
POINT
  5
5478
330
3FF7
100
AcDbEntity
  8
DEFPOINTS
 62
     0
440
 16777216
100
AcDbPoint
 10
327.5710610912581
 20
345.2395935369868
 30
-0.0000000000022842
  0
POINT
  5
5479
330
3FF7
100
AcDbEntity
  8
DEFPOINTS
 62
     0
440
 16777216
100
AcDbPoint
 10
291.7101628187596
 20
303.2395935369868
 30
-0.000000000000733
  0
POINT
  5
547A
330
3FF7
100
AcDbEntity
  8
DEFPOINTS
 62
     0
440
 16777216
100
AcDbPoint
 10
291.7101628187596
 20
303.2395935369868
 30
-0.000000000000733
  0
ENDBLK
  5
3FF9
330
3FF7
100
AcDbEntity
  8
0
100
AcDbBlockEnd
  0
BLOCK
  5
4004
330
4003
100
AcDbEntity
  8
0
100
AcDbBlockBegin
  2
*D6
 70
     1
 10
0.0
 20
0.0
 30
0.0
  3
*D6
  1

  0
LINE
  5
4082
330
4003
100
AcDbEntity
  8
SUNPOU
 62
     0
440
 16777216
370
    -2
100
AcDbLine
 10
286.7101628187596
 20
303.2395935369868
 30
-0.000000000000733
 11
291.7101628187596
 21
303.2395935369868
 31
-0.000000000000733
  0
LINE
  5
4083
330
4003
100
AcDbEntity
  8
SUNPOU
 62
     0
440
 16777216
370
    -2
100
AcDbLine
 10
327.5710610912578
 20
293.2395935369693
 30
-0.000000000000733
 11
291.7101628187596
 21
293.2395935369693
 31
-0.000000000000733
  0
LINE
  5
4084
330
4003
100
AcDbEntity
  8
SUNPOU
 62
     0
440
 16777216
370
    -2
100
AcDbLine
 10
291.7101628187596
 20
301.7395935369868
 30
-0.000000000000733
 11
291.7101628187596
 21
294.7395935369693
 31
-0.000000000000733
  0
INSERT
  5
4085
330
4003
100
AcDbEntity
  8
SUNPOU
 62
     0
440
 16777216
370
    -2
100
AcDbBlockReference
  2
_DotBlank
 10
291.7101628187596
 20
303.2395935369868
 30
-0.000000000000733
 41
1.5
 42
1.5
 43
1.5
 50
90.0
  0
INSERT
  5
4086
330
4003
100
AcDbEntity
  8
SUNPOU
 62
     0
440
 16777216
370
    -2
100
AcDbBlockReference
  2
_DotBlank
 10
291.7101628187596
 20
293.2395935369693
 30
-0.000000000000733
 41
1.5
 42
1.5
 43
1.5
 50
270.0
  0
MTEXT
  5
4087
330
4003
100
AcDbEntity
  8
SUNPOU
 62
     0
440
 16777216
100
AcDbMText
 10
288.5851628187595
 20
298.2395935369781
 30
-0.000000000000733
 40
5.0
 41
0.0
 46
0.0
 71
     5
 72
     1
  1
\A1;10
 11
0.0000000000000001
 21
1.0
 31
0.0
 73
     1
 44
1.0
  0
POINT
  5
4088
330
4003
100
AcDbEntity
  8
DEFPOINTS
 62
     0
440
 16777216
100
AcDbPoint
 10
291.7101628187596
 20
303.2395935369868
 30
-0.000000000000733
  0
POINT
  5
4089
330
4003
100
AcDbEntity
  8
DEFPOINTS
 62
     0
440
 16777216
100
AcDbPoint
 10
332.5710610912578
 20
293.2395935369693
 30
-0.000000000000733
  0
POINT
  5
408A
330
4003
100
AcDbEntity
  8
DEFPOINTS
 62
     0
440
 16777216
100
AcDbPoint
 10
291.7101628187596
 20
293.2395935369693
 30
-0.000000000000733
  0
ENDBLK
  5
4005
330
4003
100
AcDbEntity
  8
0
100
AcDbBlockEnd
  0
ENDSEC
  0
SECTION
  2
ENTITIES
  0
LINE
  5
E15
330
1A
100
AcDbEntity
  8
WAKU
100
AcDbLine
 10
20.0
 20
10.0
 30
0.0
 11
800.0
 21
10.0
 31
0.0
  0
LINE
  5
E16
330
1A
100
AcDbEntity
  8
WAKU
100
AcDbLine
 10
800.0
 20
10.0
 30
0.0
 11
800.0
 21
560.0
 31
0.0
  0
LINE
  5
E17
330
1A
100
AcDbEntity
  8
WAKU
100
AcDbLine
 10
800.0
 20
560.0
 30
0.0
 11
20.0
 21
560.0
 31
0.0
  0
LINE
  5
E18
330
1A
100
AcDbEntity
  8
WAKU
100
AcDbLine
 10
20.0
 20
560.0
 30
0.0
 11
20.0
 21
10.0
 31
0.0
  0
LINE
  5
E1D
330
1A
100
AcDbEntity
  8
WAKU
100
AcDbLine
 10
20.0
 20
30.0
 30
0.0
 11
800.0
 21
30.0
 31
0.0
  0
LINE
  5
E1E
330
1A
100
AcDbEntity
  8
WAKU
100
AcDbLine
 10
120.0
 20
30.0
 30
0.0
 11
120.0
 21
10.0
 31
0.0
  0
LINE
  5
E4F
330
1A
100
AcDbEntity
  8
WAKU
100
AcDbLine
 10
22.0
 20
28.0
 30
0.0
 11
118.0
 21
28.0
 31
0.0
  0
LINE
  5
E50
330
1A
100
AcDbEntity
  8
WAKU
100
AcDbLine
 10
22.0
 20
28.0
 30
0.0
 11
22.0
 21
12.0
 31
0.0
  0
LINE
  5
E51
330
1A
100
AcDbEntity
  8
WAKU
100
AcDbLine
 10
22.0
 20
12.0
 30
0.0
 11
118.0
 21
12.0
 31
0.0
  0
LINE
  5
E52
330
1A
100
AcDbEntity
  8
WAKU
100
AcDbLine
 10
118.0
 20
28.0
 30
0.0
 11
118.0
 21
12.0
 31
0.0
  0
LINE
  5
E59
330
1A
100
AcDbEntity
  8
WAKU
100
AcDbLine
 10
260.0
 20
30.0
 30
0.0
 11
260.0
 21
10.0
 31
0.0
  0
LINE
  5
E5A
330
1A
100
AcDbEntity
  8
WAKU
100
AcDbLine
 10
270.0
 20
30.0
 30
0.0
 11
270.0
 21
10.0
 31
0.0
  0
MTEXT
  5
E5B
330
1A
100
AcDbEntity
  8
WAKU
100
AcDbMText
 10
261.8186178625299
 20
27.72724847366113
 30
0.0
 40
5.0
 41
10.0
 46
0.0
 71
     1
 72
     5
  1
名称
  7
WAKU
 73
     1
 44
1.0
  0
LINE
  5
E5C
330
1A
100
AcDbEntity
  8
WAKU
100
AcDbLine
 10
20.0
 20
30.0
 30
0.0
 11
20.0
 21
10.0
 31
0.0
  0
LINE
  5
E5E
330
1A
100
AcDbEntity
  8
WAKU
100
AcDbLine
 10
520.0
 20
30.0
 30
0.0
 11
520.0
 21
10.0
 31
0.0
  0
LINE
  5
E6C
330
1A
100
AcDbEntity
  8
WAKU
100
AcDbLine
 10
530.0
 20
30.0
 30
0.0
 11
530.0
 21
10.0
 31
0.0
  0
MTEXT
  5
E6D
330
1A
100
AcDbEntity
  8
WAKU
100
AcDbMText
 10
521.8186178625296
 20
27.72724847366113
 30
0.0
 40
5.0
 41
10.0
 46
0.0
 71
     1
 72
     5
  1
縮尺
  7
WAKU
 73
     1
 44
1.0
  0
MTEXT
  5
E6E
102
{ACAD_XDICTIONARY
360
5D5E
102
}
330
1A
100
AcDbEntity
  8
WAKU
100
AcDbMText
 10
274.3245405690059
 20
23.21985646788335
 30
0.0
 40
5.0
 41
190.5002997985425
 46
0.0
 71
     1
 72
     5
  1
\pi50.17401;耐火ヴァンドＲＺ５０　笠木部
  7
WAKU
 73
     1
 44
1.0
  0
MTEXT
  5
E6F
330
1A
100
AcDbEntity
  8
WAKU
100
AcDbMText
 10
539.3245405690056
 20
23.21985646788335
 30
0.0
 40
5.0
 41
190.5002997985425
 46
0.0
 71
     1
 72
     5
  1
1/2（A3）
  7
WAKU
 73
     1
 44
1.0
  0
MTEXT
  5
E71
330
1A
100
AcDbEntity
  8
WAKU
100
AcDbMText
 10
581.8186178625299
 20
27.72724847366113
 30
0.0
 40
5.0
 41
10.0
 46
0.0
 71
     1
 72
     5
  1
図番
  7
WAKU
 73
     1
 44
1.0
  0
LINE
  5
E72
330
1A
100
AcDbEntity
  8
WAKU
100
AcDbLine
 10
590.0
 20
30.0
 30
0.0
 11
590.0
 21
10.0
 31
0.0
  0
LINE
  5
E73
330
1A
100
AcDbEntity
  8
WAKU
100
AcDbLine
 10
580.0
 20
30.0
 30
0.0
 11
580.0
 21
10.0
 31
0.0
  0
MTEXT
  5
E74
330
1A
100
AcDbEntity
  8
WAKU
100
AcDbMText
 10
604.3245405690059
 20
23.21985646788335
 30
0.0
 40
5.0
 41
190.5002997985425
 46
0.0
 71
     1
 72
     5
  1
IGRZ5001-03
  7
WAKU
 73
     1
 44
1.0
  0
LINE
  5
E78
330
1A
100
AcDbEntity
  8
WAKU
100
AcDbLine
 10
660.0
 20
30.0
 30
0.0
 11
660.0
 21
10.0
 31
0.0
  0
LINE
  5
E79
330
1A
100
AcDbEntity
  8
WAKU
100
AcDbLine
 10
670.0
 20
30.0
 30
0.0
 11
670.0
 21
10.0
 31
0.0
  0
MTEXT
  5
E7A
330
1A
100
AcDbEntity
  8
WAKU
100
AcDbMText
 10
661.8186178625299
 20
27.72724847366113
 30
0.0
 40
5.0
 41
10.0
 46
0.0
 71
     1
 72
     5
  1
特記
  7
WAKU
 73
     1
 44
1.0
  0
LINE
  5
E7B
330
1A
100
AcDbEntity
  8
WAKU
  6
DASHED2
 48
0.5
100
AcDbLine
 10
670.0
 20
20.0
 30
0.0
 11
800.0
 21
20.0
 31
0.0
  0
LINE
  5
E8B
330
1A
100
AcDbEntity
  8
WAKU
100
AcDbLine
 10
470.0
 20
10.0
 30
0.0
 11
470.0
 21
30.0
 31
0.0
  0
MTEXT
  5
E8C
330
1A
100
AcDbEntity
  8
WAKU
100
AcDbMText
 10
496.3674469153243
 20
23.21985646788335
 30
0.0
 40
5.0
 41
190.5002997985425
 46
0.0
 71
     1
 72
     5
  1
mm
  7
WAKU
 73
     1
 44
1.0
  0
MTEXT
  5
E8D
330
1A
100
AcDbEntity
  8
WAKU
100
AcDbMText
 10
471.8186178625298
 20
27.72724847366113
 30
0.0
 40
5.0
 41
10.0
 46
0.0
 71
     1
 72
     5
  1
単位
  7
WAKU
 73
     1
 44
1.0
  0
LINE
  5
E8E
330
1A
100
AcDbEntity
  8
WAKU
100
AcDbLine
 10
480.0
 20
30.0
 30
0.0
 11
480.0
 21
10.0
 31
0.0
  0
DIMENSION
  5
3E44
330
1A
100
AcDbEntity
  8
SUNPOU
100
AcDbDimension
280
     0
  2
*D3
 10
482.5710610912578
 20
111.338172809282
 30
-0.000000000000733
 11
432.5710610912578
 21
111.338172809282
 31
-0.000000000000733
 70
   160
 71
     5
 42
100.0
 73
     0
 74
     0
 75
     0
  3
STANDARD
100
AcDbAlignedDimension
 13
382.5710610912578
 23
145.3448455639636
 33
-0.000000000000733
 14
482.5710610912578
 24
145.3448455639636
 34
-0.000000000000733
100
AcDbRotatedDimension
1001
ACAD
1000
DSTYLE
1002
{
1070
   143
1040
0.0394
1070
   171
1070
     4
1070
   273
1070
     8
1070
   274
1070
     4
1070
   277
1070
     6
1002
}
  0
DIMENSION
  5
3E45
330
1A
100
AcDbEntity
  8
SUNPOU
100
AcDbDimension
280
     0
  2
*D4
 10
382.4710610912577
 20
111.338172809282
 30
-0.000000000000733
 11
357.4710610912577
 21
114.463172809282
 31
-0.000000000000733
 70
    32
 71
     5
 42
49.99999999999993
 73
     0
 74
     0
 75
     0
  3
STANDARD
100
AcDbAlignedDimension
 13
332.4710610912578
 23
145.3448455639638
 33
-0.000000000000733
 14
382.4710610912577
 24
145.3448455639636
 34
-0.000000000000733
100
AcDbRotatedDimension
1001
ACAD
1000
DSTYLE
1002
{
1070
   143
1040
0.0394
1070
   171
1070
     4
1070
   273
1070
     8
1070
   274
1070
     4
1070
   277
1070
     6
1002
}
  0
ARC
  5
3E4E
330
1A
100
AcDbEntity
  8
SITAJI
100
AcDbCircle
 10
477.5710610912577
 20
340.2395935369868
 30
-0.000000000000733
 40
2.7
100
AcDbArc
 50
0.0
 51
90.0
  0
LINE
  5
3E4F
330
1A
100
AcDbEntity
  8
SITAJI
370
     9
100
AcDbLine
 10
480.2710610912575
 20
307.2976326116643
 30
-0.000000000000733
 11
482.5710610912578
 21
309.5976326116643
 31
-0.000000000000733
  0
LINE
  5
3E50
330
1A
100
AcDbEntity
  8
SITAJI
370
     9
100
AcDbLine
 10
480.2710610912583
 20
310.1260597364105
 30
-0.000000000000733
 11
482.5710610912578
 21
312.4260597364105
 31
-0.000000000000733
  0
LINE
  5
3E51
330
1A
100
AcDbEntity
  8
SITAJI
100
AcDbLine
 10
482.5710610912578
 20
300.2395935369869
 30
-0.000000000000733
 11
482.5710610912578
 21
340.2395935369868
 31
-0.000000000000733
  0
LINE
  5
3E52
330
1A
100
AcDbEntity
  8
SITAJI
100
AcDbLine
 10
480.2710610912575
 20
300.2395935369869
 30
-0.000000000000733
 11
480.2710610912575
 21
340.2395935369868
 31
-0.000000000000733
  0
ARC
  5
3E54
330
1A
100
AcDbEntity
  8
SITAJI
100
AcDbCircle
 10
477.5710610912577
 20
300.2395935369869
 30
-0.000000000000733
 40
5.0
100
AcDbArc
 50
270.0
 51
0.0
  0
ARC
  5
3E55
330
1A
100
AcDbEntity
  8
SITAJI
100
AcDbCircle
 10
477.5710610912577
 20
300.2395935369869
 30
-0.000000000000733
 40
2.7
100
AcDbArc
 50
270.0
 51
0.0
  0
LINE
  5
3E56
330
1A
100
AcDbEntity
  8
SITAJI
370
     9
100
AcDbLine
 10
468.2130220165801
 20
295.2395935369871
 30
-0.000000000000733
 11
470.5130220165805
 21
297.5395935369868
 31
-0.000000000000733
  0
LINE
  5
3E57
330
1A
100
AcDbEntity
  8
SITAJI
370
     9
100
AcDbLine
 10
465.3845948918346
 20
295.2395935369871
 30
-0.000000000000733
 11
467.6845948918337
 21
297.5395935369868
 31
-0.000000000000733
  0
LINE
  5
3E58
330
1A
100
AcDbEntity
  8
SITAJI
100
AcDbLine
 10
462.5710610912578
 20
295.2395935369866
 30
-0.000000000000733
 11
462.5710610912578
 21
297.5395935369868
 31
-0.000000000000733
  0
LINE
  5
3E59
330
1A
100
AcDbEntity
  8
SITAJI
100
AcDbLine
 10
477.5710610912577
 20
297.5395935369868
 30
-0.000000000000733
 11
462.5710610912578
 21
297.5395935369868
 31
-0.000000000000733
  0
LINE
  5
3E5A
330
1A
100
AcDbEntity
  8
SITAJI
100
AcDbLine
 10
477.5710610912577
 20
295.2395935369866
 30
-0.000000000000733
 11
462.5710610912578
 21
295.2395935369871
 31
-0.000000000000733
  0
LINE
  5
3E5B
330
1A
100
AcDbEntity
  8
SITAJI
370
     9
100
AcDbLine
 10
473.4866151453873
 20
342.9395935369865
 30
-0.000000000000733
 11
475.7866151453876
 21
345.2395935369866
 31
-0.000000000000733
  0
LINE
  5
3E5C
330
1A
100
AcDbEntity
  8
SITAJI
370
     9
100
AcDbLine
 10
470.6581880206407
 20
342.9395935369866
 30
-0.000000000000733
 11
472.9581880206408
 21
345.2395935369866
 31
-0.000000000000733
  0
ARC
  5
3E5D
330
1A
100
AcDbEntity
  8
SITAJI
100
AcDbCircle
 10
477.5710610912577
 20
340.2395935369868
 30
-0.000000000000733
 40
5.0
100
AcDbArc
 50
0.0
 51
90.0
  0
LINE
  5
3E5E
330
1A
100
AcDbEntity
  8
SITAJI
370
     9
100
AcDbLine
 10
382.5710610912578
 20
336.8768532252428
 30
-0.000000000000733
 11
384.871061091258
 21
339.1768532252429
 31
-0.000000000000733
  0
ARC
  5
3E5F
330
1A
100
AcDbEntity
  8
SITAJI
100
AcDbCircle
 10
387.5710610912578
 20
340.2395935369868
 30
-0.000000000000733
 40
2.7
100
AcDbArc
 50
90.0
 51
180.0
  0
LINE
  5
3E60
330
1A
100
AcDbEntity
  8
SITAJI
100
AcDbLine
 10
384.871061091258
 20
300.2395935369869
 30
-0.000000000000733
 11
384.871061091258
 21
340.2395935369868
 31
-0.000000000000733
  0
LINE
  5
3E61
330
1A
100
AcDbEntity
  8
SITAJI
100
AcDbLine
 10
382.5710610912578
 20
300.2395935369869
 30
-0.000000000000733
 11
382.5710610912578
 21
340.2395935369868
 31
-0.000000000000733
  0
LINE
  5
3E62
330
1A
100
AcDbEntity
  8
SITAJI
100
AcDbLine
 10
402.5710610912577
 20
295.2395935369871
 30
-0.000000000000733
 11
402.5710610912577
 21
297.5395935369868
 31
-0.000000000000733
  0
LINE
  5
3E63
330
1A
100
AcDbEntity
  8
SITAJI
370
     9
100
AcDbLine
 10
383.1661095645681
 20
297.8739219521062
 30
-0.000000000000733
 11
384.9373163128106
 21
299.6451287003485
 31
-0.000000000000733
  0
LINE
  5
3E64
330
1A
100
AcDbEntity
  8
SITAJI
370
     9
100
AcDbLine
 10
384.4521874181559
 20
296.3315726809481
 30
-0.000000000000733
 11
386.0976647469628
 21
297.977050009755
 31
-0.000000000000733
  0
LINE
  5
3E65
330
1A
100
AcDbEntity
  8
SITAJI
100
AcDbLine
 10
402.5710610912577
 20
297.5395935369868
 30
-0.000000000000733
 11
387.5710610912578
 21
297.5395935369868
 31
-0.000000000000733
  0
LINE
  5
3E66
330
1A
100
AcDbEntity
  8
SITAJI
100
AcDbLine
 10
402.5710610912577
 20
295.2395935369871
 30
-0.000000000000733
 11
387.5710610912578
 21
295.2395935369866
 31
-0.000000000000733
  0
ARC
  5
3E67
330
1A
100
AcDbEntity
  8
SITAJI
100
AcDbCircle
 10
387.5710610912578
 20
300.2395935369869
 30
-0.000000000000733
 40
2.7
100
AcDbArc
 50
180.0
 51
270.0
  0
ARC
  5
3E68
330
1A
100
AcDbEntity
  8
SITAJI
100
AcDbCircle
 10
387.5710610912578
 20
300.2395935369869
 30
-0.000000000000733
 40
5.0
100
AcDbArc
 50
180.0
 51
270.0
  0
LINE
  5
3E69
330
1A
100
AcDbEntity
  8
SITAJI
370
     9
100
AcDbLine
 10
388.633801403002
 20
342.9395935369869
 30
-0.000000000000733
 11
390.9338014030021
 21
345.2395935369868
 31
-0.000000000000733
  0
LINE
  5
3E6A
330
1A
100
AcDbEntity
  8
SITAJI
370
     9
100
AcDbLine
 10
428.2317811494487
 20
342.9395935369866
 30
-0.000000000000733
 11
430.5317811494481
 21
345.2395935369868
 31
-0.000000000000733
  0
LINE
  5
3E6B
330
1A
100
AcDbEntity
  8
SITAJI
370
     9
100
AcDbLine
 10
431.0602082741946
 20
342.9395935369866
 30
-0.000000000000733
 11
433.3602082741948
 21
345.2395935369868
 31
-0.000000000000733
  0
LINE
  5
3E6C
330
1A
100
AcDbEntity
  8
SITAJI
370
     9
100
AcDbLine
 10
382.5710610912578
 20
339.7052803499891
 30
-0.000000000000733
 11
388.1053742782555
 21
345.2395935369868
 31
-0.000000000000733
  0
ARC
  5
3E6D
330
1A
100
AcDbEntity
  8
SITAJI
100
AcDbCircle
 10
387.5710610912578
 20
340.2395935369868
 30
-0.000000000000733
 40
5.0
100
AcDbArc
 50
90.0
 51
180.0
  0
LINE
  5
3E6E
330
1A
100
AcDbEntity
  8
SITAJI
100
AcDbLine
 10
482.5710610912578
 20
292.239593536987
 30
-0.000000000000733
 11
382.5710610912578
 21
292.2395935369868
 31
-0.000000000000733
  0
LINE
  5
3E6F
330
1A
100
AcDbEntity
  8
SITAJI
100
AcDbLine
 10
477.5710610912577
 20
342.9395935369866
 30
-0.000000000000733
 11
387.5710610912578
 21
342.9395935369866
 31
-0.000000000000733
  0
LINE
  5
3E70
330
1A
100
AcDbEntity
  8
SITAJI
100
AcDbLine
 10
477.5710610912577
 20
345.2395935369866
 30
-0.000000000000733
 11
387.5710610912578
 21
345.2395935369868
 31
-0.000000000000733
  0
LINE
  5
3E71
330
1A
100
AcDbEntity
  8
SITAJI
  6
DASHED2
100
AcDbLine
 10
462.5710610912578
 20
292.2395935369869
 30
-0.000000000000733
 11
462.5710610912578
 21
145.3448455639636
 31
-0.000000000000733
  0
LINE
  5
3E72
330
1A
100
AcDbEntity
  8
SITAJI
  6
DASHED2
100
AcDbLine
 10
402.5710610912575
 20
292.2395935369869
 30
-0.000000000000733
 11
402.5710610912577
 21
145.3448455639636
 31
-0.000000000000733
  0
LINE
  5
3E73
330
1A
100
AcDbEntity
  8
SITAJI
100
AcDbLine
 10
482.5710610912578
 20
285.239593536987
 30
-0.000000000000733
 11
482.5710610912578
 21
145.3448455639636
 31
-0.000000000000733
  0
LINE
  5
3E85
330
1A
100
AcDbEntity
  8
SITAJI
100
AcDbLine
 10
382.5710610912578
 20
292.2395935369868
 30
-0.000000000000733
 11
382.5710610912578
 21
145.3448455639635
 31
-0.000000000000733
  0
LINE
  5
3E88
330
1A
100
AcDbEntity
  8
SUNPOU
  6
CENTER2
 48
0.5
370
     9
100
AcDbLine
 10
346.6153273878621
 20
303.2395935369868
 30
-0.000000000000733
 11
159.6348692495212
 21
303.2395935369868
 31
-0.000000000000733
  0
DIMENSION
  5
3E89
330
1A
100
AcDbEntity
  8
SUNPOU
100
AcDbDimension
280
     0
  2
*D5
 10
291.7101628187596
 20
303.2395935369868
 30
-0.000000000000733
 11
288.5851628187595
 21
324.2395935369869
 31
-0.000000000000733
 70
    32
 71
     5
 42
42.0
 73
     0
 74
     0
 75
     0
  3
STANDARD
100
AcDbAlignedDimension
 13
327.5710610912581
 23
345.2395935369868
 33
-0.0000000000022842
 14
291.7101628187596
 24
303.2395935369868
 34
-0.000000000000733
 50
90.0
100
AcDbRotatedDimension
  0
DIMENSION
  5
3E8A
330
1A
100
AcDbEntity
  8
SUNPOU
100
AcDbDimension
280
     0
  2
*D6
 10
291.7101628187596
 20
293.2395935369693
 30
-0.000000000000733
 11
288.5851628187595
 21
298.2395935369781
 31
-0.000000000000733
 70
    32
 71
     5
 42
10.00000000001751
 73
     0
 74
     0
 75
     0
  3
STANDARD
100
AcDbAlignedDimension
 13
291.7101628187596
 23
303.2395935369868
 33
-0.000000000000733
 14
332.5710610912578
 24
293.2395935369693
 34
-0.000000000000733
 50
90.0
100
AcDbRotatedDimension
1001
ACAD
1000
DSTYLE
1002
{
1070
   279
1070
     1
1002
}
  0
MULTILEADER
  5
3F0D
102
{ACAD_XDICTIONARY
360
5E09
102
}
330
1A
100
AcDbEntity
  8
HIKIDASI
160
               568
310
38020000150000000C00000016000000000000C00C00000033000000000000000C00000013000000993A0000E000000026000000E2390194A4886F4086FB6D053DB46640BD30FEEC46CA69BD00000000000000000000000000000000000000000000F03F000000000000F03F0000000000000000000000000000000010806B
310
70F430A130F330C93032FF3AFF15FF10FF000000500A000000010000000000000000001440000000000000F03F0000000000000000000000000000F03F000000000000000000000000000000000000000000000000000000000100000000000000000000007400780074002E00730068007800000065007800740066006F00
310
6E0074002E0073006800780000000C00000033000000000000000C00000010000000090000000C00000016000000000000C00C00000012000000FF7F00000C00000013000000010000000C00000013000000891300003C0000000600000002000000EDD55A7789C7744070051E59B9536B40BD30FEEC46CA69BD9E47ABF4FC
310
88734086FB6D053D046740BD30FEEC46CA69BD0C00000013000000112700003C00000006000000020000009E47ABF4FC88734086FB6D053D046740BD30FEEC46CA69BD9E47ABF4FC7E734086FB6D053D046740BD30FEEC46CA69BD0C00000016000000000000C00C00000012000000FF7F00000C0000001700000000000000
310
0C000000130000009A3A00000C00000016000000000000C00C00000012000000FF7F00000C00000017000000FFFFFFFF0C0000003300000000000000
100
AcDbMLeader
270
     2
300
CONTEXT_DATA{
 40
1.0
 10
250.2700901054333
 20
184.1324488781067
 30
-0.000000000000733
 41
5.0
140
0.0
145
2.0
174
     1
175
     3
176
     2
177
     0
290
     1
304
耐火ヴァンドＲＺ５０
 11
0.0
 21
0.0
 31
1.0
340
10
 12
309.9367567720999
 22
186.6324488781067
 32
-0.000000000000733
 13
1.0
 23
0.0
 33
0.0
 42
0.0
 43
0.0
 44
0.0
 45
1.0
170
     1
 90
-1073741824
171
     3
172
     5
 91
-1073741824
141
0.0
 92
        0
291
     0
292
     0
173
     0
293
     0
142
0.0
143
0.0
294
     0
295
     0
296
     0
110
332.4710610912578
120
218.6163755022385
130
-0.000000000000733
111
1.0
121
0.0
131
0.0
112
0.0
122
1.0
132
0.0
297
     0
302
LEADER{
290
     1
291
     1
 10
312.5617567721
 20
184.1324488781067
 30
-0.000000000000733
 11
-1.0
 21
0.0
 31
0.0
 90
        0
 40
0.625
304
LEADER_LINE{
 10
332.4710610912578
 20
218.6163755022385
 30
-0.000000000000733
 91
        0
305
}
271
     0
303
}
272
     9
273
     9
301
}
340
2469
 90
   279744
170
     1
 91
-1056964608
341
14
171
    -2
290
     1
291
     1
 41
0.625
342
B0
 42
0.0
172
     2
343
10
173
     1
 95
        3
174
     1
175
     2
 92
-1056964608
292
     0
 93
-1056964608
 10
1.0
 20
1.0
 30
1.0
 43
0.0
176
     0
293
     0
294
     0
178
     0
179
     3
 45
1.0
271
     0
272
     9
273
     9
1001
ACAD_MLEADERVER
1070
     2
  0
LINE
  5
3F12
330
1A
100
AcDbEntity
  8
SEALING
100
AcDbLine
 10
329.5710610912578
 20
311.7395959327096
 30
-0.0000000000022842
 11
329.5710610912578
 21
320.7395959327095
 31
-0.0000000000022842
  0
LINE
  5
3F13
330
1A
100
AcDbEntity
  8
SEALING
100
AcDbLine
 10
329.5710610912578
 20
320.7395959327095
 30
-0.0000000000022842
 11
328.0710610912578
 21
320.7395959327095
 31
-0.0000000000022842
  0
ARC
  5
3F28
330
1A
100
AcDbEntity
  8
SEALING
100
AcDbCircle
 10
334.9460541125167
 20
273.5988673836508
 30
-0.0000000000022842
 40
37.68387258730157
100
AcDbArc
 50
80.38321456663537
 51
99.73958358802523
  0
LINE
  5
3F4A
330
1A
100
AcDbEntity
  8
SEALING
100
AcDbLine
 10
339.7210610912578
 20
325.7395935369861
 30
-0.000000000002317
 11
328.0710610912578
 21
325.739593536986
 31
-0.0000000000022348
  0
HATCH
  5
3F4B
330
1A
100
AcDbEntity
  8
PACKING
370
     9
100
AcDbHatch
 10
0.0
 20
0.0
 30
-0.0000000000027096
210
0.0
220
0.0
230
1.0
  2
ANSI31
 70
     0
 71
     0
 91
        1
 92
        1
 93
        8
 72
     2
 10
331.581756109683
 20
331.4368202949822
 40
2.999999999999943
 50
179.9999999999989
 51
270.0000000000011
 73
     1
 72
     1
 10
331.5817561096831
 20
328.4368202949822
 11
333.5817561096831
 21
328.4368202949822
 72
     2
 10
333.5817561096831
 20
331.4368202949822
 40
2.999999999999943
 50
269.9999999999978
 51
360.0
 73
     1
 72
     1
 10
336.5817561096831
 20
331.4368202949822
 11
336.5817561096831
 21
333.4368202949822
 72
     2
 10
333.5817561096831
 20
333.4368202949822
 40
2.999999999999943
 50
359.9999999999988
 51
450.0000000000011
 73
     1
 72
     1
 10
333.5817561096831
 20
336.4368202949822
 11
331.5817561096831
 21
336.4368202949822
 72
     2
 10
331.581756109683
 20
333.4368202949822
 40
2.999999999999943
 50
89.99999999999783
 51
180.0
 73
     1
 72
     1
 10
328.581756109683
 20
333.4368202949822
 11
328.581756109683
 21
331.4368202949822
 97
        0
 75
     1
 76
     1
 52
0.0
 41
1.0
 77
     0
 78
     1
 53
45.0
 43
8.687777102601785
 44
-3.160957915824154
 45
-2.245064030267287
 46
2.245064030267287
 79
     0
 98
        1
 10
329.5876255158148
 20
335.0148354576887
1001
GradientColor1ACI
1070
     5
1001
GradientColor2ACI
1070
     2
1001
ACAD
1010
0.0
1020
0.0
1030
0.0
  0
LINE
  5
3F4C
330
1A
100
AcDbEntity
  8
PACKING
100
AcDbLine
 10
331.5817561096831
 20
328.4368202949822
 30
-0.0000000000034427
 11
333.5817561096831
 21
328.4368202949822
 31
-0.0000000000034427
  0
LINE
  5
3F4D
330
1A
100
AcDbEntity
  8
PACKING
100
AcDbLine
 10
331.5817561096831
 20
336.4368202949822
 30
-0.0000000000034427
 11
333.5817561096831
 21
336.4368202949822
 31
-0.0000000000034427
  0
ARC
  5
3F4E
330
1A
100
AcDbEntity
  8
PACKING
100
AcDbCircle
 10
331.5817561096831
 20
333.4368202949822
 30
-0.0000000000034427
 40
3.0
100
AcDbArc
 50
90.0
 51
180.0
  0
LINE
  5
3F51
330
1A
100
AcDbEntity
  8
PACKING
100
AcDbLine
 10
336.5817561096831
 20
333.4368202949822
 30
-0.0000000000034427
 11
336.5817561096831
 21
331.4368202949822
 31
-0.0000000000034427
  0
ARC
  5
3F52
330
1A
100
AcDbEntity
  8
PACKING
100
AcDbCircle
 10
333.5817561096831
 20
331.4368202949822
 30
-0.0000000000034427
 40
3.0
100
AcDbArc
 50
270.0
 51
0.0
  0
ARC
  5
3F53
330
1A
100
AcDbEntity
  8
PACKING
100
AcDbCircle
 10
333.5817561096831
 20
333.4368202949822
 30
-0.0000000000034427
 40
3.0
100
AcDbArc
 50
0.0
 51
90.0
  0
LINE
  5
3F54
330
1A
100
AcDbEntity
  8
PACKING
100
AcDbLine
 10
328.581756109683
 20
333.4368202949822
 30
-0.0000000000034427
 11
328.581756109683
 21
331.4368202949822
 31
-0.0000000000034427
  0
ARC
  5
3F55
330
1A
100
AcDbEntity
  8
PACKING
100
AcDbCircle
 10
331.5817561096831
 20
331.4368202949822
 30
-0.0000000000034427
 40
3.0
100
AcDbArc
 50
180.0
 51
270.0
  0
LINE
  5
408D
330
1A
100
AcDbEntity
  8
SEIHIN
 62
     7
100
AcDbLine
 10
381.971061091257
 20
312.23959353699
 30
-0.000000000000733
 11
381.9710610912571
 21
327.23959353699
 31
-0.000000000000733
  0
LINE
  5
408E
330
1A
100
AcDbEntity
  8
SEIHIN
 62
     7
100
AcDbLine
 10
342.9710610912571
 20
312.239593478946
 30
-0.000000000000733
 11
381.971061091258
 21
312.2395934789424
 31
-0.000000000000733
  0
LINE
  5
408F
330
1A
100
AcDbEntity
  8
SEIHIN
 62
     7
100
AcDbLine
 10
350.4710610912563
 20
328.2395935369899
 30
-0.000000000000733
 11
350.4710610912563
 21
327.23959353699
 31
-0.000000000000733
  0
LINE
  5
4090
330
1A
100
AcDbEntity
  8
SEIHIN
 62
     7
100
AcDbLine
 10
366.9710610912563
 20
328.2395935369899
 30
-0.000000000000733
 11
366.9710610912563
 21
327.2395935369877
 31
-0.000000000000733
  0
LINE
  5
4092
330
1A
100
AcDbEntity
  8
SEIHIN
100
AcDbLine
 10
332.4710610912578
 20
145.3448455639638
 30
-0.000000000000733
 11
332.4710610912577
 21
292.4271539832775
 31
-0.000000000000733
  0
LINE
  5
4093
330
1A
100
AcDbEntity
  8
SEIHIN
100
AcDbLine
 10
332.9710610912575
 20
145.3448455639638
 30
-0.000000000000733
 11
332.9710610912568
 21
292.4271539832775
 31
-0.000000000000733
  0
LINE
  5
4094
330
1A
100
AcDbEntity
  8
SEIHIN
100
AcDbLine
 10
381.9710610912571
 20
327.23959353699
 30
-0.000000000000733
 11
381.9710610912577
 21
145.3448455639638
 31
-0.000000000000733
  0
HATCH
  5
4095
330
1A
100
AcDbEntity
  8
SEIHIN
 62
     7
370
     9
100
AcDbHatch
 10
0.0
 20
0.0
 30
-0.000000000000733
210
0.0
220
0.0
230
1.0
  2
ANSI38
 70
     0
 71
     0
 91
        1
 92
        1
 93
        8
 72
     1
 10
350.4710610912562
 20
327.2395935369893
 11
350.4710610912563
 21
328.2395935369899
 72
     1
 10
350.4710610912563
 20
328.2395935369899
 11
346.2210610912563
 21
328.2395935369899
 72
     1
 10
346.2210610912563
 20
328.2395935369899
 11
346.2210610912563
 21
332.2395935369863
 72
     1
 10
346.2210610912563
 20
332.2395935369863
 11
371.2210610912563
 21
332.2395935369863
 72
     1
 10
371.2210610912563
 20
332.2395935369863
 11
371.2210610912563
 21
328.2395935369899
 72
     1
 10
371.2210610912563
 20
328.2395935369899
 11
366.9710610912563
 21
328.2395935369899
 72
     1
 10
366.9710610912563
 20
328.2395935369899
 11
366.9710610912563
 21
327.2395935369877
 72
     1
 10
366.9710610912563
 20
327.2395935369877
 11
350.4710610912562
 21
327.2395935369893
 97
        0
 75
     0
 76
     1
 52
90.0
 41
1.0
 77
     0
 78
     2
 53
135.0
 43
341.3841221863675
 44
-24.49220968070455
 45
-2.245064030267287
 46
-2.245064030267287
 79
     0
 53
225.0
 43
341.3841221863675
 44
-24.49220968070455
 45
-2.245064030267287
 46
-6.735192090801862
 79
     2
 49
7.9375
 49
-4.7625
 98
        1
 10
357.3435596872962
 20
329.4622914704859
1001
ACAD
1010
0.0
1020
0.0
1030
0.0
  0
LINE
  5
4096
330
1A
100
AcDbEntity
  8
SEIHIN
 62
     7
100
AcDbLine
 10
346.2210610912563
 20
328.2395935369899
 30
-0.000000000000733
 11
346.2210610912563
 21
332.2395935369863
 31
-0.000000000000733
  0
LINE
  5
4097
330
1A
100
AcDbEntity
  8
SEIHIN
 62
     7
100
AcDbLine
 10
371.2210610912563
 20
328.2395935369899
 30
-0.000000000000733
 11
371.2210610912563
 21
332.2395935369863
 31
-0.000000000000733
  0
LINE
  5
4098
330
1A
100
AcDbEntity
  8
SEIHIN
 62
     7
100
AcDbLine
 10
346.2210610912563
 20
332.2395935369863
 30
-0.000000000000733
 11
371.2210610912563
 21
332.2395935369863
 31
-0.000000000000733
  0
ARC
  5
4099
330
1A
100
AcDbEntity
  8
SEIHIN
100
AcDbCircle
 10
371.2710610912574
 20
328.9395935369871
 30
-0.000000000000733
 40
0.7
100
AcDbArc
 50
270.0
 51
0.0
  0
ARC
  5
409A
330
1A
100
AcDbEntity
  8
SEIHIN
100
AcDbCircle
 10
371.2710610912574
 20
328.9395935369871
 30
-0.000000000000733
 40
1.199999999999999
100
AcDbArc
 50
270.0
 51
0.0
  0
ARC
  5
409B
330
1A
100
AcDbEntity
  8
SEIHIN
100
AcDbCircle
 10
373.1710566789427
 20
344.0395953646332
 30
-0.000000000000733
 40
1.199995587687169
100
AcDbArc
 50
89.99975625908172
 51
180.0000872637195
  0
ARC
  5
409C
330
1A
100
AcDbEntity
  8
SEIHIN
100
AcDbCircle
 10
373.1710566789427
 20
344.0395953646332
 30
-0.000000000000733
 40
0.6999955876871709
100
AcDbArc
 50
89.99975625908172
 51
180.0000872637194
  0
LINE
  5
409D
330
1A
100
AcDbEntity
  8
SEIHIN
100
AcDbLine
 10
366.9710610912563
 20
328.2395935369899
 30
-0.000000000000733
 11
366.9710610912563
 21
327.73959353699
 31
-0.000000000000733
  0
LINE
  5
409E
330
1A
100
AcDbEntity
  8
SEIHIN
100
AcDbLine
 10
371.2710610912574
 20
328.2395935369899
 30
-0.000000000000733
 11
366.9710610912563
 21
328.2395935369899
 31
-0.000000000000733
  0
LINE
  5
409F
330
1A
100
AcDbEntity
  8
SEIHIN
100
AcDbLine
 10
371.2710610912574
 20
327.73959353699
 30
-0.000000000000733
 11
366.9710610912563
 21
327.73959353699
 31
-0.000000000000733
  0
LINE
  5
40A0
330
1A
100
AcDbEntity
  8
SEIHIN
100
AcDbLine
 10
371.9710610912563
 20
344.0395935369929
 30
-0.000000000000733
 11
371.9710610912563
 21
328.9395935369871
 31
-0.000000000000733
  0
LINE
  5
40A1
330
1A
100
AcDbEntity
  8
SEIHIN
100
AcDbLine
 10
372.4710610912563
 20
344.0395935369929
 30
-0.000000000000733
 11
372.4710610912563
 21
328.9395935369871
 31
-0.000000000000733
  0
ARC
  5
40A2
330
1A
100
AcDbEntity
  8
SEIHIN
100
AcDbCircle
 10
374.934625976148
 20
344.0395939044855
 30
0.000000000004095
 40
1.199999284471409
100
AcDbArc
 50
8.365873412736046
 51
90.00003049716694
  0
ARC
  5
40A3
330
1A
100
AcDbEntity
  8
SEIHIN
100
AcDbCircle
 10
374.934625976148
 20
344.0395939044855
 30
0.000000000004095
 40
0.6999992844714093
100
AcDbArc
 50
8.365873412736046
 51
90.00003049716694
  0
ARC
  5
40A4
330
1A
100
AcDbEntity
  8
SEIHIN
100
AcDbCircle
 10
379.0756486320926
 20
328.9395935369871
 30
-0.000000000000733
 40
0.7
100
AcDbArc
 50
188.3658861240017
 51
270.0
  0
ARC
  5
40A5
330
1A
100
AcDbEntity
  8
SEIHIN
100
AcDbCircle
 10
379.0756486320926
 20
328.9395935369871
 30
-0.000000000000733
 40
1.199999999999999
100
AcDbArc
 50
188.3658861240017
 51
270.0
  0
LINE
  5
40A6
330
1A
100
AcDbEntity
  8
SEIHIN
100
AcDbLine
 10
378.3830972373372
 20
328.837747743641
 30
-0.000000000000733
 11
376.1218562694049
 21
344.2141863255824
 31
-0.000000000000733
  0
LINE
  5
40A7
330
1A
100
AcDbEntity
  8
SEIHIN
100
AcDbLine
 10
377.8884176696549
 20
328.7650007483936
 30
-0.000000000000733
 11
375.6271767017225
 21
344.1414393303348
 31
-0.000000000000733
  0
LINE
  5
40A8
330
1A
100
AcDbEntity
  8
SEIHIN
100
AcDbLine
 10
373.1710617838217
 20
345.2395909523066
 30
-0.000000000000733
 11
374.934625337417
 21
345.2395931889574
 31
0.000000000001681
  0
LINE
  5
40A9
330
1A
100
AcDbEntity
  8
SEIHIN
100
AcDbLine
 10
373.1710624179499
 20
344.739590952307
 30
-0.000000000000733
 11
374.9346259715451
 21
344.7395931889578
 31
0.000000000001681
  0
ARC
  5
40AA
330
1A
100
AcDbEntity
  8
SEIHIN
100
AcDbCircle
 10
381.4710610912563
 20
327.23959353699
 30
-0.000000000000733
 40
1.0
100
AcDbArc
 50
0.0
 51
90.0
  0
ARC
  5
40AB
330
1A
100
AcDbEntity
  8
SEIHIN
100
AcDbCircle
 10
381.4710610912563
 20
327.23959353699
 30
-0.000000000000733
 40
0.5
100
AcDbArc
 50
0.0
 51
90.0
  0
LINE
  5
40AC
330
1A
100
AcDbEntity
  8
SEIHIN
100
AcDbLine
 10
379.0756486320926
 20
328.2395935369863
 30
-0.000000000000733
 11
381.4710610912563
 21
328.2395935369899
 31
-0.000000000000733
  0
LINE
  5
40AD
330
1A
100
AcDbEntity
  8
SEIHIN
100
AcDbLine
 10
379.0756486320932
 20
327.7395935369863
 30
-0.000000000000733
 11
381.471061091257
 21
327.73959353699
 31
-0.000000000000733
  0
LINE
  5
40AE
330
1A
100
AcDbEntity
  8
SEIHIN
100
AcDbLine
 10
333.4110876178083
 20
293.0770876668944
 30
-0.000000000000733
 11
337.2167299028815
 21
294.5993445809259
 31
-0.000000000000733
  0
LINE
  5
40AF
330
1A
100
AcDbEntity
  8
SEIHIN
100
AcDbLine
 10
381.9710610912571
 20
312.2395934789423
 30
-0.000000000000733
 11
342.4710610912562
 21
312.23959353699
 31
-0.000000000000733
  0
LINE
  5
40B0
330
1A
100
AcDbEntity
  8
SEIHIN
100
AcDbLine
 10
333.2253922796326
 20
293.5413260123393
 30
-0.000000000000733
 11
337.0310345647049
 21
295.0635829263669
 31
-0.000000000000733
  0
LINE
  5
40B1
330
1A
100
AcDbEntity
  8
SEIHIN
100
AcDbLine
 10
337.4710610912562
 20
295.7135166099874
 30
-0.000000000000733
 11
337.4710610912562
 21
307.5973730268056
 31
-0.000000000000733
  0
LINE
  5
40B2
330
1A
100
AcDbEntity
  8
SEIHIN
100
AcDbLine
 10
338.0054208557858
 20
308.5958333800121
 30
-0.000000000000733
 11
341.6593512286136
 21
311.0317869618925
 31
-0.000000000000733
  0
ARC
  5
40B3
330
1A
100
AcDbEntity
  8
SEIHIN
100
AcDbCircle
 10
333.6710610912569
 20
292.4271539832775
 30
-0.000000000000733
 40
1.199999999999999
100
AcDbArc
 50
111.8014094863417
 51
180.0
  0
ARC
  5
40B4
330
1A
100
AcDbEntity
  8
SEIHIN
100
AcDbCircle
 10
338.671061091256
 20
307.5973730268056
 30
-0.000000000000733
 40
1.199999999999999
100
AcDbArc
 50
123.6900675259157
 51
180.0
  0
ARC
  5
40B5
330
1A
100
AcDbEntity
  8
SEIHIN
100
AcDbCircle
 10
336.7710610912573
 20
295.7135166099874
 30
-0.000000000000733
 40
0.7
100
AcDbArc
 50
291.8014094863417
 51
0.0
  0
ARC
  5
40B6
330
1A
100
AcDbEntity
  8
SEIHIN
100
AcDbCircle
 10
341.2710610912573
 20
311.6142221679297
 30
-0.000000000000733
 40
0.7
100
AcDbArc
 50
303.6900675259157
 51
0.0
  0
ARC
  5
40B7
330
1A
100
AcDbEntity
  8
SEIHIN
100
AcDbCircle
 10
333.6710610912569
 20
292.4271539832775
 30
-0.000000000000733
 40
0.7
100
AcDbArc
 50
111.8014094863417
 51
180.0
  0
LINE
  5
40B8
330
1A
100
AcDbEntity
  8
SEIHIN
100
AcDbLine
 10
337.9710610912562
 20
295.7135166099874
 30
-0.000000000000733
 11
337.9710610912562
 21
307.5973730268056
 31
-0.000000000000733
  0
ARC
  5
40B9
330
1A
100
AcDbEntity
  8
SEIHIN
100
AcDbCircle
 10
336.7710610912573
 20
295.7135166099874
 30
-0.000000000000733
 40
1.199999999999999
100
AcDbArc
 50
291.8014094863417
 51
0.0
  0
ARC
  5
40BA
330
1A
100
AcDbEntity
  8
SEIHIN
100
AcDbCircle
 10
338.671061091256
 20
307.5973730268056
 30
-0.000000000000733
 40
0.7
100
AcDbArc
 50
123.6900675259157
 51
180.0
  0
LINE
  5
40BB
330
1A
100
AcDbEntity
  8
SEIHIN
100
AcDbLine
 10
338.2827709538988
 20
308.1798082328427
 30
-0.000000000000733
 11
341.9367013267264
 21
310.615761814723
 31
-0.000000000000733
  0
ARC
  5
40BC
330
1A
100
AcDbEntity
  8
SEIHIN
100
AcDbCircle
 10
341.2710610912573
 20
311.6142221679297
 30
-0.000000000000733
 40
1.199999999999999
100
AcDbArc
 50
303.6900675259157
 51
0.0
  0
LINE
  5
40BD
330
1A
100
AcDbEntity
  8
SEIHIN
 62
     7
100
AcDbLine
 10
381.9710610912571
 20
327.2395935369863
 30
-0.000000000000733
 11
342.9710610912571
 21
327.23959353699
 31
-0.000000000000733
  0
LINE
  5
40BE
330
1A
100
AcDbEntity
  8
SEIHIN
 62
     7
100
AcDbLine
 10
342.9710610912571
 20
327.23959353699
 30
-0.000000000000733
 11
342.9710610912571
 21
312.23959353699
 31
-0.000000000000733
  0
LINE
  5
40BF
330
1A
100
AcDbEntity
  8
SEIHIN
100
AcDbLine
 10
341.9367013267264
 20
328.8634252592569
 30
-0.000000000000733
 11
338.2827709538988
 21
331.2993788411372
 31
-0.000000000000733
  0
ARC
  5
40C0
330
1A
100
AcDbEntity
  8
SEIHIN
100
AcDbCircle
 10
341.2710610912573
 20
327.8649649060503
 30
-0.000000000000733
 40
1.199999999999999
100
AcDbArc
 50
0.0
 51
56.30993247408432
  0
ARC
  5
40C1
330
1A
100
AcDbEntity
  8
SEIHIN
100
AcDbCircle
 10
341.2710610912573
 20
327.8649649060503
 30
-0.000000000000733
 40
0.7
100
AcDbArc
 50
0.0
 51
56.30993247408432
  0
LINE
  5
40C2
330
1A
100
AcDbEntity
  8
SEIHIN
100
AcDbLine
 10
341.6593512286145
 20
328.4474001120873
 30
-0.000000000000733
 11
338.0054208557858
 21
330.8833536939677
 31
-0.000000000000733
  0
ARC
  5
40C3
330
1A
100
AcDbEntity
  8
SEIHIN
100
AcDbCircle
 10
338.671061091256
 20
331.8818140471744
 30
-0.000000000000733
 40
0.7
100
AcDbArc
 50
180.0
 51
236.3099324740843
  0
ARC
  5
40C4
330
1A
100
AcDbEntity
  8
SEIHIN
100
AcDbCircle
 10
338.671061091256
 20
331.8818140471744
 30
-0.000000000000733
 40
1.199999999999999
100
AcDbArc
 50
180.0
 51
236.3099324740843
  0
LINE
  5
40C5
330
1A
100
AcDbEntity
  8
SEIHIN
100
AcDbLine
 10
337.9710610912562
 20
331.8818140471744
 30
-0.000000000000733
 11
337.9710610912571
 21
343.0074689387006
 31
-0.000000000000733
  0
LINE
  5
40C6
330
1A
100
AcDbEntity
  8
SEIHIN
100
AcDbLine
 10
337.4710610912562
 20
331.8818140471744
 30
-0.000000000000733
 11
337.4710610912571
 21
343.0074689387006
 31
-0.000000000000733
  0
ARC
  5
40C7
330
1A
100
AcDbEntity
  8
SEIHIN
100
AcDbCircle
 10
339.7031856895436
 20
343.0074689387006
 30
-0.000000000000733
 40
1.732124598286544
100
AcDbArc
 50
13.24051991533244
 51
180.0
  0
ARC
  5
40C8
330
1A
100
AcDbEntity
  8
SEIHIN
100
AcDbCircle
 10
339.7031856895436
 20
343.0074689387006
 30
-0.000000000000733
 40
2.232124598286544
100
AcDbArc
 50
13.24051991533244
 51
180.0
  0
LINE
  5
40C9
330
1A
100
AcDbEntity
  8
SEIHIN
100
AcDbLine
 10
341.3892655112077
 20
343.4041936026228
 30
-0.000000000000733
 11
344.8573707502911
 21
328.6647463365193
 31
-0.000000000000733
  0
LINE
  5
40CA
330
1A
100
AcDbEntity
  8
SEIHIN
100
AcDbLine
 10
341.8759740953746
 20
343.518713269485
 30
-0.000000000000733
 11
345.3440793344582
 21
328.7792660033852
 31
-0.000000000000733
  0
LINE
  5
40CB
330
1A
100
AcDbEntity
  8
SEIHIN
100
AcDbLine
 10
346.025471352291
 20
327.73959353699
 30
-0.000000000000733
 11
350.4710610912563
 21
327.73959353699
 31
-0.000000000000733
  0
ARC
  5
40CC
330
1A
100
AcDbEntity
  8
SEIHIN
100
AcDbCircle
 10
346.025471352291
 20
328.9395935369907
 30
-0.000000000000733
 40
1.199999999999999
100
AcDbArc
 50
193.2405199151166
 51
270.0
  0
ARC
  5
40CD
330
1A
100
AcDbEntity
  8
SEIHIN
100
AcDbCircle
 10
346.025471352291
 20
328.9395935369907
 30
-0.000000000000733
 40
0.7
100
AcDbArc
 50
193.2405199151166
 51
270.0
  0
LINE
  5
40CE
330
1A
100
AcDbEntity
  8
SEIHIN
100
AcDbLine
 10
346.025471352291
 20
328.2395935369899
 30
-0.000000000000733
 11
350.4710610912563
 21
328.2395935369899
 31
-0.000000000000733
  0
LINE
  5
40CF
330
1A
100
AcDbEntity
  8
SEIHIN
100
AcDbLine
 10
350.4710610912563
 20
328.2395935369899
 30
-0.000000000000733
 11
350.4710610912563
 21
327.73959353699
 31
-0.000000000000733
  0
LINE
  5
40D0
330
1A
100
AcDbEntity
  8
SEIHIN
100
AcDbLine
 10
341.9710610912562
 20
311.6142221679297
 30
-0.000000000000733
 11
341.9710610912562
 21
316.9111665369896
 31
-0.000000000000733
  0
LINE
  5
40D1
330
1A
100
AcDbEntity
  8
SEIHIN
100
AcDbLine
 10
342.4710610912562
 20
316.9111665369896
 30
-0.000000000000733
 11
342.4710610912562
 21
311.6142221679297
 31
-0.000000000000733
  0
ARC
  5
40D2
330
1A
100
AcDbEntity
  8
SEIHIN
100
AcDbCircle
 10
341.4710610912562
 20
322.5680205369903
 30
-0.000000000000733
 40
0.5
100
AcDbArc
 50
335.2643899999841
 51
0.0
  0
ARC
  5
40D3
330
1A
100
AcDbEntity
  8
SEIHIN
100
AcDbCircle
 10
341.4710610912562
 20
322.5680205369903
 30
-0.000000000000733
 40
1.0
100
AcDbArc
 50
335.2643899999841
 51
0.0
  0
ARC
  5
40D4
330
1A
100
AcDbEntity
  8
SEIHIN
100
AcDbCircle
 10
342.4710615504797
 20
321.1538068828754
 30
-0.000000000000733
 40
1.000000481575515
100
AcDbArc
 50
155.2643929896199
 51
204.7355786358713
  0
ARC
  5
40D5
330
1A
100
AcDbEntity
  8
SEIHIN
100
AcDbCircle
 10
342.4710625018223
 20
321.1538065636054
 30
-0.000000000000733
 40
0.5000014792235451
100
AcDbArc
 50
155.2644083660572
 51
204.735494794539
  0
LINE
  5
40D6
330
1A
100
AcDbEntity
  8
SEIHIN
100
AcDbLine
 10
341.5628125912562
 20
321.5722385369887
 30
-0.000000000000733
 11
341.925185091256
 21
322.3588050369912
 31
-0.000000000000733
  0
LINE
  5
40D7
330
1A
100
AcDbEntity
  8
SEIHIN
100
AcDbLine
 10
342.0169365912561
 20
321.3630230369894
 30
-0.000000000000733
 11
342.3793090912568
 21
322.1495890369883
 31
-0.000000000000733
  0
ARC
  5
40D8
330
1A
100
AcDbEntity
  8
SEIHIN
100
AcDbCircle
 10
341.4710620425956
 20
319.7395938562585
 30
-0.000000000000733
 40
0.4999990023556379
100
AcDbArc
 50
335.2643375226691
 51
24.73562238684006
  0
ARC
  5
40D9
330
1A
100
AcDbEntity
  8
SEIHIN
100
AcDbCircle
 10
341.4710622489896
 20
319.7395939255244
 30
-0.000000000000733
 40
0.9999987859154643
100
AcDbArc
 50
335.2643423725852
 51
24.73561753709472
  0
LINE
  5
40DA
330
1A
100
AcDbEntity
  8
SEIHIN
100
AcDbLine
 10
341.5628125912562
 20
320.7353755369882
 30
-0.000000000000733
 11
341.925185091256
 21
319.9488095369892
 31
-0.000000000000733
  0
LINE
  5
40DB
330
1A
100
AcDbEntity
  8
SEIHIN
100
AcDbLine
 10
342.0169365912561
 20
320.9445910369872
 30
-0.000000000000733
 11
342.3793090912568
 21
320.1580250369884
 31
-0.000000000000733
  0
LINE
  5
40DC
330
1A
100
AcDbEntity
  8
SEIHIN
100
AcDbLine
 10
342.0169365912561
 20
318.1161640369905
 30
-0.000000000000733
 11
342.3793090912568
 21
317.3295980369916
 31
-0.000000000000733
  0
LINE
  5
40DD
330
1A
100
AcDbEntity
  8
SEIHIN
100
AcDbLine
 10
341.5628125912562
 20
317.9069485369877
 30
-0.000000000000733
 11
341.925185091256
 21
317.1203825369925
 31
-0.000000000000733
  0
ARC
  5
40DE
330
1A
100
AcDbEntity
  8
SEIHIN
100
AcDbCircle
 10
341.4710610912562
 20
316.9111665369896
 30
-0.000000000000733
 40
1.0
100
AcDbArc
 50
0.0
 51
24.73561000001584
  0
ARC
  5
40DF
330
1A
100
AcDbEntity
  8
SEIHIN
100
AcDbCircle
 10
341.4710610912562
 20
316.9111665369896
 30
-0.000000000000733
 40
0.5
100
AcDbArc
 50
0.0
 51
24.73561000001584
  0
LINE
  5
40E0
330
1A
100
AcDbEntity
  8
SEIHIN
100
AcDbLine
 10
342.0169365912561
 20
318.5345960369927
 30
-0.000000000000733
 11
342.3793090912568
 21
319.3211620369879
 31
-0.000000000000733
  0
LINE
  5
40E1
330
1A
100
AcDbEntity
  8
SEIHIN
100
AcDbLine
 10
341.5628125912562
 20
318.7438115369918
 30
-0.000000000000733
 11
341.925185091256
 21
319.5303780369908
 31
-0.000000000000733
  0
ARC
  5
40E2
330
1A
100
AcDbEntity
  8
SEIHIN
100
AcDbCircle
 10
342.471062501817
 20
318.3253795636069
 30
-0.000000000000733
 40
0.5000014792178277
100
AcDbArc
 50
155.2644083659739
 51
204.7354947946123
  0
ARC
  5
40E3
330
1A
100
AcDbEntity
  8
SEIHIN
100
AcDbCircle
 10
342.4710615504797
 20
318.3253798828748
 30
-0.000000000000733
 40
1.00000048157551
100
AcDbArc
 50
155.2643929896199
 51
204.7355786358713
  0
LINE
  5
40E4
330
1A
100
AcDbEntity
  8
SEIHIN
100
AcDbLine
 10
342.4710610912562
 20
327.8649649060503
 30
-0.000000000000733
 11
342.4710610912562
 21
322.5680205369903
 31
-0.000000000000733
  0
LINE
  5
40E5
330
1A
100
AcDbEntity
  8
SEIHIN
100
AcDbLine
 10
341.9710610912562
 20
322.5680205369903
 30
-0.000000000000733
 11
341.9710610912562
 21
327.8649649060503
 31
-0.000000000000733
  0
HATCH
  5
40E6
330
1A
100
AcDbEntity
  8
SEIHIN
370
     9
100
AcDbHatch
 10
0.0
 20
0.0
 30
-0.000000000000733
210
0.0
220
0.0
230
1.0
  2
ANSI35
 70
     0
 71
     0
 91
        1
 92
        1
 93
       12
 72
     1
 10
332.9710610912568
 20
145.3448455639638
 11
381.9710610912577
 21
145.3448455639638
 72
     1
 10
381.9710610912577
 20
145.3448455639638
 11
381.9710610912571
 21
312.2395934791618
 72
     1
 10
381.9710610912571
 20
312.2395934791618
 11
342.4710610912562
 21
312.23959353699
 72
     1
 10
342.4710610912562
 20
312.23959353699
 11
342.4710610912562
 21
311.6142221679297
 72
     2
 10
341.2710610912561
 20
311.6142221679285
 40
1.200000000000047
 50
359.9999999999456
 51
416.3099324740215
 73
     0
 72
     1
 10
341.9367013267263
 20
310.615761814723
 11
338.2827709538988
 21
308.1798082328429
 72
     2
 10
338.671061091256
 20
307.5973730268062
 40
0.6999999999998403
 50
123.6900675259462
 51
180.0000000000558
 73
     1
 72
     1
 10
337.9710610912562
 20
307.5973730268056
 11
337.9710610912563
 21
295.7135166099884
 72
     2
 10
336.7710610912563
 20
295.713516609988
 40
1.199999999999987
 50
359.9999999999864
 51
428.1985905136376
 73
     0
 72
     1
 10
337.2167299028815
 20
294.5993445809259
 11
333.4110876178097
 21
293.0770876668948
 72
     2
 10
333.671061091257
 20
292.4271539832751
 40
0.699999999999938
 50
111.8014094863052
 51
179.9999999997999
 73
     1
 72
     1
 10
332.9710610912571
 20
292.4271539832775
 11
332.9710610912568
 21
145.3448455639638
 97
        0
 75
     0
 76
     1
 52
0.0
 41
5.0
 77
     0
 78
     2
 53
45.0
 43
341.3841221863675
 44
-24.49220968070455
 45
-22.45064030267288
 46
22.45064030267288
 79
     0
 53
45.0
 43
363.8347721863675
 44
-24.49220968070455
 45
-22.45064030267288
 46
22.45064030267288
 79
     4
 49
39.6875
 49
-7.9375
 49
0.0
 49
-7.9375
 98
        1
 10
364.6400233110551
 20
-21.85214175968332
  0
HATCH
  5
40E7
330
1A
100
AcDbEntity
  8
SEIHIN
 62
     7
370
     9
100
AcDbHatch
 10
0.0
 20
0.0
 30
-0.000000000000733
210
0.0
220
0.0
230
1.0
  2
ANSI32
 70
     0
 71
     0
 91
        1
 92
        1
 93
        4
 72
     1
 10
381.9710610912573
 20
327.2395935369863
 11
381.9710610912573
 21
312.2395934789424
 72
     1
 10
381.9710610912571
 20
312.2395934789424
 11
342.9710610912571
 21
312.239593478946
 72
     1
 10
342.9710610912571
 20
312.239593478946
 11
342.9710610912571
 21
327.23959353699
 72
     1
 10
342.9710610912571
 20
327.23959353699
 11
381.9710610912571
 21
327.2395935369863
 97
        0
 75
     0
 76
     1
 52
90.0
 41
0.5
 77
     0
 78
     2
 53
135.0
 43
2.842867563719437
 44
0.0000000000000568
 45
-3.367596045400933
 46
-3.367596045400931
 79
     0
 53
135.0
 43
2.842867563719437
 44
2.245065000000055
 45
-3.367596045400933
 46
-3.367596045400931
 79
     0
 98
        1
 10
358.656624076309
 20
319.8344206949755
  0
LINE
  5
40E8
330
1A
100
AcDbEntity
  8
SEIHIN
100
AcDbLine
 10
382.4710610912571
 20
327.23959353699
 30
-0.000000000000733
 11
382.4710610912577
 21
145.3448455639638
 31
-0.000000000000733
  0
LINE
  5
5172
330
1A
100
AcDbEntity
  8
0
100
AcDbLine
 10
482.5710610912578
 20
145.3448455639636
 30
-0.000000000000733
 11
482.5710610912578
 21
345.2395935369868
 31
-0.000000000000733
  0
LINE
  5
5173
330
1A
100
AcDbEntity
  8
0
100
AcDbLine
 10
497.5710610912577
 20
145.3448455639636
 30
-0.000000000000733
 11
497.5710610912577
 21
345.2395935369868
 31
-0.000000000000733
  0
LINE
  5
5174
330
1A
100
AcDbEntity
  8
0
  6
DASHED2
100
AcDbLine
 10
493.5710610912577
 20
145.3448455639636
 30
-0.000000000000733
 11
493.5710610912577
 21
345.2395935369868
 31
-0.000000000000733
  0
LINE
  5
5175
330
1A
100
AcDbEntity
  8
0
100
AcDbLine
 10
482.5710610912578
 20
345.2395935369868
 30
-0.000000000000733
 11
497.5710610912577
 21
345.2395935369868
 31
-0.000000000000733
  0
ARC
  5
5177
330
1A
100
AcDbEntity
  8
SUTEITA
100
AcDbCircle
 10
328.5710610912581
 20
311.739593536986
 30
-0.0000000000022842
 40
1.0
100
AcDbArc
 50
180.0
 51
0.0
1001
ACAD
1000
ASC_BOUNDS
1002
{
1070
    19
1005
0
1002
}
  0
ARC
  5
5178
330
1A
100
AcDbEntity
  8
SUTEITA
100
AcDbCircle
 10
328.5710610912581
 20
311.7395935369862
 30
-0.0000000000022842
 40
0.5
100
AcDbArc
 50
180.0
 51
0.0
1001
ACAD
1000
ASC_BOUNDS
1002
{
1070
    19
1005
0
1002
}
  0
LINE
  5
5179
330
1A
100
AcDbEntity
  8
SUTEITA
100
AcDbLine
 10
329.0710610912581
 20
320.7395935369862
 30
-0.0000000000022842
 11
329.5710610912581
 21
320.7395935369862
 31
-0.0000000000022842
1001
ACAD
1000
ASC_BOUNDS
1002
{
1070
    19
1005
0
1002
}
  0
LINE
  5
517A
330
1A
100
AcDbEntity
  8
SUTEITA
100
AcDbLine
 10
329.0710610912581
 20
311.739593536986
 30
-0.0000000000022842
 11
329.0710610912581
 21
320.739593536986
 31
-0.0000000000022842
1001
ACAD
1000
ASC_BOUNDS
1002
{
1070
    19
1005
0
1002
}
  0
LINE
  5
517B
330
1A
100
AcDbEntity
  8
SUTEITA
100
AcDbLine
 10
329.5710610912581
 20
311.739593536986
 30
-0.0000000000022842
 11
329.5710610912581
 21
320.739593536986
 31
-0.0000000000022842
1001
ACAD
1000
ASC_BOUNDS
1002
{
1070
    19
1005
0
1002
}
  0
LINE
  5
517C
330
1A
100
AcDbEntity
  8
SUTEITA
100
AcDbLine
 10
327.5710610912581
 20
311.739593536986
 30
-0.0000000000022842
 11
327.5710610912581
 21
345.7395935369868
 31
-0.0000000000022842
  0
LINE
  5
517D
330
1A
100
AcDbEntity
  8
SUTEITA
100
AcDbLine
 10
328.0710610912581
 20
311.7395935369862
 30
-0.0000000000022842
 11
328.071061091258
 21
345.2395935369863
 31
-0.0000000000022842
1001
ACAD
1000
ASC_BOUNDS
1002
{
1070
    19
1005
0
1002
}
  0
LINE
  5
517E
330
1A
100
AcDbEntity
  8
KASAGI
100
AcDbLine
 10
507.874005919672
 20
349.7395935369868
 30
-0.000000000000733
 11
486.4730059196717
 21
349.7395935369867
 31
-0.000000000000733
  0
LINE
  5
517F
330
1A
100
AcDbEntity
  8
KASAGI
100
AcDbLine
 10
331.5730059196716
 20
368.9468095369867
 30
-0.000000000000733
 11
519.4909179196721
 21
360.3567477710523
 31
-0.000000000000733
  0
LINE
  5
5180
330
1A
100
AcDbEntity
  8
KASAGI
100
AcDbLine
 10
330.5864819196717
 20
366.6806415369866
 30
-0.000000000000733
 11
516.3803004660153
 21
358.1665964704872
 31
-0.000000000000733
  0
LINE
  5
5181
330
1A
100
AcDbEntity
  8
KASAGI
100
AcDbLine
 10
507.1540059196721
 20
345.7395935369868
 30
-0.000000000000733
 11
321.4920059196717
 21
345.7395935369868
 31
-0.000000000000733
  0
LINE
  5
5183
330
1A
100
AcDbEntity
  8
KASAGI
100
AcDbLine
 10
365.0730059196716
 20
350.7395935369867
 30
-0.000000000000733
 11
418.5730059196717
 21
350.7395935369867
 31
-0.000000000000733
  0
LINE
  5
5184
330
1A
100
AcDbEntity
  8
KASAGI
100
AcDbLine
 10
360.1730059196717
 20
360.7426181743934
 30
-0.000000000000733
 11
360.1730059196717
 21
365.3248321743935
 31
-0.000000000000733
  0
LINE
  5
5185
330
1A
100
AcDbEntity
  8
KASAGI
100
AcDbLine
 10
348.1730059196717
 20
360.7426181743934
 30
-0.000000000000733
 11
348.1730059196717
 21
365.7542841743933
 31
-0.000000000000733
  0
LINE
  5
5186
330
1A
100
AcDbEntity
  8
KASAGI
100
AcDbLine
 10
307.0730059196716
 20
369.5221371729928
 30
-0.000000000000733
 11
307.0730059196716
 21
305.2391375369863
 31
-0.000000000000733
  0
LINE
  5
5187
330
1A
100
AcDbEntity
  8
KASAGI
100
AcDbLine
 10
309.3730059196716
 20
366.3305416227422
 30
-0.000000000000733
 11
309.3730059196716
 21
319.7391375369863
 31
-0.000000000000733
  0
ARC
  5
5188
330
1A
100
AcDbEntity
  8
KASAGI
100
AcDbCircle
 10
309.1730059196716
 20
305.2391375369863
 30
-0.000000000000733
 40
0.5
100
AcDbArc
 50
270.0
 51
0.0
  0
ARC
  5
5189
330
1A
100
AcDbEntity
  8
KASAGI
100
AcDbCircle
 10
307.5730059196716
 20
305.2391375369863
 30
-0.000000000000733
 40
0.5
100
AcDbArc
 50
180.0
 51
270.0
  0
LINE
  5
518A
330
1A
100
AcDbEntity
  8
KASAGI
100
AcDbLine
 10
309.1730059196716
 20
304.7391375369863
 30
-0.000000000000733
 11
307.5730059196716
 21
304.7391375369863
 31
-0.000000000000733
  0
LINE
  5
518B
330
1A
100
AcDbEntity
  8
KASAGI
100
AcDbLine
 10
320.7720059196716
 20
349.7395935369867
 30
-0.000000000000733
 11
351.6730059196717
 21
349.7395935369867
 31
-0.000000000000733
  0
LINE
  5
518C
330
1A
100
AcDbEntity
  8
KASAGI
100
AcDbLine
 10
309.6730059196716
 20
319.7395935369864
 30
-0.000000000000733
 11
315.8691794087596
 21
345.7205584720875
 31
-0.000000000000733
  0
LINE
  5
518D
330
1A
100
AcDbEntity
  8
KASAGI
100
AcDbLine
 10
312.2790059196717
 20
314.9215935369864
 30
-0.000000000000733
 11
319.040477387367
 21
343.7294995027553
 31
-0.000000000000733
  0
ARC
  5
518E
330
1A
100
AcDbEntity
  8
KASAGI
100
AcDbCircle
 10
313.1730059196716
 20
314.2798015369864
 30
-0.000000000000733
 40
1.5
100
AcDbArc
 50
283.0993609999969
 51
0.0
  0
LINE
  5
518F
330
1A
100
AcDbEntity
  8
KASAGI
100
AcDbLine
 10
313.5129659196717
 20
312.8188355369863
 30
-0.000000000000733
 11
309.6730059196716
 21
311.7391375369863
 31
-0.000000000000733
  0
LINE
  5
5190
330
1A
100
AcDbEntity
  8
KASAGI
100
AcDbLine
 10
309.6730059196716
 20
305.2391375369863
 30
-0.000000000000733
 11
309.6730059196716
 21
311.7391375369863
 31
-0.000000000000733
  0
LINE
  5
5191
330
1A
100
AcDbEntity
  8
KASAGI
100
AcDbLine
 10
310.2079439196717
 20
314.7765895369863
 30
-0.000000000000733
 11
312.2790059196717
 21
314.9215935369864
 31
-0.000000000000733
  0
LINE
  5
5192
330
1A
100
AcDbEntity
  8
KASAGI
100
AcDbLine
 10
310.2078839196717
 20
314.7765395369863
 30
-0.000000000000733
 11
314.1381279196717
 21
315.0513675369863
 31
-0.000000000000733
  0
LINE
  5
5193
330
1A
100
AcDbEntity
  8
KASAGI
100
AcDbLine
 10
309.3730059196716
 20
319.7391375369863
 30
-0.000000000000733
 11
309.6730059196716
 21
319.7391375369863
 31
-0.000000000000733
  0
ARC
  5
5194
330
1A
100
AcDbEntity
  8
KASAGI
100
AcDbCircle
 10
310.1730059196717
 20
315.2755935369863
 30
-0.000000000000733
 40
0.5
100
AcDbArc
 50
180.0
 51
274.0121769999991
  0
ARC
  5
5195
330
1A
100
AcDbEntity
  8
KASAGI
100
AcDbCircle
 10
310.1730059196717
 20
315.2753215369863
 30
-0.000000000000733
 40
0.5
100
AcDbArc
 50
180.0
 51
274.000000000003
  0
LINE
  5
5196
330
1A
100
AcDbEntity
  8
KASAGI
100
AcDbLine
 10
309.6730059196716
 20
315.2755935369863
 30
-0.000000000000733
 11
309.6730059196716
 21
319.7395935369864
 31
-0.000000000000733
  0
LINE
  5
5197
330
1A
100
AcDbEntity
  8
KASAGI
100
AcDbLine
 10
309.6730059196716
 20
319.7391375369863
 30
-0.000000000000733
 11
309.6730059196716
 21
315.2753215369863
 31
-0.000000000000733
  0
ARC
  5
5198
330
1A
100
AcDbEntity
  8
KASAGI
100
AcDbCircle
 10
314.1730059196717
 20
314.5525855369864
 30
-0.000000000000733
 40
0.5
100
AcDbArc
 50
0.0
 51
94.00000000000302
  0
LINE
  5
5199
330
1A
100
AcDbEntity
  8
KASAGI
100
AcDbLine
 10
314.6730059196717
 20
314.5525855369864
 30
-0.000000000000733
 11
314.6730059196717
 21
314.2798015369864
 31
-0.000000000000733
  0
ARC
  5
519A
330
1A
100
AcDbEntity
  8
KASAGI
100
AcDbCircle
 10
320.7720059196716
 20
344.7395935369868
 30
-0.000000000000733
 40
5.0
100
AcDbArc
 50
90.0
 51
168.6855770000004
  0
ARC
  5
519B
330
1A
100
AcDbEntity
  8
KASAGI
100
AcDbCircle
 10
321.4920059196717
 20
343.2395935369868
 30
-0.000000000000733
 40
2.5
100
AcDbArc
 50
90.0
 51
168.6990510000009
  0
LINE
  5
519C
330
1A
100
AcDbEntity
  8
KASAGI
100
AcDbLine
 10
352.6730059196717
 20
350.7395935369867
 30
-0.000000000000733
 11
352.6730059196717
 21
359.2426181743935
 31
-0.000000000000733
  0
ARC
  5
519D
330
1A
100
AcDbEntity
  8
KASAGI
100
AcDbCircle
 10
351.6730059196717
 20
350.7395935369867
 30
-0.000000000000733
 40
1.0
100
AcDbArc
 50
270.0
 51
0.0
  0
LINE
  5
519E
330
1A
100
AcDbEntity
  8
KASAGI
100
AcDbLine
 10
348.6730059196716
 20
360.2426181743934
 30
-0.000000000000733
 11
351.6730059196717
 21
360.2426181743934
 31
-0.000000000000733
  0
ARC
  5
519F
330
1A
100
AcDbEntity
  8
KASAGI
100
AcDbCircle
 10
348.6730059196716
 20
360.7426181743934
 30
-0.000000000000733
 40
0.5
100
AcDbArc
 50
180.0
 51
270.0
  0
ARC
  5
51A0
330
1A
100
AcDbEntity
  8
KASAGI
100
AcDbCircle
 10
351.6730059196717
 20
359.2426181743935
 30
-0.000000000000733
 40
1.0
100
AcDbArc
 50
0.0
 51
90.0
  0
LINE
  5
51A2
330
1A
100
AcDbEntity
  8
KASAGI
100
AcDbLine
 10
355.6730059196717
 20
359.2426181743935
 30
-0.000000000000733
 11
355.6730059196717
 21
350.7395935369867
 31
-0.000000000000733
  0
LINE
  5
51A3
330
1A
100
AcDbEntity
  8
KASAGI
100
AcDbLine
 10
356.6730059196717
 20
349.7395935369867
 30
-0.000000000000733
 11
364.0730059196716
 21
349.7395935369867
 31
-0.000000000000733
  0
ARC
  5
51A4
330
1A
100
AcDbEntity
  8
KASAGI
100
AcDbCircle
 10
356.6730059196717
 20
350.7395935369867
 30
-0.000000000000733
 40
1.0
100
AcDbArc
 50
180.0
 51
270.0
  0
LINE
  5
51A5
330
1A
100
AcDbEntity
  8
KASAGI
100
AcDbLine
 10
364.0730059196716
 20
349.7395935369867
 30
-0.000000000000733
 11
365.0730059196716
 21
350.7395935369867
 31
-0.000000000000733
  0
ARC
  5
51A6
330
1A
100
AcDbEntity
  8
KASAGI
100
AcDbCircle
 10
359.6730059196716
 20
360.7426181743934
 30
-0.000000000000733
 40
0.5
100
AcDbArc
 50
270.0
 51
0.0
  0
LINE
  5
51A7
330
1A
100
AcDbEntity
  8
KASAGI
100
AcDbLine
 10
359.6730059196716
 20
360.2426181743934
 30
-0.000000000000733
 11
356.6730059196717
 21
360.2426181743934
 31
-0.000000000000733
  0
ARC
  5
51A8
330
1A
100
AcDbEntity
  8
KASAGI
100
AcDbCircle
 10
356.6730059196717
 20
359.2426181743935
 30
-0.000000000000733
 40
1.0
100
AcDbArc
 50
90.0
 51
180.0
  0
LINE
  5
51A9
330
1A
100
AcDbEntity
  8
KASAGI
100
AcDbLine
 10
307.0730059196716
 20
369.5221371729926
 30
-0.000000000000733
 11
309.2949593006048
 21
371.7440905539258
 31
-0.000000000000733
  0
LINE
  5
51AA
330
1A
100
AcDbEntity
  8
KASAGI
100
AcDbLine
 10
329.4987739196717
 20
371.0210415369867
 30
-0.000000000000733
 11
331.5730059196716
 21
368.9468095369867
 31
-0.000000000000733
  0
LINE
  5
51AB
330
1A
100
AcDbEntity
  8
KASAGI
100
AcDbLine
 10
328.5122483142481
 20
368.7548751424102
 30
-0.000000000000733
 11
330.5864819196717
 21
366.6806415369866
 31
-0.000000000000733
  0
LINE
  5
51AC
330
1A
100
AcDbEntity
  8
KASAGI
100
AcDbLine
 10
359.6730059196716
 20
362.7426181743934
 30
-0.000000000000733
 11
348.6730059196716
 21
362.7426181743934
 31
-0.000000000000733
  0
ARC
  5
51AD
330
1A
100
AcDbEntity
  8
KASAGI
100
AcDbCircle
 10
348.6730059196716
 20
362.2426181743934
 30
-0.000000000000733
 40
0.5
100
AcDbArc
 50
90.0
 51
180.0
  0
ARC
  5
51AE
330
1A
100
AcDbEntity
  8
KASAGI
100
AcDbCircle
 10
359.6730059196716
 20
362.2426181743934
 30
-0.000000000000733
 40
0.5
100
AcDbArc
 50
0.0
 51
90.0
  0
LINE
  5
51B0
330
1A
100
AcDbEntity
  8
KASAGI
100
AcDbLine
 10
418.5730059196718
 20
350.7395935369867
 30
-0.000000000000733
 11
419.0730059196718
 21
350.2395935369867
 31
-0.000000000000733
  0
LINE
  5
51B1
330
1A
100
AcDbEntity
  8
KASAGI
100
AcDbLine
 10
419.5730059196717
 20
350.7395935369867
 30
-0.000000000000733
 11
419.0730059196718
 21
350.2395935369867
 31
-0.000000000000733
  0
LINE
  5
51B4
330
1A
100
AcDbEntity
  8
KASAGI
100
AcDbLine
 10
489.4730059196717
 20
356.5434974619318
 30
-0.000000000000733
 11
478.473005919672
 21
356.5434974619318
 31
-0.000000000000733
  0
ARC
  5
51B5
330
1A
100
AcDbEntity
  8
KASAGI
100
AcDbCircle
 10
478.473005919672
 20
354.5434974619319
 30
-0.000000000000733
 40
0.5
100
AcDbArc
 50
180.0
 51
270.0
  0
LINE
  5
51B6
330
1A
100
AcDbEntity
  8
KASAGI
100
AcDbLine
 10
474.0730059196717
 20
349.7395935369867
 30
-0.000000000000733
 11
481.473005919672
 21
349.7395935369867
 31
-0.000000000000733
  0
LINE
  5
51B7
330
1A
100
AcDbEntity
  8
KASAGI
100
AcDbLine
 10
473.0730059196718
 20
350.7395935369867
 30
-0.000000000000733
 11
474.0730059196717
 21
349.7395935369867
 31
-0.000000000000733
  0
LINE
  5
51B8
330
1A
100
AcDbEntity
  8
KASAGI
100
AcDbLine
 10
478.473005919672
 20
354.0434974619318
 30
-0.000000000000733
 11
481.473005919672
 21
354.0434974619318
 31
-0.000000000000733
  0
ARC
  5
51B9
330
1A
100
AcDbEntity
  8
KASAGI
100
AcDbCircle
 10
481.473005919672
 20
350.7395935369867
 30
-0.000000000000733
 40
1.0
100
AcDbArc
 50
270.0
 51
0.0
  0
ARC
  5
51BA
330
1A
100
AcDbEntity
  8
KASAGI
100
AcDbCircle
 10
481.473005919672
 20
353.0434974619319
 30
-0.000000000000733
 40
1.0
100
AcDbArc
 50
0.0
 51
90.0
  0
LINE
  5
51BB
330
1A
100
AcDbEntity
  8
KASAGI
100
AcDbLine
 10
482.473005919672
 20
353.0434974619319
 30
-0.000000000000733
 11
482.473005919672
 21
350.7395935369867
 31
-0.000000000000733
  0
LINE
  5
51BC
330
1A
100
AcDbEntity
  8
KASAGI
100
AcDbLine
 10
477.973005919672
 20
354.5434974619319
 30
-0.000000000000733
 11
477.973005919672
 21
359.6626494619318
 31
-0.000000000000733
  0
ARC
  5
51BD
330
1A
100
AcDbEntity
  8
KASAGI
100
AcDbCircle
 10
478.473005919672
 20
356.0434974619318
 30
-0.000000000000733
 40
0.5
100
AcDbArc
 50
90.0
 51
180.0
  0
ARC
  5
51BE
330
1A
100
AcDbEntity
  8
KASAGI
100
AcDbCircle
 10
489.4730059196717
 20
354.5434974619319
 30
-0.000000000000733
 40
0.5
100
AcDbArc
 50
270.0
 51
0.0
  0
LINE
  5
51BF
330
1A
100
AcDbEntity
  8
KASAGI
100
AcDbLine
 10
489.4730059196717
 20
354.0434974619318
 30
-0.000000000000733
 11
486.4730059196717
 21
354.0434974619318
 31
-0.000000000000733
  0
ARC
  5
51C0
330
1A
100
AcDbEntity
  8
KASAGI
100
AcDbCircle
 10
486.4730059196717
 20
353.0434974619319
 30
-0.000000000000733
 40
1.0
100
AcDbArc
 50
90.0
 51
180.0
  0
ARC
  5
51C1
330
1A
100
AcDbEntity
  8
KASAGI
100
AcDbCircle
 10
486.4730059196717
 20
350.7395935369867
 30
-0.000000000000733
 40
1.0
100
AcDbArc
 50
180.0
 51
270.0
  0
LINE
  5
51C2
330
1A
100
AcDbEntity
  8
KASAGI
100
AcDbLine
 10
485.4730059196717
 20
350.7395935369867
 30
-0.000000000000733
 11
485.4730059196717
 21
353.0434974619319
 31
-0.000000000000733
  0
LINE
  5
51C3
330
1A
100
AcDbEntity
  8
KASAGI
100
AcDbLine
 10
489.9730059196717
 20
354.5434974619319
 30
-0.000000000000733
 11
489.9730059196717
 21
359.2331974619317
 31
-0.000000000000733
  0
ARC
  5
51C4
330
1A
100
AcDbEntity
  8
KASAGI
100
AcDbCircle
 10
489.4730059196717
 20
356.0434974619318
 30
-0.000000000000733
 40
0.5
100
AcDbArc
 50
0.0
 51
90.0
  0
ARC
  5
51C5
330
1A
100
AcDbEntity
  8
KASAGI
100
AcDbCircle
 10
521.0730059196721
 20
305.2391375369863
 30
-0.000000000000733
 40
0.5
100
AcDbArc
 50
270.0
 51
0.0
  0
ARC
  5
51C6
330
1A
100
AcDbEntity
  8
KASAGI
100
AcDbCircle
 10
519.4730059196721
 20
305.2391375369863
 30
-0.000000000000733
 40
0.5
100
AcDbArc
 50
180.0
 51
270.0
  0
LINE
  5
51C7
330
1A
100
AcDbEntity
  8
KASAGI
100
AcDbLine
 10
519.4730059196721
 20
304.7391375369863
 30
-0.000000000000733
 11
521.0730059196721
 21
304.7391375369863
 31
-0.000000000000733
  0
LINE
  5
51C8
330
1A
100
AcDbEntity
  8
KASAGI
100
AcDbLine
 10
519.2730059196722
 20
355.1685157710522
 30
-0.000000000000733
 11
519.2730059196722
 21
319.7391375369863
 31
-0.000000000000733
  0
LINE
  5
51C9
330
1A
100
AcDbEntity
  8
KASAGI
100
AcDbLine
 10
521.5730059196721
 20
305.2391375369863
 30
-0.000000000000733
 11
521.5730059196719
 21
358.2746817710522
 31
-0.000000000000733
  0
LINE
  5
51CA
330
1A
100
AcDbEntity
  8
KASAGI
100
AcDbLine
 10
518.9730059196721
 20
319.7395935369864
 30
-0.000000000000733
 11
512.7768323620998
 21
345.7205588143693
 31
-0.000000000000733
  0
LINE
  5
51CB
330
1A
100
AcDbEntity
  8
KASAGI
100
AcDbLine
 10
516.3670059196721
 20
314.9215935369864
 30
-0.000000000000733
 11
509.6055344861786
 21
343.7294993316064
 31
-0.000000000000733
  0
ARC
  5
51CC
330
1A
100
AcDbEntity
  8
KASAGI
100
AcDbCircle
 10
515.4730059196721
 20
314.2798015369864
 30
-0.000000000000733
 40
1.5
100
AcDbArc
 50
180.0
 51
256.900639000003
  0
LINE
  5
51CD
330
1A
100
AcDbEntity
  8
KASAGI
100
AcDbLine
 10
515.1330459196722
 20
312.8188355369863
 30
-0.000000000000733
 11
518.9730059196721
 21
311.7391375369863
 31
-0.000000000000733
  0
LINE
  5
51CE
330
1A
100
AcDbEntity
  8
KASAGI
100
AcDbLine
 10
518.9730059196721
 20
305.2391375369863
 30
-0.000000000000733
 11
518.9730059196721
 21
311.7391375369863
 31
-0.000000000000733
  0
LINE
  5
51CF
330
1A
100
AcDbEntity
  8
KASAGI
100
AcDbLine
 10
518.438005919672
 20
314.7765935369863
 30
-0.000000000000733
 11
516.3670059196721
 21
314.9215935369864
 31
-0.000000000000733
  0
LINE
  5
51D0
330
1A
100
AcDbEntity
  8
KASAGI
100
AcDbLine
 10
518.438127919672
 20
314.7765395369863
 30
-0.000000000000733
 11
514.507883919672
 21
315.0513675369863
 31
-0.000000000000733
  0
ARC
  5
51D1
330
1A
100
AcDbEntity
  8
KASAGI
100
AcDbCircle
 10
514.4730059196721
 20
314.5525855369864
 30
-0.000000000000733
 40
0.5
100
AcDbArc
 50
85.99999999999699
 51
180.0
  0
LINE
  5
51D2
330
1A
100
AcDbEntity
  8
KASAGI
100
AcDbLine
 10
513.9730059196721
 20
314.5525855369864
 30
-0.000000000000733
 11
513.9730059196721
 21
314.2798015369864
 31
-0.000000000000733
  0
LINE
  5
51D3
330
1A
100
AcDbEntity
  8
KASAGI
100
AcDbLine
 10
519.2730059196722
 20
319.7391375369863
 30
-0.000000000000733
 11
518.9730059196721
 21
319.7391375369863
 31
-0.000000000000733
  0
ARC
  5
51D4
330
1A
100
AcDbEntity
  8
KASAGI
100
AcDbCircle
 10
518.4730059196721
 20
315.2755935369863
 30
-0.000000000000733
 40
0.5
100
AcDbArc
 50
265.987823000001
 51
0.0
  0
ARC
  5
51D5
330
1A
100
AcDbEntity
  8
KASAGI
100
AcDbCircle
 10
518.4730059196721
 20
315.2753215369863
 30
-0.000000000000733
 40
0.5
100
AcDbArc
 50
265.999999999997
 51
0.0
  0
LINE
  5
51D6
330
1A
100
AcDbEntity
  8
KASAGI
100
AcDbLine
 10
518.9730059196721
 20
315.2755935369863
 30
-0.000000000000733
 11
518.9730059196721
 21
319.7395935369864
 31
-0.000000000000733
  0
LINE
  5
51D7
330
1A
100
AcDbEntity
  8
KASAGI
100
AcDbLine
 10
518.9730059196721
 20
319.7391375369863
 30
-0.000000000000733
 11
518.9730059196721
 21
315.2753215369863
 31
-0.000000000000733
  0
ARC
  5
51D8
330
1A
100
AcDbEntity
  8
KASAGI
100
AcDbCircle
 10
507.874005919672
 20
344.7395935369868
 30
-0.000000000000733
 40
5.0
100
AcDbArc
 50
11.31442700000214
 51
90.0
  0
ARC
  5
51D9
330
1A
100
AcDbEntity
  8
KASAGI
100
AcDbCircle
 10
507.1540059196721
 20
343.2395935369868
 30
-0.000000000000733
 40
2.5
100
AcDbArc
 50
11.30094499999861
 51
90.0
  0
ARC
  5
51DA
330
1A
100
AcDbEntity
  8
KASAGI
100
AcDbCircle
 10
516.2730059196722
 20
355.1685157710522
 30
-0.000000000000733
 40
3.0
100
AcDbArc
 50
0.0
 51
87.95038799999813
  0
LINE
  5
51DB
330
1A
100
AcDbEntity
  8
KASAGI
100
AcDbLine
 10
519.4909179196721
 20
360.3567477710523
 30
-0.000000000000733
 11
521.5730059196721
 21
358.2746817710522
 31
-0.000000000000733
  0
HATCH
  5
51DD
330
1A
100
AcDbEntity
  8
KASAGI
370
     9
100
AcDbHatch
 10
0.0
 20
0.0
 30
-0.000000000000733
210
0.0
220
0.0
230
1.0
  2
ANSI31
 70
     0
 71
     0
 91
        1
 92
        7
 72
     1
 73
     1
 93
        6
 10
359.6730059196716
 20
362.7426181743934
 42
-0.4142135623730951
 10
360.1730059196717
 20
362.2426181743934
 42
0.0
 10
360.1730059196717
 20
365.3248313487815
 42
0.0
 10
348.1730059196717
 20
365.7542842276442
 42
0.0
 10
348.1730059196717
 20
362.2426181743934
 42
-0.4142135623730951
 10
348.6730059196716
 20
362.7426181743934
 42
0.0
 97
        0
 75
     0
 76
     1
 52
0.0
 41
0.5
 77
     0
 78
     1
 53
45.0
 43
51.43985187364553
 44
-30.54219475524758
 45
-1.122532015133643
 46
1.122532015133643
 79
     0
 47
0.0454572263698491
 98
        1
 10
355.9583392170603
 20
363.4194335213446
  0
HATCH
  5
51DE
330
1A
100
AcDbEntity
  8
KASAGI
370
     9
100
AcDbHatch
 10
0.0
 20
0.0
 30
-0.000000000000733
210
0.0
220
0.0
230
1.0
  2
ANSI31
 70
     0
 71
     0
 91
        1
 92
        7
 72
     1
 73
     1
 93
        6
 10
489.4730059196717
 20
356.5434974619318
 42
-0.4142135623730951
 10
489.9730059196717
 20
356.0434974619318
 42
0.0
 10
489.9730059196717
 20
359.2331976023063
 42
0.0
 10
477.973005919672
 20
359.6626504811691
 42
0.0
 10
477.973005919672
 20
356.0434974619318
 42
-0.4142135623730951
 10
478.473005919672
 20
356.5434974619318
 42
0.0
 97
        0
 75
     0
 76
     1
 52
0.0
 41
0.5
 77
     0
 78
     1
 53
45.0
 43
-8.560148126354135
 44
-29.84131546770948
 45
-1.122532015133643
 46
1.122532015133643
 79
     0
 47
0.1288987835883425
 98
        1
 10
483.2957345247447
 20
357.8942993512127
  0
LINE
  5
51DF
330
1A
100
AcDbEntity
  8
SUTEITA
100
AcDbLine
 10
327.5710610912581
 20
345.7395935369872
 30
-0.000000000000733
 11
502.5710610912573
 21
345.7395935369868
 31
-0.000000000000733
  0
LINE
  5
51E0
330
1A
100
AcDbEntity
  8
KASAGI
100
AcDbLine
 10
309.29495927106
 20
371.7440905243811
 30
-0.000000000000733
 11
329.4987739196717
 21
371.0210415369867
 31
-0.000000000000733
  0
LINE
  5
51E1
330
1A
100
AcDbEntity
  8
KASAGI
100
AcDbLine
 10
312.4803004519758
 20
369.3286223226795
 30
-0.000000000000733
 11
328.5122483142481
 21
368.7548751424102
 31
-0.000000000000733
  0
ARC
  5
51E2
330
1A
100
AcDbEntity
  8
KASAGI
100
AcDbCircle
 10
312.3730059196716
 20
366.3305416227422
 30
-0.000000000000733
 40
3.0
100
AcDbArc
 50
87.95038826829715
 51
180.0
  0
HATCH
  5
51EC
330
1A
100
AcDbEntity
  8
PACKING
  6
DASHED2
 48
0.5
370
     9
100
AcDbHatch
 10
0.0
 20
0.0
 30
-0.000000000000733
210
0.0
220
0.0
230
1.0
  2
ANSI31
 70
     0
 71
     0
 91
        2
 92
        7
 72
     0
 73
     1
 93
        4
 10
493.5710610912577
 20
321.7395935369864
 10
482.5710610912578
 20
321.7395935369864
 10
482.5710610912578
 20
311.7395935369864
 10
493.5710610912577
 20
311.7395935369864
 97
        0
 92
        7
 72
     0
 73
     1
 93
        4
 10
497.5710610912577
 20
321.7395935369864
 10
493.5710610912577
 20
321.7395935369864
 10
493.5710610912577
 20
311.7395935369864
 10
497.5710610912577
 20
311.7395935369864
 97
        0
 75
     1
 76
     1
 52
0.0
 41
1.0
 77
     0
 78
     1
 53
45.0
 43
22.57106109125778
 44
-24.24521939265492
 45
-2.245064030267287
 46
2.245064030267287
 79
     0
 47
0.048240201561553
 98
        2
 10
487.5869929841203
 20
315.7609745218349
 10
495.1148392121485
 20
316.6292975237036
1001
GradientColor1ACI
1070
     5
1001
GradientColor2ACI
1070
     2
1001
ACAD
1010
0.0
1020
0.0
1030
0.0
  0
HATCH
  5
51ED
330
1A
100
AcDbEntity
  8
PACKING
370
     9
100
AcDbHatch
 10
0.0
 20
0.0
 30
-0.000000000000733
210
0.0
220
0.0
230
1.0
  2
ANSI31
 70
     0
 71
     0
 91
        1
 92
        7
 72
     0
 73
     1
 93
        4
 10
500.5710610912577
 20
321.7395935369864
 10
497.5710610912577
 20
321.7395935369864
 10
497.5710610912577
 20
311.7395935369864
 10
500.5710610912577
 20
311.7395935369864
 97
        0
 75
     1
 76
     1
 52
0.0
 41
1.0
 77
     0
 78
     1
 53
45.0
 43
22.57106109125778
 44
-24.24521939265492
 45
-2.245064030267287
 46
2.245064030267287
 79
     0
 47
0.048240201561553
 98
        1
 10
499.3613145393855
 20
315.5680126755628
1001
GradientColor1ACI
1070
     5
1001
GradientColor2ACI
1070
     2
1001
ACAD
1010
0.0
1020
0.0
1030
0.0
  0
LINE
  5
51EE
330
1A
100
AcDbEntity
  8
PACKING
  6
DASHED2
 48
0.5
100
AcDbLine
 10
482.5710610912578
 20
311.7395935369864
 30
-0.000000000000733
 11
500.5710610912577
 21
311.7395935369864
 31
-0.000000000000733
  0
LINE
  5
51EF
330
1A
100
AcDbEntity
  8
PACKING
  6
DASHED2
 48
0.5
100
AcDbLine
 10
482.5710610912578
 20
321.7395935369864
 30
-0.000000000000733
 11
500.5710610912577
 21
321.7395935369864
 31
-0.000000000000733
  0
LINE
  5
51F0
330
1A
100
AcDbEntity
  8
PACKING
  6
DASHED2
 48
0.5
100
AcDbLine
 10
500.5710610912577
 20
321.7395935369864
 30
-0.000000000000733
 11
500.5710610912577
 21
311.7395935369864
 31
-0.000000000000733
  0
ARC
  5
51F1
330
1A
100
AcDbEntity
  8
SUTEITA
100
AcDbCircle
 10
501.5710610912576
 20
311.7395935369864
 30
-0.000000000000733
 40
0.5
100
AcDbArc
 50
180.0
 51
0.0
  0
ARC
  5
51F2
330
1A
100
AcDbEntity
  8
SUTEITA
100
AcDbCircle
 10
501.5710610912576
 20
311.7395935369864
 30
-0.000000000000733
 40
1.0
100
AcDbArc
 50
180.0
 51
0.0
  0
LINE
  5
51F3
330
1A
100
AcDbEntity
  8
SUTEITA
100
AcDbLine
 10
501.0710610912576
 20
320.7395935369865
 30
-0.000000000000733
 11
501.0710610912576
 21
311.7395935369864
 31
-0.000000000000733
  0
LINE
  5
51F4
330
1A
100
AcDbEntity
  8
SUTEITA
100
AcDbLine
 10
500.5710610912577
 20
320.7395935369865
 30
-0.000000000000733
 11
500.5710610912577
 21
311.7395935369865
 31
-0.000000000000733
  0
LINE
  5
51F5
330
1A
100
AcDbEntity
  8
SUTEITA
100
AcDbLine
 10
500.5710610912577
 20
320.7395935369865
 30
-0.000000000000733
 11
501.0710610912576
 21
320.7395935369865
 31
-0.000000000000733
  0
LINE
  5
51F6
330
1A
100
AcDbEntity
  8
SUTEITA
100
AcDbLine
 10
502.5710610912573
 20
345.7395935369868
 30
-0.000000000000733
 11
502.5710610912577
 21
311.7395935369865
 31
-0.000000000000733
  0
LINE
  5
51F7
330
1A
100
AcDbEntity
  8
SUTEITA
100
AcDbLine
 10
502.071061091258
 20
345.2395935369867
 30
-0.000000000000733
 11
502.0710610912577
 21
311.7395935369864
 31
-0.000000000000733
  0
LINE
  5
51F8
330
1A
100
AcDbEntity
  8
SUTEITA
100
AcDbLine
 10
328.071061091258
 20
345.2395935369863
 30
-0.000000000000733
 11
502.0710610912582
 21
345.2395935369867
 31
-0.000000000000733
  0
LINE
  5
5224
330
1A
100
AcDbEntity
  8
TEKUSU
100
AcDbLine
 10
385.0710608764176
 20
351.7395935369872
 30
0.0000000000004325
 11
410.0710608764173
 21
351.7395935369872
 31
0.0000000000004325
  0
LINE
  5
5225
330
1A
100
AcDbEntity
  8
TEKUSU
100
AcDbLine
 10
385.0710608764176
 20
350.7395935369872
 30
0.0000000000004325
 11
385.0710608764176
 21
351.7395935369872
 31
0.0000000000004325
  0
LINE
  5
5226
330
1A
100
AcDbEntity
  8
TEKUSU
100
AcDbLine
 10
410.0710608764173
 20
351.7395935369872
 30
0.0000000000004325
 11
410.0710608764173
 21
350.7395935369872
 31
0.0000000000004325
  0
LINE
  5
5227
330
1A
100
AcDbEntity
  8
TEKUSU
100
AcDbLine
 10
450.0710610912578
 20
351.7395935369872
 30
-0.000000000000733
 11
475.0710610912578
 21
351.7395935369872
 31
-0.000000000000733
  0
LINE
  5
5228
330
1A
100
AcDbEntity
  8
TEKUSU
100
AcDbLine
 10
450.0710610912578
 20
350.7395935369872
 30
-0.000000000000733
 11
450.0710610912578
 21
351.7395935369872
 31
-0.000000000000733
  0
LINE
  5
5229
330
1A
100
AcDbEntity
  8
TEKUSU
100
AcDbLine
 10
475.0710610912578
 20
351.7395935369872
 30
-0.000000000000733
 11
475.0710610912578
 21
350.7395935369872
 31
-0.000000000000733
  0
LINE
  5
522A
330
1A
100
AcDbEntity
  8
TEKUSU
100
AcDbLine
 10
467.9710610912578
 20
352.0395935369871
 30
-0.000000000000733
 11
457.1710610912576
 21
352.0395935369871
 31
-0.000000000000733
  0
LINE
  5
522B
330
1A
100
AcDbEntity
  8
TEKUSU
100
AcDbLine
 10
457.1710610912577
 20
351.7395935369872
 30
-0.000000000000733
 11
467.9710610912578
 21
351.7395935369872
 31
-0.000000000000733
  0
LINE
  5
522C
330
1A
100
AcDbEntity
  8
TEKUSU
100
AcDbLine
 10
467.1710610912576
 20
352.9395935369873
 30
-0.000000000000733
 11
467.1710610912578
 21
355.8395935369873
 31
-0.000000000000733
  0
LINE
  5
522D
330
1A
100
AcDbEntity
  8
TEKUSU
100
AcDbLine
 10
467.9710610912578
 20
352.9395935369873
 30
-0.000000000000733
 11
467.9710610912578
 21
351.7395935369872
 31
-0.000000000000733
  0
LINE
  5
522E
330
1A
100
AcDbEntity
  8
TEKUSU
100
AcDbLine
 10
466.3644108696892
 20
356.8395935369873
 30
-0.000000000000733
 11
466.7521206418782
 21
356.5310503106474
 31
-0.000000000000733
  0
LINE
  5
522F
330
1A
100
AcDbEntity
  8
TEKUSU
100
AcDbLine
 10
464.8804621680159
 20
352.9395935369873
 30
-0.000000000000733
 11
464.8804621680159
 21
355.8395935369873
 31
-0.000000000000733
  0
LINE
  5
5230
330
1A
100
AcDbEntity
  8
TEKUSU
100
AcDbLine
 10
460.2616600144989
 20
352.9395935369873
 30
-0.000000000000733
 11
460.2616600144989
 21
355.8395935369873
 31
-0.000000000000733
  0
ARC
  5
5231
330
1A
100
AcDbEntity
  8
TEKUSU
100
AcDbCircle
 10
462.5710610912578
 20
344.2007046480993
 30
-0.000000000000733
 40
9.038888888888193
100
AcDbArc
 50
75.1970151888972
 51
104.8029848111028
  0
ARC
  5
5232
330
1A
100
AcDbEntity
  8
TEKUSU
100
AcDbCircle
 10
462.5710610912578
 20
353.5478285877106
 30
-0.000000000000733
 40
3.253539598048305
100
AcDbArc
 50
44.78038811956415
 51
135.2196118804272
  0
ARC
  5
5233
330
1A
100
AcDbEntity
  8
TEKUSU
100
AcDbCircle
 10
466.4257616296371
 20
349.1159493530888
 30
-0.000000000000733
 40
4.124100540863103
100
AcDbArc
 50
67.9942429270327
 51
112.0057570729671
  0
ARC
  5
5234
330
1A
100
AcDbEntity
  8
TEKUSU
100
AcDbCircle
 10
466.025761629637
 20
355.6183208675014
 30
-0.000000000000733
 40
1.166478654348267
100
AcDbArc
 50
10.9348602780051
 51
169.0651397219949
  0
LINE
  5
5235
330
1A
100
AcDbEntity
  8
TEKUSU
100
AcDbLine
 10
458.7777113128261
 20
356.8395935369873
 30
-0.000000000000733
 11
458.3900015406372
 21
356.5310503106474
 31
-0.000000000000733
  0
LINE
  5
5236
330
1A
100
AcDbEntity
  8
TEKUSU
100
AcDbLine
 10
457.9710610912576
 20
352.9395935369873
 30
-0.000000000000733
 11
457.9710610912576
 21
355.8395935369873
 31
-0.000000000000733
  0
LINE
  5
5237
330
1A
100
AcDbEntity
  8
TEKUSU
100
AcDbLine
 10
457.1710610912577
 20
352.9395935369873
 30
-0.000000000000733
 11
457.1710610912577
 21
351.7395935369872
 31
-0.000000000000733
  0
LINE
  5
5238
330
1A
100
AcDbEntity
  8
TEKUSU
100
AcDbLine
 10
466.3644108696892
 20
356.8395935369873
 30
-0.000000000000733
 11
458.7777113128261
 21
356.8395935369873
 31
-0.000000000000733
  0
ARC
  5
5239
330
1A
100
AcDbEntity
  8
TEKUSU
100
AcDbCircle
 10
458.7163605528782
 20
349.1159493530888
 30
-0.000000000000733
 40
4.124100540863103
100
AcDbArc
 50
67.9942429270327
 51
112.0057570729671
  0
LINE
  5
523A
330
1A
100
AcDbEntity
  8
TEKUSU
100
AcDbLine
 10
467.9710610912578
 20
352.9395935369873
 30
-0.000000000000733
 11
457.1710610912576
 21
352.9395935369873
 31
-0.000000000000733
  0
ARC
  5
523B
330
1A
100
AcDbEntity
  8
TEKUSU
100
AcDbCircle
 10
459.1163605528783
 20
355.6183208675014
 30
-0.000000000000733
 40
1.166478654348267
100
AcDbArc
 50
10.93486027799847
 51
169.0651397219949
  0
LINE
  5
5243
330
1A
100
AcDbEntity
  8
TEKUSU
100
AcDbLine
 10
465.0710610912577
 20
335.5395935369871
 30
-0.000000000000733
 11
460.0710610912574
 21
335.5395935369871
 31
-0.000000000000733
  0
LINE
  5
5244
330
1A
100
AcDbEntity
  8
TEKUSU
  6
DASHED2
 48
0.5
100
AcDbLine
 10
460.0710610912574
 20
342.9395935369866
 30
-0.000000000000733
 11
460.0710610912574
 21
351.7395935369872
 31
-0.000000000000733
  0
LINE
  5
5245
330
1A
100
AcDbEntity
  8
TEKUSU
  6
DASHED2
 48
0.5
100
AcDbLine
 10
465.0710610912577
 20
342.9395935369866
 30
-0.000000000000733
 11
465.0710610912577
 21
351.7395935369872
 31
-0.000000000000733
  0
LINE
  5
5246
330
1A
100
AcDbEntity
  8
TEKUSU
  6
CENTER2
 48
0.5
370
     5
100
AcDbLine
 10
462.5710610912578
 20
321.7395935369873
 30
-0.000000000000733
 11
462.5710610912576
 21
361.8395935369873
 31
-0.000000000000733
  0
LINE
  5
5247
330
1A
100
AcDbEntity
  8
TEKUSU
100
AcDbLine
 10
402.9710608764172
 20
352.0395935369871
 30
0.0000000000004325
 11
392.1710608764173
 21
352.0395935369871
 31
0.0000000000004325
  0
LINE
  5
5248
330
1A
100
AcDbEntity
  8
TEKUSU
100
AcDbLine
 10
392.1710608764175
 20
351.7395935369872
 30
0.0000000000004325
 11
402.9710608764172
 21
351.7395935369872
 31
0.0000000000004325
  0
LINE
  5
5249
330
1A
100
AcDbEntity
  8
TEKUSU
100
AcDbLine
 10
402.1710608764172
 20
352.9395935369873
 30
0.0000000000004325
 11
402.1710608764172
 21
355.8395935369873
 31
0.0000000000004325
  0
LINE
  5
524A
330
1A
100
AcDbEntity
  8
TEKUSU
100
AcDbLine
 10
402.9710608764172
 20
352.9395935369873
 30
0.0000000000004325
 11
402.9710608764172
 21
351.7395935369872
 31
0.0000000000004325
  0
LINE
  5
524B
330
1A
100
AcDbEntity
  8
TEKUSU
100
AcDbLine
 10
401.3644106548487
 20
356.8395935369873
 30
0.0000000000004325
 11
401.7521204270378
 21
356.5310503106474
 31
0.0000000000004325
  0
LINE
  5
524C
330
1A
100
AcDbEntity
  8
TEKUSU
100
AcDbLine
 10
399.8804619531758
 20
352.9395935369873
 30
0.0000000000004325
 11
399.8804619531758
 21
355.8395935369873
 31
0.0000000000004325
  0
LINE
  5
524D
330
1A
100
AcDbEntity
  8
TEKUSU
100
AcDbLine
 10
395.2616597996587
 20
352.9395935369873
 30
0.0000000000004325
 11
395.2616597996587
 21
355.8395935369873
 31
0.0000000000004325
  0
ARC
  5
524E
330
1A
100
AcDbEntity
  8
TEKUSU
100
AcDbCircle
 10
397.5710608764174
 20
344.2007046480993
 30
0.0000000000004325
 40
9.038888888888193
100
AcDbArc
 50
75.1970151888972
 51
104.8029848111028
  0
ARC
  5
524F
330
1A
100
AcDbEntity
  8
TEKUSU
100
AcDbCircle
 10
397.5710608764174
 20
353.5478285877106
 30
0.0000000000004325
 40
3.253539598048305
100
AcDbArc
 50
44.78038811956412
 51
135.2196118804272
  0
ARC
  5
5250
330
1A
100
AcDbEntity
  8
TEKUSU
100
AcDbCircle
 10
401.4257614147966
 20
349.1159493530888
 30
0.0000000000004325
 40
4.124100540863103
100
AcDbArc
 50
67.9942429270327
 51
112.0057570729671
  0
ARC
  5
5251
330
1A
100
AcDbEntity
  8
TEKUSU
100
AcDbCircle
 10
401.0257614147965
 20
355.6183208675014
 30
0.0000000000004325
 40
1.166478654348267
100
AcDbArc
 50
10.9348602780051
 51
169.0651397219949
  0
LINE
  5
5252
330
1A
100
AcDbEntity
  8
TEKUSU
100
AcDbLine
 10
393.7777110979859
 20
356.8395935369873
 30
0.0000000000004325
 11
393.3900013257968
 21
356.5310503106474
 31
0.0000000000004325
  0
LINE
  5
5253
330
1A
100
AcDbEntity
  8
TEKUSU
100
AcDbLine
 10
392.9710608764174
 20
352.9395935369873
 30
0.0000000000004325
 11
392.9710608764174
 21
355.8395935369873
 31
0.0000000000004325
  0
LINE
  5
5254
330
1A
100
AcDbEntity
  8
TEKUSU
100
AcDbLine
 10
392.1710608764175
 20
352.9395935369873
 30
0.0000000000004325
 11
392.1710608764175
 21
351.7395935369872
 31
0.0000000000004325
  0
LINE
  5
5255
330
1A
100
AcDbEntity
  8
TEKUSU
100
AcDbLine
 10
401.3644106548487
 20
356.8395935369873
 30
0.0000000000004325
 11
393.7777110979859
 21
356.8395935369873
 31
0.0000000000004325
  0
ARC
  5
5256
330
1A
100
AcDbEntity
  8
TEKUSU
100
AcDbCircle
 10
393.7163603380381
 20
349.1159493530888
 30
0.0000000000004325
 40
4.124100540863103
100
AcDbArc
 50
67.9942429270327
 51
112.0057570729671
  0
LINE
  5
5257
330
1A
100
AcDbEntity
  8
TEKUSU
100
AcDbLine
 10
402.9710608764172
 20
352.9395935369873
 30
0.0000000000004325
 11
392.1710608764173
 21
352.9395935369873
 31
0.0000000000004325
  0
ARC
  5
5258
330
1A
100
AcDbEntity
  8
TEKUSU
100
AcDbCircle
 10
394.1163603380378
 20
355.6183208675014
 30
0.0000000000004325
 40
1.166478654348267
100
AcDbArc
 50
10.93486027799846
 51
169.0651397219949
  0
LINE
  5
5259
330
1A
100
AcDbEntity
  8
TEKUSU
100
AcDbLine
 10
399.5710608764174
 20
328.7395935369873
 30
0.0000000000004325
 11
399.5710608764174
 21
335.5395935369872
 31
0.0000000000004325
  0
LINE
  5
525B
330
1A
100
AcDbEntity
  8
TEKUSU
100
AcDbLine
 10
395.5710608764174
 20
328.7395935369873
 30
0.0000000000004325
 11
395.5710608764174
 21
335.5395935369872
 31
0.0000000000004325
  0
LINE
  5
525C
330
1A
100
AcDbEntity
  8
TEKUSU
100
AcDbLine
 10
397.5710608764174
 20
326.7395935369873
 30
0.0000000000004325
 11
395.5710608764174
 21
328.7395935369873
 31
0.0000000000004325
  0
LINE
  5
525D
330
1A
100
AcDbEntity
  8
TEKUSU
100
AcDbLine
 10
397.6833303578812
 20
329.332192865953
 30
0.0000000000004325
 11
395.5710608764174
 21
328.7395935369873
 31
0.0000000000004325
  0
LINE
  5
525E
330
1A
100
AcDbEntity
  8
TEKUSU
100
AcDbLine
 10
397.5710608764174
 20
326.7395935369873
 30
0.0000000000004325
 11
399.5710608764174
 21
328.7395935369873
 31
0.0000000000004325
  0
LINE
  5
525F
330
1A
100
AcDbEntity
  8
TEKUSU
100
AcDbLine
 10
398.8593385315514
 20
335.5395935369871
 30
0.0000000000004325
 11
397.6833303578812
 21
329.332192865953
 31
0.0000000000004325
  0
LINE
  5
5260
330
1A
100
AcDbEntity
  8
TEKUSU
100
AcDbLine
 10
400.0710608764173
 20
335.5395935369871
 30
0.0000000000004325
 11
395.0710608764172
 21
335.5395935369871
 31
0.0000000000004325
  0
LINE
  5
5261
330
1A
100
AcDbEntity
  8
TEKUSU
  6
DASHED2
 48
0.5
100
AcDbLine
 10
395.0710608764172
 20
342.9395935369866
 30
0.0000000000004325
 11
395.0710608764172
 21
351.7395935369872
 31
0.0000000000004325
  0
LINE
  5
5262
330
1A
100
AcDbEntity
  8
TEKUSU
  6
DASHED2
 48
0.5
100
AcDbLine
 10
400.0710608764173
 20
342.9395935369866
 30
0.0000000000004325
 11
400.0710608764174
 21
351.7395935369872
 31
0.0000000000004325
  0
LINE
  5
5263
330
1A
100
AcDbEntity
  8
TEKUSU
  6
CENTER2
 48
0.5
370
     5
100
AcDbLine
 10
397.5710608764174
 20
323.8711818897282
 30
0.0000000000004325
 11
397.5710608764172
 21
361.8395935369873
 31
0.0000000000004325
  0
LINE
  5
5264
330
1A
100
AcDbEntity
  8
TEKUSU
100
AcDbLine
 10
465.0710610912577
 20
342.9395935369866
 30
-0.000000000000733
 11
465.0710610912577
 21
335.5395935369871
 31
-0.000000000000733
  0
LINE
  5
5265
330
1A
100
AcDbEntity
  8
TEKUSU
100
AcDbLine
 10
460.0710610912574
 20
342.9395935369866
 30
-0.000000000000733
 11
460.0710610912574
 21
335.5395935369871
 31
-0.000000000000733
  0
LINE
  5
5266
330
1A
100
AcDbEntity
  8
TEKUSU
100
AcDbLine
 10
395.0710608764172
 20
342.9395935369866
 30
0.0000000000004325
 11
395.0710608764172
 21
335.5395935369871
 31
0.0000000000004325
  0
LINE
  5
5267
330
1A
100
AcDbEntity
  8
TEKUSU
100
AcDbLine
 10
400.0710608764173
 20
342.9395935369866
 30
0.0000000000004325
 11
400.0710608764174
 21
335.5395935369871
 31
0.0000000000004325
  0
HATCH
  5
5268
330
1A
100
AcDbEntity
  8
TEKUSU
370
     9
100
AcDbHatch
 10
0.0
 20
0.0
 30
-0.000000000000733
210
0.0
220
0.0
230
1.0
  2
ANSI31
 70
     0
 71
     0
 91
        1
 92
        1
 93
        4
 72
     1
 10
457.1710610912577
 20
352.0395935369871
 11
457.1710610912577
 21
351.7395935369872
 72
     1
 10
457.1710610912577
 20
351.7395935369872
 11
467.9710610912578
 21
351.7395935369872
 72
     1
 10
467.9710610912578
 20
351.7395935369872
 11
467.9710610912578
 21
352.0395935369871
 72
     1
 10
467.9710610912578
 20
352.0395935369871
 11
457.1710610912577
 21
352.0395935369871
 97
        0
 75
     0
 76
     1
 52
0.0
 41
0.5
 77
     0
 78
     1
 53
45.0
 43
18.44843603737421
 44
-30.24521939265389
 45
-1.122532015133643
 46
1.122532015133643
 79
     0
 98
        2
 10
469.036506980258
 20
351.6712623714856
 10
464.4982568369857
 20
351.7854004640411
  0
HATCH
  5
5269
330
1A
100
AcDbEntity
  8
TEKUSU
370
     9
100
AcDbHatch
 10
0.0
 20
0.0
 30
0.0000000000004325
210
0.0
220
0.0
230
1.0
  2
ANSI31
 70
     0
 71
     0
 91
        1
 92
        1
 93
        4
 72
     1
 10
392.1710608764175
 20
352.0395935369871
 11
392.1710608764175
 21
351.7395935369872
 72
     1
 10
392.1710608764175
 20
351.7395935369872
 11
402.9710608764172
 21
351.7395935369872
 72
     1
 10
402.9710608764172
 20
351.7395935369872
 11
402.9710608764172
 21
352.0395935369871
 72
     1
 10
402.9710608764172
 20
352.0395935369871
 11
392.1710608764175
 21
352.0395935369871
 97
        0
 75
     0
 76
     1
 52
0.0
 41
0.5
 77
     0
 78
     1
 53
45.0
 43
25.90802895961866
 44
-30.24521939265389
 45
-1.122532015133643
 46
1.122532015133643
 79
     0
 98
        2
 10
400.7052521843571
 20
351.9237054330514
 10
396.5224188512808
 20
351.9237054330514
  0
LINE
  5
5285
330
1A
100
AcDbEntity
  8
KASAGI
100
AcDbLine
 10
419.5730059196717
 20
350.7395935369868
 30
-0.000000000000733
 11
475.0710610912578
 21
350.7395935369872
 31
-0.000000000000733
  0
HATCH
  5
53DE
330
1A
100
AcDbEntity
  8
SEALING
370
     9
100
AcDbHatch
 10
0.0
 20
0.0
 30
0.0
210
0.0
220
0.0
230
1.0
  2
ANSI37
 70
     0
 71
     0
 91
        1
 92
        7
 72
     1
 73
     1
 93
       22
 10
339.8210610912553
 20
325.739593536986
 42
0.0
 10
328.071061091258
 20
325.739593536986
 42
0.0
 10
328.071061091258
 20
320.7395959327095
 42
0.0
 10
329.5710610912581
 20
320.7395959327095
 42
0.0
 10
329.5710610912581
 20
311.739593536986
 42
-0.3202051881668509
 10
328.8962770370442
 20
310.7939537595831
 42
-0.0334588255837392
 10
333.9116656085004
 20
311.2685407774929
 42
0.0
 10
335.1033745277336
 20
313.3326411734379
 42
-0.2679491924311232
 10
334.9783745277336
 20
313.549147524384
 42
-1.0
 10
335.4783745277336
 20
313.549147524384
 42
-0.5773502691896267
 10
335.1033745277336
 20
313.3326411734379
 42
0.0
 10
333.9116656085004
 20
311.2685407774929
 42
-0.0494003087080251
 10
341.3210610912531
 20
310.7395935369861
 42
0.0
 10
341.7593512286144
 20
311.0317869618929
 42
0.2507648909335611
 10
342.0710610912573
 20
311.6142221679297
 42
0.0
 10
342.071061091257
 20
313.2395935369907
 42
0.0
 10
341.5710610912578
 20
313.2395935369907
 42
0.0
 10
341.5710610912582
 20
312.239593536991
 42
-0.4142135623730951
 10
341.0710610912582
 20
311.739593536991
 42
0.0
 10
340.3210610912584
 20
311.739593536991
 42
-0.4142135623732059
 10
339.8210610912582
 20
312.239593536991
 42
0.0
 10
339.8210610912582
 20
313.7395935369905
 42
-0.2416666666665652
 97
        0
 75
     1
 76
     1
 52
0.0
 41
1.0
 77
     0
 78
     2
 53
45.0
 43
0.0
 44
0.0
 45
-2.245064030267287
 46
2.245064030267287
 79
     0
 53
135.0
 43
0.0
 44
0.0
 45
-2.245064030267287
 46
-2.245064030267287
 79
     0
 47
0.025529721503323
 98
        1
 10
333.3484520855054
 20
322.8328506598213
1001
GradientColor1ACI
1070
     5
1001
GradientColor2ACI
1070
     2
1001
ACAD
1010
0.0
1020
0.0
1030
0.0
  0
LINE
  5
53E2
330
1A
100
AcDbEntity
  8
TEKUSU
100
AcDbLine
 10
464.5710610912577
 20
328.7395935369873
 30
-0.000000000000733
 11
464.5710610912577
 21
335.5395935369872
 31
-0.000000000000733
  0
LINE
  5
53E3
330
1A
100
AcDbEntity
  8
TEKUSU
100
AcDbLine
 10
460.5710610912578
 20
328.7395935369873
 30
-0.000000000000733
 11
460.5710610912578
 21
335.5395935369872
 31
-0.000000000000733
  0
LINE
  5
53E4
330
1A
100
AcDbEntity
  8
TEKUSU
100
AcDbLine
 10
462.5710610912578
 20
326.7395935369873
 30
-0.000000000000733
 11
460.5710610912578
 21
328.7395935369873
 31
-0.000000000000733
  0
LINE
  5
53E5
330
1A
100
AcDbEntity
  8
TEKUSU
100
AcDbLine
 10
462.6833305727216
 20
329.332192865953
 30
-0.000000000000733
 11
460.5710610912578
 21
328.7395935369873
 31
-0.000000000000733
  0
LINE
  5
53E6
330
1A
100
AcDbEntity
  8
TEKUSU
100
AcDbLine
 10
462.5710610912578
 20
326.7395935369873
 30
-0.000000000000733
 11
464.5710610912577
 21
328.7395935369873
 31
-0.000000000000733
  0
LINE
  5
53E7
330
1A
100
AcDbEntity
  8
TEKUSU
100
AcDbLine
 10
463.8593387463918
 20
335.5395935369871
 30
-0.000000000000733
 11
462.6833305727216
 21
329.332192865953
 31
-0.000000000000733
  0
MULTILEADER
  5
53E8
102
{ACAD_XDICTIONARY
360
5E0B
102
}
330
1A
100
AcDbEntity
  8
HIKIDASI
160
               572
310
3C020000150000000C00000016000000000000C00C00000033000000000000000C00000013000000993A0000E400000026000000D46B42C240388040AACC5D5E61C97040000000000000000000000000000000000000000000000000000000000000F03F000000000000F03F00000000000000000000000000000000B130DF
310
30AB30EB306297386208FF25521490E55D8B4E09FF000000730C000000010000000000000000001440000000000000F03F0000000000000000000000000000F03F000000000000000000000000000000000000000000000000000000000100000000000000000000007400780074002E007300680078000000650078007400
310
66006F006E0074002E0073006800780000000C00000033000000000000000C00000010000000090000000C00000016000000000000C00C00000012000000FF7F00000C00000013000000010000000C00000013000000891300003C00000006000000020000000FA801F5EBAB7E40A91FBC7BB3CB734000000000000000005D
310
F4CA4AC9288040ACCC5D5E61F1704000000000000000000C00000013000000112700003C00000006000000020000005DF4CA4AC9288040ACCC5D5E61F1704000000000000000002AC19717962D8040ACCC5D5E61F1704000000000000000000C00000016000000000000C00C00000012000000FF7F00000C00000017000000
310
000000000C000000130000009A3A00000C00000016000000000000C00C00000012000000FF7F00000C00000017000000FFFFFFFF0C0000003300000000000000
100
AcDbMLeader
270
     2
300
CONTEXT_DATA{
 40
1.0
 10
517.6982871871778
 20
271.0862716354411
 30
0.0
 41
5.0
140
0.0
145
2.0
174
     1
175
     3
176
     0
177
     0
290
     1
304
ケミカル面戸（別途工事）
 11
0.0
 21
0.0
 31
1.0
340
10
 12
519.6982871871779
 22
273.586271635441
 32
0.0
 13
1.0
 23
0.0
 33
0.0
 42
0.0
 43
0.0
 44
0.0
 45
1.0
170
     1
 90
-1073741824
171
     1
172
     5
 91
-1073741824
141
0.0
 92
        0
291
     0
292
     0
173
     0
293
     0
142
0.0
143
0.0
294
     0
295
     0
296
     0
110
490.7451067032534
120
316.7313191746312
130
0.0
111
1.0
121
0.0
131
0.0
112
0.0
122
1.0
132
0.0
297
     0
302
LEADER{
290
     1
291
     1
 10
517.098287187178
 20
271.0862716354411
 30
0.0
 11
1.0
 21
0.0
 31
0.0
 90
        0
 40
0.6
304
LEADER_LINE{
 10
490.7451067032534
 20
316.7313191746312
 30
0.0
 91
        0
305
}
271
     0
303
}
272
     9
273
     9
301
}
340
2469
 90
   279552
170
     1
 91
-1056964608
341
14
171
    -2
290
     1
291
     1
 41
0.6
342
B0
 42
0.0
172
     2
343
10
173
     1
 95
        3
174
     1
175
     0
 92
-1056964608
292
     0
 93
-1056964608
 10
1.0
 20
1.0
 30
1.0
 43
0.0
176
     0
293
     0
294
     0
178
     0
179
     1
 45
1.0
271
     0
272
     9
273
     9
1001
ACAD_MLEADERVER
1070
     2
  0
MULTILEADER
  5
53EA
102
{ACAD_XDICTIONARY
360
5E0D
102
}
330
1A
100
AcDbEntity
  8
HIKIDASI
160
               580
310
44020000150000000C00000016000000000000C00C00000033000000000000000C00000013000000993A0000EC00000026000000F7701D73780F80405B908B8B5A9A6C40000000000000000000000000000000000000000000000000000000000000F03F000000000000F03F0000000000000000000000000000000023FF31
310
0030003000D70035003000D70032003000D70032002E003300E54E0A4E0000DC9110000000010000000000000000001440000000000000F03F0000000000000000000000000000F03F000000000000000000000000000000000000000000000000000000000100000000000000000000007400780074002E00730068007800
310
000065007800740066006F006E0074002E0073006800780000000C00000033000000000000000C00000010000000090000000C00000016000000000000C00C00000012000000FF7F00000C00000013000000010000000C00000013000000891300003C0000000600000002000000CED0369B93B17D400C5B0860D573724000
310
000000000000007FF9A5FB000080405B908B8B5AEA6C4000000000000000000C00000013000000112700003C00000006000000020000007FF9A5FB000080405B908B8B5AEA6C4000000000000000004CC672C8CD0480405B908B8B5AEA6C4000000000000000000C00000016000000000000C00C00000012000000FF7F0000
310
0C00000017000000000000000C000000130000009A3A00000C00000016000000000000C00C00000012000000FF7F00000C00000017000000FFFFFFFF0C0000003300000000000000
100
AcDbMLeader
270
     2
300
CONTEXT_DATA{
 40
1.0
 10
512.6004799811139
 20
231.323552868448
 30
0.0
 41
5.0
140
0.0
145
2.0
174
     1
175
     3
176
     0
177
     0
290
     1
304
Ｃ100×50×20×2.3以上
 11
0.0
 21
0.0
 31
1.0
340
10
 12
514.6004799811139
 22
233.823552868448
 32
0.0
 13
1.0
 23
0.0
 33
0.0
 42
0.0
 43
0.0
 44
0.0
 45
1.0
170
     1
 90
-1073741824
171
     1
172
     5
 91
-1073741824
141
0.0
 92
        0
291
     0
292
     0
173
     0
293
     0
142
0.0
143
0.0
294
     0
295
     0
296
     0
110
475.0985366955982
120
295.2395935369866
130
0.0
111
1.0
121
0.0
131
0.0
112
0.0
122
1.0
132
0.0
297
     0
302
LEADER{
290
     1
291
     1
 10
512.0004799811139
 20
231.323552868448
 30
0.0
 11
1.0
 21
0.0
 31
0.0
 90
        0
 40
0.6
304
LEADER_LINE{
 10
475.0985366955982
 20
295.2395935369866
 30
0.0
 91
        0
305
}
271
     0
303
}
272
     9
273
     9
301
}
340
2469
 90
   279552
170
     1
 91
-1056964608
341
14
171
    -2
290
     1
291
     1
 41
0.6
342
B0
 42
0.0
172
     2
343
10
173
     1
 95
        3
174
     1
175
     0
 92
-1056964608
292
     0
 93
-1056964608
 10
1.0
 20
1.0
 30
1.0
 43
0.0
176
     0
293
     0
294
     0
178
     0
179
     1
 45
1.0
271
     0
272
     9
273
     9
1001
ACAD_MLEADERVER
1070
     2
  0
MULTILEADER
  5
53EB
102
{ACAD_XDICTIONARY
360
5E0F
102
}
330
1A
100
AcDbEntity
  8
HIKIDASI
160
               564
310
34020000150000000C00000016000000000000C00C00000033000000000000000C00000013000000993A0000DC000000260000001E2F9E93562080404F64AE511E636440000000000000000000000000000000000000000000000000000000000000F03F000000000000F03F00000000000000000000000000000000D289E2
310
6C08FF25521490E55D8B4E09FF0000005608000000010000000000000000001440000000000000F03F0000000000000000000000000000F03F000000000000000000000000000000000000000000000000000000000100000000000000000000007400780074002E00730068007800000065007800740066006F006E007400
310
2E0073006800780000000C00000033000000000000000C00000010000000090000000C00000016000000000000C00C00000012000000FF7F00000C00000013000000010000000C00000013000000891300003C0000000600000002000000DF9DDD4C17FC7E400E7FF039E29968400000000000000000FD0C7C71340E80404F
310
64AE511EB3644000000000000000000C00000013000000112700003C0000000600000002000000FD0C7C71340E80404F64AE511EB364400000000000000000CAD9483E011380404F64AE511EB3644000000000000000000C00000016000000000000C00C00000012000000FF7F00000C00000017000000000000000C000000
310
130000009A3A00000C00000016000000000000C00C00000012000000FF7F00000C00000017000000FFFFFFFF0C0000003300000000000000
100
AcDbMLeader
270
     2
300
CONTEXT_DATA{
 40
1.0
 10
514.3756070796454
 20
165.5974510580149
 30
0.0
 41
5.0
140
0.0
145
2.0
174
     1
175
     3
176
     0
177
     0
290
     1
304
角波（別途工事）
 11
0.0
 21
0.0
 31
1.0
340
10
 12
516.3756070796454
 22
168.0974510580149
 32
0.0
 13
1.0
 23
0.0
 33
0.0
 42
0.0
 43
0.0
 44
0.0
 45
1.0
170
     1
 90
-1073741824
171
     1
172
     5
 91
-1073741824
141
0.0
 92
        0
291
     0
292
     0
173
     0
293
     0
142
0.0
143
0.0
294
     0
295
     0
296
     0
110
495.7556885392095
120
196.8088655183023
130
0.0
111
1.0
121
0.0
131
0.0
112
0.0
122
1.0
132
0.0
297
     0
302
LEADER{
290
     1
291
     1
 10
513.7756070796455
 20
165.5974510580149
 30
0.0
 11
1.0
 21
0.0
 31
0.0
 90
        0
 40
0.6
304
LEADER_LINE{
 10
495.7556885392095
 20
196.8088655183023
 30
0.0
 91
        0
305
}
271
     0
303
}
272
     9
273
     9
301
}
340
2469
 90
   279552
170
     1
 91
-1056964608
341
14
171
    -2
290
     1
291
     1
 41
0.6
342
B0
 42
0.0
172
     2
343
10
173
     1
 95
        3
174
     1
175
     0
 92
-1056964608
292
     0
 93
-1056964608
 10
1.0
 20
1.0
 30
1.0
 43
0.0
176
     0
293
     0
294
     0
178
     0
179
     1
 45
1.0
271
     0
272
     9
273
     9
1001
ACAD_MLEADERVER
1070
     2
  0
MULTILEADER
  5
53EC
102
{ACAD_XDICTIONARY
360
5E11
102
}
330
1A
100
AcDbEntity
  8
HIKIDASI
160
               572
310
3C020000150000000C00000016000000000000C00C00000033000000000000000C00000013000000993A0000E4000000260000007CAB4B8360DA6C4067AC4472A4486C40000000000000000000000000000000000000000000000000000000000000F03F000000000000F03F00000000000000000000000000000000025C28
310
75D330B930003034FF37FF2CFF16FF16FF15FF2EFF000000730C000000010000000000000000001440000000000000F03F0000000000000000000000000000F03F000000000000000000000000000000000000000000000000000000000100000000000000000000007400780074002E007300680078000000650078007400
310
66006F006E0074002E0073006800780000000C00000033000000000000000C00000010000000090000000C00000016000000000000C00C00000012000000FF7F00000C00000013000000010000000C00000013000000891300003C0000000600000002000000B12C1CD9863776405C3C2C88AAEE7340000000000000000057
310
6F3FDBC9F6724067AC4472A4986C4000000000000000000C00000013000000112700003C0000000600000002000000576F3FDBC9F6724067AC4472A4986C400000000000000000BDD5A54130ED724067AC4472A4986C4000000000000000000C00000016000000000000C00C00000012000000FF7F00000C00000017000000
310
000000000C000000130000009A3A00000C00000016000000000000C00C00000012000000FF7F00000C00000017000000FFFFFFFF0C0000003300000000000000
100
AcDbMLeader
270
     2
300
CONTEXT_DATA{
 40
1.0
 10
228.8242813566138
 20
228.7700740186003
 30
0.0
 41
5.0
140
0.0
145
2.0
174
     1
175
     3
176
     2
177
     0
290
     1
304
専用ビス　ＴＷＬ６６５Ｎ
 11
0.0
 21
0.0
 31
1.0
340
10
 12
300.8242813566138
 22
231.2700740186003
 32
0.0
 13
1.0
 23
0.0
 33
0.0
 42
0.0
 43
0.0
 44
0.0
 45
1.0
170
     1
 90
-1073741824
171
     3
172
     5
 91
-1073741824
141
0.0
 92
        0
291
     0
292
     0
173
     0
293
     0
142
0.0
143
0.0
294
     0
295
     0
296
     0
110
355.4704218960351
120
318.9166337707482
130
0.0
111
1.0
121
0.0
131
0.0
112
0.0
122
1.0
132
0.0
297
     0
302
LEADER{
290
     1
291
     1
 10
303.4242813566138
 20
228.7700740186003
 30
0.0
 11
-1.0
 21
0.0
 31
0.0
 90
        0
 40
0.6
304
LEADER_LINE{
 10
355.4704218960351
 20
318.9166337707482
 30
0.0
 91
        0
305
}
271
     0
303
}
272
     9
273
     9
301
}
340
2469
 90
   279552
170
     1
 91
-1056964608
341
14
171
    -2
290
     1
291
     1
 41
0.6
342
B0
 42
0.0
172
     2
343
10
173
     1
 95
        3
174
     1
175
     2
 92
-1056964608
292
     0
 93
-1056964608
 10
1.0
 20
1.0
 30
1.0
 43
0.0
176
     0
293
     0
294
     0
178
     0
179
     3
 45
1.0
271
     0
272
     9
273
     9
1001
ACAD_MLEADERVER
1070
     2
  0
MULTILEADER
  5
53ED
102
{ACAD_XDICTIONARY
360
5E13
102
}
330
1A
100
AcDbEntity
  8
HIKIDASI
160
               568
310
38020000150000000C00000016000000000000C00C00000033000000000000000C00000013000000993A0000E0000000260000002F22BCC21C246D404FF8061904016F40000000000000000000000000000000000000000000000000000000000000F03F000000000000F03F00000000000000000000000000000000B730FC
310
30EA30F330B03008FF25521490E55D8B4E09FF00000B000000010000000000000000001440000000000000F03F0000000000000000000000000000F03F000000000000000000000000000000000000000000000000000000000100000000000000000000007400780074002E00730068007800000065007800740066006F00
310
6E0074002E0073006800780000000C00000033000000000000000C00000010000000090000000C00000016000000000000C00C00000012000000FF7F00000C00000013000000010000000C00000013000000891300003C000000060000000200000081C7F56A27E774406717BC5752AB734000000000000000005E55A2A552
310
9672404FF8061904516F4000000000000000000C00000013000000112700003C00000006000000020000005E55A2A5529672404FF8061904516F400000000000000000C4BB080CB98C72404FF8061904516F4000000000000000000C00000016000000000000C00C00000012000000FF7F00000C0000001700000000000000
310
0C000000130000009A3A00000C00000016000000000000C00C00000012000000FF7F00000C00000017000000FFFFFFFF0C0000003300000000000000
100
AcDbMLeader
270
     2
300
CONTEXT_DATA{
 40
1.0
 10
231.7951774922514
 20
250.5317502151615
 30
0.0
 41
5.0
140
0.0
145
2.0
174
     1
175
     3
176
     2
177
     0
290
     1
304
シーリング（別途工事）
 11
0.0
 21
0.0
 31
1.0
340
10
 12
294.7951774922513
 22
253.0317502151615
 32
0.0
 13
1.0
 23
0.0
 33
0.0
 42
0.0
 43
0.0
 44
0.0
 45
1.0
170
     1
 90
-1073741824
171
     3
172
     5
 91
-1073741824
141
0.0
 92
        0
291
     0
292
     0
173
     0
293
     0
142
0.0
143
0.0
294
     0
295
     0
296
     0
110
334.4471234894518
120
314.7076032016106
130
0.0
111
1.0
121
0.0
131
0.0
112
0.0
122
1.0
132
0.0
297
     0
302
LEADER{
290
     1
291
     1
 10
297.3951774922515
 20
250.5317502151615
 30
0.0
 11
-1.0
 21
0.0
 31
0.0
 90
        0
 40
0.6
304
LEADER_LINE{
 10
334.4471234894518
 20
314.7076032016106
 30
0.0
 91
        0
305
}
271
     0
303
}
272
     9
273
     9
301
}
340
2469
 90
   279552
170
     1
 91
-1056964608
341
14
171
    -2
290
     1
291
     1
 41
0.6
342
B0
 42
0.0
172
     2
343
10
173
     1
 95
        3
174
     1
175
     2
 92
-1056964608
292
     0
 93
-1056964608
 10
1.0
 20
1.0
 30
1.0
 43
0.0
176
     0
293
     0
294
     0
178
     0
179
     3
 45
1.0
271
     0
272
     9
273
     9
1001
ACAD_MLEADERVER
1070
     2
  0
MULTILEADER
  5
53EE
102
{ACAD_XDICTIONARY
360
5E15
102
}
330
1A
100
AcDbEntity
  8
HIKIDASI
160
               572
310
3C020000150000000C00000016000000000000C00C00000033000000000000000C00000013000000993A0000E4000000260000001980429576C76B4008081063AE4C7840000000000000000000000000000000000000000000000000000000000000F03F000000000000F03F00000000000000000000000000000000D030C3
310
30AF30A230C330D730506708FF25521490E55D8B4E09FF00000D000000010000000000000000001440000000000000F03F0000000000000000000000000000F03F000000000000000000000000000000000000000000000000000000000100000000000000000000007400780074002E007300680078000000650078007400
310
66006F006E0074002E0073006800780000000C00000033000000000000000C00000010000000090000000C00000016000000000000C00C00000012000000FF7F00000C00000013000000010000000C00000013000000891300003C0000000600000002000000CF9EA59374CA744068253A9230C27440000000000000000050
310
84E58EFFA7724008081063AE74784000000000000000000C00000013000000112700003C00000006000000020000005084E58EFFA7724008081063AE7478400000000000000000B6EA4BF5659E724008081063AE74784000000000000000000C00000016000000000000C00C00000012000000FF7F00000C00000017000000
310
000000000C000000130000009A3A00000C00000016000000000000C00C00000012000000FF7F00000C00000017000000FFFFFFFF0C0000003300000000000000
100
AcDbMLeader
270
     2
300
CONTEXT_DATA{
 40
1.0
 10
220.8998921361448
 20
391.2925749422289
 30
0.0
 41
5.0
140
0.0
145
2.0
174
     1
175
     3
176
     2
177
     0
290
     1
304
バックアップ材（別途工事）
 11
0.0
 21
0.0
 31
1.0
340
10
 12
295.8998921361448
 22
393.7925749422289
 32
0.0
 13
1.0
 23
0.0
 33
0.0
 42
0.0
 43
0.0
 44
0.0
 45
1.0
170
     1
 90
-1073741824
171
     3
172
     5
 91
-1073741824
141
0.0
 92
        0
291
     0
292
     0
173
     0
293
     0
142
0.0
143
0.0
294
     0
295
     0
296
     0
110
332.6534611196084
120
332.1368582030614
130
0.0
111
1.0
121
0.0
131
0.0
112
0.0
122
1.0
132
0.0
297
     0
302
LEADER{
290
     1
291
     1
 10
298.4998921361448
 20
391.2925749422289
 30
0.0
 11
-1.0
 21
0.0
 31
0.0
 90
        0
 40
0.6
304
LEADER_LINE{
 10
332.6534611196084
 20
332.1368582030614
 30
0.0
 91
        0
305
}
271
     0
303
}
272
     9
273
     9
301
}
340
2469
 90
   279552
170
     1
 91
-1056964608
341
14
171
    -2
290
     1
291
     1
 41
0.6
342
B0
 42
0.0
172
     2
343
10
173
     1
 95
        3
174
     1
175
     2
 92
-1056964608
292
     0
 93
-1056964608
 10
1.0
 20
1.0
 30
1.0
 43
0.0
176
     0
293
     0
294
     0
178
     0
179
     3
 45
1.0
271
     0
272
     9
273
     9
1001
ACAD_MLEADERVER
1070
     2
  0
MULTILEADER
  5
53EF
102
{ACAD_XDICTIONARY
360
5E17
102
}
330
1A
100
AcDbEntity
  8
HIKIDASI
160
               568
310
38020000150000000C00000016000000000000C00C00000033000000000000000C00000013000000993A0000E0000000260000007000F87BCC4E7B405AEAF92D0D8C7740000000000000000000000000000000000000000000000000000000000000F03F000000000000F03F00000000000000000000000000000000686366
310
30207B286708FF25521490E55D8B4E09FF000000500A000000010000000000000000001440000000000000F03F0000000000000000000000000000F03F000000000000000000000000000000000000000000000000000000000100000000000000000000007400780074002E00730068007800000065007800740066006F00
310
6E0074002E0073006800780000000C00000033000000000000000C00000010000000090000000C00000016000000000000C00C00000012000000FF7F00000C00000013000000010000000C00000013000000891300003C0000000600000002000000856FF41023F17940135B0860D59B75400000000000000000EFECBFFAB8
310
267B405BEAF92D0DB4774000000000000000000C00000013000000112700003C0000000600000002000000EFECBFFAB8267B405BEAF92D0DB4774000000000000000008986599452307B405BEAF92D0DB4774000000000000000000C00000016000000000000C00C00000012000000FF7F00000C0000001700000000000000
310
0C000000130000009A3A00000C00000016000000000000C00C00000012000000FF7F00000C00000017000000FFFFFFFF0C0000003300000000000000
100
AcDbMLeader
270
     2
300
CONTEXT_DATA{
 40
1.0
 10
435.0201610085575
 20
379.2532176744769
 30
0.0
 41
5.0
140
0.0
145
2.0
174
     1
175
     3
176
     0
177
     0
290
     1
304
捨て笠木（別途工事）
 11
0.0
 21
0.0
 31
1.0
340
10
 12
437.0201610085573
 22
381.7532176744768
 32
0.0
 13
1.0
 23
0.0
 33
0.0
 42
0.0
 43
0.0
 44
0.0
 45
1.0
170
     1
 90
-1073741824
171
     1
172
     5
 91
-1073741824
141
0.0
 92
        0
291
     0
292
     0
173
     0
293
     0
142
0.0
143
0.0
294
     0
295
     0
296
     0
110
415.0710610912577
120
345.739593536987
130
0.0
111
1.0
121
0.0
131
0.0
112
0.0
122
1.0
132
0.0
297
     0
302
LEADER{
290
     1
291
     1
 10
434.4201610085574
 20
379.2532176744769
 30
0.0
 11
1.0
 21
0.0
 31
0.0
 90
        0
 40
0.6
304
LEADER_LINE{
 10
415.0710610912577
 20
345.739593536987
 30
0.0
 91
        0
305
}
271
     0
303
}
272
     9
273
     9
301
}
340
2469
 90
   279552
170
     1
 91
-1056964608
341
14
171
    -2
290
     1
291
     1
 41
0.6
342
B0
 42
0.0
172
     2
343
10
173
     1
 95
        3
174
     1
175
     0
 92
-1056964608
292
     0
 93
-1056964608
 10
1.0
 20
1.0
 30
1.0
 43
0.0
176
     0
293
     0
294
     0
178
     0
179
     1
 45
1.0
271
     0
272
     9
273
     9
1001
ACAD_MLEADERVER
1070
     2
  0
MULTILEADER
  5
53F0
102
{ACAD_XDICTIONARY
360
5E19
102
}
330
1A
100
AcDbEntity
  8
HIKIDASI
160
               568
310
38020000150000000C00000016000000000000C00C00000033000000000000000C00000013000000993A0000E00000002600000083F8B60131D37840F99EAAD4EBB37840BD30FEEC46CA69BD00000000000000000000000000000000000000000000F03F000000000000F03F00000000000000000000000000000000A230EB
310
30DF30207B286708FF25521490E55D8B4E09FF00000B000000010000000000000000001440000000000000F03F0000000000000000000000000000F03F000000000000000000000000000000000000000000000000000000000100000000000000000000007400780074002E00730068007800000065007800740066006F00
310
6E0074002E0073006800780000000C00000033000000000000000C00000010000000090000000C00000016000000000000C00C00000012000000FF7F00000C00000013000000010000000C00000013000000891300003C00000006000000020000007C7A6A16DE96774037602B399CED7640BD30FEEC46CA69BD9109C81242
310
B47840FB9EAAD4EBDB7840BD30FEEC46CA69BD0C00000013000000112700003C00000006000000020000009109C81242B47840FB9EAAD4EBDB7840BD30FEEC46CA69BD2BA361ACDBBD7840FB9EAAD4EBDB7840BD30FEEC46CA69BD0C00000016000000000000C00C00000012000000FF7F00000C0000001700000000000000
310
0C000000130000009A3A00000C00000016000000000000C00C00000012000000FF7F00000C00000017000000FFFFFFFF0C0000003300000000000000
100
AcDbMLeader
270
     2
300
CONTEXT_DATA{
 40
1.0
 10
395.8661311925851
 20
397.7450758614429
 30
-0.000000000000733
 41
5.0
140
0.0
145
2.0
174
     1
175
     3
176
     0
177
     0
290
     1
304
アルミ笠木（別途工事）
 11
0.0
 21
0.0
 31
1.0
340
10
 12
397.8661311925852
 22
400.2450758614427
 32
-0.000000000000733
 13
1.0
 23
0.0
 33
0.0
 42
0.0
 43
0.0
 44
0.0
 45
1.0
170
     1
 90
-1073741824
171
     1
172
     5
 91
-1073741824
141
0.0
 92
        0
291
     0
292
     0
173
     0
293
     0
142
0.0
143
0.0
294
     0
295
     0
296
     0
110
377.4292205962481
120
366.8506404585236
130
-0.000000000000733
111
1.0
121
0.0
131
0.0
112
0.0
122
1.0
132
0.0
297
     0
302
LEADER{
290
     1
291
     1
 10
395.2661311925849
 20
397.7450758614429
 30
-0.000000000000733
 11
1.0
 21
0.0
 31
0.0
 90
        0
 40
0.6
304
LEADER_LINE{
 10
377.4292205962481
 20
366.8506404585236
 30
-0.000000000000733
 91
        0
305
}
271
     0
303
}
272
     9
273
     9
301
}
340
2469
 90
   279552
170
     1
 91
-1056964608
341
14
171
    -2
290
     1
291
     1
 41
0.6
342
B0
 42
0.0
172
     2
343
10
173
     1
 95
        3
174
     1
175
     0
 92
-1056964608
292
     0
 93
-1056964608
 10
1.0
 20
1.0
 30
1.0
 43
0.0
176
     0
293
     0
294
     0
178
     0
179
     1
 45
1.0
271
     0
272
     9
273
     9
1001
ACAD_MLEADERVER
1070
     2
  0
MTEXT
  5
5C91
102
{ACAD_XDICTIONARY
360
5C92
102
}
330
1A
100
AcDbEntity
  8
WAKU
100
AcDbMText
 10
124.3245405690059
 20
23.21985646788335
 30
0.0
 40
5.0
 41
130.7517663064795
 46
0.0
 71
     1
 72
     5
  1
\pi17.11446;アイジーヴァンド参考ディテール
  7
WAKU
 73
     1
 44
1.0
  0
MTEXT
  5
5C93
102
{ACAD_XDICTIONARY
360
5C94
102
}
330
1A
100
AcDbEntity
  8
WAKU
100
AcDbMText
 10
34.05004475349506
 20
23.21985646788335
 30
0.0
 40
5.0
 41
71.82723587241572
 46
0.0
 71
     1
 72
     5
  1
\pi3.9593;アイジー工業株式会社
  7
WAKU
 73
     1
 44
1.0
  0
LWPOLYLINE
  5
5CC8
330
1A
100
AcDbEntity
  8
TEKUSU
  6
DASHED2
 48
0.5
100
AcDbPolyline
 90
        5
 70
     0
 43
0.0
 10
341.4710610912578
 20
327.2395935369908
 10
341.9710610912578
 20
327.2395935369908
 10
341.9710610912578
 20
312.2395935369906
 10
341.4710610912578
 20
312.2395935369906
 10
341.4710610912578
 20
326.2395935369888
  0
ARC
  5
5CC9
330
1A
100
AcDbEntity
  8
TEKUSU
  6
DASHED2
 48
0.5
100
AcDbCircle
 10
340.2210610912578
 20
312.2395935369906
 30
0.0
 40
0.5
100
AcDbArc
 50
180.0
 51
270.0
1001
GENIUS_GENODEF_13
1002
{
1000
HIER
1070
     0
1002
}
1002
{
1000
MANEDIT
1070
     0
1002
}
1002
{
1000
NOSEL
1070
     0
1002
}
1002
{
1000
BEHIND
1070
     0
1002
}
1002
{
1000
OTHER
1070
     0
1002
}
1002
{
1000
REACTOR
1002
}
1001
GENIUS_GENOBJ-N-FIL_13
1002
{
1000
OWNER
1000
GEN
1002
}
  0
ARC
  5
5CCA
330
1A
100
AcDbEntity
  8
TEKUSU
  6
DASHED2
 48
0.5
100
AcDbCircle
 10
340.9710610912578
 20
312.2395935369906
 30
0.0
 40
0.5
100
AcDbArc
 50
270.0
 51
0.0
1001
GENIUS_GENOBJ-N-FIL_13
1002
{
1000
OWNER
1000
GEN
1002
}
1001
GENIUS_GENODEF_13
1002
{
1000
HIER
1070
     0
1002
}
1002
{
1000
MANEDIT
1070
     0
1002
}
1002
{
1000
NOSEL
1070
     0
1002
}
1002
{
1000
BEHIND
1070
     0
1002
}
1002
{
1000
OTHER
1070
     0
1002
}
1002
{
1000
REACTOR
1002
}
  0
ARC
  5
5CCB
330
1A
100
AcDbEntity
  8
TEKUSU
  6
DASHED2
 48
0.5
100
AcDbCircle
 10
351.4098541947067
 20
319.7395935369887
 30
0.0
 40
13.13879310344826
100
AcDbArc
 50
152.8280175842508
 51
207.1719824157492
  0
LINE
  5
5CCC
330
1A
100
AcDbEntity
  8
TEKUSU
  6
DASHED2
 48
0.5
100
AcDbLine
 10
340.9710610912578
 20
311.7395935369907
 30
0.0
 11
340.2210610912578
 21
311.7395935369907
 31
0.0
  0
LINE
  5
5CCD
330
1A
100
AcDbEntity
  8
TEKUSU
  6
DASHED2
 48
0.5
100
AcDbLine
 10
339.7210610912578
 20
312.2395935369906
 30
0.0
 11
339.7210610912578
 21
327.2395935369906
 31
0.0
  0
ARC
  5
5CCE
330
1A
100
AcDbEntity
  8
TEKUSU
  6
DASHED2
 48
0.5
100
AcDbCircle
 10
340.2210610912578
 20
327.2395935369906
 30
0.0
 40
0.5
100
AcDbArc
 50
90.0
 51
180.0
1001
GENIUS_GENOBJ-N-FIL_13
1002
{
1000
OWNER
1000
GEN
1002
}
1001
GENIUS_GENODEF_13
1002
{
1000
HIER
1070
     0
1002
}
1002
{
1000
MANEDIT
1070
     0
1002
}
1002
{
1000
NOSEL
1070
     0
1002
}
1002
{
1000
BEHIND
1070
     0
1002
}
1002
{
1000
OTHER
1070
     0
1002
}
1002
{
1000
REACTOR
1002
}
  0
ARC
  5
5CCF
330
1A
100
AcDbEntity
  8
TEKUSU
  6
DASHED2
 48
0.5
100
AcDbCircle
 10
340.9710610912578
 20
327.2395935369906
 30
0.0
 40
0.5
100
AcDbArc
 50
0.0
 51
90.0
1001
GENIUS_GENOBJ-N-FIL_13
1002
{
1000
OWNER
1000
GEN
1002
}
1001
GENIUS_GENODEF_13
1002
{
1000
HIER
1070
     0
1002
}
1002
{
1000
MANEDIT
1070
     0
1002
}
1002
{
1000
NOSEL
1070
     0
1002
}
1002
{
1000
BEHIND
1070
     0
1002
}
1002
{
1000
OTHER
1070
     0
1002
}
1002
{
1000
REACTOR
1002
}
  0
LINE
  5
5CD0
330
1A
100
AcDbEntity
  8
TEKUSU
  6
DASHED2
 48
0.5
100
AcDbLine
 10
340.9710610912578
 20
327.7395935369888
 30
0.0
 11
340.2210610912578
 21
327.7395935369888
 31
0.0
  0
LINE
  5
5CD1
330
1A
100
AcDbEntity
  8
TEKUSU
  6
DASHED2
 48
0.5
100
AcDbLine
 10
341.4710610912578
 20
312.2395935369906
 30
0.0
 11
341.4710610912578
 21
327.2395935369906
 31
0.0
  0
LINE
  5
5CD2
330
1A
100
AcDbEntity
  8
SUNPOU
  6
CENTER2
370
     5
100
AcDbLine
 10
333.5681609106676
 20
319.7395935369887
 30
-0.0000000000033931
 11
416.4710610912576
 21
319.7395935369887
 31
-0.0000000000033931
  0
LINE
  5
5CD3
330
1A
100
AcDbEntity
  8
TEKUSU
 48
0.5
100
AcDbLine
 10
399.4710610912578
 20
316.4895935369904
 30
-0.0000000000033931
 11
399.4710610912578
 21
322.9895935369904
 31
-0.0000000000033931
  0
LINE
  5
5CD4
330
1A
100
AcDbEntity
  8
TEKUSU
  6
DASHED2
 48
0.5
100
AcDbLine
 10
369.4710610912569
 20
316.4895935369906
 30
0.0
 11
369.4710610912569
 21
322.9895935369906
 31
0.0
  0
LINE
  5
5CD5
330
1A
100
AcDbEntity
  8
TEKUSU
 48
0.5
100
AcDbLine
 10
404.3709279849716
 20
322.2395935369906
 30
-0.0000000000033931
 11
399.4710610912587
 21
322.2395935369906
 31
-0.0000000000033931
  0
LINE
  5
5CD6
330
1A
100
AcDbEntity
  8
TEKUSU
 48
0.5
100
AcDbLine
 10
406.4710610912578
 20
319.7395935369887
 30
-0.0000000000033931
 11
404.3709279849716
 21
322.2395935369906
 31
-0.0000000000033931
  0
LINE
  5
5CD7
330
1A
100
AcDbEntity
  8
TEKUSU
 48
0.5
100
AcDbLine
 10
404.3709279849716
 20
317.2395935369906
 30
-0.0000000000033931
 11
399.4710610912587
 21
317.2395935369904
 31
-0.0000000000033931
  0
LINE
  5
5CD8
330
1A
100
AcDbEntity
  8
TEKUSU
 48
0.5
100
AcDbLine
 10
404.3709279849716
 20
317.2395935369906
 30
-0.0000000000033931
 11
406.4710610912578
 21
319.7395935369887
 31
-0.0000000000033931
  0
LINE
  5
5CD9
330
1A
100
AcDbEntity
  8
TEKUSU
 48
0.5
100
AcDbLine
 10
399.4710610912587
 20
321.2609519576466
 30
-0.0000000000033931
 11
406.4710610912578
 21
319.7395935369887
 31
-0.0000000000033931
  0
LINE
  5
5CDA
330
1A
100
AcDbEntity
  8
TEKUSU
  6
DASHED2
 48
0.5
100
AcDbLine
 10
369.4710610912578
 20
322.9895935369906
 30
-0.0000000000033931
 11
384.8710610912581
 21
322.9895935369905
 31
-0.0000000000033931
  0
LINE
  5
5CDB
330
1A
100
AcDbEntity
  8
TEKUSU
  6
DASHED2
 48
0.5
100
AcDbLine
 10
369.4710610912578
 20
316.4895955780374
 30
-0.0000000000033931
 11
384.8710610912581
 21
316.489594547476
 31
-0.0000000000033931
  0
LINE
  5
5CDC
330
1A
100
AcDbEntity
  8
TEKUSU
  6
DASHED2
 48
0.5
100
AcDbLine
 10
342.4710610912578
 20
317.2395935369906
 30
-0.0000000000033931
 11
369.4710610912578
 21
317.2395935369906
 31
-0.0000000000033931
  0
LINE
  5
5CDD
330
1A
100
AcDbEntity
  8
TEKUSU
  6
DASHED2
 48
0.5
100
AcDbLine
 10
342.4710610912578
 20
322.2395935369906
 30
-0.0000000000033931
 11
369.4710610912578
 21
322.2395935369906
 31
-0.0000000000033931
  0
LINE
  5
5CDE
330
1A
100
AcDbEntity
  8
TEKUSU
  6
DASHED2
 48
0.5
100
AcDbLine
 10
342.4710610912578
 20
322.2395935369906
 30
-0.0000000000033931
 11
342.4710610912578
 21
317.2395935369906
 31
-0.0000000000033931
  0
ARC
  5
5CDF
330
1A
100
AcDbEntity
  8
TEKUSU
 48
0.5
100
AcDbCircle
 10
342.4710610912578
 20
316.2395935369906
 30
-0.0000000000033931
 40
1.0
100
AcDbArc
 50
90.0
 51
180.0
  0
ARC
  5
5CE0
330
1A
100
AcDbEntity
  8
TEKUSU
 48
0.5
100
AcDbCircle
 10
342.4710610912578
 20
323.2395935369906
 30
-0.0000000000033931
 40
1.0
100
AcDbArc
 50
180.0
 51
270.0
  0
LINE
  5
5CF5
330
1A
100
AcDbEntity
  8
TEKUSU
 48
0.5
100
AcDbLine
 10
384.8710610912581
 20
322.9895935369905
 30
-0.0000000000033931
 11
399.4710610912578
 21
322.9895935369904
 31
-0.0000000000033931
  0
LINE
  5
5CF6
330
1A
100
AcDbEntity
  8
TEKUSU
 48
0.5
100
AcDbLine
 10
384.8710610912581
 20
316.489594547476
 30
-0.0000000000033931
 11
399.4710610912578
 21
316.4895935704501
 31
-0.0000000000033931
  0
MTEXT
  5
5D15
330
1A
100
AcDbEntity
  8
HIKIDASI
100
AcDbMText
 10
161.7269193000857
 20
309.3233848726693
 30
0.0
 40
5.0
 41
46.06526634851115
 46
0.0
 71
     1
 72
     5
  1
▼仮想目地上端
 73
     1
 44
1.0
1001
ACAD
1000
ACAD_MTEXT_COLUMN_INFO_BEGIN
1070
    75
1070
     2
1070
    79
1070
     0
1070
    76
1070
     1
1070
    78
1070
     0
1070
    48
1040
46.06526634851115
1070
    49
1040
25.0
1070
    50
1070
     1
1040
0.0
1000
ACAD_MTEXT_COLUMN_INFO_END
  0
VIEWPORT
  5
22
330
17
100
AcDbEntity
 67
     1
  8
0
348
183B
100
AcDbViewport
 10
261.5176991150442
 20
154.7242978687078
 30
0.0
 40
523.0353982300885
 41
309.4485957374157
 68
     1
 69
     1
 12
261.5176991150442
 22
154.7242978687078
 13
0.0
 23
0.0
 14
1.0
 24
1.0
 15
10.0
 25
10.0
 16
0.0
 26
0.0
 36
1.0
 17
0.0
 27
0.0
 37
0.0
 42
50.0
 43
0.0
 44
0.0
 45
309.4485957374157
 50
0.0
 51
0.0
 72
   100
 90
    32768
  1

281
     0
 71
     1
 74
     0
110
0.0
120
0.0
130
0.0
111
1.0
121
0.0
131
0.0
112
0.0
122
1.0
132
0.0
 79
     0
146
0.0
170
     0
 61
     5
292
     1
282
     1
141
0.0
142
0.0
 63
   250
421
  3355443
  0
ENDSEC
  0
SECTION
  2
OBJECTS
  0
DICTIONARY
  5
C
330
0
100
AcDbDictionary
281
     1
  3
ACAD_CIP_PREVIOUS_PRODUCT_INFO
350
2471
  3
ACAD_COLOR
350
3B0
  3
ACAD_DETAILVIEWSTYLE
350
26D9
  3
ACAD_GROUP
350
D
  3
ACAD_LAYOUT
350
3B1
  3
ACAD_MATERIAL
350
3AF
  3
ACAD_MLEADERSTYLE
350
2468
  3
ACAD_MLINESTYLE
350
E
  3
ACAD_PLOTSETTINGS
350
3B2
  3
ACAD_PLOTSTYLENAME
350
3AD
  3
ACAD_SCALELIST
350
2456
  3
ACAD_SECTIONVIEWSTYLE
350
26D7
  3
ACAD_TABLESTYLE
350
1846
  3
ACAD_VISUALSTYLE
350
1835
  3
AcadDim
350
23C6
  3
ACDB_RECOMPOSE_DATA
350
5DCE
  3
AcDbVariableDictionary
350
1815
  0
DICTIONARY
  5
223F
330
8
100
AcDbDictionary
280
     1
281
     1
  0
DICTIONARY
  5
1884
330
2
100
AcDbDictionary
280
     1
281
     1
  3
ACAD_LAYERFILTERS
360
21FB
  3
ACAD_LAYERSTATES
360
1885
  3
ACLYDICTIONARY
360
21FA
  0
DICTIONARY
  5
24B7
330
F
100
AcDbDictionary
280
     1
281
     1
  3
ADSK_XREC_LAYER_RECONCILED
360
24B8
  0
DICTIONARY
  5
24B9
330
87
100
AcDbDictionary
280
     1
281
     1
  3
ADSK_XREC_LAYER_RECONCILED
360
24BA
  0
DICTIONARY
  5
24BB
330
1515
100
AcDbDictionary
280
     1
281
     1
  3
ADSK_XREC_LAYER_RECONCILED
360
24BC
  0
DICTIONARY
  5
24BD
330
1516
100
AcDbDictionary
280
     1
281
     1
  3
ADSK_XREC_LAYER_RECONCILED
360
24BE
  0
DICTIONARY
  5
24BF
330
1517
100
AcDbDictionary
280
     1
281
     1
  3
ADSK_XREC_LAYER_RECONCILED
360
24C0
  0
DICTIONARY
  5
24C1
330
1518
100
AcDbDictionary
280
     1
281
     1
  3
ADSK_XREC_LAYER_RECONCILED
360
24C2
  0
DICTIONARY
  5
24C3
330
1519
100
AcDbDictionary
280
     1
281
     1
  3
ADSK_XREC_LAYER_RECONCILED
360
24C4
  0
DICTIONARY
  5
24C5
330
151A
100
AcDbDictionary
280
     1
281
     1
  3
ADSK_XREC_LAYER_RECONCILED
360
24C6
  0
DICTIONARY
  5
24C7
330
151B
100
AcDbDictionary
280
     1
281
     1
  3
ADSK_XREC_LAYER_RECONCILED
360
24C8
  0
DICTIONARY
  5
24C9
330
151C
100
AcDbDictionary
280
     1
281
     1
  3
ADSK_XREC_LAYER_RECONCILED
360
24CA
  0
DICTIONARY
  5
290F
330
290E
100
AcDbDictionary
280
     1
281
     1
  0
DICTIONARY
  5
3799
330
3798
100
AcDbDictionary
280
     1
281
     1
  0
DICTIONARY
  5
1F05
330
1A
100
AcDbDictionary
280
     1
281
     1
  3
ACAD_SORTENTS
360
1F06
  0
DICTIONARY
  5
5D5E
330
E6E
100
AcDbDictionary
280
     1
281
     1
  3
ACAD_MTEXT_2008_RT
360
5DCA
  0
DICTIONARY
  5
5E09
330
3F0D
100
AcDbDictionary
280
     1
281
     1
  3
ACAD_XREC_ROUNDTRIP
360
5E0A
  0
DICTIONARY
  5
5E0B
330
53E8
100
AcDbDictionary
280
     1
281
     1
  3
ACAD_XREC_ROUNDTRIP
360
5E0C
  0
DICTIONARY
  5
5E0D
330
53EA
100
AcDbDictionary
280
     1
281
     1
  3
ACAD_XREC_ROUNDTRIP
360
5E0E
  0
DICTIONARY
  5
5E0F
330
53EB
100
AcDbDictionary
280
     1
281
     1
  3
ACAD_XREC_ROUNDTRIP
360
5E10
  0
DICTIONARY
  5
5E11
330
53EC
100
AcDbDictionary
280
     1
281
     1
  3
ACAD_XREC_ROUNDTRIP
360
5E12
  0
DICTIONARY
  5
5E13
330
53ED
100
AcDbDictionary
280
     1
281
     1
  3
ACAD_XREC_ROUNDTRIP
360
5E14
  0
DICTIONARY
  5
5E15
330
53EE
100
AcDbDictionary
280
     1
281
     1
  3
ACAD_XREC_ROUNDTRIP
360
5E16
  0
DICTIONARY
  5
5E17
330
53EF
100
AcDbDictionary
280
     1
281
     1
  3
ACAD_XREC_ROUNDTRIP
360
5E18
  0
DICTIONARY
  5
5E19
330
53F0
100
AcDbDictionary
280
     1
281
     1
  3
ACAD_XREC_ROUNDTRIP
360
5E1A
  0
DICTIONARY
  5
5C92
330
5C91
100
AcDbDictionary
280
     1
281
     1
  3
ACAD_MTEXT_2008_RT
360
5DCC
  0
DICTIONARY
  5
5C94
330
5C93
100
AcDbDictionary
280
     1
281
     1
  3
ACAD_MTEXT_2008_RT
360
5DCD
  0
XRECORD
  5
2471
102
{ACAD_REACTORS
330
C
102
}
330
C
100
AcDbXrecord
280
     1
300
ACDLT
300
2017
300
86604ACDLT_2017_0F
  0
DICTIONARY
  5
3B0
102
{ACAD_REACTORS
330
C
102
}
330
C
100
AcDbDictionary
281
     1
  0
DICTIONARY
  5
26D9
102
{ACAD_REACTORS
330
C
102
}
330
C
100
AcDbDictionary
281
     1
  3
Metric50
350
26DA
  0
DICTIONARY
  5
D
102
{ACAD_REACTORS
330
C
102
}
330
C
100
AcDbDictionary
281
     1
  0
DICTIONARY
  5
3B1
102
{ACAD_REACTORS
330
C
102
}
330
C
100
AcDbDictionary
281
     1
  3
Model
350
3B3
  3
レイアウト1
350
3B4
  0
DICTIONARY
  5
3AF
102
{ACAD_REACTORS
330
C
102
}
330
C
100
AcDbDictionary
281
     1
  3
ByBlock
350
1833
  3
ByLayer
350
1832
  3
Global
350
1834
  0
DICTIONARY
  5
2468
102
{ACAD_REACTORS
330
C
102
}
330
C
100
AcDbDictionary
281
     1
  3
Standard
350
2469
  0
DICTIONARY
  5
E
102
{ACAD_REACTORS
330
C
102
}
330
C
100
AcDbDictionary
281
     1
  3
STANDARD
350
13
  0
DICTIONARY
  5
3B2
102
{ACAD_REACTORS
330
C
102
}
330
C
100
AcDbDictionary
281
     1
  0
ACDBDICTIONARYWDFLT
  5
3AD
102
{ACAD_REACTORS
330
C
102
}
330
C
100
AcDbDictionary
281
     1
  3
Normal
350
3AE
100
AcDbDictionaryWithDefault
340
3AE
  0
DICTIONARY
  5
2456
102
{ACAD_REACTORS
330
C
102
}
330
C
100
AcDbDictionary
281
     1
  3
A0
350
2457
  3
A1
350
2458
  3
A2
350
2459
  3
A3
350
245A
  3
A4
350
245B
  3
A5
350
245C
  3
A6
350
245D
  3
A7
350
245E
  3
A8
350
245F
  3
A9
350
2460
  3
B0
350
2461
  3
B1
350
2462
  3
B2
350
2463
  3
B3
350
2464
  3
B4
350
2465
  3
B5
350
2466
  3
B6
350
2467
  0
DICTIONARY
  5
26D7
102
{ACAD_REACTORS
330
C
102
}
330
C
100
AcDbDictionary
281
     1
  3
Metric50
350
26D8
  0
DICTIONARY
  5
1846
102
{ACAD_REACTORS
330
C
102
}
330
C
100
AcDbDictionary
281
     1
  3
Standard
350
1847
  0
DICTIONARY
  5
1835
102
{ACAD_REACTORS
330
C
102
}
330
C
100
AcDbDictionary
281
     1
  3
2dWireframe
350
183B
  3
3D Hidden
350
183D
  3
3dWireframe
350
183C
  3
Basic
350
183A
  3
Brighten
350
1841
  3
ColorChange
350
1845
  3
Conceptual
350
183E
  3
Dim
350
1840
  3
EdgeColorOff
350
2455
  3
Facepattern
350
1844
  3
Flat
350
1836
  3
FlatWithEdges
350
1837
  3
Gouraud
350
1838
  3
GouraudWithEdges
350
1839
  3
Hidden
350
244D
  3
JitterOff
350
2453
  3
Linepattern
350
1843
  3
OverhangOff
350
2454
  3
Realistic
350
183F
  3
Shaded
350
2452
  3
Shaded with edges
350
2451
  3
Shades of Gray
350
244E
  3
Sketchy
350
244F
  3
Thicken
350
1842
  3
Wireframe
350
244C
  3
X-Ray
350
2450
  0
XRECORD
  5
23C6
102
{ACAD_REACTORS
330
C
102
}
330
C
100
AcDbXrecord
280
     1
 90
   990106
  3
NONE
 60
     0
 61
     0
 62
     1
 63
     3
 64
     0
 65
     0
 66
     0
 67
     3
 68
     1
 69
     0
 70
     4
 71
     4
 72
     0
 40
0.0
170
     2
340
0
  0
XRECORD
  5
5DCE
102
{ACAD_REACTORS
330
C
102
}
330
C
100
AcDbXrecord
280
     1
 90
        1
330
E6E
330
1847
330
5C91
330
5C93
330
5D15
  0
DICTIONARY
  5
1815
102
{ACAD_REACTORS
330
C
102
}
330
C
100
AcDbDictionary
281
     1
  3
CANNOSCALE
350
24D4
  3
CMLEADERSTYLE
350
24D3
  3
CTABLESTYLE
350
1E7F
  3
CVIEWDETAILSTYLE
350
2734
  3
CVIEWSECTIONSTYLE
350
2735
  3
DIMASSOC
350
1816
  3
INDEXCTL
350
24D6
  3
LAYEREVAL
350
3C3C
  3
LAYERNOTIFY
350
3C3D
  3
LIGHTINGUNITS
350
3C3B
  3
MSLTSCALE
350
3C3A
  3
PROJECTNAME
350
1817
  3
SORTENTS
350
24D5
  0
DICTIONARY
  5
21FB
102
{ACAD_REACTORS
330
1884
102
}
330
1884
100
AcDbDictionary
281
     1
  0
DICTIONARY
  5
1885
102
{ACAD_REACTORS
330
1884
102
}
330
1884
100
AcDbDictionary
281
     1
  0
DICTIONARY
  5
21FA
102
{ACAD_REACTORS
330
1884
102
}
330
1884
100
AcDbDictionary
281
     1
1001
ACAD
1000
<All
  0
XRECORD
  5
24B8
102
{ACAD_REACTORS
330
24B7
102
}
330
24B7
100
AcDbXrecord
280
     1
290
     1
  0
XRECORD
  5
24BA
102
{ACAD_REACTORS
330
24B9
102
}
330
24B9
100
AcDbXrecord
280
     1
290
     1
  0
XRECORD
  5
24BC
102
{ACAD_REACTORS
330
24BB
102
}
330
24BB
100
AcDbXrecord
280
     1
290
     1
  0
XRECORD
  5
24BE
102
{ACAD_REACTORS
330
24BD
102
}
330
24BD
100
AcDbXrecord
280
     1
290
     1
  0
XRECORD
  5
24C0
102
{ACAD_REACTORS
330
24BF
102
}
330
24BF
100
AcDbXrecord
280
     1
290
     1
  0
XRECORD
  5
24C2
102
{ACAD_REACTORS
330
24C1
102
}
330
24C1
100
AcDbXrecord
280
     1
290
     1
  0
XRECORD
  5
24C4
102
{ACAD_REACTORS
330
24C3
102
}
330
24C3
100
AcDbXrecord
280
     1
290
     1
  0
XRECORD
  5
24C6
102
{ACAD_REACTORS
330
24C5
102
}
330
24C5
100
AcDbXrecord
280
     1
290
     1
  0
XRECORD
  5
24C8
102
{ACAD_REACTORS
330
24C7
102
}
330
24C7
100
AcDbXrecord
280
     1
290
     1
  0
XRECORD
  5
24CA
102
{ACAD_REACTORS
330
24C9
102
}
330
24C9
100
AcDbXrecord
280
     1
290
     1
  0
SORTENTSTABLE
  5
1F06
102
{ACAD_REACTORS
330
1F05
102
}
330
1F05
100
AcDbSortentsTable
330
1A
331
51D7
  5
51DF
331
5194
  5
519B
331
51D3
  5
51DA
331
5190
  5
5197
331
51CF
  5
51D6
331
518C
  5
5193
331
5188
  5
518F
331
51CB
  5
51D2
331
53F0
  5
53EE
331
525C
  5
5261
331
5258
  5
525E
331
51F5
  5
5227
331
5254
  5
525A
331
5250
  5
5256
331
51F1
  5
51F8
331
E71
  5
E8E
331
3E70
  5
3E86
331
3F52
  5
408E
331
40CD
  5
40D1
331
40C9
  5
40CD
331
3F4E
  5
3F55
331
40C5
  5
40C9
331
3F4A
  5
3F50
331
40C1
  5
40C5
331
51C4
  5
51CB
331
5185
  5
518C
331
51C0
  5
51C7
331
5181
  5
5188
331
517D
  5
5184
331
51BC
  5
51C3
331
51B8
  5
51BF
331
5179
  5
517F
331
53ED
  5
53EB
331
524C
  5
5252
331
51ED
  5
51F4
331
5248
  5
524E
331
5244
  5
5243
331
51E1
  5
51F1
331
3E6C
  5
3E71
331
E6D
  5
E8B
331
3E68
  5
3E6D
331
3E64
  5
3E69
331
E59
  5
E73
331
3E89
  5
3EE9
331
3E60
  5
3E64
331
3E45
  5
3E51
331
E78
  5
166B
331
40BD
  5
40C1
331
40B9
  5
40BD
331
40B5
  5
40B9
331
3F12
  5
3F4C
331
40B1
  5
40B5
331
51B4
  5
51BB
331
5175
  5
517C
331
51B0
  5
51B8
331
51AC
  5
51B3
331
51A8
  5
51AF
331
53E5
  5
53E3
331
5239
  5
523F
331
5235
  5
523B
331
5231
  5
5237
331
3E5D
  5
3E61
331
3E59
  5
3E5D
331
E1D
  5
E5C
331
3E55
  5
3E59
331
3E51
  5
3E56
331
E50
  5
E6E
331
40AE
  5
40B2
331
40AA
  5
40AE
331
40A6
  5
40AB
331
40E5
  5
4F73
331
40A2
  5
40A7
331
40E1
  5
40E5
331
51A5
  5
51AC
331
519D
  5
51A5
331
5199
  5
51A0
331
51D8
  5
51E0
331
522D
  5
5233
331
5268
  5
528B
331
5229
  5
522F
331
5225
  5
522B
331
5264
  5
5283
331
5260
  5
5266
331
E8D
  5
16D9
331
409E
  5
40A3
331
40DD
  5
40E1
331
409A
  5
409F
331
4096
  5
409B
331
40D9
  5
40DD
331
40D5
  5
40D9
331
4092
  5
4097
331
40D1
  5
40D5
331
51D4
  5
51DB
331
5195
  5
519C
331
51D0
  5
51D7
331
5191
  5
5198
331
51CC
  5
51D3
331
518D
  5
5194
331
5189
  5
5190
331
51C8
  5
51CF
331
525D
  5
5263
331
51F6
  5
5228
331
5259
  5
525F
331
5255
  5
525B
331
51F2
  5
5224
331
5251
  5
5257
331
3E85
  5
3E8A
331
E72
  5
165F
331
3E71
  5
3E87
331
408D
  5
4093
331
40CE
  5
40D2
331
3F53
  5
408F
331
40CA
  5
40CE
331
40C6
  5
40CA
331
40C2
  5
40C6
331
3F4B
  5
3F52
331
5186
  5
518D
331
51C5
  5
51CC
331
51C1
  5
51C8
331
517E
  5
5185
331
517A
  5
5180
331
51BD
  5
51C4
331
51B9
  5
51C0
331
53EE
  5
53EC
331
53EA
  5
53E7
331
51EE
  5
51F5
331
524D
  5
5253
331
5249
  5
524F
331
51E2
  5
51F2
331
5245
  5
524B
331
E6E
  5
E8C
331
3E6D
  5
3E72
331
3E69
  5
3E6E
331
E5E
  5
E7A
331
3E8A
  5
3EEA
331
3E65
  5
3E6A
331
E5A
  5
E74
331
3E61
  5
3E65
331
E79
  5
166C
331
40BE
  5
40C2
331
40BA
  5
40BE
331
40B6
  5
40BA
331
40B2
  5
40B6
331
3F13
  5
3F4D
331
51B5
  5
51BC
331
5172
  5
5177
331
51B1
  5
51BA
331
51AD
  5
51B4
331
51A9
  5
51B0
331
53E6
  5
53E4
331
53E2
  5
52A6
331
53DE
  5
3E40
331
523A
  5
5240
331
5236
  5
523C
331
5232
  5
5238
331
5285
  5
518A
331
3E5E
  5
3E62
331
3E5A
  5
3E5E
331
E1E
  5
E5E
331
3E56
  5
3E5A
331
3F0D
  5
3F17
331
3E52
  5
3E57
331
E51
  5
E6F
331
40AF
  5
40B3
331
40AB
  5
40AF
331
40A7
  5
40AC
331
40E6
  5
5173
331
40E2
  5
40E6
331
40A3
  5
40A8
331
51A6
  5
51AD
331
51A2
  5
51A9
331
519E
  5
51A6
331
519A
  5
51A1
331
51DD
  5
51ED
331
51D9
  5
51E1
331
522E
  5
5234
331
522A
  5
5230
331
5269
  5
52A5
331
5226
  5
522C
331
5265
  5
5288
331
5261
  5
5267
331
3E4E
  5
3E52
331
E8E
  5
2BCF
331
E15
  5
E58
331
40DE
  5
40E2
331
409F
  5
40A4
331
40DA
  5
40DE
331
409B
  5
40A0
331
4097
  5
409C
331
40D6
  5
40DA
331
40D2
  5
40D6
331
4093
  5
4098
331
5196
  5
519D
331
51D5
  5
51DC
331
5192
  5
5199
331
51D1
  5
51D8
331
518E
  5
5195
331
518A
  5
5191
331
51CD
  5
51D4
331
51C9
  5
51D0
331
525E
  5
5264
331
51F7
  5
5229
331
5256
  5
525C
331
5252
  5
5258
331
51F3
  5
5225
331
E73
  5
1667
331
3E72
  5
3E88
331
408E
  5
4094
331
40CF
  5
40D3
331
3F54
  5
4090
331
40CB
  5
40CF
331
40C7
  5
40CB
331
3F4C
  5
3F53
331
40C3
  5
40C7
331
51C6
  5
51CD
331
5187
  5
518E
331
51C2
  5
51C9
331
5183
  5
5189
331
517F
  5
5186
331
51BE
  5
51C5
331
517B
  5
5181
331
51BA
  5
51C1
331
53EF
  5
53ED
331
53EB
  5
53E8
331
524E
  5
5254
331
51EF
  5
51F6
331
524A
  5
5250
331
5246
  5
524C
331
E6F
  5
E8D
331
3E6E
  5
3E73
331
3E6A
  5
3E6F
331
3E66
  5
3E6B
331
3E62
  5
3E66
331
E5B
  5
E78
331
E7A
  5
16D0
331
40BF
  5
40C3
331
3F28
  5
3F4E
331
40BB
  5
40BF
331
40B7
  5
40BB
331
40B3
  5
40B7
331
51B6
  5
51BD
331
5177
  5
517D
331
5173
  5
5178
331
51AE
  5
51B7
331
51AA
  5
51B1
331
53E7
  5
53E5
331
53E3
  5
52A7
331
523B
  5
5241
331
5237
  5
523D
331
5233
  5
5239
331
3E5F
  5
3E63
331
3E5B
  5
3E5F
331
3E57
  5
3E5B
331
E52
  5
E71
331
40AC
  5
40B0
331
40A8
  5
53F2
331
40E7
  5
5174
331
40A4
  5
40A9
331
40E3
  5
40E7
331
40A0
  5
40A5
331
51A7
  5
51AE
331
51A3
  5
51AA
331
51DE
  5
51EE
331
519F
  5
51A7
331
519B
  5
51A2
331
51DA
  5
51E2
331
522F
  5
5235
331
522B
  5
5231
331
5266
  5
5289
331
5227
  5
522D
331
5262
  5
5268
331
3E4F
  5
3E54
331
E8B
  5
16D6
331
E16
  5
E59
331
40DF
  5
40E3
331
409C
  5
40A1
331
4098
  5
409D
331
40DB
  5
40DF
331
4094
  5
4099
331
40D7
  5
40DB
331
40D3
  5
40D7
331
4090
  5
4096
331
51D6
  5
51DD
331
5197
  5
519E
331
51D2
  5
51D9
331
5193
  5
519A
331
51CE
  5
51D5
331
518F
  5
5196
331
518B
  5
5192
331
51CA
  5
51D1
331
525F
  5
5265
331
525B
  5
5260
331
51F8
  5
53F0
331
51F4
  5
5226
331
5257
  5
525D
331
5253
  5
5259
331
51F0
  5
51F7
331
E74
  5
1668
331
3E73
  5
3E89
331
408F
  5
4095
331
3F55
  5
4092
331
40CC
  5
40D0
331
3F51
  5
3F56
331
40C8
  5
40CC
331
40C4
  5
40C8
331
3F4D
  5
3F54
331
40C0
  5
40C4
331
51C7
  5
51CE
331
5184
  5
518B
331
51C3
  5
51CA
331
5180
  5
5187
331
517C
  5
5182
331
51BF
  5
51C6
331
51BB
  5
51C2
331
5178
  5
517E
331
53EC
  5
53EA
331
53E8
  5
53E6
331
524F
  5
5255
331
51EC
  5
51F3
331
524B
  5
5251
331
5247
  5
524D
331
5243
  5
5242
331
51E0
  5
51F0
331
3E6F
  5
3E85
331
E6C
  5
E7B
331
3E6B
  5
3E70
331
3E67
  5
3E6C
331
E5C
  5
E79
331
3E88
  5
3E8C
331
3E63
  5
3E68
331
3E44
  5
3E50
331
E7B
  5
16D1
331
40BC
  5
40C0
331
40B8
  5
40BC
331
40B4
  5
40B8
331
40B0
  5
40B4
331
51B7
  5
51BE
331
5174
  5
5179
331
40E8
  5
5175
331
51AB
  5
51B2
331
53E4
  5
53E2
331
5238
  5
523E
331
5234
  5
523A
331
5230
  5
5236
331
3E5C
  5
3E60
331
3E58
  5
3E5C
331
3E54
  5
3E58
331
E18
  5
E5B
331
3E50
  5
3E55
331
40AD
  5
40B1
331
40A9
  5
40AD
331
40E4
  5
40E8
331
40A5
  5
40AA
331
40E0
  5
40E4
331
40A1
  5
40A6
331
51A4
  5
51AB
331
51A0
  5
51A8
331
51DF
  5
51EF
331
519C
  5
51A4
331
5198
  5
519F
331
51DB
  5
51E3
331
522C
  5
5232
331
5228
  5
522E
331
5224
  5
522A
331
5267
  5
528A
331
5263
  5
5269
331
E8C
  5
16D7
331
E4F
  5
E6D
331
E17
  5
E5A
331
40DC
  5
40E0
331
409D
  5
40A2
331
4099
  5
409E
331
40D8
  5
40DC
331
40D4
  5
40D8
331
4095
  5
409A
331
40D0
  5
40D4
  0
XRECORD
  5
5DCA
102
{ACAD_REACTORS
330
5D5E
102
}
330
5D5E
100
AcDbXrecord
280
     1
 40
9678091.0
  1
\pxqc;耐火ヴァンドＲＺ５０　笠木部
  0
XRECORD
  5
5E0A
102
{ACAD_REACTORS
330
5E09
102
}
330
5E09
100
AcDbXrecord
280
     1
102
ACAD_ROUNDTRIP_2012_MLEADER
295
     1
  0
XRECORD
  5
5E0C
102
{ACAD_REACTORS
330
5E0B
102
}
330
5E0B
100
AcDbXrecord
280
     1
102
ACAD_ROUNDTRIP_2012_MLEADER
295
     1
  0
XRECORD
  5
5E0E
102
{ACAD_REACTORS
330
5E0D
102
}
330
5E0D
100
AcDbXrecord
280
     1
102
ACAD_ROUNDTRIP_2012_MLEADER
295
     1
  0
XRECORD
  5
5E10
102
{ACAD_REACTORS
330
5E0F
102
}
330
5E0F
100
AcDbXrecord
280
     1
102
ACAD_ROUNDTRIP_2012_MLEADER
295
     1
  0
XRECORD
  5
5E12
102
{ACAD_REACTORS
330
5E11
102
}
330
5E11
100
AcDbXrecord
280
     1
102
ACAD_ROUNDTRIP_2012_MLEADER
295
     1
  0
XRECORD
  5
5E14
102
{ACAD_REACTORS
330
5E13
102
}
330
5E13
100
AcDbXrecord
280
     1
102
ACAD_ROUNDTRIP_2012_MLEADER
295
     1
  0
XRECORD
  5
5E16
102
{ACAD_REACTORS
330
5E15
102
}
330
5E15
100
AcDbXrecord
280
     1
102
ACAD_ROUNDTRIP_2012_MLEADER
295
     1
  0
XRECORD
  5
5E18
102
{ACAD_REACTORS
330
5E17
102
}
330
5E17
100
AcDbXrecord
280
     1
102
ACAD_ROUNDTRIP_2012_MLEADER
295
     1
  0
XRECORD
  5
5E1A
102
{ACAD_REACTORS
330
5E19
102
}
330
5E19
100
AcDbXrecord
280
     1
102
ACAD_ROUNDTRIP_2012_MLEADER
295
     1
  0
XRECORD
  5
5DCC
102
{ACAD_REACTORS
330
5C92
102
}
330
5C92
100
AcDbXrecord
280
     1
 40
4386876.0
  1
\pxqc;アイジーヴァンド参考ディテール
  0
XRECORD
  5
5DCD
102
{ACAD_REACTORS
330
5C94
102
}
330
5C94
100
AcDbXrecord
280
     1
 40
3316594.0
  1
\pxqc;アイジー工業株式会社
  0
ACDBDETAILVIEWSTYLE
  5
26DA
102
{ACAD_XDICTIONARY
360
5E07
102
}
102
{ACAD_REACTORS
330
26D9
102
}
330
26D9
100
AcDbModelDocViewStyle
 70
     0
  3
Metric50
290
     0
100
AcDbDetailViewStyle
 70
     0
 71
     0
 90
        3
 71
     1
340
10
 62
   256
 40
5.0
340
0
 62
   256
 40
5.0
300

 40
0.0
280
     1
 71
     2
340
16
 90
       25
 62
   256
 71
     3
340
10
 62
   256
 40
5.0
 90
        0
 40
15.0
 90
        1
300
%<\AcVar ViewDetailId>% (%<\AcVar ViewScale \f "%sn">%)
 71
     4
340
16
 90
       25
 62
   256
340
16
 90
       25
 62
   256
280
     0
1001
ACAD
1000
AcRTDxfName
1000
ACDBDETAILVIEWSTYLE
1000
AcRTDxfName
1000
ACDBDETAILVIEWSTYLE
1000
AcRTDxfName
1000
ACDBDETAILVIEWSTYLE
1000
AcRTDxfName
1000
ACDBDETAILVIEWSTYLE
1000
AcRTDxfName
1000
ACDBDETAILVIEWSTYLE
1000
AcRTDxfName
1000
ACDBDETAILVIEWSTYLE
1000
AcRTDxfName
1000
ACDBDETAILVIEWSTYLE
1000
AcRTDxfName
1000
ACDBDETAILVIEWSTYLE
1000
AcRTDxfName
1000
ACDBDETAILVIEWSTYLE
1000
AcRTDxfName
1000
ACDBDETAILVIEWSTYLE
1000
AcRTDxfName
1000
ACDBDETAILVIEWSTYLE
1000
AcRTDxfName
1000
ACDBDETAILVIEWSTYLE
1000
AcRTDxfName
1000
ACDBDETAILVIEWSTYLE
1000
AcRTDxfName
1000
ACDBDETAILVIEWSTYLE
1000
AcRTDxfName
1000
ACDBDETAILVIEWSTYLE
  0
LAYOUT
  5
3B3
102
{ACAD_REACTORS
330
3B1
102
}
330
3B1
100
AcDbPlotSettings
  1

  2
none_device
  4
ISO_A3_(420.00_x_297.00_MM)
  6

 40
7.5
 41
20.0
 42
7.5
 43
20.0
 44
420.0
 45
297.0
 46
0.0
 47
0.0
 48
0.0
 49
0.0
140
0.0
141
0.0
142
1.0
143
2.0
 70
 11904
 72
     1
 73
     0
 74
     2
  7

 75
     0
147
0.4326599326599327
 76
     0
 77
     2
 78
   300
148
0.0
149
0.0
100
AcDbLayout
  1
Model
 70
     1
 71
     0
 10
0.0
 20
0.0
 11
12.0
 21
9.0
 12
0.0
 22
0.0
 32
0.0
 14
0.0
 24
0.0
 34
0.0
 15
0.0
 25
0.0
 35
0.0
146
0.0
 13
0.0
 23
0.0
 33
0.0
 16
1.0
 26
0.0
 36
0.0
 17
0.0
 27
1.0
 37
0.0
 76
     0
330
1A
331
244A
1001
ACAD_PSEXT
1000
なし
1000
なし
1000
適切ではありません
1000
新しいプロッタ環境設定名を選択しない限り、レイアウトは印刷されません。
1070
     0
  0
LAYOUT
  5
3B4
102
{ACAD_REACTORS
330
3B1
102
}
330
3B1
100
AcDbPlotSettings
  1

  2
DocuCentre Color 400 (FAX)
  4

  6

 40
0.0
 41
0.0
 42
0.0
 43
0.0
 44
0.0
 45
0.0
 46
0.0
 47
0.0
 48
0.0
 49
0.0
140
0.0
141
0.0
142
1.0
143
1.0
 70
   688
 72
     0
 73
     0
 74
     5
  7
Screening 100%.ctb
 75
    16
147
1.0
 76
     0
 77
     2
 78
   300
148
0.0
149
0.0
100
AcDbLayout
  1
レイアウト1
 70
     1
 71
     1
 10
0.0
 20
0.0
 11
420.0
 21
297.0
 12
0.0
 22
0.0
 32
0.0
 14
1.000000000000000E+20
 24
1.000000000000000E+20
 34
1.000000000000000E+20
 15
-1.000000000000000E+20
 25
-1.000000000000000E+20
 35
-1.000000000000000E+20
146
0.0
 13
0.0
 23
0.0
 33
0.0
 16
1.0
 26
0.0
 36
0.0
 17
0.0
 27
1.0
 37
0.0
 76
     0
330
17
331
22
  0
MATERIAL
  5
1833
102
{ACAD_XDICTIONARY
360
5365
102
}
102
{ACAD_REACTORS
330
3AF
102
}
330
3AF
100
AcDbMaterial
  1
ByBlock
 73
     1
 78
     1
172
     1
176
     1
270
     1
274
     1
  0
MATERIAL
  5
1832
102
{ACAD_XDICTIONARY
360
5363
102
}
102
{ACAD_REACTORS
330
3AF
102
}
330
3AF
100
AcDbMaterial
  1
ByLayer
 73
     1
 78
     1
172
     1
176
     1
270
     1
274
     1
  0
MATERIAL
  5
1834
102
{ACAD_XDICTIONARY
360
5367
102
}
102
{ACAD_REACTORS
330
3AF
102
}
330
3AF
100
AcDbMaterial
  1
Global
 73
     1
 78
     1
172
     1
176
     1
270
     1
274
     1
  0
MLEADERSTYLE
  5
2469
102
{ACAD_XDICTIONARY
360
5E03
102
}
102
{ACAD_REACTORS
330
2468
330
3F0D
330
53E8
330
53EA
330
53EB
330
53EC
330
53ED
330
53EE
330
53EF
330
53F0
102
}
330
2468
100
AcDbMLeaderStyle
179
     2
170
     2
171
     1
172
     0
 90
        2
 40
0.5235987755982988
 41
0.0
173
     1
 91
-1056964608
340
14
 92
       -2
290
     1
 42
2.0
291
     1
 43
0.6
  3
Standard
341
B0
 44
0.0
300

342
10
174
     1
178
     3
175
     1
176
     0
 93
-1056964608
 45
5.0
292
     0
297
     0
 46
4.0
 94
-1056964608
 47
1.0
 49
1.0
140
1.0
293
     1
141
0.0
294
     1
177
     0
142
1.0
295
     0
296
     0
143
0.2
271
     0
272
     9
273
     9
1001
ACAD_MLEADERVER
1070
     2
  0
MLINESTYLE
  5
13
102
{ACAD_REACTORS
330
E
102
}
330
E
100
AcDbMlineStyle
  2
STANDARD
 70
     0
  3

 62
     0
 51
90.0
 52
90.0
 71
     2
 49
0.5
 62
   256
  6
BYLAYER
 49
-0.5
 62
   256
  6
BYLAYER
  0
ACDBPLACEHOLDER
  5
3AE
102
{ACAD_REACTORS
330
3AD
102
}
330
3AD
  0
SCALE
  5
2457
102
{ACAD_REACTORS
330
2456
102
}
330
2456
100
AcDbScale
 70
     0
300
1:1
140
1.0
141
1.0
290
     1
  0
SCALE
  5
2458
102
{ACAD_REACTORS
330
2456
102
}
330
2456
100
AcDbScale
 70
     0
300
1:2
140
1.0
141
2.0
290
     0
  0
SCALE
  5
2459
102
{ACAD_REACTORS
330
2456
102
}
330
2456
100
AcDbScale
 70
     0
300
1:4
140
1.0
141
4.0
290
     0
  0
SCALE
  5
245A
102
{ACAD_REACTORS
330
2456
102
}
330
2456
100
AcDbScale
 70
     0
300
1:5
140
1.0
141
5.0
290
     0
  0
SCALE
  5
245B
102
{ACAD_REACTORS
330
2456
102
}
330
2456
100
AcDbScale
 70
     0
300
1:8
140
1.0
141
8.0
290
     0
  0
SCALE
  5
245C
102
{ACAD_REACTORS
330
2456
102
}
330
2456
100
AcDbScale
 70
     0
300
1:10
140
1.0
141
10.0
290
     0
  0
SCALE
  5
245D
102
{ACAD_REACTORS
330
2456
102
}
330
2456
100
AcDbScale
 70
     0
300
1:16
140
1.0
141
16.0
290
     0
  0
SCALE
  5
245E
102
{ACAD_REACTORS
330
2456
102
}
330
2456
100
AcDbScale
 70
     0
300
1:20
140
1.0
141
20.0
290
     0
  0
SCALE
  5
245F
102
{ACAD_REACTORS
330
2456
102
}
330
2456
100
AcDbScale
 70
     0
300
1:30
140
1.0
141
30.0
290
     0
  0
SCALE
  5
2460
102
{ACAD_REACTORS
330
2456
102
}
330
2456
100
AcDbScale
 70
     0
300
1:40
140
1.0
141
40.0
290
     0
  0
SCALE
  5
2461
102
{ACAD_REACTORS
330
2456
102
}
330
2456
100
AcDbScale
 70
     0
300
1:50
140
1.0
141
50.0
290
     0
  0
SCALE
  5
2462
102
{ACAD_REACTORS
330
2456
102
}
330
2456
100
AcDbScale
 70
     0
300
1:100
140
1.0
141
100.0
290
     0
  0
SCALE
  5
2463
102
{ACAD_REACTORS
330
2456
102
}
330
2456
100
AcDbScale
 70
     0
300
2:1
140
2.0
141
1.0
290
     0
  0
SCALE
  5
2464
102
{ACAD_REACTORS
330
2456
102
}
330
2456
100
AcDbScale
 70
     0
300
4:1
140
4.0
141
1.0
290
     0
  0
SCALE
  5
2465
102
{ACAD_REACTORS
330
2456
102
}
330
2456
100
AcDbScale
 70
     0
300
8:1
140
8.0
141
1.0
290
     0
  0
SCALE
  5
2466
102
{ACAD_REACTORS
330
2456
102
}
330
2456
100
AcDbScale
 70
     0
300
10:1
140
10.0
141
1.0
290
     0
  0
SCALE
  5
2467
102
{ACAD_REACTORS
330
2456
102
}
330
2456
100
AcDbScale
 70
     0
300
100:1
140
100.0
141
1.0
290
     0
  0
ACDBSECTIONVIEWSTYLE
  5
26D8
102
{ACAD_XDICTIONARY
360
5E05
102
}
102
{ACAD_REACTORS
330
26D7
102
}
330
26D7
100
AcDbModelDocViewStyle
 70
     0
  3
Metric50
290
     0
100
AcDbSectionViewStyle
 70
     0
 71
     0
 90
      102
 71
     1
340
10
 62
   256
 40
5.0
340
0
340
0
 62
   256
 40
5.0
300
I, O, Q, S, X, Z
 40
10.0
 90
        0
 40
2.5
 90
        0
 71
     2
340
16
 90
       25
 62
   256
340
16
 90
       50
 62
   256
 40
5.0
 40
2.5
 40
5.0
 71
     3
340
10
 62
   256
 40
5.0
 90
        0
 40
15.0
 90
        1
300
%<\AcVar ViewSectionStartId>%-%<\AcVar ViewSectionEndId>% (%<\AcVar ViewScale \f "%sn">%)
 71
     4
 62
   256
 62
   257
300
ANSI31
 40
1.0
 90
        0
290
     0
290
     0
 90
        6
 40
0.0
 40
1.570796326794896
 40
0.2617993877991494
 40
1.308996938995747
 40
-0.2617993877991494
 40
1.832595714594044
1001
ACAD
1000
AcRTDxfName
1000
ACDBSECTIONVIEWSTYLE
1000
AcRTDxfName
1000
ACDBSECTIONVIEWSTYLE
1000
AcRTDxfName
1000
ACDBSECTIONVIEWSTYLE
1000
AcRTDxfName
1000
ACDBSECTIONVIEWSTYLE
1000
AcRTDxfName
1000
ACDBSECTIONVIEWSTYLE
1000
AcRTDxfName
1000
ACDBSECTIONVIEWSTYLE
1000
AcRTDxfName
1000
ACDBSECTIONVIEWSTYLE
1000
AcRTDxfName
1000
ACDBSECTIONVIEWSTYLE
1000
AcRTDxfName
1000
ACDBSECTIONVIEWSTYLE
1000
AcRTDxfName
1000
ACDBSECTIONVIEWSTYLE
1000
AcRTDxfName
1000
ACDBSECTIONVIEWSTYLE
1000
AcRTDxfName
1000
ACDBSECTIONVIEWSTYLE
1000
AcRTDxfName
1000
ACDBSECTIONVIEWSTYLE
1000
AcRTDxfName
1000
ACDBSECTIONVIEWSTYLE
1000
AcRTDxfName
1000
ACDBSECTIONVIEWSTYLE
  0
TABLESTYLE
  5
1847
102
{ACAD_XDICTIONARY
360
2526
102
}
102
{ACAD_REACTORS
330
1846
102
}
330
1846
100
AcDbTableStyle
280
     0
  3
Standard
 70
     0
 71
     0
 40
1.5
 41
1.5
280
     0
281
     0
  7
STANDARD
140
4.5
170
     2
 62
     0
 63
     7
283
     0
 90
      512
 91
        0
  1

274
    -2
284
     1
 64
     0
275
    -2
285
     1
 65
     0
276
    -2
286
     1
 66
     0
277
    -2
287
     1
 67
     0
278
    -2
288
     1
 68
     0
279
    -2
289
     1
 69
     0
  7
STANDARD
140
6.0
170
     5
 62
     0
 63
     7
283
     0
 90
      512
 91
        0
  1

274
    -2
284
     1
 64
     0
275
    -2
285
     1
 65
     0
276
    -2
286
     1
 66
     0
277
    -2
287
     1
 67
     0
278
    -2
288
     1
 68
     0
279
    -2
289
     1
 69
     0
  7
STANDARD
140
4.5
170
     5
 62
     0
 63
     7
283
     0
 90
      512
 91
        0
  1

274
    -2
284
     1
 64
     0
275
    -2
285
     1
 65
     0
276
    -2
286
     1
 66
     0
277
    -2
287
     1
 67
     0
278
    -2
288
     1
 68
     0
279
    -2
289
     1
 69
     0
1001
ACAD
1000
AcRTDxfName
1000
TABLESTYLE
  0
VISUALSTYLE
  5
183B
102
{ACAD_XDICTIONARY
360
5DD9
102
}
102
{ACAD_REACTORS
330
1835
102
}
330
1835
100
AcDbVisualStyle
  2

 70
     4
177
     2
291
     0
 71
     0
176
     1
 72
     2
176
     1
 73
     0
176
     1
 90
        0
176
     1
 40
0.6
176
     1
 41
30.0
176
     1
 63
     7
176
     1
 74
     1
176
     1
 91
        4
176
     1
 64
     7
176
     1
 65
   257
176
     1
 75
     1
176
     1
175
     1
176
     1
 42
1.0
176
     1
 92
        0
176
     1
 66
   257
176
     1
 43
1.0
176
     1
 76
     1
176
     1
 77
     6
176
     1
 78
     2
176
     1
 67
     7
176
     1
 79
     5
176
     1
170
     0
176
     1
171
     0
176
     1
290
     0
176
     1
 93
        1
176
     1
 44
0.0
176
     1
173
     0
176
     1
1001
ACAD
1000
AcRTDxfName
1000
VISUALSTYLE
1000
AcDbSavedByObjectVersion
1070
     0
  0
VISUALSTYLE
  5
183D
102
{ACAD_XDICTIONARY
360
5DDD
102
}
102
{ACAD_REACTORS
330
1835
102
}
330
1835
100
AcDbVisualStyle
  2

 70
     6
177
     2
291
     0
 71
     1
176
     1
 72
     2
176
     1
 73
     2
176
     1
 90
        0
176
     1
 40
0.6
176
     1
 41
30.0
176
     1
 63
     7
176
     1
 74
     2
176
     1
 91
        2
176
     1
 64
     7
176
     1
 65
   257
176
     1
 75
     2
176
     1
175
     1
176
     1
 42
40.0
176
     1
 92
        0
176
     1
 66
   257
176
     1
 43
1.0
176
     1
 76
     1
176
     1
 77
     6
176
     1
 78
     2
176
     1
 67
     7
176
     1
 79
     3
176
     1
170
     0
176
     1
171
     0
176
     1
290
     0
176
     1
 93
        1
176
     1
 44
0.0
176
     1
173
     0
176
     1
1001
ACAD
1000
AcRTDxfName
1000
VISUALSTYLE
1000
AcDbSavedByObjectVersion
1070
     0
  0
VISUALSTYLE
  5
183C
102
{ACAD_XDICTIONARY
360
5DDB
102
}
102
{ACAD_REACTORS
330
1835
102
}
330
1835
100
AcDbVisualStyle
  2

 70
     5
177
     2
291
     0
 71
     0
176
     1
 72
     2
176
     1
 73
     0
176
     1
 90
        0
176
     1
 40
0.6
176
     1
 41
30.0
176
     1
 63
     7
176
     1
 74
     1
176
     1
 91
        4
176
     1
 64
     7
176
     1
 65
   257
176
     1
 75
     1
176
     1
175
     1
176
     1
 42
1.0
176
     1
 92
        0
176
     1
 66
   257
176
     1
 43
1.0
176
     1
 76
     1
176
     1
 77
     6
176
     1
 78
     2
176
     1
 67
     7
176
     1
 79
     5
176
     1
170
     0
176
     1
171
     0
176
     1
290
     0
176
     1
 93
        1
176
     1
 44
0.0
176
     1
173
     0
176
     1
1001
ACAD
1000
AcRTDxfName
1000
VISUALSTYLE
1000
AcDbSavedByObjectVersion
1070
     0
  0
VISUALSTYLE
  5
183A
102
{ACAD_XDICTIONARY
360
5DD7
102
}
102
{ACAD_REACTORS
330
1835
102
}
330
1835
100
AcDbVisualStyle
  2

 70
     7
177
     2
291
     1
 71
     1
176
     1
 72
     0
176
     1
 73
     1
176
     1
 90
        0
176
     1
 40
0.6
176
     1
 41
30.0
176
     1
 63
     7
176
     1
 74
     0
176
     1
 91
        4
176
     1
 64
     7
176
     1
 65
   257
176
     1
 75
     1
176
     1
175
     1
176
     1
 42
1.0
176
     1
 92
        8
176
     1
 66
     7
176
     1
 43
1.0
176
     1
 76
     1
176
     1
 77
     6
176
     1
 78
     2
176
     1
 67
     7
176
     1
 79
     5
176
     1
170
     0
176
     1
171
     0
176
     1
290
     0
176
     1
 93
        1
176
     1
 44
0.0
176
     1
173
     0
176
     1
1001
ACAD
1000
AcRTDxfName
1000
VISUALSTYLE
1000
AcDbSavedByObjectVersion
1070
     0
  0
VISUALSTYLE
  5
1841
102
{ACAD_XDICTIONARY
360
5DE5
102
}
102
{ACAD_REACTORS
330
1835
102
}
330
1835
100
AcDbVisualStyle
  2

 70
    12
177
     2
291
     1
 71
     2
176
     1
 72
     2
176
     1
 73
     0
176
     1
 90
        0
176
     1
 40
0.6
176
     1
 41
30.0
176
     1
 63
     7
176
     1
 74
     1
176
     1
 91
        4
176
     1
 64
     7
176
     1
 65
   257
176
     1
 75
     1
176
     1
175
     1
176
     1
 42
1.0
176
     1
 92
        8
176
     1
 66
     7
176
     1
 43
1.0
176
     1
 76
     1
176
     1
 77
     6
176
     1
 78
     2
176
     1
 67
     7
176
     1
 79
     5
176
     1
170
     0
176
     1
171
     0
176
     1
290
     0
176
     1
 93
        1
176
     1
 44
50.0
176
     1
173
     0
176
     1
1001
ACAD
1000
AcRTDxfName
1000
VISUALSTYLE
1000
AcDbSavedByObjectVersion
1070
     0
  0
VISUALSTYLE
  5
1845
102
{ACAD_XDICTIONARY
360
5DED
102
}
102
{ACAD_REACTORS
330
1835
102
}
330
1835
100
AcDbVisualStyle
  2

 70
    16
177
     2
291
     1
 71
     2
176
     1
 72
     2
176
     1
 73
     3
176
     1
 90
        0
176
     1
 40
0.6
176
     1
 41
30.0
176
     1
 63
     8
176
     1
 74
     1
176
     1
 91
        4
176
     1
 64
     7
176
     1
 65
   257
176
     1
 75
     1
176
     1
175
     1
176
     1
 42
1.0
176
     1
 92
        8
176
     1
 66
     8
176
     1
 43
1.0
176
     1
 76
     1
176
     1
 77
     6
176
     1
 78
     2
176
     1
 67
     7
176
     1
 79
     5
176
     1
170
     0
176
     1
171
     0
176
     1
290
     0
176
     1
 93
        1
176
     1
 44
0.0
176
     1
173
     0
176
     1
1001
ACAD
1000
AcRTDxfName
1000
VISUALSTYLE
1000
AcDbSavedByObjectVersion
1070
     0
  0
VISUALSTYLE
  5
183E
102
{ACAD_XDICTIONARY
360
5DDF
102
}
102
{ACAD_REACTORS
330
1835
102
}
330
1835
100
AcDbVisualStyle
  2

 70
     9
177
     2
291
     0
 71
     3
176
     1
 72
     2
176
     1
 73
     0
176
     1
 90
        0
176
     1
 40
0.6
176
     1
 41
30.0
176
     1
 63
     7
176
     1
 74
     2
176
     1
 91
        2
176
     1
 64
     7
176
     1
 65
   257
176
     1
 75
     1
176
     1
175
     1
176
     1
 42
40.0
176
     1
 92
        8
176
     1
 66
     7
176
     1
 43
1.0
176
     1
 76
     1
176
     1
 77
     6
176
     1
 78
     2
176
     1
 67
     7
176
     1
 79
     3
176
     1
170
     0
176
     1
171
     0
176
     1
290
     0
176
     1
 93
        1
176
     1
 44
0.0
176
     1
173
     0
176
     1
1001
ACAD
1000
AcRTDxfName
1000
VISUALSTYLE
1000
AcDbSavedByObjectVersion
1070
     0
  0
VISUALSTYLE
  5
1840
102
{ACAD_XDICTIONARY
360
5DE3
102
}
102
{ACAD_REACTORS
330
1835
102
}
330
1835
100
AcDbVisualStyle
  2

 70
    11
177
     2
291
     1
 71
     2
176
     1
 72
     2
176
     1
 73
     0
176
     1
 90
        0
176
     1
 40
0.6
176
     1
 41
30.0
176
     1
 63
     7
176
     1
 74
     1
176
     1
 91
        4
176
     1
 64
     7
176
     1
 65
   257
176
     1
 75
     1
176
     1
175
     1
176
     1
 42
1.0
176
     1
 92
        8
176
     1
 66
     7
176
     1
 43
1.0
176
     1
 76
     1
176
     1
 77
     6
176
     1
 78
     2
176
     1
 67
     7
176
     1
 79
     5
176
     1
170
     0
176
     1
171
     0
176
     1
290
     0
176
     1
 93
        1
176
     1
 44
-50.0
176
     1
173
     0
176
     1
1001
ACAD
1000
AcRTDxfName
1000
VISUALSTYLE
1000
AcDbSavedByObjectVersion
1070
     0
  0
VISUALSTYLE
  5
2455
102
{ACAD_XDICTIONARY
360
5E01
102
}
102
{ACAD_REACTORS
330
1835
102
}
330
1835
100
AcDbVisualStyle
  2

 70
    22
177
     2
291
     1
 71
     2
176
     0
 72
     2
176
     0
 73
     0
176
     0
 90
        0
176
     0
 40
0.6
176
     0
 41
30.0
176
     0
 63
     7
176
     0
 74
     1
176
     0
 91
        4
176
     0
 64
     7
176
     0
 65
   257
176
     0
 75
     1
176
     0
175
     1
176
     0
 42
1.0
176
     0
 92
        8
176
     2
 66
     7
176
     0
 43
1.0
176
     0
 76
     1
176
     0
 77
     6
176
     0
 78
     2
176
     0
 67
     7
176
     0
 79
     5
176
     0
170
     0
176
     0
171
     0
176
     0
290
     0
176
     0
 93
        1
176
     0
 44
0.0
176
     0
173
     0
176
     0
1001
ACAD
1000
AcDbSavedByObjectVersion
1070
     0
  0
VISUALSTYLE
  5
1844
102
{ACAD_XDICTIONARY
360
5DEB
102
}
102
{ACAD_REACTORS
330
1835
102
}
330
1835
100
AcDbVisualStyle
  2

 70
    15
177
     2
291
     1
 71
     2
176
     1
 72
     2
176
     1
 73
     0
176
     1
 90
        0
176
     1
 40
0.6
176
     1
 41
30.0
176
     1
 63
     7
176
     1
 74
     1
176
     1
 91
        4
176
     1
 64
     7
176
     1
 65
   257
176
     1
 75
     1
176
     1
175
     1
176
     1
 42
1.0
176
     1
 92
        8
176
     1
 66
     7
176
     1
 43
1.0
176
     1
 76
     1
176
     1
 77
     6
176
     1
 78
     2
176
     1
 67
     7
176
     1
 79
     5
176
     1
170
     0
176
     1
171
     0
176
     1
290
     0
176
     1
 93
        1
176
     1
 44
0.0
176
     1
173
     0
176
     1
1001
ACAD
1000
AcRTDxfName
1000
VISUALSTYLE
1000
AcDbSavedByObjectVersion
1070
     0
  0
VISUALSTYLE
  5
1836
102
{ACAD_XDICTIONARY
360
5DCF
102
}
102
{ACAD_REACTORS
330
1835
102
}
330
1835
100
AcDbVisualStyle
  2

 70
     0
177
     2
291
     1
 71
     2
176
     1
 72
     1
176
     1
 73
     1
176
     1
 90
        2
176
     1
 40
0.6
176
     1
 41
30.0
176
     1
 63
     7
176
     1
 74
     0
176
     1
 91
        4
176
     1
 64
     7
176
     1
 65
   257
176
     1
 75
     1
176
     1
175
     1
176
     1
 42
1.0
176
     1
 92
        8
176
     1
 66
     7
176
     1
 43
1.0
176
     1
 76
     1
176
     1
 77
     6
176
     1
 78
     2
176
     1
 67
     7
176
     1
 79
     5
176
     1
170
     0
176
     1
171
     0
176
     1
290
     0
176
     1
 93
       13
176
     1
 44
0.0
176
     1
173
     0
176
     1
1001
ACAD
1000
AcRTDxfName
1000
VISUALSTYLE
1000
AcDbSavedByObjectVersion
1070
     0
  0
VISUALSTYLE
  5
1837
102
{ACAD_XDICTIONARY
360
5DD1
102
}
102
{ACAD_REACTORS
330
1835
102
}
330
1835
100
AcDbVisualStyle
  2

 70
     1
177
     2
291
     1
 71
     2
176
     1
 72
     1
176
     1
 73
     1
176
     1
 90
        2
176
     1
 40
0.6
176
     1
 41
30.0
176
     1
 63
     7
176
     1
 74
     1
176
     1
 91
        4
176
     1
 64
     7
176
     1
 65
   257
176
     1
 75
     1
176
     1
175
     1
176
     1
 42
1.0
176
     1
 92
        0
176
     1
 66
   257
176
     1
 43
1.0
176
     1
 76
     1
176
     1
 77
     6
176
     1
 78
     2
176
     1
 67
     7
176
     1
 79
     5
176
     1
170
     0
176
     1
171
     0
176
     1
290
     0
176
     1
 93
       13
176
     1
 44
0.0
176
     1
173
     0
176
     1
1001
ACAD
1000
AcRTDxfName
1000
VISUALSTYLE
1000
AcDbSavedByObjectVersion
1070
     0
  0
VISUALSTYLE
  5
1838
102
{ACAD_XDICTIONARY
360
5DD3
102
}
102
{ACAD_REACTORS
330
1835
102
}
330
1835
100
AcDbVisualStyle
  2

 70
     2
177
     2
291
     1
 71
     2
176
     1
 72
     2
176
     1
 73
     1
176
     1
 90
        2
176
     1
 40
0.6
176
     1
 41
30.0
176
     1
 63
     7
176
     1
 74
     0
176
     1
 91
        4
176
     1
 64
     7
176
     1
 65
   257
176
     1
 75
     1
176
     1
175
     1
176
     1
 42
1.0
176
     1
 92
        0
176
     1
 66
     7
176
     1
 43
1.0
176
     1
 76
     1
176
     1
 77
     6
176
     1
 78
     2
176
     1
 67
     7
176
     1
 79
     5
176
     1
170
     0
176
     1
171
     0
176
     1
290
     0
176
     1
 93
       13
176
     1
 44
0.0
176
     1
173
     0
176
     1
1001
ACAD
1000
AcRTDxfName
1000
VISUALSTYLE
1000
AcDbSavedByObjectVersion
1070
     0
  0
VISUALSTYLE
  5
1839
102
{ACAD_XDICTIONARY
360
5DD5
102
}
102
{ACAD_REACTORS
330
1835
102
}
330
1835
100
AcDbVisualStyle
  2

 70
     3
177
     2
291
     1
 71
     2
176
     1
 72
     2
176
     1
 73
     1
176
     1
 90
        2
176
     1
 40
0.6
176
     1
 41
30.0
176
     1
 63
     7
176
     1
 74
     1
176
     1
 91
        4
176
     1
 64
     7
176
     1
 65
   257
176
     1
 75
     1
176
     1
175
     1
176
     1
 42
1.0
176
     1
 92
        0
176
     1
 66
   257
176
     1
 43
1.0
176
     1
 76
     1
176
     1
 77
     6
176
     1
 78
     2
176
     1
 67
     7
176
     1
 79
     5
176
     1
170
     0
176
     1
171
     0
176
     1
290
     0
176
     1
 93
       13
176
     1
 44
0.0
176
     1
173
     0
176
     1
1001
ACAD
1000
AcRTDxfName
1000
VISUALSTYLE
1000
AcDbSavedByObjectVersion
1070
     0
  0
VISUALSTYLE
  5
244D
102
{ACAD_XDICTIONARY
360
5DF1
102
}
102
{ACAD_REACTORS
330
1835
102
}
330
1835
100
AcDbVisualStyle
  2

 70
     6
177
     2
291
     0
 71
     1
176
     1
 72
     2
176
     1
 73
     2
176
     1
 90
        0
176
     1
 40
0.6
176
     1
 41
30.0
176
     1
 63
     7
176
     1
 74
     2
176
     1
 91
        2
176
     1
 64
     7
176
     1
 65
   257
176
     1
 75
     2
176
     1
175
     1
176
     1
 42
40.0
176
     1
 92
        0
176
     1
 66
   257
176
     1
 43
1.0
176
     1
 76
     1
176
     1
 77
     6
176
     1
 78
     2
176
     1
 67
     7
176
     1
 79
     3
176
     1
170
     0
176
     1
171
     0
176
     1
290
     0
176
     1
 93
        1
176
     1
 44
0.0
176
     1
173
     0
176
     1
1001
ACAD
1000
AcDbSavedByObjectVersion
1070
     0
  0
VISUALSTYLE
  5
2453
102
{ACAD_XDICTIONARY
360
5DFD
102
}
102
{ACAD_REACTORS
330
1835
102
}
330
1835
100
AcDbVisualStyle
  2

 70
    20
177
     2
291
     1
 71
     2
176
     0
 72
     2
176
     0
 73
     0
176
     0
 90
        0
176
     0
 40
0.6
176
     0
 41
30.0
176
     0
 63
     7
176
     0
 74
     1
176
     0
 91
        4
176
     0
 64
     7
176
     0
 65
   257
176
     0
 75
     1
176
     0
175
     1
176
     0
 42
1.0
176
     0
 92
       10
176
     2
 66
     7
176
     0
 43
1.0
176
     0
 76
     1
176
     0
 77
     6
176
     0
 78
     2
176
     0
 67
     7
176
     0
 79
     5
176
     0
170
     0
176
     0
171
     0
176
     0
290
     0
176
     0
 93
        1
176
     0
 44
0.0
176
     0
173
     0
176
     0
1001
ACAD
1000
AcDbSavedByObjectVersion
1070
     0
  0
VISUALSTYLE
  5
1843
102
{ACAD_XDICTIONARY
360
5DE9
102
}
102
{ACAD_REACTORS
330
1835
102
}
330
1835
100
AcDbVisualStyle
  2

 70
    14
177
     2
291
     1
 71
     2
176
     1
 72
     2
176
     1
 73
     0
176
     1
 90
        0
176
     1
 40
0.6
176
     1
 41
30.0
176
     1
 63
     7
176
     1
 74
     1
176
     1
 91
        4
176
     1
 64
     7
176
     1
 65
   257
176
     1
 75
     7
176
     1
175
     7
176
     1
 42
1.0
176
     1
 92
        8
176
     1
 66
     7
176
     1
 43
1.0
176
     1
 76
     1
176
     1
 77
     6
176
     1
 78
     2
176
     1
 67
     7
176
     1
 79
     5
176
     1
170
     0
176
     1
171
     0
176
     1
290
     0
176
     1
 93
        1
176
     1
 44
0.0
176
     1
173
     0
176
     1
1001
ACAD
1000
AcRTDxfName
1000
VISUALSTYLE
1000
AcDbSavedByObjectVersion
1070
     0
  0
VISUALSTYLE
  5
2454
102
{ACAD_XDICTIONARY
360
5DFF
102
}
102
{ACAD_REACTORS
330
1835
102
}
330
1835
100
AcDbVisualStyle
  2

 70
    21
177
     2
291
     1
 71
     2
176
     0
 72
     2
176
     0
 73
     0
176
     0
 90
        0
176
     0
 40
0.6
176
     0
 41
30.0
176
     0
 63
     7
176
     0
 74
     1
176
     0
 91
        4
176
     0
 64
     7
176
     0
 65
   257
176
     0
 75
     1
176
     0
175
     1
176
     0
 42
1.0
176
     0
 92
        9
176
     2
 66
     7
176
     0
 43
1.0
176
     0
 76
     1
176
     0
 77
     6
176
     0
 78
     2
176
     0
 67
     7
176
     0
 79
     5
176
     0
170
     0
176
     0
171
     0
176
     0
290
     0
176
     0
 93
        1
176
     0
 44
0.0
176
     0
173
     0
176
     0
1001
ACAD
1000
AcDbSavedByObjectVersion
1070
     0
  0
VISUALSTYLE
  5
183F
102
{ACAD_XDICTIONARY
360
5DE1
102
}
102
{ACAD_REACTORS
330
1835
102
}
330
1835
100
AcDbVisualStyle
  2

 70
     8
177
     2
291
     0
 71
     2
176
     1
 72
     2
176
     1
 73
     0
176
     1
 90
        0
176
     1
 40
0.6
176
     1
 41
30.0
176
     1
 63
     7
176
     1
 74
     1
176
     1
 91
        0
176
     1
 64
     7
176
     1
 65
   257
176
     1
 75
     1
176
     1
175
     1
176
     1
 42
1.0
176
     1
 92
        8
176
     1
 66
     8
176
     1
 43
1.0
176
     1
 76
     1
176
     1
 77
     6
176
     1
 78
     2
176
     1
 67
     7
176
     1
 79
     5
176
     1
170
     0
176
     1
171
     0
176
     1
290
     0
176
     1
 93
       13
176
     1
 44
0.0
176
     1
173
     0
176
     1
1001
ACAD
1000
AcRTDxfName
1000
VISUALSTYLE
1000
AcDbSavedByObjectVersion
1070
     0
  0
VISUALSTYLE
  5
2452
102
{ACAD_XDICTIONARY
360
5DFB
102
}
102
{ACAD_REACTORS
330
1835
102
}
330
1835
100
AcDbVisualStyle
  2

 70
    27
177
     2
291
     0
 71
     2
176
     1
 72
     2
176
     1
 73
     1
176
     1
 90
        2
176
     1
 40
0.6
176
     1
 41
30.0
176
     1
 63
     7
176
     1
 74
     0
176
     1
 91
        4
176
     1
 64
     7
176
     1
 65
   257
176
     1
 75
     1
176
     1
175
     1
176
     1
 42
1.0
176
     1
 92
        8
176
     1
 66
   257
176
     1
 43
1.0
176
     1
 76
     1
176
     1
 77
     6
176
     1
 78
     2
176
     1
 67
     8
176
     1
 79
     3
176
     1
170
     0
176
     1
171
     0
176
     1
290
     0
176
     1
 93
        5
176
     1
 44
0.0
176
     1
173
     0
176
     1
1001
ACAD
1000
AcDbSavedByObjectVersion
1070
     0
  0
VISUALSTYLE
  5
2451
102
{ACAD_XDICTIONARY
360
5DF9
102
}
102
{ACAD_REACTORS
330
1835
102
}
330
1835
100
AcDbVisualStyle
  2

 70
    26
177
     2
291
     0
 71
     2
176
     1
 72
     2
176
     1
 73
     1
176
     1
 90
        2
176
     1
 40
0.6
176
     1
 41
30.0
176
     1
 63
     7
176
     1
 74
     1
176
     1
 91
        2
176
     1
 64
     7
176
     1
 65
   257
176
     1
 75
     2
176
     1
175
     1
176
     1
 42
1.0
176
     1
 92
        8
176
     1
 66
   257
176
     1
 43
1.0
176
     1
 76
     1
176
     1
 77
     6
176
     1
 78
     2
176
     1
 67
     7
176
     1
 79
     3
176
     1
170
     0
176
     1
171
     0
176
     1
290
     0
176
     1
 93
        5
176
     1
 44
0.0
176
     1
173
     0
176
     1
1001
ACAD
1000
AcDbSavedByObjectVersion
1070
     0
  0
VISUALSTYLE
  5
244E
102
{ACAD_XDICTIONARY
360
5DF3
102
}
102
{ACAD_REACTORS
330
1835
102
}
330
1835
100
AcDbVisualStyle
  2

 70
    23
177
     2
291
     0
 71
     2
176
     1
 72
     2
176
     1
 73
     3
176
     1
 90
        0
176
     1
 40
0.6
176
     1
 41
30.0
176
     1
 63
     7
176
     1
 74
     2
176
     1
 91
        2
176
     1
 64
     7
176
     1
 65
     7
176
     1
 75
     1
176
     1
175
     1
176
     1
 42
40.0
176
     1
 92
        8
176
     1
 66
     7
176
     1
 43
1.0
176
     1
 76
     1
176
     1
 77
     6
176
     1
 78
     2
176
     1
 67
     7
176
     1
 79
     3
176
     1
170
     0
176
     1
171
     0
176
     1
290
     0
176
     1
 93
        1
176
     1
 44
0.0
176
     1
173
     0
176
     1
1001
ACAD
1000
AcDbSavedByObjectVersion
1070
     0
  0
VISUALSTYLE
  5
244F
102
{ACAD_XDICTIONARY
360
5DF5
102
}
102
{ACAD_REACTORS
330
1835
102
}
330
1835
100
AcDbVisualStyle
  2

 70
    24
177
     2
291
     0
 71
     1
176
     1
 72
     2
176
     1
 73
     2
176
     1
 90
        0
176
     1
 40
0.6
176
     1
 41
30.0
176
     1
 63
     7
176
     1
 74
     2
176
     1
 91
        2
176
     1
 64
     7
176
     1
 65
     7
176
     1
 75
     1
176
     1
175
     1
176
     1
 42
40.0
176
     1
 92
       11
176
     1
 66
     7
176
     1
 43
1.0
176
     1
 76
     1
176
     1
 77
     6
176
     1
 78
     2
176
     1
 67
     7
176
     1
 79
     6
176
     1
170
     0
176
     1
171
     0
176
     1
290
     0
176
     1
 93
        1
176
     1
 44
0.0
176
     1
173
     0
176
     1
1001
ACAD
1000
AcDbSavedByObjectVersion
1070
     0
  0
VISUALSTYLE
  5
1842
102
{ACAD_XDICTIONARY
360
5DE7
102
}
102
{ACAD_REACTORS
330
1835
102
}
330
1835
100
AcDbVisualStyle
  2

 70
    13
177
     2
291
     1
 71
     2
176
     1
 72
     2
176
     1
 73
     0
176
     1
 90
        0
176
     1
 40
0.6
176
     1
 41
30.0
176
     1
 63
     7
176
     1
 74
     1
176
     1
 91
        4
176
     1
 64
     7
176
     1
 65
   257
176
     1
 75
     1
176
     1
175
     1
176
     1
 42
1.0
176
     1
 92
       12
176
     1
 66
     7
176
     1
 43
1.0
176
     1
 76
     1
176
     1
 77
     6
176
     1
 78
     2
176
     1
 67
     7
176
     1
 79
     5
176
     1
170
     0
176
     1
171
     0
176
     1
290
     0
176
     1
 93
        1
176
     1
 44
0.0
176
     1
173
     0
176
     1
1001
ACAD
1000
AcRTDxfName
1000
VISUALSTYLE
1000
AcDbSavedByObjectVersion
1070
     0
  0
VISUALSTYLE
  5
244C
102
{ACAD_XDICTIONARY
360
5DEF
102
}
102
{ACAD_REACTORS
330
1835
102
}
330
1835
100
AcDbVisualStyle
  2

 70
     5
177
     2
291
     0
 71
     0
176
     1
 72
     2
176
     1
 73
     0
176
     1
 90
        0
176
     1
 40
0.6
176
     1
 41
30.0
176
     1
 63
     7
176
     1
 74
     1
176
     1
 91
        4
176
     1
 64
     7
176
     1
 65
   257
176
     1
 75
     1
176
     1
175
     1
176
     1
 42
1.0
176
     1
 92
        0
176
     1
 66
   257
176
     1
 43
1.0
176
     1
 76
     1
176
     1
 77
     6
176
     1
 78
     2
176
     1
 67
     7
176
     1
 79
     3
176
     1
170
     0
176
     1
171
     0
176
     1
290
     0
176
     1
 93
        1
176
     1
 44
0.0
176
     1
173
     0
176
     1
1001
ACAD
1000
AcDbSavedByObjectVersion
1070
     0
  0
VISUALSTYLE
  5
2450
102
{ACAD_XDICTIONARY
360
5DF7
102
}
102
{ACAD_REACTORS
330
1835
102
}
330
1835
100
AcDbVisualStyle
  2

 70
    25
177
     2
291
     0
 71
     2
176
     1
 72
     2
176
     1
 73
     1
176
     1
 90
        1
176
     1
 40
0.5
176
     1
 41
30.0
176
     1
 63
     7
176
     1
 74
     1
176
     1
 91
        0
176
     1
 64
     7
176
     1
 65
   257
176
     1
 75
     1
176
     1
175
     1
176
     1
 42
1.0
176
     1
 92
        8
176
     1
 66
     7
176
     1
 43
1.0
176
     1
 76
     1
176
     1
 77
     6
176
     1
 78
     2
176
     1
 67
     7
176
     1
 79
     3
176
     1
170
     0
176
     1
171
     0
176
     1
290
     0
176
     1
 93
       13
176
     1
 44
0.0
176
     1
173
     0
176
     1
1001
ACAD
1000
AcDbSavedByObjectVersion
1070
     0
  0
DICTIONARYVAR
  5
24D4
102
{ACAD_REACTORS
330
1815
102
}
330
1815
100
DictionaryVariables
280
     0
  1
1:2
  0
DICTIONARYVAR
  5
24D3
102
{ACAD_REACTORS
330
1815
102
}
330
1815
100
DictionaryVariables
280
     0
  1
STANDARD
  0
DICTIONARYVAR
  5
1E7F
102
{ACAD_REACTORS
330
1815
102
}
330
1815
100
DictionaryVariables
280
     0
  1
STANDARD
  0
DICTIONARYVAR
  5
2734
102
{ACAD_REACTORS
330
1815
102
}
330
1815
100
DictionaryVariables
280
     0
  1
Metric50
  0
DICTIONARYVAR
  5
2735
102
{ACAD_REACTORS
330
1815
102
}
330
1815
100
DictionaryVariables
280
     0
  1
Metric50
  0
DICTIONARYVAR
  5
1816
102
{ACAD_REACTORS
330
1815
102
}
330
1815
100
DictionaryVariables
280
     0
  1
1
  0
DICTIONARYVAR
  5
24D6
102
{ACAD_REACTORS
330
1815
102
}
330
1815
100
DictionaryVariables
280
     0
  1
0
  0
DICTIONARYVAR
  5
3C3C
102
{ACAD_REACTORS
330
1815
102
}
330
1815
100
DictionaryVariables
280
     0
  1
1
  0
DICTIONARYVAR
  5
3C3D
102
{ACAD_REACTORS
330
1815
102
}
330
1815
100
DictionaryVariables
280
     0
  1
15
  0
DICTIONARYVAR
  5
3C3B
102
{ACAD_REACTORS
330
1815
102
}
330
1815
100
DictionaryVariables
280
     0
  1
0
  0
DICTIONARYVAR
  5
3C3A
102
{ACAD_REACTORS
330
1815
102
}
330
1815
100
DictionaryVariables
280
     0
  1
0
  0
DICTIONARYVAR
  5
1817
102
{ACAD_REACTORS
330
1815
102
}
330
1815
100
DictionaryVariables
280
     0
  1

  0
DICTIONARYVAR
  5
24D5
102
{ACAD_REACTORS
330
1815
102
}
330
1815
100
DictionaryVariables
280
     0
  1
127
  0
DICTIONARY
  5
5E07
330
26DA
100
AcDbDictionary
280
     1
281
     1
  3
ACAD_XREC_ROUNDTRIP
360
5E08
  0
DICTIONARY
  5
5365
330
1833
100
AcDbDictionary
280
     1
281
     1
  3
ACAD_XREC_ROUNDTRIP
360
5366
  0
DICTIONARY
  5
5363
330
1832
100
AcDbDictionary
280
     1
281
     1
  3
ACAD_XREC_ROUNDTRIP
360
5364
  0
DICTIONARY
  5
5367
330
1834
100
AcDbDictionary
280
     1
281
     1
  3
ACAD_XREC_ROUNDTRIP
360
5368
  0
DICTIONARY
  5
5E03
330
2469
100
AcDbDictionary
280
     1
281
     1
  3
ACAD_XREC_ROUNDTRIP
360
5E04
  0
DICTIONARY
  5
5E05
330
26D8
100
AcDbDictionary
280
     1
281
     1
  3
ACAD_XREC_ROUNDTRIP
360
5E06
  0
DICTIONARY
  5
2526
330
1847
100
AcDbDictionary
280
     1
281
     1
  3
ACAD_ROUNDTRIP_2008_TABLESTYLE_CELLSTYLEMAP
360
5DCB
  0
DICTIONARY
  5
5DD9
330
183B
100
AcDbDictionary
280
     1
281
     1
  3
ACAD_XREC_ROUNDTRIP
360
5DDA
  0
DICTIONARY
  5
5DDD
330
183D
100
AcDbDictionary
280
     1
281
     1
  3
ACAD_XREC_ROUNDTRIP
360
5DDE
  0
DICTIONARY
  5
5DDB
330
183C
100
AcDbDictionary
280
     1
281
     1
  3
ACAD_XREC_ROUNDTRIP
360
5DDC
  0
DICTIONARY
  5
5DD7
330
183A
100
AcDbDictionary
280
     1
281
     1
  3
ACAD_XREC_ROUNDTRIP
360
5DD8
  0
DICTIONARY
  5
5DE5
330
1841
100
AcDbDictionary
280
     1
281
     1
  3
ACAD_XREC_ROUNDTRIP
360
5DE6
  0
DICTIONARY
  5
5DED
330
1845
100
AcDbDictionary
280
     1
281
     1
  3
ACAD_XREC_ROUNDTRIP
360
5DEE
  0
DICTIONARY
  5
5DDF
330
183E
100
AcDbDictionary
280
     1
281
     1
  3
ACAD_XREC_ROUNDTRIP
360
5DE0
  0
DICTIONARY
  5
5DE3
330
1840
100
AcDbDictionary
280
     1
281
     1
  3
ACAD_XREC_ROUNDTRIP
360
5DE4
  0
DICTIONARY
  5
5E01
330
2455
100
AcDbDictionary
280
     1
281
     1
  3
ACAD_XREC_ROUNDTRIP
360
5E02
  0
DICTIONARY
  5
5DEB
330
1844
100
AcDbDictionary
280
     1
281
     1
  3
ACAD_XREC_ROUNDTRIP
360
5DEC
  0
DICTIONARY
  5
5DCF
330
1836
100
AcDbDictionary
280
     1
281
     1
  3
ACAD_XREC_ROUNDTRIP
360
5DD0
  0
DICTIONARY
  5
5DD1
330
1837
100
AcDbDictionary
280
     1
281
     1
  3
ACAD_XREC_ROUNDTRIP
360
5DD2
  0
DICTIONARY
  5
5DD3
330
1838
100
AcDbDictionary
280
     1
281
     1
  3
ACAD_XREC_ROUNDTRIP
360
5DD4
  0
DICTIONARY
  5
5DD5
330
1839
100
AcDbDictionary
280
     1
281
     1
  3
ACAD_XREC_ROUNDTRIP
360
5DD6
  0
DICTIONARY
  5
5DF1
330
244D
100
AcDbDictionary
280
     1
281
     1
  3
ACAD_XREC_ROUNDTRIP
360
5DF2
  0
DICTIONARY
  5
5DFD
330
2453
100
AcDbDictionary
280
     1
281
     1
  3
ACAD_XREC_ROUNDTRIP
360
5DFE
  0
DICTIONARY
  5
5DE9
330
1843
100
AcDbDictionary
280
     1
281
     1
  3
ACAD_XREC_ROUNDTRIP
360
5DEA
  0
DICTIONARY
  5
5DFF
330
2454
100
AcDbDictionary
280
     1
281
     1
  3
ACAD_XREC_ROUNDTRIP
360
5E00
  0
DICTIONARY
  5
5DE1
330
183F
100
AcDbDictionary
280
     1
281
     1
  3
ACAD_XREC_ROUNDTRIP
360
5DE2
  0
DICTIONARY
  5
5DFB
330
2452
100
AcDbDictionary
280
     1
281
     1
  3
ACAD_XREC_ROUNDTRIP
360
5DFC
  0
DICTIONARY
  5
5DF9
330
2451
100
AcDbDictionary
280
     1
281
     1
  3
ACAD_XREC_ROUNDTRIP
360
5DFA
  0
DICTIONARY
  5
5DF3
330
244E
100
AcDbDictionary
280
     1
281
     1
  3
ACAD_XREC_ROUNDTRIP
360
5DF4
  0
DICTIONARY
  5
5DF5
330
244F
100
AcDbDictionary
280
     1
281
     1
  3
ACAD_XREC_ROUNDTRIP
360
5DF6
  0
DICTIONARY
  5
5DE7
330
1842
100
AcDbDictionary
280
     1
281
     1
  3
ACAD_XREC_ROUNDTRIP
360
5DE8
  0
DICTIONARY
  5
5DEF
330
244C
100
AcDbDictionary
280
     1
281
     1
  3
ACAD_XREC_ROUNDTRIP
360
5DF0
  0
DICTIONARY
  5
5DF7
330
2450
100
AcDbDictionary
280
     1
281
     1
  3
ACAD_XREC_ROUNDTRIP
360
5DF8
  0
XRECORD
  5
5E08
102
{ACAD_REACTORS
330
5E07
102
}
330
5E07
100
AcDbXrecord
280
     1
102
DISPLAYNAME
  1
Metric50
102
FLAGS
 90
        0
  0
XRECORD
  5
5366
102
{ACAD_REACTORS
330
5365
102
}
330
5365
100
AcDbXrecord
280
     1
102
MATERIAL
148
0.0
149
0.0
149
0.0
 93
        0
 94
       63
282
     0
 72
     1
 77
     1
171
     1
175
     1
179
     1
273
     0
  0
XRECORD
  5
5364
102
{ACAD_REACTORS
330
5363
102
}
330
5363
100
AcDbXrecord
280
     1
102
MATERIAL
148
0.0
149
0.0
149
0.0
 93
        0
 94
       63
282
     0
 72
     1
 77
     1
171
     1
175
     1
179
     1
273
     0
  0
XRECORD
  5
5368
102
{ACAD_REACTORS
330
5367
102
}
330
5367
100
AcDbXrecord
280
     1
102
MATERIAL
148
0.0
149
0.0
149
0.0
 93
        0
 94
       63
282
     0
 72
     1
 77
     1
171
     1
175
     1
179
     1
273
     0
  0
XRECORD
  5
5E04
102
{ACAD_REACTORS
330
5E03
102
}
330
5E03
100
AcDbXrecord
280
     1
102
ACAD_ROUNDTRIP_2012_MLEADER_STYLE
298
     1
  0
XRECORD
  5
5E06
102
{ACAD_REACTORS
330
5E05
102
}
330
5E05
100
AcDbXrecord
280
     1
102
DISPLAYNAME
  1
Metric50
102
FLAGS
 90
        0
  0
CELLSTYLEMAP
  5
5DCB
102
{ACAD_REACTORS
330
2526
102
}
330
2526
100
AcDbCellStyleMap
 90
        3
300
CELLSTYLE
  1
TABLEFORMAT_BEGIN
 90
        5
170
     1
 91
        0
 92
    32768
 62
   257
 93
        1
300
CONTENTFORMAT
  1
CONTENTFORMAT_BEGIN
 90
        0
 91
        0
 92
      512
 93
        0
300

 40
0.0
140
1.0
 94
        5
 62
     0
340
10
144
6.0
309
CONTENTFORMAT_END
171
     1
301
MARGIN
  1
CELLMARGIN_BEGIN
 40
1.5
 40
1.5
 40
1.5
 40
1.5
 40
0.18
 40
0.18
309
CELLMARGIN_END
 94
        6
 95
        1
302
GRIDFORMAT
  1
GRIDFORMAT_BEGIN
 90
        0
 91
        1
 62
     0
 92
       -2
340
0
 93
        0
 40
0.045
309
GRIDFORMAT_END
 95
        2
302
GRIDFORMAT
  1
GRIDFORMAT_BEGIN
 90
        0
 91
        1
 62
     0
 92
       -2
340
0
 93
        0
 40
0.045
309
GRIDFORMAT_END
 95
        4
302
GRIDFORMAT
  1
GRIDFORMAT_BEGIN
 90
        0
 91
        1
 62
     0
 92
       -2
340
0
 93
        0
 40
0.045
309
GRIDFORMAT_END
 95
        8
302
GRIDFORMAT
  1
GRIDFORMAT_BEGIN
 90
        0
 91
        1
 62
     0
 92
       -2
340
0
 93
        0
 40
0.045
309
GRIDFORMAT_END
 95
       16
302
GRIDFORMAT
  1
GRIDFORMAT_BEGIN
 90
        0
 91
        1
 62
     0
 92
       -2
340
0
 93
        0
 40
0.045
309
GRIDFORMAT_END
 95
       32
302
GRIDFORMAT
  1
GRIDFORMAT_BEGIN
 90
        0
 91
        1
 62
     0
 92
       -2
340
0
 93
        0
 40
0.045
309
GRIDFORMAT_END
309
TABLEFORMAT_END
  1
CELLSTYLE_BEGIN
 90
        1
 91
        1
300
_TITLE
309
CELLSTYLE_END
300
CELLSTYLE
  1
TABLEFORMAT_BEGIN
 90
        5
170
     1
 91
        0
 92
        0
 62
   257
 93
        1
300
CONTENTFORMAT
  1
CONTENTFORMAT_BEGIN
 90
        0
 91
        0
 92
      512
 93
        0
300

 40
0.0
140
1.0
 94
        5
 62
     0
340
10
144
4.5
309
CONTENTFORMAT_END
171
     1
301
MARGIN
  1
CELLMARGIN_BEGIN
 40
1.5
 40
1.5
 40
1.5
 40
1.5
 40
0.18
 40
0.18
309
CELLMARGIN_END
 94
        6
 95
        1
302
GRIDFORMAT
  1
GRIDFORMAT_BEGIN
 90
        0
 91
        1
 62
     0
 92
       -2
340
0
 93
        0
 40
0.045
309
GRIDFORMAT_END
 95
        2
302
GRIDFORMAT
  1
GRIDFORMAT_BEGIN
 90
        0
 91
        1
 62
     0
 92
       -2
340
0
 93
        0
 40
0.045
309
GRIDFORMAT_END
 95
        4
302
GRIDFORMAT
  1
GRIDFORMAT_BEGIN
 90
        0
 91
        1
 62
     0
 92
       -2
340
0
 93
        0
 40
0.045
309
GRIDFORMAT_END
 95
        8
302
GRIDFORMAT
  1
GRIDFORMAT_BEGIN
 90
        0
 91
        1
 62
     0
 92
       -2
340
0
 93
        0
 40
0.045
309
GRIDFORMAT_END
 95
       16
302
GRIDFORMAT
  1
GRIDFORMAT_BEGIN
 90
        0
 91
        1
 62
     0
 92
       -2
340
0
 93
        0
 40
0.045
309
GRIDFORMAT_END
 95
       32
302
GRIDFORMAT
  1
GRIDFORMAT_BEGIN
 90
        0
 91
        1
 62
     0
 92
       -2
340
0
 93
        0
 40
0.045
309
GRIDFORMAT_END
309
TABLEFORMAT_END
  1
CELLSTYLE_BEGIN
 90
        2
 91
        1
300
_HEADER
309
CELLSTYLE_END
300
CELLSTYLE
  1
TABLEFORMAT_BEGIN
 90
        5
170
     1
 91
        0
 92
        0
 62
   257
 93
        1
300
CONTENTFORMAT
  1
CONTENTFORMAT_BEGIN
 90
        0
 91
        0
 92
      512
 93
        0
300

 40
0.0
140
1.0
 94
        2
 62
     0
340
10
144
4.5
309
CONTENTFORMAT_END
171
     1
301
MARGIN
  1
CELLMARGIN_BEGIN
 40
1.5
 40
1.5
 40
1.5
 40
1.5
 40
0.18
 40
0.18
309
CELLMARGIN_END
 94
        6
 95
        1
302
GRIDFORMAT
  1
GRIDFORMAT_BEGIN
 90
        0
 91
        1
 62
     0
 92
       -2
340
0
 93
        0
 40
0.045
309
GRIDFORMAT_END
 95
        2
302
GRIDFORMAT
  1
GRIDFORMAT_BEGIN
 90
        0
 91
        1
 62
     0
 92
       -2
340
0
 93
        0
 40
0.045
309
GRIDFORMAT_END
 95
        4
302
GRIDFORMAT
  1
GRIDFORMAT_BEGIN
 90
        0
 91
        1
 62
     0
 92
       -2
340
0
 93
        0
 40
0.045
309
GRIDFORMAT_END
 95
        8
302
GRIDFORMAT
  1
GRIDFORMAT_BEGIN
 90
        0
 91
        1
 62
     0
 92
       -2
340
0
 93
        0
 40
0.045
309
GRIDFORMAT_END
 95
       16
302
GRIDFORMAT
  1
GRIDFORMAT_BEGIN
 90
        0
 91
        1
 62
     0
 92
       -2
340
0
 93
        0
 40
0.045
309
GRIDFORMAT_END
 95
       32
302
GRIDFORMAT
  1
GRIDFORMAT_BEGIN
 90
        0
 91
        1
 62
     0
 92
       -2
340
0
 93
        0
 40
0.045
309
GRIDFORMAT_END
309
TABLEFORMAT_END
  1
CELLSTYLE_BEGIN
 90
        3
 91
        2
300
_DATA
309
CELLSTYLE_END
  0
XRECORD
  5
5DDA
102
{ACAD_REACTORS
330
5DD9
102
}
330
5DD9
100
AcDbXrecord
280
     1
102
RTVSPost2010Prop28
280
     1
102
RTVSPost2010PropOp28
 70
     1
102
RTVSPost2010Prop29
280
     1
102
RTVSPost2010PropOp29
 70
     1
102
RTVSPost2010Prop30
280
     0
102
RTVSPost2010PropOp30
 70
     1
102
RTVSPost2010Prop31
280
     0
102
RTVSPost2010PropOp31
 70
     1
102
RTVSPost2010Prop32
280
     0
102
RTVSPost2010PropOp32
 70
     1
102
RTVSPost2010Prop33
280
     0
102
RTVSPost2010PropOp33
 70
     1
102
RTVSPost2010Prop34
280
     0
102
RTVSPost2010PropOp34
 70
     1
102
RTVSPost2010Prop35
280
     0
102
RTVSPost2010PropOp35
 70
     1
102
RTVSPost2010Prop36
280
     0
102
RTVSPost2010PropOp36
 70
     1
102
RTVSPost2010Prop37
 90
       50
102
RTVSPost2010PropOp37
 70
     1
102
RTVSPost2010Prop38
140
0.0
102
RTVSPost2010PropOp38
 70
     1
102
RTVSPost2010Prop39
140
1.0
102
RTVSPost2010PropOp39
 70
     1
102
RTVSPost2010Prop40
 90
        0
102
RTVSPost2010PropOp40
 70
     1
102
RTVSPost2010Prop41ColorIndex
 90
       18
102
RTVSPost2010Prop41ColorRGB
 90
        0
102
RTVSPost2010PropOp41
 70
     1
102
RTVSPost2010Prop42
 90
       50
102
RTVSPost2010PropOp42
 70
     1
102
RTVSPost2010Prop43
 90
        3
102
RTVSPost2010PropOp43
 70
     1
102
RTVSPost2010Prop44ColorIndex
 90
        5
102
RTVSPost2010Prop44ColorRGB
 90
      255
102
RTVSPost2010PropOp44
 70
     1
102
RTVSPost2010Prop45
280
     0
102
RTVSPost2010PropOp45
 70
     1
102
RTVSPost2010Prop46
 90
       50
102
RTVSPost2010PropOp46
 70
     1
102
RTVSPost2010Prop47
 90
       50
102
RTVSPost2010PropOp47
 70
     1
102
RTVSPost2010Prop48
 90
       50
102
RTVSPost2010PropOp48
 70
     1
102
RTVSPost2010Prop49
280
     0
102
RTVSPost2010PropOp49
 70
     1
102
RTVSPost2010Prop50
 90
       50
102
RTVSPost2010PropOp50
 70
     1
102
RTVSPost2010Prop51ColorIndex
 90
      256
102
RTVSPost2010Prop51ColorRGB
 90
-16777216
102
RTVSPost2010PropOp51
 70
     0
102
RTVSPost2010Prop52
140
1.0
102
RTVSPost2010PropOp52
 70
     0
102
RTVSPost2010Prop53
 90
        2
102
RTVSPost2010PropOp53
 70
     1
102
RTVSPost2010Prop54
  1
strokes_ogs.tif
102
RTVSPost2010PropOp54
 70
     1
102
RTVSPost2010Prop55
280
     0
102
RTVSPost2010PropOp55
 70
     1
102
RTVSPost2010Prop56
140
1.0
102
RTVSPost2010PropOp56
 70
     1
102
RTVSPost2010Prop57
140
1.0
102
RTVSPost2010PropOp57
 70
     1
  0
XRECORD
  5
5DDE
102
{ACAD_REACTORS
330
5DDD
102
}
330
5DDD
100
AcDbXrecord
280
     1
102
RTVSPost2010Prop28
280
     0
102
RTVSPost2010PropOp28
 70
     1
102
RTVSPost2010Prop29
280
     1
102
RTVSPost2010PropOp29
 70
     1
102
RTVSPost2010Prop30
280
     1
102
RTVSPost2010PropOp30
 70
     1
102
RTVSPost2010Prop31
280
     0
102
RTVSPost2010PropOp31
 70
     1
102
RTVSPost2010Prop32
280
     0
102
RTVSPost2010PropOp32
 70
     1
102
RTVSPost2010Prop33
280
     0
102
RTVSPost2010PropOp33
 70
     1
102
RTVSPost2010Prop34
280
     0
102
RTVSPost2010PropOp34
 70
     1
102
RTVSPost2010Prop35
280
     0
102
RTVSPost2010PropOp35
 70
     1
102
RTVSPost2010Prop36
280
     0
102
RTVSPost2010PropOp36
 70
     1
102
RTVSPost2010Prop37
 90
       50
102
RTVSPost2010PropOp37
 70
     1
102
RTVSPost2010Prop38
140
0.0
102
RTVSPost2010PropOp38
 70
     1
102
RTVSPost2010Prop39
140
1.0
102
RTVSPost2010PropOp39
 70
     1
102
RTVSPost2010Prop40
 90
        0
102
RTVSPost2010PropOp40
 70
     1
102
RTVSPost2010Prop41ColorIndex
 90
       18
102
RTVSPost2010Prop41ColorRGB
 90
        0
102
RTVSPost2010PropOp41
 70
     1
102
RTVSPost2010Prop42
 90
       50
102
RTVSPost2010PropOp42
 70
     1
102
RTVSPost2010Prop43
 90
        3
102
RTVSPost2010PropOp43
 70
     1
102
RTVSPost2010Prop44ColorIndex
 90
        5
102
RTVSPost2010Prop44ColorRGB
 90
      255
102
RTVSPost2010PropOp44
 70
     1
102
RTVSPost2010Prop45
280
     0
102
RTVSPost2010PropOp45
 70
     1
102
RTVSPost2010Prop46
 90
       50
102
RTVSPost2010PropOp46
 70
     1
102
RTVSPost2010Prop47
 90
       50
102
RTVSPost2010PropOp47
 70
     1
102
RTVSPost2010Prop48
 90
       50
102
RTVSPost2010PropOp48
 70
     1
102
RTVSPost2010Prop49
280
     0
102
RTVSPost2010PropOp49
 70
     1
102
RTVSPost2010Prop50
 90
       50
102
RTVSPost2010PropOp50
 70
     1
102
RTVSPost2010Prop51ColorIndex
 90
      256
102
RTVSPost2010Prop51ColorRGB
 90
-16777216
102
RTVSPost2010PropOp51
 70
     0
102
RTVSPost2010Prop52
140
1.0
102
RTVSPost2010PropOp52
 70
     0
102
RTVSPost2010Prop53
 90
        2
102
RTVSPost2010PropOp53
 70
     1
102
RTVSPost2010Prop54
  1
strokes_ogs.tif
102
RTVSPost2010PropOp54
 70
     1
102
RTVSPost2010Prop55
280
     0
102
RTVSPost2010PropOp55
 70
     1
102
RTVSPost2010Prop56
140
1.0
102
RTVSPost2010PropOp56
 70
     1
102
RTVSPost2010Prop57
140
1.0
102
RTVSPost2010PropOp57
 70
     1
  0
XRECORD
  5
5DDC
102
{ACAD_REACTORS
330
5DDB
102
}
330
5DDB
100
AcDbXrecord
280
     1
102
RTVSPost2010Prop28
280
     0
102
RTVSPost2010PropOp28
 70
     1
102
RTVSPost2010Prop29
280
     1
102
RTVSPost2010PropOp29
 70
     1
102
RTVSPost2010Prop30
280
     1
102
RTVSPost2010PropOp30
 70
     1
102
RTVSPost2010Prop31
280
     0
102
RTVSPost2010PropOp31
 70
     1
102
RTVSPost2010Prop32
280
     0
102
RTVSPost2010PropOp32
 70
     1
102
RTVSPost2010Prop33
280
     0
102
RTVSPost2010PropOp33
 70
     1
102
RTVSPost2010Prop34
280
     0
102
RTVSPost2010PropOp34
 70
     1
102
RTVSPost2010Prop35
280
     0
102
RTVSPost2010PropOp35
 70
     1
102
RTVSPost2010Prop36
280
     0
102
RTVSPost2010PropOp36
 70
     1
102
RTVSPost2010Prop37
 90
       50
102
RTVSPost2010PropOp37
 70
     1
102
RTVSPost2010Prop38
140
0.0
102
RTVSPost2010PropOp38
 70
     1
102
RTVSPost2010Prop39
140
1.0
102
RTVSPost2010PropOp39
 70
     1
102
RTVSPost2010Prop40
 90
        0
102
RTVSPost2010PropOp40
 70
     1
102
RTVSPost2010Prop41ColorIndex
 90
       18
102
RTVSPost2010Prop41ColorRGB
 90
        0
102
RTVSPost2010PropOp41
 70
     1
102
RTVSPost2010Prop42
 90
       50
102
RTVSPost2010PropOp42
 70
     1
102
RTVSPost2010Prop43
 90
        3
102
RTVSPost2010PropOp43
 70
     1
102
RTVSPost2010Prop44ColorIndex
 90
        5
102
RTVSPost2010Prop44ColorRGB
 90
      255
102
RTVSPost2010PropOp44
 70
     1
102
RTVSPost2010Prop45
280
     0
102
RTVSPost2010PropOp45
 70
     1
102
RTVSPost2010Prop46
 90
       50
102
RTVSPost2010PropOp46
 70
     1
102
RTVSPost2010Prop47
 90
       50
102
RTVSPost2010PropOp47
 70
     1
102
RTVSPost2010Prop48
 90
       50
102
RTVSPost2010PropOp48
 70
     1
102
RTVSPost2010Prop49
280
     0
102
RTVSPost2010PropOp49
 70
     1
102
RTVSPost2010Prop50
 90
       50
102
RTVSPost2010PropOp50
 70
     1
102
RTVSPost2010Prop51ColorIndex
 90
      256
102
RTVSPost2010Prop51ColorRGB
 90
-16777216
102
RTVSPost2010PropOp51
 70
     0
102
RTVSPost2010Prop52
140
1.0
102
RTVSPost2010PropOp52
 70
     0
102
RTVSPost2010Prop53
 90
        2
102
RTVSPost2010PropOp53
 70
     1
102
RTVSPost2010Prop54
  1
strokes_ogs.tif
102
RTVSPost2010PropOp54
 70
     1
102
RTVSPost2010Prop55
280
     0
102
RTVSPost2010PropOp55
 70
     1
102
RTVSPost2010Prop56
140
1.0
102
RTVSPost2010PropOp56
 70
     1
102
RTVSPost2010Prop57
140
1.0
102
RTVSPost2010PropOp57
 70
     1
  0
XRECORD
  5
5DD8
102
{ACAD_REACTORS
330
5DD7
102
}
330
5DD7
100
AcDbXrecord
280
     1
102
RTVSPost2010Prop28
280
     0
102
RTVSPost2010PropOp28
 70
     1
102
RTVSPost2010Prop29
280
     1
102
RTVSPost2010PropOp29
 70
     1
102
RTVSPost2010Prop30
280
     1
102
RTVSPost2010PropOp30
 70
     1
102
RTVSPost2010Prop31
280
     0
102
RTVSPost2010PropOp31
 70
     1
102
RTVSPost2010Prop32
280
     0
102
RTVSPost2010PropOp32
 70
     1
102
RTVSPost2010Prop33
280
     0
102
RTVSPost2010PropOp33
 70
     1
102
RTVSPost2010Prop34
280
     0
102
RTVSPost2010PropOp34
 70
     1
102
RTVSPost2010Prop35
280
     0
102
RTVSPost2010PropOp35
 70
     1
102
RTVSPost2010Prop36
280
     0
102
RTVSPost2010PropOp36
 70
     1
102
RTVSPost2010Prop37
 90
       50
102
RTVSPost2010PropOp37
 70
     1
102
RTVSPost2010Prop38
140
0.0
102
RTVSPost2010PropOp38
 70
     1
102
RTVSPost2010Prop39
140
1.0
102
RTVSPost2010PropOp39
 70
     1
102
RTVSPost2010Prop40
 90
        0
102
RTVSPost2010PropOp40
 70
     1
102
RTVSPost2010Prop41ColorIndex
 90
       18
102
RTVSPost2010Prop41ColorRGB
 90
        0
102
RTVSPost2010PropOp41
 70
     1
102
RTVSPost2010Prop42
 90
       50
102
RTVSPost2010PropOp42
 70
     1
102
RTVSPost2010Prop43
 90
        3
102
RTVSPost2010PropOp43
 70
     1
102
RTVSPost2010Prop44ColorIndex
 90
        5
102
RTVSPost2010Prop44ColorRGB
 90
      255
102
RTVSPost2010PropOp44
 70
     1
102
RTVSPost2010Prop45
280
     0
102
RTVSPost2010PropOp45
 70
     1
102
RTVSPost2010Prop46
 90
       50
102
RTVSPost2010PropOp46
 70
     1
102
RTVSPost2010Prop47
 90
       50
102
RTVSPost2010PropOp47
 70
     1
102
RTVSPost2010Prop48
 90
       50
102
RTVSPost2010PropOp48
 70
     1
102
RTVSPost2010Prop49
280
     0
102
RTVSPost2010PropOp49
 70
     1
102
RTVSPost2010Prop50
 90
       50
102
RTVSPost2010PropOp50
 70
     1
102
RTVSPost2010Prop51ColorIndex
 90
      256
102
RTVSPost2010Prop51ColorRGB
 90
-16777216
102
RTVSPost2010PropOp51
 70
     0
102
RTVSPost2010Prop52
140
1.0
102
RTVSPost2010PropOp52
 70
     0
102
RTVSPost2010Prop53
 90
        2
102
RTVSPost2010PropOp53
 70
     1
102
RTVSPost2010Prop54
  1
strokes_ogs.tif
102
RTVSPost2010PropOp54
 70
     1
102
RTVSPost2010Prop55
280
     0
102
RTVSPost2010PropOp55
 70
     1
102
RTVSPost2010Prop56
140
1.0
102
RTVSPost2010PropOp56
 70
     1
102
RTVSPost2010Prop57
140
1.0
102
RTVSPost2010PropOp57
 70
     1
  0
XRECORD
  5
5DE6
102
{ACAD_REACTORS
330
5DE5
102
}
330
5DE5
100
AcDbXrecord
280
     1
102
RTVSPost2010Prop28
280
     0
102
RTVSPost2010PropOp28
 70
     1
102
RTVSPost2010Prop29
280
     1
102
RTVSPost2010PropOp29
 70
     1
102
RTVSPost2010Prop30
280
     1
102
RTVSPost2010PropOp30
 70
     1
102
RTVSPost2010Prop31
280
     0
102
RTVSPost2010PropOp31
 70
     1
102
RTVSPost2010Prop32
280
     0
102
RTVSPost2010PropOp32
 70
     1
102
RTVSPost2010Prop33
280
     0
102
RTVSPost2010PropOp33
 70
     1
102
RTVSPost2010Prop34
280
     0
102
RTVSPost2010PropOp34
 70
     1
102
RTVSPost2010Prop35
280
     0
102
RTVSPost2010PropOp35
 70
     1
102
RTVSPost2010Prop36
280
     0
102
RTVSPost2010PropOp36
 70
     1
102
RTVSPost2010Prop37
 90
       50
102
RTVSPost2010PropOp37
 70
     1
102
RTVSPost2010Prop38
140
0.0
102
RTVSPost2010PropOp38
 70
     1
102
RTVSPost2010Prop39
140
1.0
102
RTVSPost2010PropOp39
 70
     1
102
RTVSPost2010Prop40
 90
        0
102
RTVSPost2010PropOp40
 70
     1
102
RTVSPost2010Prop41ColorIndex
 90
       18
102
RTVSPost2010Prop41ColorRGB
 90
        0
102
RTVSPost2010PropOp41
 70
     1
102
RTVSPost2010Prop42
 90
       50
102
RTVSPost2010PropOp42
 70
     1
102
RTVSPost2010Prop43
 90
        3
102
RTVSPost2010PropOp43
 70
     1
102
RTVSPost2010Prop44ColorIndex
 90
        5
102
RTVSPost2010Prop44ColorRGB
 90
      255
102
RTVSPost2010PropOp44
 70
     1
102
RTVSPost2010Prop45
280
     0
102
RTVSPost2010PropOp45
 70
     1
102
RTVSPost2010Prop46
 90
       50
102
RTVSPost2010PropOp46
 70
     1
102
RTVSPost2010Prop47
 90
       50
102
RTVSPost2010PropOp47
 70
     1
102
RTVSPost2010Prop48
 90
       50
102
RTVSPost2010PropOp48
 70
     1
102
RTVSPost2010Prop49
280
     0
102
RTVSPost2010PropOp49
 70
     1
102
RTVSPost2010Prop50
 90
       50
102
RTVSPost2010PropOp50
 70
     1
102
RTVSPost2010Prop51ColorIndex
 90
      256
102
RTVSPost2010Prop51ColorRGB
 90
-16777216
102
RTVSPost2010PropOp51
 70
     0
102
RTVSPost2010Prop52
140
1.0
102
RTVSPost2010PropOp52
 70
     0
102
RTVSPost2010Prop53
 90
        2
102
RTVSPost2010PropOp53
 70
     1
102
RTVSPost2010Prop54
  1
strokes_ogs.tif
102
RTVSPost2010PropOp54
 70
     1
102
RTVSPost2010Prop55
280
     0
102
RTVSPost2010PropOp55
 70
     1
102
RTVSPost2010Prop56
140
1.0
102
RTVSPost2010PropOp56
 70
     1
102
RTVSPost2010Prop57
140
1.0
102
RTVSPost2010PropOp57
 70
     1
  0
XRECORD
  5
5DEE
102
{ACAD_REACTORS
330
5DED
102
}
330
5DED
100
AcDbXrecord
280
     1
102
RTVSPost2010Prop28
280
     0
102
RTVSPost2010PropOp28
 70
     1
102
RTVSPost2010Prop29
280
     1
102
RTVSPost2010PropOp29
 70
     1
102
RTVSPost2010Prop30
280
     1
102
RTVSPost2010PropOp30
 70
     1
102
RTVSPost2010Prop31
280
     0
102
RTVSPost2010PropOp31
 70
     1
102
RTVSPost2010Prop32
280
     0
102
RTVSPost2010PropOp32
 70
     1
102
RTVSPost2010Prop33
280
     0
102
RTVSPost2010PropOp33
 70
     1
102
RTVSPost2010Prop34
280
     0
102
RTVSPost2010PropOp34
 70
     1
102
RTVSPost2010Prop35
280
     0
102
RTVSPost2010PropOp35
 70
     1
102
RTVSPost2010Prop36
280
     0
102
RTVSPost2010PropOp36
 70
     1
102
RTVSPost2010Prop37
 90
       50
102
RTVSPost2010PropOp37
 70
     1
102
RTVSPost2010Prop38
140
0.0
102
RTVSPost2010PropOp38
 70
     1
102
RTVSPost2010Prop39
140
1.0
102
RTVSPost2010PropOp39
 70
     1
102
RTVSPost2010Prop40
 90
        0
102
RTVSPost2010PropOp40
 70
     1
102
RTVSPost2010Prop41ColorIndex
 90
       18
102
RTVSPost2010Prop41ColorRGB
 90
        0
102
RTVSPost2010PropOp41
 70
     1
102
RTVSPost2010Prop42
 90
       50
102
RTVSPost2010PropOp42
 70
     1
102
RTVSPost2010Prop43
 90
        3
102
RTVSPost2010PropOp43
 70
     1
102
RTVSPost2010Prop44ColorIndex
 90
        5
102
RTVSPost2010Prop44ColorRGB
 90
      255
102
RTVSPost2010PropOp44
 70
     1
102
RTVSPost2010Prop45
280
     0
102
RTVSPost2010PropOp45
 70
     1
102
RTVSPost2010Prop46
 90
       50
102
RTVSPost2010PropOp46
 70
     1
102
RTVSPost2010Prop47
 90
       50
102
RTVSPost2010PropOp47
 70
     1
102
RTVSPost2010Prop48
 90
       50
102
RTVSPost2010PropOp48
 70
     1
102
RTVSPost2010Prop49
280
     0
102
RTVSPost2010PropOp49
 70
     1
102
RTVSPost2010Prop50
 90
       50
102
RTVSPost2010PropOp50
 70
     1
102
RTVSPost2010Prop51ColorIndex
 90
      256
102
RTVSPost2010Prop51ColorRGB
 90
-16777216
102
RTVSPost2010PropOp51
 70
     0
102
RTVSPost2010Prop52
140
1.0
102
RTVSPost2010PropOp52
 70
     0
102
RTVSPost2010Prop53
 90
        2
102
RTVSPost2010PropOp53
 70
     1
102
RTVSPost2010Prop54
  1
strokes_ogs.tif
102
RTVSPost2010PropOp54
 70
     1
102
RTVSPost2010Prop55
280
     0
102
RTVSPost2010PropOp55
 70
     1
102
RTVSPost2010Prop56
140
1.0
102
RTVSPost2010PropOp56
 70
     1
102
RTVSPost2010Prop57
140
1.0
102
RTVSPost2010PropOp57
 70
     1
  0
XRECORD
  5
5DE0
102
{ACAD_REACTORS
330
5DDF
102
}
330
5DDF
100
AcDbXrecord
280
     1
102
RTVSPost2010Prop28
280
     0
102
RTVSPost2010PropOp28
 70
     1
102
RTVSPost2010Prop29
280
     1
102
RTVSPost2010PropOp29
 70
     1
102
RTVSPost2010Prop30
280
     1
102
RTVSPost2010PropOp30
 70
     1
102
RTVSPost2010Prop31
280
     0
102
RTVSPost2010PropOp31
 70
     1
102
RTVSPost2010Prop32
280
     0
102
RTVSPost2010PropOp32
 70
     1
102
RTVSPost2010Prop33
280
     0
102
RTVSPost2010PropOp33
 70
     1
102
RTVSPost2010Prop34
280
     0
102
RTVSPost2010PropOp34
 70
     1
102
RTVSPost2010Prop35
280
     0
102
RTVSPost2010PropOp35
 70
     1
102
RTVSPost2010Prop36
280
     0
102
RTVSPost2010PropOp36
 70
     1
102
RTVSPost2010Prop37
 90
       50
102
RTVSPost2010PropOp37
 70
     1
102
RTVSPost2010Prop38
140
0.0
102
RTVSPost2010PropOp38
 70
     1
102
RTVSPost2010Prop39
140
1.0
102
RTVSPost2010PropOp39
 70
     1
102
RTVSPost2010Prop40
 90
        0
102
RTVSPost2010PropOp40
 70
     1
102
RTVSPost2010Prop41ColorIndex
 90
       18
102
RTVSPost2010Prop41ColorRGB
 90
        0
102
RTVSPost2010PropOp41
 70
     1
102
RTVSPost2010Prop42
 90
       50
102
RTVSPost2010PropOp42
 70
     1
102
RTVSPost2010Prop43
 90
        3
102
RTVSPost2010PropOp43
 70
     1
102
RTVSPost2010Prop44ColorIndex
 90
        5
102
RTVSPost2010Prop44ColorRGB
 90
      255
102
RTVSPost2010PropOp44
 70
     1
102
RTVSPost2010Prop45
280
     0
102
RTVSPost2010PropOp45
 70
     1
102
RTVSPost2010Prop46
 90
       50
102
RTVSPost2010PropOp46
 70
     1
102
RTVSPost2010Prop47
 90
       50
102
RTVSPost2010PropOp47
 70
     1
102
RTVSPost2010Prop48
 90
       50
102
RTVSPost2010PropOp48
 70
     1
102
RTVSPost2010Prop49
280
     0
102
RTVSPost2010PropOp49
 70
     1
102
RTVSPost2010Prop50
 90
       50
102
RTVSPost2010PropOp50
 70
     1
102
RTVSPost2010Prop51ColorIndex
 90
      256
102
RTVSPost2010Prop51ColorRGB
 90
-16777216
102
RTVSPost2010PropOp51
 70
     0
102
RTVSPost2010Prop52
140
1.0
102
RTVSPost2010PropOp52
 70
     0
102
RTVSPost2010Prop53
 90
        2
102
RTVSPost2010PropOp53
 70
     1
102
RTVSPost2010Prop54
  1
strokes_ogs.tif
102
RTVSPost2010PropOp54
 70
     1
102
RTVSPost2010Prop55
280
     0
102
RTVSPost2010PropOp55
 70
     1
102
RTVSPost2010Prop56
140
1.0
102
RTVSPost2010PropOp56
 70
     1
102
RTVSPost2010Prop57
140
1.0
102
RTVSPost2010PropOp57
 70
     1
  0
XRECORD
  5
5DE4
102
{ACAD_REACTORS
330
5DE3
102
}
330
5DE3
100
AcDbXrecord
280
     1
102
RTVSPost2010Prop28
280
     0
102
RTVSPost2010PropOp28
 70
     1
102
RTVSPost2010Prop29
280
     1
102
RTVSPost2010PropOp29
 70
     1
102
RTVSPost2010Prop30
280
     1
102
RTVSPost2010PropOp30
 70
     1
102
RTVSPost2010Prop31
280
     0
102
RTVSPost2010PropOp31
 70
     1
102
RTVSPost2010Prop32
280
     0
102
RTVSPost2010PropOp32
 70
     1
102
RTVSPost2010Prop33
280
     0
102
RTVSPost2010PropOp33
 70
     1
102
RTVSPost2010Prop34
280
     0
102
RTVSPost2010PropOp34
 70
     1
102
RTVSPost2010Prop35
280
     0
102
RTVSPost2010PropOp35
 70
     1
102
RTVSPost2010Prop36
280
     0
102
RTVSPost2010PropOp36
 70
     1
102
RTVSPost2010Prop37
 90
       50
102
RTVSPost2010PropOp37
 70
     1
102
RTVSPost2010Prop38
140
0.0
102
RTVSPost2010PropOp38
 70
     1
102
RTVSPost2010Prop39
140
1.0
102
RTVSPost2010PropOp39
 70
     1
102
RTVSPost2010Prop40
 90
        0
102
RTVSPost2010PropOp40
 70
     1
102
RTVSPost2010Prop41ColorIndex
 90
       18
102
RTVSPost2010Prop41ColorRGB
 90
        0
102
RTVSPost2010PropOp41
 70
     1
102
RTVSPost2010Prop42
 90
       50
102
RTVSPost2010PropOp42
 70
     1
102
RTVSPost2010Prop43
 90
        3
102
RTVSPost2010PropOp43
 70
     1
102
RTVSPost2010Prop44ColorIndex
 90
        5
102
RTVSPost2010Prop44ColorRGB
 90
      255
102
RTVSPost2010PropOp44
 70
     1
102
RTVSPost2010Prop45
280
     0
102
RTVSPost2010PropOp45
 70
     1
102
RTVSPost2010Prop46
 90
       50
102
RTVSPost2010PropOp46
 70
     1
102
RTVSPost2010Prop47
 90
       50
102
RTVSPost2010PropOp47
 70
     1
102
RTVSPost2010Prop48
 90
       50
102
RTVSPost2010PropOp48
 70
     1
102
RTVSPost2010Prop49
280
     0
102
RTVSPost2010PropOp49
 70
     1
102
RTVSPost2010Prop50
 90
       50
102
RTVSPost2010PropOp50
 70
     1
102
RTVSPost2010Prop51ColorIndex
 90
      256
102
RTVSPost2010Prop51ColorRGB
 90
-16777216
102
RTVSPost2010PropOp51
 70
     0
102
RTVSPost2010Prop52
140
1.0
102
RTVSPost2010PropOp52
 70
     0
102
RTVSPost2010Prop53
 90
        2
102
RTVSPost2010PropOp53
 70
     1
102
RTVSPost2010Prop54
  1
strokes_ogs.tif
102
RTVSPost2010PropOp54
 70
     1
102
RTVSPost2010Prop55
280
     0
102
RTVSPost2010PropOp55
 70
     1
102
RTVSPost2010Prop56
140
1.0
102
RTVSPost2010PropOp56
 70
     1
102
RTVSPost2010Prop57
140
1.0
102
RTVSPost2010PropOp57
 70
     1
  0
XRECORD
  5
5E02
102
{ACAD_REACTORS
330
5E01
102
}
330
5E01
100
AcDbXrecord
280
     1
102
RTVSPost2010Prop28
280
     0
102
RTVSPost2010PropOp28
 70
     1
102
RTVSPost2010Prop29
280
     1
102
RTVSPost2010PropOp29
 70
     1
102
RTVSPost2010Prop30
280
     1
102
RTVSPost2010PropOp30
 70
     1
102
RTVSPost2010Prop31
280
     0
102
RTVSPost2010PropOp31
 70
     1
102
RTVSPost2010Prop32
280
     0
102
RTVSPost2010PropOp32
 70
     1
102
RTVSPost2010Prop33
280
     0
102
RTVSPost2010PropOp33
 70
     1
102
RTVSPost2010Prop34
280
     0
102
RTVSPost2010PropOp34
 70
     1
102
RTVSPost2010Prop35
280
     0
102
RTVSPost2010PropOp35
 70
     1
102
RTVSPost2010Prop36
280
     0
102
RTVSPost2010PropOp36
 70
     1
102
RTVSPost2010Prop37
 90
       50
102
RTVSPost2010PropOp37
 70
     1
102
RTVSPost2010Prop38
140
0.0
102
RTVSPost2010PropOp38
 70
     1
102
RTVSPost2010Prop39
140
1.0
102
RTVSPost2010PropOp39
 70
     1
102
RTVSPost2010Prop40
 90
        0
102
RTVSPost2010PropOp40
 70
     1
102
RTVSPost2010Prop41ColorIndex
 90
       18
102
RTVSPost2010Prop41ColorRGB
 90
        0
102
RTVSPost2010PropOp41
 70
     1
102
RTVSPost2010Prop42
 90
       50
102
RTVSPost2010PropOp42
 70
     1
102
RTVSPost2010Prop43
 90
        3
102
RTVSPost2010PropOp43
 70
     1
102
RTVSPost2010Prop44ColorIndex
 90
        5
102
RTVSPost2010Prop44ColorRGB
 90
      255
102
RTVSPost2010PropOp44
 70
     1
102
RTVSPost2010Prop45
280
     0
102
RTVSPost2010PropOp45
 70
     1
102
RTVSPost2010Prop46
 90
       50
102
RTVSPost2010PropOp46
 70
     1
102
RTVSPost2010Prop47
 90
       50
102
RTVSPost2010PropOp47
 70
     1
102
RTVSPost2010Prop48
 90
       50
102
RTVSPost2010PropOp48
 70
     1
102
RTVSPost2010Prop49
280
     0
102
RTVSPost2010PropOp49
 70
     1
102
RTVSPost2010Prop50
 90
       50
102
RTVSPost2010PropOp50
 70
     1
102
RTVSPost2010Prop51ColorIndex
 90
      256
102
RTVSPost2010Prop51ColorRGB
 90
-16777216
102
RTVSPost2010PropOp51
 70
     0
102
RTVSPost2010Prop52
140
1.0
102
RTVSPost2010PropOp52
 70
     0
102
RTVSPost2010Prop53
 90
        2
102
RTVSPost2010PropOp53
 70
     1
102
RTVSPost2010Prop54
  1
strokes_ogs.tif
102
RTVSPost2010PropOp54
 70
     1
102
RTVSPost2010Prop55
280
     0
102
RTVSPost2010PropOp55
 70
     1
102
RTVSPost2010Prop56
140
1.0
102
RTVSPost2010PropOp56
 70
     1
102
RTVSPost2010Prop57
140
1.0
102
RTVSPost2010PropOp57
 70
     1
  0
XRECORD
  5
5DEC
102
{ACAD_REACTORS
330
5DEB
102
}
330
5DEB
100
AcDbXrecord
280
     1
102
RTVSPost2010Prop28
280
     0
102
RTVSPost2010PropOp28
 70
     1
102
RTVSPost2010Prop29
280
     1
102
RTVSPost2010PropOp29
 70
     1
102
RTVSPost2010Prop30
280
     1
102
RTVSPost2010PropOp30
 70
     1
102
RTVSPost2010Prop31
280
     0
102
RTVSPost2010PropOp31
 70
     1
102
RTVSPost2010Prop32
280
     0
102
RTVSPost2010PropOp32
 70
     1
102
RTVSPost2010Prop33
280
     0
102
RTVSPost2010PropOp33
 70
     1
102
RTVSPost2010Prop34
280
     0
102
RTVSPost2010PropOp34
 70
     1
102
RTVSPost2010Prop35
280
     0
102
RTVSPost2010PropOp35
 70
     1
102
RTVSPost2010Prop36
280
     0
102
RTVSPost2010PropOp36
 70
     1
102
RTVSPost2010Prop37
 90
       50
102
RTVSPost2010PropOp37
 70
     1
102
RTVSPost2010Prop38
140
0.0
102
RTVSPost2010PropOp38
 70
     1
102
RTVSPost2010Prop39
140
1.0
102
RTVSPost2010PropOp39
 70
     1
102
RTVSPost2010Prop40
 90
        0
102
RTVSPost2010PropOp40
 70
     1
102
RTVSPost2010Prop41ColorIndex
 90
       18
102
RTVSPost2010Prop41ColorRGB
 90
        0
102
RTVSPost2010PropOp41
 70
     1
102
RTVSPost2010Prop42
 90
       50
102
RTVSPost2010PropOp42
 70
     1
102
RTVSPost2010Prop43
 90
        3
102
RTVSPost2010PropOp43
 70
     1
102
RTVSPost2010Prop44ColorIndex
 90
        5
102
RTVSPost2010Prop44ColorRGB
 90
      255
102
RTVSPost2010PropOp44
 70
     1
102
RTVSPost2010Prop45
280
     0
102
RTVSPost2010PropOp45
 70
     1
102
RTVSPost2010Prop46
 90
       50
102
RTVSPost2010PropOp46
 70
     1
102
RTVSPost2010Prop47
 90
       50
102
RTVSPost2010PropOp47
 70
     1
102
RTVSPost2010Prop48
 90
       50
102
RTVSPost2010PropOp48
 70
     1
102
RTVSPost2010Prop49
280
     0
102
RTVSPost2010PropOp49
 70
     1
102
RTVSPost2010Prop50
 90
       50
102
RTVSPost2010PropOp50
 70
     1
102
RTVSPost2010Prop51ColorIndex
 90
      256
102
RTVSPost2010Prop51ColorRGB
 90
-16777216
102
RTVSPost2010PropOp51
 70
     0
102
RTVSPost2010Prop52
140
1.0
102
RTVSPost2010PropOp52
 70
     0
102
RTVSPost2010Prop53
 90
        2
102
RTVSPost2010PropOp53
 70
     1
102
RTVSPost2010Prop54
  1
strokes_ogs.tif
102
RTVSPost2010PropOp54
 70
     1
102
RTVSPost2010Prop55
280
     0
102
RTVSPost2010PropOp55
 70
     1
102
RTVSPost2010Prop56
140
1.0
102
RTVSPost2010PropOp56
 70
     1
102
RTVSPost2010Prop57
140
1.0
102
RTVSPost2010PropOp57
 70
     1
  0
XRECORD
  5
5DD0
102
{ACAD_REACTORS
330
5DCF
102
}
330
5DCF
100
AcDbXrecord
280
     1
102
RTVSPost2010Prop28
280
     0
102
RTVSPost2010PropOp28
 70
     1
102
RTVSPost2010Prop29
280
     1
102
RTVSPost2010PropOp29
 70
     1
102
RTVSPost2010Prop30
280
     1
102
RTVSPost2010PropOp30
 70
     1
102
RTVSPost2010Prop31
280
     0
102
RTVSPost2010PropOp31
 70
     1
102
RTVSPost2010Prop32
280
     0
102
RTVSPost2010PropOp32
 70
     1
102
RTVSPost2010Prop33
280
     0
102
RTVSPost2010PropOp33
 70
     1
102
RTVSPost2010Prop34
280
     0
102
RTVSPost2010PropOp34
 70
     1
102
RTVSPost2010Prop35
280
     0
102
RTVSPost2010PropOp35
 70
     1
102
RTVSPost2010Prop36
280
     0
102
RTVSPost2010PropOp36
 70
     1
102
RTVSPost2010Prop37
 90
       50
102
RTVSPost2010PropOp37
 70
     1
102
RTVSPost2010Prop38
140
0.0
102
RTVSPost2010PropOp38
 70
     1
102
RTVSPost2010Prop39
140
1.0
102
RTVSPost2010PropOp39
 70
     1
102
RTVSPost2010Prop40
 90
        0
102
RTVSPost2010PropOp40
 70
     1
102
RTVSPost2010Prop41ColorIndex
 90
       18
102
RTVSPost2010Prop41ColorRGB
 90
        0
102
RTVSPost2010PropOp41
 70
     1
102
RTVSPost2010Prop42
 90
       50
102
RTVSPost2010PropOp42
 70
     1
102
RTVSPost2010Prop43
 90
        3
102
RTVSPost2010PropOp43
 70
     1
102
RTVSPost2010Prop44ColorIndex
 90
        5
102
RTVSPost2010Prop44ColorRGB
 90
      255
102
RTVSPost2010PropOp44
 70
     1
102
RTVSPost2010Prop45
280
     0
102
RTVSPost2010PropOp45
 70
     1
102
RTVSPost2010Prop46
 90
       50
102
RTVSPost2010PropOp46
 70
     1
102
RTVSPost2010Prop47
 90
       50
102
RTVSPost2010PropOp47
 70
     1
102
RTVSPost2010Prop48
 90
       50
102
RTVSPost2010PropOp48
 70
     1
102
RTVSPost2010Prop49
280
     0
102
RTVSPost2010PropOp49
 70
     1
102
RTVSPost2010Prop50
 90
       50
102
RTVSPost2010PropOp50
 70
     1
102
RTVSPost2010Prop51ColorIndex
 90
      256
102
RTVSPost2010Prop51ColorRGB
 90
-16777216
102
RTVSPost2010PropOp51
 70
     0
102
RTVSPost2010Prop52
140
1.0
102
RTVSPost2010PropOp52
 70
     0
102
RTVSPost2010Prop53
 90
        2
102
RTVSPost2010PropOp53
 70
     1
102
RTVSPost2010Prop54
  1
strokes_ogs.tif
102
RTVSPost2010PropOp54
 70
     1
102
RTVSPost2010Prop55
280
     0
102
RTVSPost2010PropOp55
 70
     1
102
RTVSPost2010Prop56
140
1.0
102
RTVSPost2010PropOp56
 70
     1
102
RTVSPost2010Prop57
140
1.0
102
RTVSPost2010PropOp57
 70
     1
  0
XRECORD
  5
5DD2
102
{ACAD_REACTORS
330
5DD1
102
}
330
5DD1
100
AcDbXrecord
280
     1
102
RTVSPost2010Prop28
280
     0
102
RTVSPost2010PropOp28
 70
     1
102
RTVSPost2010Prop29
280
     1
102
RTVSPost2010PropOp29
 70
     1
102
RTVSPost2010Prop30
280
     1
102
RTVSPost2010PropOp30
 70
     1
102
RTVSPost2010Prop31
280
     0
102
RTVSPost2010PropOp31
 70
     1
102
RTVSPost2010Prop32
280
     0
102
RTVSPost2010PropOp32
 70
     1
102
RTVSPost2010Prop33
280
     0
102
RTVSPost2010PropOp33
 70
     1
102
RTVSPost2010Prop34
280
     0
102
RTVSPost2010PropOp34
 70
     1
102
RTVSPost2010Prop35
280
     0
102
RTVSPost2010PropOp35
 70
     1
102
RTVSPost2010Prop36
280
     0
102
RTVSPost2010PropOp36
 70
     1
102
RTVSPost2010Prop37
 90
       50
102
RTVSPost2010PropOp37
 70
     1
102
RTVSPost2010Prop38
140
0.0
102
RTVSPost2010PropOp38
 70
     1
102
RTVSPost2010Prop39
140
1.0
102
RTVSPost2010PropOp39
 70
     1
102
RTVSPost2010Prop40
 90
        0
102
RTVSPost2010PropOp40
 70
     1
102
RTVSPost2010Prop41ColorIndex
 90
       18
102
RTVSPost2010Prop41ColorRGB
 90
        0
102
RTVSPost2010PropOp41
 70
     1
102
RTVSPost2010Prop42
 90
       50
102
RTVSPost2010PropOp42
 70
     1
102
RTVSPost2010Prop43
 90
        3
102
RTVSPost2010PropOp43
 70
     1
102
RTVSPost2010Prop44ColorIndex
 90
        5
102
RTVSPost2010Prop44ColorRGB
 90
      255
102
RTVSPost2010PropOp44
 70
     1
102
RTVSPost2010Prop45
280
     0
102
RTVSPost2010PropOp45
 70
     1
102
RTVSPost2010Prop46
 90
       50
102
RTVSPost2010PropOp46
 70
     1
102
RTVSPost2010Prop47
 90
       50
102
RTVSPost2010PropOp47
 70
     1
102
RTVSPost2010Prop48
 90
       50
102
RTVSPost2010PropOp48
 70
     1
102
RTVSPost2010Prop49
280
     0
102
RTVSPost2010PropOp49
 70
     1
102
RTVSPost2010Prop50
 90
       50
102
RTVSPost2010PropOp50
 70
     1
102
RTVSPost2010Prop51ColorIndex
 90
      256
102
RTVSPost2010Prop51ColorRGB
 90
-16777216
102
RTVSPost2010PropOp51
 70
     0
102
RTVSPost2010Prop52
140
1.0
102
RTVSPost2010PropOp52
 70
     0
102
RTVSPost2010Prop53
 90
        2
102
RTVSPost2010PropOp53
 70
     1
102
RTVSPost2010Prop54
  1
strokes_ogs.tif
102
RTVSPost2010PropOp54
 70
     1
102
RTVSPost2010Prop55
280
     0
102
RTVSPost2010PropOp55
 70
     1
102
RTVSPost2010Prop56
140
1.0
102
RTVSPost2010PropOp56
 70
     1
102
RTVSPost2010Prop57
140
1.0
102
RTVSPost2010PropOp57
 70
     1
  0
XRECORD
  5
5DD4
102
{ACAD_REACTORS
330
5DD3
102
}
330
5DD3
100
AcDbXrecord
280
     1
102
RTVSPost2010Prop28
280
     0
102
RTVSPost2010PropOp28
 70
     1
102
RTVSPost2010Prop29
280
     1
102
RTVSPost2010PropOp29
 70
     1
102
RTVSPost2010Prop30
280
     1
102
RTVSPost2010PropOp30
 70
     1
102
RTVSPost2010Prop31
280
     0
102
RTVSPost2010PropOp31
 70
     1
102
RTVSPost2010Prop32
280
     0
102
RTVSPost2010PropOp32
 70
     1
102
RTVSPost2010Prop33
280
     0
102
RTVSPost2010PropOp33
 70
     1
102
RTVSPost2010Prop34
280
     0
102
RTVSPost2010PropOp34
 70
     1
102
RTVSPost2010Prop35
280
     0
102
RTVSPost2010PropOp35
 70
     1
102
RTVSPost2010Prop36
280
     0
102
RTVSPost2010PropOp36
 70
     1
102
RTVSPost2010Prop37
 90
       50
102
RTVSPost2010PropOp37
 70
     1
102
RTVSPost2010Prop38
140
0.0
102
RTVSPost2010PropOp38
 70
     1
102
RTVSPost2010Prop39
140
1.0
102
RTVSPost2010PropOp39
 70
     1
102
RTVSPost2010Prop40
 90
        0
102
RTVSPost2010PropOp40
 70
     1
102
RTVSPost2010Prop41ColorIndex
 90
       18
102
RTVSPost2010Prop41ColorRGB
 90
        0
102
RTVSPost2010PropOp41
 70
     1
102
RTVSPost2010Prop42
 90
       50
102
RTVSPost2010PropOp42
 70
     1
102
RTVSPost2010Prop43
 90
        3
102
RTVSPost2010PropOp43
 70
     1
102
RTVSPost2010Prop44ColorIndex
 90
        5
102
RTVSPost2010Prop44ColorRGB
 90
      255
102
RTVSPost2010PropOp44
 70
     1
102
RTVSPost2010Prop45
280
     0
102
RTVSPost2010PropOp45
 70
     1
102
RTVSPost2010Prop46
 90
       50
102
RTVSPost2010PropOp46
 70
     1
102
RTVSPost2010Prop47
 90
       50
102
RTVSPost2010PropOp47
 70
     1
102
RTVSPost2010Prop48
 90
       50
102
RTVSPost2010PropOp48
 70
     1
102
RTVSPost2010Prop49
280
     0
102
RTVSPost2010PropOp49
 70
     1
102
RTVSPost2010Prop50
 90
       50
102
RTVSPost2010PropOp50
 70
     1
102
RTVSPost2010Prop51ColorIndex
 90
      256
102
RTVSPost2010Prop51ColorRGB
 90
-16777216
102
RTVSPost2010PropOp51
 70
     0
102
RTVSPost2010Prop52
140
1.0
102
RTVSPost2010PropOp52
 70
     0
102
RTVSPost2010Prop53
 90
        2
102
RTVSPost2010PropOp53
 70
     1
102
RTVSPost2010Prop54
  1
strokes_ogs.tif
102
RTVSPost2010PropOp54
 70
     1
102
RTVSPost2010Prop55
280
     0
102
RTVSPost2010PropOp55
 70
     1
102
RTVSPost2010Prop56
140
1.0
102
RTVSPost2010PropOp56
 70
     1
102
RTVSPost2010Prop57
140
1.0
102
RTVSPost2010PropOp57
 70
     1
  0
XRECORD
  5
5DD6
102
{ACAD_REACTORS
330
5DD5
102
}
330
5DD5
100
AcDbXrecord
280
     1
102
RTVSPost2010Prop28
280
     0
102
RTVSPost2010PropOp28
 70
     1
102
RTVSPost2010Prop29
280
     1
102
RTVSPost2010PropOp29
 70
     1
102
RTVSPost2010Prop30
280
     1
102
RTVSPost2010PropOp30
 70
     1
102
RTVSPost2010Prop31
280
     0
102
RTVSPost2010PropOp31
 70
     1
102
RTVSPost2010Prop32
280
     0
102
RTVSPost2010PropOp32
 70
     1
102
RTVSPost2010Prop33
280
     0
102
RTVSPost2010PropOp33
 70
     1
102
RTVSPost2010Prop34
280
     0
102
RTVSPost2010PropOp34
 70
     1
102
RTVSPost2010Prop35
280
     0
102
RTVSPost2010PropOp35
 70
     1
102
RTVSPost2010Prop36
280
     0
102
RTVSPost2010PropOp36
 70
     1
102
RTVSPost2010Prop37
 90
       50
102
RTVSPost2010PropOp37
 70
     1
102
RTVSPost2010Prop38
140
0.0
102
RTVSPost2010PropOp38
 70
     1
102
RTVSPost2010Prop39
140
1.0
102
RTVSPost2010PropOp39
 70
     1
102
RTVSPost2010Prop40
 90
        0
102
RTVSPost2010PropOp40
 70
     1
102
RTVSPost2010Prop41ColorIndex
 90
       18
102
RTVSPost2010Prop41ColorRGB
 90
        0
102
RTVSPost2010PropOp41
 70
     1
102
RTVSPost2010Prop42
 90
       50
102
RTVSPost2010PropOp42
 70
     1
102
RTVSPost2010Prop43
 90
        3
102
RTVSPost2010PropOp43
 70
     1
102
RTVSPost2010Prop44ColorIndex
 90
        5
102
RTVSPost2010Prop44ColorRGB
 90
      255
102
RTVSPost2010PropOp44
 70
     1
102
RTVSPost2010Prop45
280
     0
102
RTVSPost2010PropOp45
 70
     1
102
RTVSPost2010Prop46
 90
       50
102
RTVSPost2010PropOp46
 70
     1
102
RTVSPost2010Prop47
 90
       50
102
RTVSPost2010PropOp47
 70
     1
102
RTVSPost2010Prop48
 90
       50
102
RTVSPost2010PropOp48
 70
     1
102
RTVSPost2010Prop49
280
     0
102
RTVSPost2010PropOp49
 70
     1
102
RTVSPost2010Prop50
 90
       50
102
RTVSPost2010PropOp50
 70
     1
102
RTVSPost2010Prop51ColorIndex
 90
      256
102
RTVSPost2010Prop51ColorRGB
 90
-16777216
102
RTVSPost2010PropOp51
 70
     0
102
RTVSPost2010Prop52
140
1.0
102
RTVSPost2010PropOp52
 70
     0
102
RTVSPost2010Prop53
 90
        2
102
RTVSPost2010PropOp53
 70
     1
102
RTVSPost2010Prop54
  1
strokes_ogs.tif
102
RTVSPost2010PropOp54
 70
     1
102
RTVSPost2010Prop55
280
     0
102
RTVSPost2010PropOp55
 70
     1
102
RTVSPost2010Prop56
140
1.0
102
RTVSPost2010PropOp56
 70
     1
102
RTVSPost2010Prop57
140
1.0
102
RTVSPost2010PropOp57
 70
     1
  0
XRECORD
  5
5DF2
102
{ACAD_REACTORS
330
5DF1
102
}
330
5DF1
100
AcDbXrecord
280
     1
102
RTVSPost2010Prop28
280
     0
102
RTVSPost2010PropOp28
 70
     1
102
RTVSPost2010Prop29
280
     1
102
RTVSPost2010PropOp29
 70
     1
102
RTVSPost2010Prop30
280
     1
102
RTVSPost2010PropOp30
 70
     1
102
RTVSPost2010Prop31
280
     0
102
RTVSPost2010PropOp31
 70
     1
102
RTVSPost2010Prop32
280
     0
102
RTVSPost2010PropOp32
 70
     1
102
RTVSPost2010Prop33
280
     0
102
RTVSPost2010PropOp33
 70
     1
102
RTVSPost2010Prop34
280
     0
102
RTVSPost2010PropOp34
 70
     1
102
RTVSPost2010Prop35
280
     0
102
RTVSPost2010PropOp35
 70
     1
102
RTVSPost2010Prop36
280
     0
102
RTVSPost2010PropOp36
 70
     1
102
RTVSPost2010Prop37
 90
       50
102
RTVSPost2010PropOp37
 70
     1
102
RTVSPost2010Prop38
140
0.0
102
RTVSPost2010PropOp38
 70
     1
102
RTVSPost2010Prop39
140
1.0
102
RTVSPost2010PropOp39
 70
     1
102
RTVSPost2010Prop40
 90
        0
102
RTVSPost2010PropOp40
 70
     1
102
RTVSPost2010Prop41ColorIndex
 90
       18
102
RTVSPost2010Prop41ColorRGB
 90
        0
102
RTVSPost2010PropOp41
 70
     1
102
RTVSPost2010Prop42
 90
       50
102
RTVSPost2010PropOp42
 70
     1
102
RTVSPost2010Prop43
 90
        3
102
RTVSPost2010PropOp43
 70
     1
102
RTVSPost2010Prop44ColorIndex
 90
        5
102
RTVSPost2010Prop44ColorRGB
 90
      255
102
RTVSPost2010PropOp44
 70
     1
102
RTVSPost2010Prop45
280
     0
102
RTVSPost2010PropOp45
 70
     1
102
RTVSPost2010Prop46
 90
       50
102
RTVSPost2010PropOp46
 70
     1
102
RTVSPost2010Prop47
 90
       50
102
RTVSPost2010PropOp47
 70
     1
102
RTVSPost2010Prop48
 90
       50
102
RTVSPost2010PropOp48
 70
     1
102
RTVSPost2010Prop49
280
     0
102
RTVSPost2010PropOp49
 70
     1
102
RTVSPost2010Prop50
 90
       50
102
RTVSPost2010PropOp50
 70
     1
102
RTVSPost2010Prop51ColorIndex
 90
      256
102
RTVSPost2010Prop51ColorRGB
 90
-16777216
102
RTVSPost2010PropOp51
 70
     0
102
RTVSPost2010Prop52
140
1.0
102
RTVSPost2010PropOp52
 70
     0
102
RTVSPost2010Prop53
 90
        2
102
RTVSPost2010PropOp53
 70
     1
102
RTVSPost2010Prop54
  1
strokes_ogs.tif
102
RTVSPost2010PropOp54
 70
     1
102
RTVSPost2010Prop55
280
     0
102
RTVSPost2010PropOp55
 70
     1
102
RTVSPost2010Prop56
140
1.0
102
RTVSPost2010PropOp56
 70
     1
102
RTVSPost2010Prop57
140
1.0
102
RTVSPost2010PropOp57
 70
     1
  0
XRECORD
  5
5DFE
102
{ACAD_REACTORS
330
5DFD
102
}
330
5DFD
100
AcDbXrecord
280
     1
102
RTVSPost2010Prop28
280
     0
102
RTVSPost2010PropOp28
 70
     1
102
RTVSPost2010Prop29
280
     1
102
RTVSPost2010PropOp29
 70
     1
102
RTVSPost2010Prop30
280
     1
102
RTVSPost2010PropOp30
 70
     1
102
RTVSPost2010Prop31
280
     0
102
RTVSPost2010PropOp31
 70
     1
102
RTVSPost2010Prop32
280
     0
102
RTVSPost2010PropOp32
 70
     1
102
RTVSPost2010Prop33
280
     0
102
RTVSPost2010PropOp33
 70
     1
102
RTVSPost2010Prop34
280
     0
102
RTVSPost2010PropOp34
 70
     1
102
RTVSPost2010Prop35
280
     0
102
RTVSPost2010PropOp35
 70
     1
102
RTVSPost2010Prop36
280
     0
102
RTVSPost2010PropOp36
 70
     1
102
RTVSPost2010Prop37
 90
       50
102
RTVSPost2010PropOp37
 70
     1
102
RTVSPost2010Prop38
140
0.0
102
RTVSPost2010PropOp38
 70
     1
102
RTVSPost2010Prop39
140
1.0
102
RTVSPost2010PropOp39
 70
     1
102
RTVSPost2010Prop40
 90
        0
102
RTVSPost2010PropOp40
 70
     1
102
RTVSPost2010Prop41ColorIndex
 90
       18
102
RTVSPost2010Prop41ColorRGB
 90
        0
102
RTVSPost2010PropOp41
 70
     1
102
RTVSPost2010Prop42
 90
       50
102
RTVSPost2010PropOp42
 70
     1
102
RTVSPost2010Prop43
 90
        3
102
RTVSPost2010PropOp43
 70
     1
102
RTVSPost2010Prop44ColorIndex
 90
        5
102
RTVSPost2010Prop44ColorRGB
 90
      255
102
RTVSPost2010PropOp44
 70
     1
102
RTVSPost2010Prop45
280
     0
102
RTVSPost2010PropOp45
 70
     1
102
RTVSPost2010Prop46
 90
       50
102
RTVSPost2010PropOp46
 70
     1
102
RTVSPost2010Prop47
 90
       50
102
RTVSPost2010PropOp47
 70
     1
102
RTVSPost2010Prop48
 90
       50
102
RTVSPost2010PropOp48
 70
     1
102
RTVSPost2010Prop49
280
     0
102
RTVSPost2010PropOp49
 70
     1
102
RTVSPost2010Prop50
 90
       50
102
RTVSPost2010PropOp50
 70
     1
102
RTVSPost2010Prop51ColorIndex
 90
      256
102
RTVSPost2010Prop51ColorRGB
 90
-16777216
102
RTVSPost2010PropOp51
 70
     0
102
RTVSPost2010Prop52
140
1.0
102
RTVSPost2010PropOp52
 70
     0
102
RTVSPost2010Prop53
 90
        2
102
RTVSPost2010PropOp53
 70
     1
102
RTVSPost2010Prop54
  1
strokes_ogs.tif
102
RTVSPost2010PropOp54
 70
     1
102
RTVSPost2010Prop55
280
     0
102
RTVSPost2010PropOp55
 70
     1
102
RTVSPost2010Prop56
140
1.0
102
RTVSPost2010PropOp56
 70
     1
102
RTVSPost2010Prop57
140
1.0
102
RTVSPost2010PropOp57
 70
     1
  0
XRECORD
  5
5DEA
102
{ACAD_REACTORS
330
5DE9
102
}
330
5DE9
100
AcDbXrecord
280
     1
102
RTVSPost2010Prop28
280
     0
102
RTVSPost2010PropOp28
 70
     1
102
RTVSPost2010Prop29
280
     1
102
RTVSPost2010PropOp29
 70
     1
102
RTVSPost2010Prop30
280
     1
102
RTVSPost2010PropOp30
 70
     1
102
RTVSPost2010Prop31
280
     0
102
RTVSPost2010PropOp31
 70
     1
102
RTVSPost2010Prop32
280
     0
102
RTVSPost2010PropOp32
 70
     1
102
RTVSPost2010Prop33
280
     0
102
RTVSPost2010PropOp33
 70
     1
102
RTVSPost2010Prop34
280
     0
102
RTVSPost2010PropOp34
 70
     1
102
RTVSPost2010Prop35
280
     0
102
RTVSPost2010PropOp35
 70
     1
102
RTVSPost2010Prop36
280
     0
102
RTVSPost2010PropOp36
 70
     1
102
RTVSPost2010Prop37
 90
       50
102
RTVSPost2010PropOp37
 70
     1
102
RTVSPost2010Prop38
140
0.0
102
RTVSPost2010PropOp38
 70
     1
102
RTVSPost2010Prop39
140
1.0
102
RTVSPost2010PropOp39
 70
     1
102
RTVSPost2010Prop40
 90
        0
102
RTVSPost2010PropOp40
 70
     1
102
RTVSPost2010Prop41ColorIndex
 90
       18
102
RTVSPost2010Prop41ColorRGB
 90
        0
102
RTVSPost2010PropOp41
 70
     1
102
RTVSPost2010Prop42
 90
       50
102
RTVSPost2010PropOp42
 70
     1
102
RTVSPost2010Prop43
 90
        3
102
RTVSPost2010PropOp43
 70
     1
102
RTVSPost2010Prop44ColorIndex
 90
        5
102
RTVSPost2010Prop44ColorRGB
 90
      255
102
RTVSPost2010PropOp44
 70
     1
102
RTVSPost2010Prop45
280
     0
102
RTVSPost2010PropOp45
 70
     1
102
RTVSPost2010Prop46
 90
       50
102
RTVSPost2010PropOp46
 70
     1
102
RTVSPost2010Prop47
 90
       50
102
RTVSPost2010PropOp47
 70
     1
102
RTVSPost2010Prop48
 90
       50
102
RTVSPost2010PropOp48
 70
     1
102
RTVSPost2010Prop49
280
     0
102
RTVSPost2010PropOp49
 70
     1
102
RTVSPost2010Prop50
 90
       50
102
RTVSPost2010PropOp50
 70
     1
102
RTVSPost2010Prop51ColorIndex
 90
      256
102
RTVSPost2010Prop51ColorRGB
 90
-16777216
102
RTVSPost2010PropOp51
 70
     0
102
RTVSPost2010Prop52
140
1.0
102
RTVSPost2010PropOp52
 70
     0
102
RTVSPost2010Prop53
 90
        2
102
RTVSPost2010PropOp53
 70
     1
102
RTVSPost2010Prop54
  1
strokes_ogs.tif
102
RTVSPost2010PropOp54
 70
     1
102
RTVSPost2010Prop55
280
     0
102
RTVSPost2010PropOp55
 70
     1
102
RTVSPost2010Prop56
140
1.0
102
RTVSPost2010PropOp56
 70
     1
102
RTVSPost2010Prop57
140
1.0
102
RTVSPost2010PropOp57
 70
     1
  0
XRECORD
  5
5E00
102
{ACAD_REACTORS
330
5DFF
102
}
330
5DFF
100
AcDbXrecord
280
     1
102
RTVSPost2010Prop28
280
     0
102
RTVSPost2010PropOp28
 70
     1
102
RTVSPost2010Prop29
280
     1
102
RTVSPost2010PropOp29
 70
     1
102
RTVSPost2010Prop30
280
     1
102
RTVSPost2010PropOp30
 70
     1
102
RTVSPost2010Prop31
280
     0
102
RTVSPost2010PropOp31
 70
     1
102
RTVSPost2010Prop32
280
     0
102
RTVSPost2010PropOp32
 70
     1
102
RTVSPost2010Prop33
280
     0
102
RTVSPost2010PropOp33
 70
     1
102
RTVSPost2010Prop34
280
     0
102
RTVSPost2010PropOp34
 70
     1
102
RTVSPost2010Prop35
280
     0
102
RTVSPost2010PropOp35
 70
     1
102
RTVSPost2010Prop36
280
     0
102
RTVSPost2010PropOp36
 70
     1
102
RTVSPost2010Prop37
 90
       50
102
RTVSPost2010PropOp37
 70
     1
102
RTVSPost2010Prop38
140
0.0
102
RTVSPost2010PropOp38
 70
     1
102
RTVSPost2010Prop39
140
1.0
102
RTVSPost2010PropOp39
 70
     1
102
RTVSPost2010Prop40
 90
        0
102
RTVSPost2010PropOp40
 70
     1
102
RTVSPost2010Prop41ColorIndex
 90
       18
102
RTVSPost2010Prop41ColorRGB
 90
        0
102
RTVSPost2010PropOp41
 70
     1
102
RTVSPost2010Prop42
 90
       50
102
RTVSPost2010PropOp42
 70
     1
102
RTVSPost2010Prop43
 90
        3
102
RTVSPost2010PropOp43
 70
     1
102
RTVSPost2010Prop44ColorIndex
 90
        5
102
RTVSPost2010Prop44ColorRGB
 90
      255
102
RTVSPost2010PropOp44
 70
     1
102
RTVSPost2010Prop45
280
     0
102
RTVSPost2010PropOp45
 70
     1
102
RTVSPost2010Prop46
 90
       50
102
RTVSPost2010PropOp46
 70
     1
102
RTVSPost2010Prop47
 90
       50
102
RTVSPost2010PropOp47
 70
     1
102
RTVSPost2010Prop48
 90
       50
102
RTVSPost2010PropOp48
 70
     1
102
RTVSPost2010Prop49
280
     0
102
RTVSPost2010PropOp49
 70
     1
102
RTVSPost2010Prop50
 90
       50
102
RTVSPost2010PropOp50
 70
     1
102
RTVSPost2010Prop51ColorIndex
 90
      256
102
RTVSPost2010Prop51ColorRGB
 90
-16777216
102
RTVSPost2010PropOp51
 70
     0
102
RTVSPost2010Prop52
140
1.0
102
RTVSPost2010PropOp52
 70
     0
102
RTVSPost2010Prop53
 90
        2
102
RTVSPost2010PropOp53
 70
     1
102
RTVSPost2010Prop54
  1
strokes_ogs.tif
102
RTVSPost2010PropOp54
 70
     1
102
RTVSPost2010Prop55
280
     0
102
RTVSPost2010PropOp55
 70
     1
102
RTVSPost2010Prop56
140
1.0
102
RTVSPost2010PropOp56
 70
     1
102
RTVSPost2010Prop57
140
1.0
102
RTVSPost2010PropOp57
 70
     1
  0
XRECORD
  5
5DE2
102
{ACAD_REACTORS
330
5DE1
102
}
330
5DE1
100
AcDbXrecord
280
     1
102
RTVSPost2010Prop28
280
     0
102
RTVSPost2010PropOp28
 70
     1
102
RTVSPost2010Prop29
280
     1
102
RTVSPost2010PropOp29
 70
     1
102
RTVSPost2010Prop30
280
     1
102
RTVSPost2010PropOp30
 70
     1
102
RTVSPost2010Prop31
280
     0
102
RTVSPost2010PropOp31
 70
     1
102
RTVSPost2010Prop32
280
     0
102
RTVSPost2010PropOp32
 70
     1
102
RTVSPost2010Prop33
280
     0
102
RTVSPost2010PropOp33
 70
     1
102
RTVSPost2010Prop34
280
     0
102
RTVSPost2010PropOp34
 70
     1
102
RTVSPost2010Prop35
280
     0
102
RTVSPost2010PropOp35
 70
     1
102
RTVSPost2010Prop36
280
     0
102
RTVSPost2010PropOp36
 70
     1
102
RTVSPost2010Prop37
 90
       50
102
RTVSPost2010PropOp37
 70
     1
102
RTVSPost2010Prop38
140
0.0
102
RTVSPost2010PropOp38
 70
     1
102
RTVSPost2010Prop39
140
1.0
102
RTVSPost2010PropOp39
 70
     1
102
RTVSPost2010Prop40
 90
        0
102
RTVSPost2010PropOp40
 70
     1
102
RTVSPost2010Prop41ColorIndex
 90
       18
102
RTVSPost2010Prop41ColorRGB
 90
        0
102
RTVSPost2010PropOp41
 70
     1
102
RTVSPost2010Prop42
 90
       50
102
RTVSPost2010PropOp42
 70
     1
102
RTVSPost2010Prop43
 90
        3
102
RTVSPost2010PropOp43
 70
     1
102
RTVSPost2010Prop44ColorIndex
 90
        5
102
RTVSPost2010Prop44ColorRGB
 90
      255
102
RTVSPost2010PropOp44
 70
     1
102
RTVSPost2010Prop45
280
     0
102
RTVSPost2010PropOp45
 70
     1
102
RTVSPost2010Prop46
 90
       50
102
RTVSPost2010PropOp46
 70
     1
102
RTVSPost2010Prop47
 90
       50
102
RTVSPost2010PropOp47
 70
     1
102
RTVSPost2010Prop48
 90
       50
102
RTVSPost2010PropOp48
 70
     1
102
RTVSPost2010Prop49
280
     0
102
RTVSPost2010PropOp49
 70
     1
102
RTVSPost2010Prop50
 90
       50
102
RTVSPost2010PropOp50
 70
     1
102
RTVSPost2010Prop51ColorIndex
 90
      256
102
RTVSPost2010Prop51ColorRGB
 90
-16777216
102
RTVSPost2010PropOp51
 70
     0
102
RTVSPost2010Prop52
140
1.0
102
RTVSPost2010PropOp52
 70
     0
102
RTVSPost2010Prop53
 90
        2
102
RTVSPost2010PropOp53
 70
     1
102
RTVSPost2010Prop54
  1
strokes_ogs.tif
102
RTVSPost2010PropOp54
 70
     1
102
RTVSPost2010Prop55
280
     0
102
RTVSPost2010PropOp55
 70
     1
102
RTVSPost2010Prop56
140
1.0
102
RTVSPost2010PropOp56
 70
     1
102
RTVSPost2010Prop57
140
1.0
102
RTVSPost2010PropOp57
 70
     1
  0
XRECORD
  5
5DFC
102
{ACAD_REACTORS
330
5DFB
102
}
330
5DFB
100
AcDbXrecord
280
     1
102
RTVSPost2010Prop28
280
     0
102
RTVSPost2010PropOp28
 70
     1
102
RTVSPost2010Prop29
280
     1
102
RTVSPost2010PropOp29
 70
     1
102
RTVSPost2010Prop30
280
     1
102
RTVSPost2010PropOp30
 70
     1
102
RTVSPost2010Prop31
280
     0
102
RTVSPost2010PropOp31
 70
     1
102
RTVSPost2010Prop32
280
     0
102
RTVSPost2010PropOp32
 70
     1
102
RTVSPost2010Prop33
280
     0
102
RTVSPost2010PropOp33
 70
     1
102
RTVSPost2010Prop34
280
     0
102
RTVSPost2010PropOp34
 70
     1
102
RTVSPost2010Prop35
280
     0
102
RTVSPost2010PropOp35
 70
     1
102
RTVSPost2010Prop36
280
     0
102
RTVSPost2010PropOp36
 70
     1
102
RTVSPost2010Prop37
 90
       50
102
RTVSPost2010PropOp37
 70
     1
102
RTVSPost2010Prop38
140
0.0
102
RTVSPost2010PropOp38
 70
     1
102
RTVSPost2010Prop39
140
1.0
102
RTVSPost2010PropOp39
 70
     1
102
RTVSPost2010Prop40
 90
        0
102
RTVSPost2010PropOp40
 70
     1
102
RTVSPost2010Prop41ColorIndex
 90
       18
102
RTVSPost2010Prop41ColorRGB
 90
        0
102
RTVSPost2010PropOp41
 70
     1
102
RTVSPost2010Prop42
 90
       50
102
RTVSPost2010PropOp42
 70
     1
102
RTVSPost2010Prop43
 90
        3
102
RTVSPost2010PropOp43
 70
     1
102
RTVSPost2010Prop44ColorIndex
 90
        5
102
RTVSPost2010Prop44ColorRGB
 90
      255
102
RTVSPost2010PropOp44
 70
     1
102
RTVSPost2010Prop45
280
     0
102
RTVSPost2010PropOp45
 70
     1
102
RTVSPost2010Prop46
 90
       50
102
RTVSPost2010PropOp46
 70
     1
102
RTVSPost2010Prop47
 90
       50
102
RTVSPost2010PropOp47
 70
     1
102
RTVSPost2010Prop48
 90
       50
102
RTVSPost2010PropOp48
 70
     1
102
RTVSPost2010Prop49
280
     0
102
RTVSPost2010PropOp49
 70
     1
102
RTVSPost2010Prop50
 90
       50
102
RTVSPost2010PropOp50
 70
     1
102
RTVSPost2010Prop51ColorIndex
 90
      256
102
RTVSPost2010Prop51ColorRGB
 90
-16777216
102
RTVSPost2010PropOp51
 70
     0
102
RTVSPost2010Prop52
140
1.0
102
RTVSPost2010PropOp52
 70
     0
102
RTVSPost2010Prop53
 90
        2
102
RTVSPost2010PropOp53
 70
     1
102
RTVSPost2010Prop54
  1
strokes_ogs.tif
102
RTVSPost2010PropOp54
 70
     1
102
RTVSPost2010Prop55
280
     0
102
RTVSPost2010PropOp55
 70
     1
102
RTVSPost2010Prop56
140
1.0
102
RTVSPost2010PropOp56
 70
     1
102
RTVSPost2010Prop57
140
1.0
102
RTVSPost2010PropOp57
 70
     1
  0
XRECORD
  5
5DFA
102
{ACAD_REACTORS
330
5DF9
102
}
330
5DF9
100
AcDbXrecord
280
     1
102
RTVSPost2010Prop28
280
     0
102
RTVSPost2010PropOp28
 70
     1
102
RTVSPost2010Prop29
280
     1
102
RTVSPost2010PropOp29
 70
     1
102
RTVSPost2010Prop30
280
     1
102
RTVSPost2010PropOp30
 70
     1
102
RTVSPost2010Prop31
280
     0
102
RTVSPost2010PropOp31
 70
     1
102
RTVSPost2010Prop32
280
     0
102
RTVSPost2010PropOp32
 70
     1
102
RTVSPost2010Prop33
280
     0
102
RTVSPost2010PropOp33
 70
     1
102
RTVSPost2010Prop34
280
     0
102
RTVSPost2010PropOp34
 70
     1
102
RTVSPost2010Prop35
280
     0
102
RTVSPost2010PropOp35
 70
     1
102
RTVSPost2010Prop36
280
     0
102
RTVSPost2010PropOp36
 70
     1
102
RTVSPost2010Prop37
 90
       50
102
RTVSPost2010PropOp37
 70
     1
102
RTVSPost2010Prop38
140
0.0
102
RTVSPost2010PropOp38
 70
     1
102
RTVSPost2010Prop39
140
1.0
102
RTVSPost2010PropOp39
 70
     1
102
RTVSPost2010Prop40
 90
        0
102
RTVSPost2010PropOp40
 70
     1
102
RTVSPost2010Prop41ColorIndex
 90
       18
102
RTVSPost2010Prop41ColorRGB
 90
        0
102
RTVSPost2010PropOp41
 70
     1
102
RTVSPost2010Prop42
 90
       50
102
RTVSPost2010PropOp42
 70
     1
102
RTVSPost2010Prop43
 90
        3
102
RTVSPost2010PropOp43
 70
     1
102
RTVSPost2010Prop44ColorIndex
 90
        5
102
RTVSPost2010Prop44ColorRGB
 90
      255
102
RTVSPost2010PropOp44
 70
     1
102
RTVSPost2010Prop45
280
     0
102
RTVSPost2010PropOp45
 70
     1
102
RTVSPost2010Prop46
 90
       50
102
RTVSPost2010PropOp46
 70
     1
102
RTVSPost2010Prop47
 90
       50
102
RTVSPost2010PropOp47
 70
     1
102
RTVSPost2010Prop48
 90
       50
102
RTVSPost2010PropOp48
 70
     1
102
RTVSPost2010Prop49
280
     0
102
RTVSPost2010PropOp49
 70
     1
102
RTVSPost2010Prop50
 90
       50
102
RTVSPost2010PropOp50
 70
     1
102
RTVSPost2010Prop51ColorIndex
 90
      256
102
RTVSPost2010Prop51ColorRGB
 90
-16777216
102
RTVSPost2010PropOp51
 70
     0
102
RTVSPost2010Prop52
140
1.0
102
RTVSPost2010PropOp52
 70
     0
102
RTVSPost2010Prop53
 90
        2
102
RTVSPost2010PropOp53
 70
     1
102
RTVSPost2010Prop54
  1
strokes_ogs.tif
102
RTVSPost2010PropOp54
 70
     1
102
RTVSPost2010Prop55
280
     0
102
RTVSPost2010PropOp55
 70
     1
102
RTVSPost2010Prop56
140
1.0
102
RTVSPost2010PropOp56
 70
     1
102
RTVSPost2010Prop57
140
1.0
102
RTVSPost2010PropOp57
 70
     1
  0
XRECORD
  5
5DF4
102
{ACAD_REACTORS
330
5DF3
102
}
330
5DF3
100
AcDbXrecord
280
     1
102
RTVSPost2010Prop28
280
     0
102
RTVSPost2010PropOp28
 70
     1
102
RTVSPost2010Prop29
280
     1
102
RTVSPost2010PropOp29
 70
     1
102
RTVSPost2010Prop30
280
     1
102
RTVSPost2010PropOp30
 70
     1
102
RTVSPost2010Prop31
280
     0
102
RTVSPost2010PropOp31
 70
     1
102
RTVSPost2010Prop32
280
     0
102
RTVSPost2010PropOp32
 70
     1
102
RTVSPost2010Prop33
280
     0
102
RTVSPost2010PropOp33
 70
     1
102
RTVSPost2010Prop34
280
     0
102
RTVSPost2010PropOp34
 70
     1
102
RTVSPost2010Prop35
280
     0
102
RTVSPost2010PropOp35
 70
     1
102
RTVSPost2010Prop36
280
     0
102
RTVSPost2010PropOp36
 70
     1
102
RTVSPost2010Prop37
 90
       50
102
RTVSPost2010PropOp37
 70
     1
102
RTVSPost2010Prop38
140
0.0
102
RTVSPost2010PropOp38
 70
     1
102
RTVSPost2010Prop39
140
1.0
102
RTVSPost2010PropOp39
 70
     1
102
RTVSPost2010Prop40
 90
        0
102
RTVSPost2010PropOp40
 70
     1
102
RTVSPost2010Prop41ColorIndex
 90
       18
102
RTVSPost2010Prop41ColorRGB
 90
        0
102
RTVSPost2010PropOp41
 70
     1
102
RTVSPost2010Prop42
 90
       50
102
RTVSPost2010PropOp42
 70
     1
102
RTVSPost2010Prop43
 90
        3
102
RTVSPost2010PropOp43
 70
     1
102
RTVSPost2010Prop44ColorIndex
 90
        5
102
RTVSPost2010Prop44ColorRGB
 90
      255
102
RTVSPost2010PropOp44
 70
     1
102
RTVSPost2010Prop45
280
     0
102
RTVSPost2010PropOp45
 70
     1
102
RTVSPost2010Prop46
 90
       50
102
RTVSPost2010PropOp46
 70
     1
102
RTVSPost2010Prop47
 90
       50
102
RTVSPost2010PropOp47
 70
     1
102
RTVSPost2010Prop48
 90
       50
102
RTVSPost2010PropOp48
 70
     1
102
RTVSPost2010Prop49
280
     0
102
RTVSPost2010PropOp49
 70
     1
102
RTVSPost2010Prop50
 90
       50
102
RTVSPost2010PropOp50
 70
     1
102
RTVSPost2010Prop51ColorIndex
 90
      256
102
RTVSPost2010Prop51ColorRGB
 90
-16777216
102
RTVSPost2010PropOp51
 70
     0
102
RTVSPost2010Prop52
140
1.0
102
RTVSPost2010PropOp52
 70
     0
102
RTVSPost2010Prop53
 90
        2
102
RTVSPost2010PropOp53
 70
     1
102
RTVSPost2010Prop54
  1
strokes_ogs.tif
102
RTVSPost2010PropOp54
 70
     1
102
RTVSPost2010Prop55
280
     0
102
RTVSPost2010PropOp55
 70
     1
102
RTVSPost2010Prop56
140
1.0
102
RTVSPost2010PropOp56
 70
     1
102
RTVSPost2010Prop57
140
1.0
102
RTVSPost2010PropOp57
 70
     1
  0
XRECORD
  5
5DF6
102
{ACAD_REACTORS
330
5DF5
102
}
330
5DF5
100
AcDbXrecord
280
     1
102
RTVSPost2010Prop28
280
     0
102
RTVSPost2010PropOp28
 70
     1
102
RTVSPost2010Prop29
280
     1
102
RTVSPost2010PropOp29
 70
     1
102
RTVSPost2010Prop30
280
     1
102
RTVSPost2010PropOp30
 70
     1
102
RTVSPost2010Prop31
280
     0
102
RTVSPost2010PropOp31
 70
     1
102
RTVSPost2010Prop32
280
     0
102
RTVSPost2010PropOp32
 70
     1
102
RTVSPost2010Prop33
280
     0
102
RTVSPost2010PropOp33
 70
     1
102
RTVSPost2010Prop34
280
     0
102
RTVSPost2010PropOp34
 70
     1
102
RTVSPost2010Prop35
280
     0
102
RTVSPost2010PropOp35
 70
     1
102
RTVSPost2010Prop36
280
     0
102
RTVSPost2010PropOp36
 70
     1
102
RTVSPost2010Prop37
 90
       50
102
RTVSPost2010PropOp37
 70
     1
102
RTVSPost2010Prop38
140
0.0
102
RTVSPost2010PropOp38
 70
     1
102
RTVSPost2010Prop39
140
1.0
102
RTVSPost2010PropOp39
 70
     1
102
RTVSPost2010Prop40
 90
        0
102
RTVSPost2010PropOp40
 70
     1
102
RTVSPost2010Prop41ColorIndex
 90
       18
102
RTVSPost2010Prop41ColorRGB
 90
        0
102
RTVSPost2010PropOp41
 70
     1
102
RTVSPost2010Prop42
 90
       50
102
RTVSPost2010PropOp42
 70
     1
102
RTVSPost2010Prop43
 90
        3
102
RTVSPost2010PropOp43
 70
     1
102
RTVSPost2010Prop44ColorIndex
 90
        5
102
RTVSPost2010Prop44ColorRGB
 90
      255
102
RTVSPost2010PropOp44
 70
     1
102
RTVSPost2010Prop45
280
     0
102
RTVSPost2010PropOp45
 70
     1
102
RTVSPost2010Prop46
 90
       50
102
RTVSPost2010PropOp46
 70
     1
102
RTVSPost2010Prop47
 90
       50
102
RTVSPost2010PropOp47
 70
     1
102
RTVSPost2010Prop48
 90
       50
102
RTVSPost2010PropOp48
 70
     1
102
RTVSPost2010Prop49
280
     0
102
RTVSPost2010PropOp49
 70
     1
102
RTVSPost2010Prop50
 90
       50
102
RTVSPost2010PropOp50
 70
     1
102
RTVSPost2010Prop51ColorIndex
 90
      256
102
RTVSPost2010Prop51ColorRGB
 90
-16777216
102
RTVSPost2010PropOp51
 70
     0
102
RTVSPost2010Prop52
140
1.0
102
RTVSPost2010PropOp52
 70
     0
102
RTVSPost2010Prop53
 90
        2
102
RTVSPost2010PropOp53
 70
     1
102
RTVSPost2010Prop54
  1
strokes_ogs.tif
102
RTVSPost2010PropOp54
 70
     1
102
RTVSPost2010Prop55
280
     0
102
RTVSPost2010PropOp55
 70
     1
102
RTVSPost2010Prop56
140
1.0
102
RTVSPost2010PropOp56
 70
     1
102
RTVSPost2010Prop57
140
1.0
102
RTVSPost2010PropOp57
 70
     1
  0
XRECORD
  5
5DE8
102
{ACAD_REACTORS
330
5DE7
102
}
330
5DE7
100
AcDbXrecord
280
     1
102
RTVSPost2010Prop28
280
     0
102
RTVSPost2010PropOp28
 70
     1
102
RTVSPost2010Prop29
280
     1
102
RTVSPost2010PropOp29
 70
     1
102
RTVSPost2010Prop30
280
     1
102
RTVSPost2010PropOp30
 70
     1
102
RTVSPost2010Prop31
280
     0
102
RTVSPost2010PropOp31
 70
     1
102
RTVSPost2010Prop32
280
     0
102
RTVSPost2010PropOp32
 70
     1
102
RTVSPost2010Prop33
280
     0
102
RTVSPost2010PropOp33
 70
     1
102
RTVSPost2010Prop34
280
     0
102
RTVSPost2010PropOp34
 70
     1
102
RTVSPost2010Prop35
280
     0
102
RTVSPost2010PropOp35
 70
     1
102
RTVSPost2010Prop36
280
     0
102
RTVSPost2010PropOp36
 70
     1
102
RTVSPost2010Prop37
 90
       50
102
RTVSPost2010PropOp37
 70
     1
102
RTVSPost2010Prop38
140
0.0
102
RTVSPost2010PropOp38
 70
     1
102
RTVSPost2010Prop39
140
1.0
102
RTVSPost2010PropOp39
 70
     1
102
RTVSPost2010Prop40
 90
        0
102
RTVSPost2010PropOp40
 70
     1
102
RTVSPost2010Prop41ColorIndex
 90
       18
102
RTVSPost2010Prop41ColorRGB
 90
        0
102
RTVSPost2010PropOp41
 70
     1
102
RTVSPost2010Prop42
 90
       50
102
RTVSPost2010PropOp42
 70
     1
102
RTVSPost2010Prop43
 90
        3
102
RTVSPost2010PropOp43
 70
     1
102
RTVSPost2010Prop44ColorIndex
 90
        5
102
RTVSPost2010Prop44ColorRGB
 90
      255
102
RTVSPost2010PropOp44
 70
     1
102
RTVSPost2010Prop45
280
     0
102
RTVSPost2010PropOp45
 70
     1
102
RTVSPost2010Prop46
 90
       50
102
RTVSPost2010PropOp46
 70
     1
102
RTVSPost2010Prop47
 90
       50
102
RTVSPost2010PropOp47
 70
     1
102
RTVSPost2010Prop48
 90
       50
102
RTVSPost2010PropOp48
 70
     1
102
RTVSPost2010Prop49
280
     0
102
RTVSPost2010PropOp49
 70
     1
102
RTVSPost2010Prop50
 90
       50
102
RTVSPost2010PropOp50
 70
     1
102
RTVSPost2010Prop51ColorIndex
 90
      256
102
RTVSPost2010Prop51ColorRGB
 90
-16777216
102
RTVSPost2010PropOp51
 70
     0
102
RTVSPost2010Prop52
140
1.0
102
RTVSPost2010PropOp52
 70
     0
102
RTVSPost2010Prop53
 90
        2
102
RTVSPost2010PropOp53
 70
     1
102
RTVSPost2010Prop54
  1
strokes_ogs.tif
102
RTVSPost2010PropOp54
 70
     1
102
RTVSPost2010Prop55
280
     0
102
RTVSPost2010PropOp55
 70
     1
102
RTVSPost2010Prop56
140
1.0
102
RTVSPost2010PropOp56
 70
     1
102
RTVSPost2010Prop57
140
1.0
102
RTVSPost2010PropOp57
 70
     1
  0
XRECORD
  5
5DF0
102
{ACAD_REACTORS
330
5DEF
102
}
330
5DEF
100
AcDbXrecord
280
     1
102
RTVSPost2010Prop28
280
     0
102
RTVSPost2010PropOp28
 70
     1
102
RTVSPost2010Prop29
280
     1
102
RTVSPost2010PropOp29
 70
     1
102
RTVSPost2010Prop30
280
     1
102
RTVSPost2010PropOp30
 70
     1
102
RTVSPost2010Prop31
280
     0
102
RTVSPost2010PropOp31
 70
     1
102
RTVSPost2010Prop32
280
     0
102
RTVSPost2010PropOp32
 70
     1
102
RTVSPost2010Prop33
280
     0
102
RTVSPost2010PropOp33
 70
     1
102
RTVSPost2010Prop34
280
     0
102
RTVSPost2010PropOp34
 70
     1
102
RTVSPost2010Prop35
280
     0
102
RTVSPost2010PropOp35
 70
     1
102
RTVSPost2010Prop36
280
     0
102
RTVSPost2010PropOp36
 70
     1
102
RTVSPost2010Prop37
 90
       50
102
RTVSPost2010PropOp37
 70
     1
102
RTVSPost2010Prop38
140
0.0
102
RTVSPost2010PropOp38
 70
     1
102
RTVSPost2010Prop39
140
1.0
102
RTVSPost2010PropOp39
 70
     1
102
RTVSPost2010Prop40
 90
        0
102
RTVSPost2010PropOp40
 70
     1
102
RTVSPost2010Prop41ColorIndex
 90
       18
102
RTVSPost2010Prop41ColorRGB
 90
        0
102
RTVSPost2010PropOp41
 70
     1
102
RTVSPost2010Prop42
 90
       50
102
RTVSPost2010PropOp42
 70
     1
102
RTVSPost2010Prop43
 90
        3
102
RTVSPost2010PropOp43
 70
     1
102
RTVSPost2010Prop44ColorIndex
 90
        5
102
RTVSPost2010Prop44ColorRGB
 90
      255
102
RTVSPost2010PropOp44
 70
     1
102
RTVSPost2010Prop45
280
     0
102
RTVSPost2010PropOp45
 70
     1
102
RTVSPost2010Prop46
 90
       50
102
RTVSPost2010PropOp46
 70
     1
102
RTVSPost2010Prop47
 90
       50
102
RTVSPost2010PropOp47
 70
     1
102
RTVSPost2010Prop48
 90
       50
102
RTVSPost2010PropOp48
 70
     1
102
RTVSPost2010Prop49
280
     0
102
RTVSPost2010PropOp49
 70
     1
102
RTVSPost2010Prop50
 90
       50
102
RTVSPost2010PropOp50
 70
     1
102
RTVSPost2010Prop51ColorIndex
 90
      256
102
RTVSPost2010Prop51ColorRGB
 90
-16777216
102
RTVSPost2010PropOp51
 70
     0
102
RTVSPost2010Prop52
140
1.0
102
RTVSPost2010PropOp52
 70
     0
102
RTVSPost2010Prop53
 90
        2
102
RTVSPost2010PropOp53
 70
     1
102
RTVSPost2010Prop54
  1
strokes_ogs.tif
102
RTVSPost2010PropOp54
 70
     1
102
RTVSPost2010Prop55
280
     0
102
RTVSPost2010PropOp55
 70
     1
102
RTVSPost2010Prop56
140
1.0
102
RTVSPost2010PropOp56
 70
     1
102
RTVSPost2010Prop57
140
1.0
102
RTVSPost2010PropOp57
 70
     1
  0
XRECORD
  5
5DF8
102
{ACAD_REACTORS
330
5DF7
102
}
330
5DF7
100
AcDbXrecord
280
     1
102
RTVSPost2010Prop28
280
     0
102
RTVSPost2010PropOp28
 70
     1
102
RTVSPost2010Prop29
280
     1
102
RTVSPost2010PropOp29
 70
     1
102
RTVSPost2010Prop30
280
     1
102
RTVSPost2010PropOp30
 70
     1
102
RTVSPost2010Prop31
280
     0
102
RTVSPost2010PropOp31
 70
     1
102
RTVSPost2010Prop32
280
     0
102
RTVSPost2010PropOp32
 70
     1
102
RTVSPost2010Prop33
280
     0
102
RTVSPost2010PropOp33
 70
     1
102
RTVSPost2010Prop34
280
     0
102
RTVSPost2010PropOp34
 70
     1
102
RTVSPost2010Prop35
280
     0
102
RTVSPost2010PropOp35
 70
     1
102
RTVSPost2010Prop36
280
     0
102
RTVSPost2010PropOp36
 70
     1
102
RTVSPost2010Prop37
 90
       50
102
RTVSPost2010PropOp37
 70
     1
102
RTVSPost2010Prop38
140
0.0
102
RTVSPost2010PropOp38
 70
     1
102
RTVSPost2010Prop39
140
1.0
102
RTVSPost2010PropOp39
 70
     1
102
RTVSPost2010Prop40
 90
        0
102
RTVSPost2010PropOp40
 70
     1
102
RTVSPost2010Prop41ColorIndex
 90
       18
102
RTVSPost2010Prop41ColorRGB
 90
        0
102
RTVSPost2010PropOp41
 70
     1
102
RTVSPost2010Prop42
 90
       50
102
RTVSPost2010PropOp42
 70
     1
102
RTVSPost2010Prop43
 90
        3
102
RTVSPost2010PropOp43
 70
     1
102
RTVSPost2010Prop44ColorIndex
 90
        5
102
RTVSPost2010Prop44ColorRGB
 90
      255
102
RTVSPost2010PropOp44
 70
     1
102
RTVSPost2010Prop45
280
     0
102
RTVSPost2010PropOp45
 70
     1
102
RTVSPost2010Prop46
 90
       50
102
RTVSPost2010PropOp46
 70
     1
102
RTVSPost2010Prop47
 90
       50
102
RTVSPost2010PropOp47
 70
     1
102
RTVSPost2010Prop48
 90
       50
102
RTVSPost2010PropOp48
 70
     1
102
RTVSPost2010Prop49
280
     0
102
RTVSPost2010PropOp49
 70
     1
102
RTVSPost2010Prop50
 90
       50
102
RTVSPost2010PropOp50
 70
     1
102
RTVSPost2010Prop51ColorIndex
 90
      256
102
RTVSPost2010Prop51ColorRGB
 90
-16777216
102
RTVSPost2010PropOp51
 70
     0
102
RTVSPost2010Prop52
140
1.0
102
RTVSPost2010PropOp52
 70
     0
102
RTVSPost2010Prop53
 90
        2
102
RTVSPost2010PropOp53
 70
     1
102
RTVSPost2010Prop54
  1
strokes_ogs.tif
102
RTVSPost2010PropOp54
 70
     1
102
RTVSPost2010Prop55
280
     0
102
RTVSPost2010PropOp55
 70
     1
102
RTVSPost2010Prop56
140
1.0
102
RTVSPost2010PropOp56
 70
     1
102
RTVSPost2010Prop57
140
1.0
102
RTVSPost2010PropOp57
 70
     1
  0
ENDSEC
  0
EOF
