  0
SECTION
  2
HEADER
  9
$ACADVER
  1
AC1024
  9
$ACADMAINTVER
 70
   225
  9
$DWGCODEPAGE
  3
ANSI_932
  9
$LASTSAVEDBY
  1
takanashi
  9
$INSBASE
 10
0.0
 20
0.0
 30
0.0
  9
$EXTMIN
 10
19.9694844009
 20
9.997285330199247
 30
-0.0000000000034035
  9
$EXTMAX
 10
800.0354022998775
 20
560.0291761481542
 30
0.0000000000000104
  9
$LIMMIN
 10
0.0
 20
0.0
  9
$LIMMAX
 10
840.0
 20
594.0
  9
$ORTHOMODE
 70
     0
  9
$REGENMODE
 70
     1
  9
$FILLMODE
 70
     1
  9
$QTEXTMODE
 70
     0
  9
$MIRRTEXT
 70
     0
  9
$LTSCALE
 40
1.0
  9
$ATTMODE
 70
     1
  9
$TEXTSIZE
 40
5.0
  9
$TRACEWID
 40
1.0
  9
$TEXTSTYLE
  7
STANDARD
  9
$CLAYER
  8
0
  9
$CELTYPE
  6
BYLAYER
  9
$CECOLOR
 62
   256
  9
$CELTSCALE
 40
1.0
  9
$DISPSILH
 70
     0
  9
$DIMSCALE
 40
1.0
  9
$DIMASZ
 40
0.0
  9
$DIMEXO
 40
5.0
  9
$DIMDLI
 40
3.75
  9
$DIMRND
 40
0.0
  9
$DIMDLE
 40
0.0
  9
$DIMEXE
 40
0.0
  9
$DIMTP
 40
0.0
  9
$DIMTM
 40
0.0
  9
$DIMTXT
 40
5.0
  9
$DIMCEN
 40
2.5
  9
$DIMTSZ
 40
0.0
  9
$DIMTOL
 70
     0
  9
$DIMLIM
 70
     0
  9
$DIMTIH
 70
     0
  9
$DIMTOH
 70
     0
  9
$DIMSE1
 70
     0
  9
$DIMSE2
 70
     0
  9
$DIMTAD
 70
     1
  9
$DIMZIN
 70
     8
  9
$DIMBLK
  1
NONE
  9
$DIMASO
 70
     1
  9
$DIMSHO
 70
     1
  9
$DIMPOST
  1

  9
$DIMAPOST
  1

  9
$DIMALT
 70
     0
  9
$DIMALTD
 70
     2
  9
$DIMALTF
 40
25.4
  9
$DIMLFAC
 40
1.0
  9
$DIMTOFL
 70
     1
  9
$DIMTVP
 40
0.0
  9
$DIMTIX
 70
     0
  9
$DIMSOXD
 70
     0
  9
$DIMSAH
 70
     0
  9
$DIMBLK1
  1

  9
$DIMBLK2
  1

  9
$DIMSTYLE
  2
STANDARD
  9
$DIMCLRD
 70
     0
  9
$DIMCLRE
 70
     0
  9
$DIMCLRT
 70
     0
  9
$DIMTFAC
 40
1.0
  9
$DIMGAP
 40
2.0
  9
$DIMJUST
 70
     0
  9
$DIMSD1
 70
     0
  9
$DIMSD2
 70
     0
  9
$DIMTOLJ
 70
     1
  9
$DIMTZIN
 70
     0
  9
$DIMALTZ
 70
     0
  9
$DIMALTTZ
 70
     0
  9
$DIMUPT
 70
     0
  9
$DIMDEC
 70
     4
  9
$DIMTDEC
 70
     4
  9
$DIMALTU
 70
     2
  9
$DIMALTTD
 70
     2
  9
$DIMTXSTY
  7
STANDARD
  9
$DIMAUNIT
 70
     0
  9
$DIMADEC
 70
     0
  9
$DIMALTRND
 40
0.0
  9
$DIMAZIN
 70
     0
  9
$DIMDSEP
 70
    46
  9
$DIMATFIT
 70
     3
  9
$DIMFRAC
 70
     0
  9
$DIMLDRBLK
  1
NONE
  9
$DIMLUNIT
 70
     2
  9
$DIMLWD
 70
    -2
  9
$DIMLWE
 70
    -2
  9
$DIMTMOVE
 70
     0
  9
$DIMFXL
 40
1.0
  9
$DIMFXLON
 70
     0
  9
$DIMJOGANG
 40
0.7853981633974483
  9
$DIMTFILL
 70
     0
  9
$DIMTFILLCLR
 70
     0
  9
$DIMARCSYM
 70
     0
  9
$DIMLTYPE
  6

  9
$DIMLTEX1
  6

  9
$DIMLTEX2
  6

  9
$DIMTXTDIRECTION
 70
     0
  9
$LUNITS
 70
     2
  9
$LUPREC
 70
     4
  9
$SKETCHINC
 40
1.0
  9
$FILLETRAD
 40
1.0
  9
$AUNITS
 70
     0
  9
$AUPREC
 70
     1
  9
$MENU
  1
.
  9
$ELEVATION
 40
0.0
  9
$PELEVATION
 40
0.0
  9
$THICKNESS
 40
0.0
  9
$LIMCHECK
 70
     0
  9
$CHAMFERA
 40
0.0
  9
$CHAMFERB
 40
0.0
  9
$CHAMFERC
 40
20.0
  9
$CHAMFERD
 40
0.0
  9
$SKPOLY
 70
     0
  9
$TDCREATE
 40
2450431.623194444
  9
$TDUCREATE
 40
2450431.248202778
  9
$TDUPDATE
 40
2458569.370486111
  9
$TDUUPDATE
 40
2458568.995486111
  9
$TDINDWG
 40
1.3614469097
  9
$TDUSRTIMER
 40
1.3614467708
  9
$USRTIMER
 70
     1
  9
$ANGBASE
 50
0.0
  9
$ANGDIR
 70
     0
  9
$PDMODE
 70
     0
  9
$PDSIZE
 40
0.0
  9
$PLINEWID
 40
0.0
  9
$SPLFRAME
 70
     0
  9
$SPLINETYPE
 70
     6
  9
$SPLINESEGS
 70
     8
  9
$HANDSEED
  5
81AD
  9
$SURFTAB1
 70
     6
  9
$SURFTAB2
 70
     6
  9
$SURFTYPE
 70
     6
  9
$SURFU
 70
     6
  9
$SURFV
 70
     6
  9
$UCSBASE
  2

  9
$UCSNAME
  2

  9
$UCSORG
 10
0.0
 20
0.0
 30
0.0
  9
$UCSXDIR
 10
1.0
 20
0.0
 30
0.0
  9
$UCSYDIR
 10
0.0
 20
1.0
 30
0.0
  9
$UCSORTHOREF
  2

  9
$UCSORTHOVIEW
 70
     1
  9
$UCSORGTOP
 10
0.0
 20
0.0
 30
0.0
  9
$UCSORGBOTTOM
 10
0.0
 20
0.0
 30
0.0
  9
$UCSORGLEFT
 10
0.0
 20
0.0
 30
0.0
  9
$UCSORGRIGHT
 10
0.0
 20
0.0
 30
0.0
  9
$UCSORGFRONT
 10
0.0
 20
0.0
 30
0.0
  9
$UCSORGBACK
 10
0.0
 20
0.0
 30
0.0
  9
$PUCSBASE
  2

  9
$PUCSNAME
  2

  9
$PUCSORG
 10
0.0
 20
0.0
 30
0.0
  9
$PUCSXDIR
 10
1.0
 20
0.0
 30
0.0
  9
$PUCSYDIR
 10
0.0
 20
1.0
 30
0.0
  9
$PUCSORTHOREF
  2

  9
$PUCSORTHOVIEW
 70
     0
  9
$PUCSORGTOP
 10
0.0
 20
0.0
 30
0.0
  9
$PUCSORGBOTTOM
 10
0.0
 20
0.0
 30
0.0
  9
$PUCSORGLEFT
 10
0.0
 20
0.0
 30
0.0
  9
$PUCSORGRIGHT
 10
0.0
 20
0.0
 30
0.0
  9
$PUCSORGFRONT
 10
0.0
 20
0.0
 30
0.0
  9
$PUCSORGBACK
 10
0.0
 20
0.0
 30
0.0
  9
$USERI1
 70
     0
  9
$USERI2
 70
     0
  9
$USERI3
 70
     0
  9
$USERI4
 70
     0
  9
$USERI5
 70
     0
  9
$USERR1
 40
0.0
  9
$USERR2
 40
0.0
  9
$USERR3
 40
0.0
  9
$USERR4
 40
0.0
  9
$USERR5
 40
0.0
  9
$WORLDVIEW
 70
     1
  9
$SHADEDGE
 70
     3
  9
$SHADEDIF
 70
    70
  9
$TILEMODE
 70
     1
  9
$MAXACTVP
 70
    16
  9
$PINSBASE
 10
0.0
 20
0.0
 30
0.0
  9
$PLIMCHECK
 70
     0
  9
$PEXTMIN
 10
1.000000000000000E+20
 20
1.000000000000000E+20
 30
1.000000000000000E+20
  9
$PEXTMAX
 10
-1.000000000000000E+20
 20
-1.000000000000000E+20
 30
-1.000000000000000E+20
  9
$PLIMMIN
 10
0.0
 20
0.0
  9
$PLIMMAX
 10
420.0
 20
297.0
  9
$UNITMODE
 70
     0
  9
$VISRETAIN
 70
     0
  9
$PLINEGEN
 70
     0
  9
$PSLTSCALE
 70
     1
  9
$TREEDEPTH
 70
  3020
  9
$CMLSTYLE
  2
STANDARD
  9
$CMLJUST
 70
     0
  9
$CMLSCALE
 40
1.0
  9
$PROXYGRAPHICS
 70
     1
  9
$MEASUREMENT
 70
     1
  9
$CELWEIGHT
370
    -1
  9
$ENDCAPS
280
     0
  9
$JOINSTYLE
280
     0
  9
$LWDISPLAY
290
     0
  9
$INSUNITS
 70
     0
  9
$HYPERLINKBASE
  1

  9
$STYLESHEET
  1
MONOCHROME.CTB
  9
$XEDIT
290
     1
  9
$CEPSNTYPE
380
     0
  9
$PSTYLEMODE
290
     1
  9
$FINGERPRINTGUID
  2
{87E49A17-DA8C-4230-82A7-C569D142D783}
  9
$VERSIONGUID
  2
{723AC4E5-E65F-6D4A-A3CA-E35D0C66CF2F}
  9
$EXTNAMES
290
     1
  9
$PSVPSCALE
 40
0.0
  9
$OLESTARTUP
290
     0
  9
$SORTENTS
280
   127
  9
$INDEXCTL
280
     0
  9
$HIDETEXT
280
     0
  9
$XCLIPFRAME
280
     2
  9
$HALOGAP
280
     0
  9
$OBSCOLOR
 70
   257
  9
$OBSLTYPE
280
     0
  9
$INTERSECTIONDISPLAY
280
     0
  9
$INTERSECTIONCOLOR
 70
   257
  9
$DIMASSOC
280
     1
  9
$PROJECTNAME
  1

  9
$CAMERADISPLAY
290
     0
  9
$LENSLENGTH
 40
50.0
  9
$CAMERAHEIGHT
 40
0.0
  9
$STEPSPERSEC
 40
2.0
  9
$STEPSIZE
 40
6.0
  9
$3DDWFPREC
 40
2.0
  9
$PSOLWIDTH
 40
0.25
  9
$PSOLHEIGHT
 40
4.0
  9
$LOFTANG1
 40
1.570796326794896
  9
$LOFTANG2
 40
1.570796326794896
  9
$LOFTMAG1
 40
0.0
  9
$LOFTMAG2
 40
0.0
  9
$LOFTPARAM
 70
     7
  9
$LOFTNORMALS
280
     1
  9
$LATITUDE
 40
37.795
  9
$LONGITUDE
 40
-122.394
  9
$NORTHDIRECTION
 40
0.0
  9
$TIMEZONE
 70
 -8000
  9
$LIGHTGLYPHDISPLAY
280
     1
  9
$TILEMODELIGHTSYNCH
280
     1
  9
$CMATERIAL
347
19C3
  9
$SOLIDHIST
280
     0
  9
$SHOWHIST
280
     1
  9
$DWFFRAME
280
     2
  9
$DGNFRAME
280
     0
  9
$REALWORLDSCALE
290
     1
  9
$INTERFERECOLOR
 62
     1
  9
$INTERFEREOBJVS
345
19D0
  9
$INTERFEREVPVS
346
2148
  9
$CSHADOW
280
     0
  9
$SHADOWPLANELOCATION
 40
0.0
  0
ENDSEC
  0
SECTION
  2
CLASSES
  0
CLASS
  1
ACDBDICTIONARYWDFLT
  2
AcDbDictionaryWithDefault
  3
ObjectDBX Classes
 90
        0
 91
        1
280
     0
281
     0
  0
CLASS
  1
TABLESTYLE
  2
AcDbTableStyle
  3
ObjectDBX Classes
 90
     4095
 91
        1
280
     0
281
     0
  0
CLASS
  1
SORTENTSTABLE
  2
AcDbSortentsTable
  3
ObjectDBX Classes
 90
        0
 91
        1
280
     0
281
     0
  0
CLASS
  1
DICTIONARYVAR
  2
AcDbDictionaryVar
  3
ObjectDBX Classes
 90
        0
 91
       13
280
     0
281
     0
  0
CLASS
  1
MATERIAL
  2
AcDbMaterial
  3
ObjectDBX Classes
 90
     1153
 91
        3
280
     0
281
     0
  0
CLASS
  1
VISUALSTYLE
  2
AcDbVisualStyle
  3
ObjectDBX Classes
 90
     4095
 91
       26
280
     0
281
     0
  0
CLASS
  1
PLOTSETTINGS
  2
AcDbPlotSettings
  3
ObjectDBX Classes
 90
        0
 91
        1
280
     0
281
     0
  0
CLASS
  1
SCALE
  2
AcDbScale
  3
ObjectDBX Classes
 90
     1153
 91
       33
280
     0
281
     0
  0
CLASS
  1
MLEADERSTYLE
  2
AcDbMLeaderStyle
  3
ACDB_MLEADERSTYLE_CLASS
 90
     4095
 91
        1
280
     0
281
     0
  0
CLASS
  1
CELLSTYLEMAP
  2
AcDbCellStyleMap
  3
ObjectDBX Classes
 90
     1152
 91
        1
280
     0
281
     0
  0
CLASS
  1
MULTILEADER
  2
AcDbMLeader
  3
ACDB_MLEADER_CLASS
 90
     1025
 91
        5
280
     0
281
     1
  0
CLASS
  1
ACDBSECTIONVIEWSTYLE
  2
AcDbSectionViewStyle
  3
ObjectDBX Classes
 90
     1025
 91
        1
280
     0
281
     0
  0
CLASS
  1
ACDBDETAILVIEWSTYLE
  2
AcDbDetailViewStyle
  3
ObjectDBX Classes
 90
     1025
 91
        1
280
     0
281
     0
  0
ENDSEC
  0
SECTION
  2
TABLES
  0
TABLE
  2
VPORT
  5
8
102
{ACAD_XDICTIONARY
360
19DC
102
}
330
0
100
AcDbSymbolTable
 70
     1
  0
VPORT
  5
1FE0
330
8
100
AcDbSymbolTableRecord
100
AcDbViewportTableRecord
  2
*Active
 70
     0
 10
0.0
 20
0.0
 11
1.0
 21
1.0
 12
420.0000000000001
 22
297.0
 13
0.0
 23
0.0
 14
5.0
 24
5.0
 15
10.0
 25
10.0
 16
0.0
 26
0.0
 36
1.0
 17
0.0
 27
0.0
 37
0.0
 40
598.1684210526316
 41
1.864168618266979
 42
50.0
 43
0.0
 44
0.0
 50
0.0
 51
0.0
 71
     0
 72
   100
 73
     1
 74
     0
 75
     0
 76
     0
 77
     0
 78
     0
281
     0
 65
     1
110
0.0
120
0.0
130
0.0
111
1.0
121
0.0
131
0.0
112
0.0
122
1.0
132
0.0
 79
     0
146
0.0
348
19CC
 60
     3
 61
     5
292
     1
282
     1
141
0.0
142
0.0
 63
   250
421
  3355443
1001
ACAD_NAV_VCDISPLAY
1070
     3
  0
ENDTAB
  0
TABLE
  2
LTYPE
  5
5
330
0
100
AcDbSymbolTable
 70
     4
  0
LTYPE
  5
14
330
5
100
AcDbSymbolTableRecord
100
AcDbLinetypeTableRecord
  2
BYBLOCK
 70
     0
  3

 72
    65
 73
     0
 40
0.0
  0
LTYPE
  5
15
330
5
100
AcDbSymbolTableRecord
100
AcDbLinetypeTableRecord
  2
BYLAYER
 70
     0
  3

 72
    65
 73
     0
 40
0.0
  0
LTYPE
  5
16
330
5
100
AcDbSymbolTableRecord
100
AcDbLinetypeTableRecord
  2
CONTINUOUS
 70
     0
  3
Solid line
 72
    65
 73
     0
 40
0.0
  0
LTYPE
  5
E7E
330
5
100
AcDbSymbolTableRecord
100
AcDbLinetypeTableRecord
  2
DASHED2
 70
     0
  3
Dashed (.5x) _ _ _ _ _ _ _ _ _ _ _ _ _ _ _ _ _
 72
    65
 73
     2
 40
9.524999999999996
 49
6.349999999999998
 74
     0
 49
-3.174999999999998
 74
     0
  0
LTYPE
  5
150B
330
5
100
AcDbSymbolTableRecord
100
AcDbLinetypeTableRecord
  2
CENTER2
 70
     0
  3
Center (.5x) ___ _ ___ _ ___ _ ___ _ ___ _ ___
 72
    65
 73
     4
 40
28.575
 49
19.05
 74
     0
 49
-3.174999999999998
 74
     0
 49
3.174999999999998
 74
     0
 49
-3.174999999999998
 74
     0
  0
LTYPE
  5
1A07
330
5
100
AcDbSymbolTableRecord
100
AcDbLinetypeTableRecord
  2
HIDDEN
 70
     0
  3
__ __ __ __ __ __ __ __ __ __ __ __ __ __ __ __
 72
    65
 73
     2
 40
0.375
 49
0.25
 74
     0
 49
-0.125
 74
     0
  0
ENDTAB
  0
TABLE
  2
LAYER
  5
2
102
{ACAD_XDICTIONARY
360
1872
102
}
330
0
100
AcDbSymbolTable
 70
    12
  0
LAYER
  5
F
102
{ACAD_XDICTIONARY
360
1F81
102
}
330
2
100
AcDbSymbolTableRecord
100
AcDbLayerTableRecord
  2
0
 70
     0
 62
     7
  6
CONTINUOUS
370
    -3
390
3AE
347
19C5
  0
LAYER
  5
87
102
{ACAD_XDICTIONARY
360
1F83
102
}
330
2
100
AcDbSymbolTableRecord
100
AcDbLayerTableRecord
  2
WAKU
 70
     0
 62
     7
  6
CONTINUOUS
370
    -3
390
3AE
347
19C5
  0
LAYER
  5
9C
330
2
100
AcDbSymbolTableRecord
100
AcDbLayerTableRecord
  2
DEFPOINTS
 70
     0
 62
     7
  6
CONTINUOUS
290
     0
370
    -3
390
3AE
347
19C5
  0
LAYER
  5
150E
102
{ACAD_XDICTIONARY
360
1F85
102
}
330
2
100
AcDbSymbolTableRecord
100
AcDbLayerTableRecord
  2
TEKUSU
 70
     0
 62
     7
  6
CONTINUOUS
370
    -3
390
3AE
347
19C5
  0
LAYER
  5
21A9
330
2
100
AcDbSymbolTableRecord
100
AcDbLayerTableRecord
  2
HIKIDASI
 70
     0
 62
     7
  6
CONTINUOUS
370
     5
390
3AE
347
19C5
1001
AcAecLayerStandard
1000

1000

1001
AcCmTransparency
1071
        0
  0
LAYER
  5
21BA
330
2
100
AcDbSymbolTableRecord
100
AcDbLayerTableRecord
  2
SEIHIN
 70
     0
 62
     4
  6
CONTINUOUS
370
    -3
390
3AE
347
19C5
1001
AcAecLayerStandard
1000

1000

1001
AcCmTransparency
1071
        0
  0
LAYER
  5
21E8
330
2
100
AcDbSymbolTableRecord
100
AcDbLayerTableRecord
  2
SEALING
 70
     0
 62
     7
  6
CONTINUOUS
370
    13
390
3AE
347
19C5
1001
AcAecLayerStandard
1000

1000

1001
AcCmTransparency
1071
        0
  0
LAYER
  5
21E9
330
2
100
AcDbSymbolTableRecord
100
AcDbLayerTableRecord
  2
SUNPOU
 70
     0
 62
     7
  6
CONTINUOUS
370
     5
390
3AE
347
19C5
1001
AcAecLayerStandard
1000

1000

1001
AcCmTransparency
1071
        0
  0
LAYER
  5
21F3
330
2
100
AcDbSymbolTableRecord
100
AcDbLayerTableRecord
  2
SITAJI
 70
     0
 62
     7
  6
CONTINUOUS
370
    -3
390
3AE
347
19C5
1001
AcAecLayerStandard
1000

1000

1001
AcCmTransparency
1071
        0
  0
LAYER
  5
610D
330
2
100
AcDbSymbolTableRecord
100
AcDbLayerTableRecord
  2
PACKING
 70
     0
 62
     7
  6
CONTINUOUS
370
     9
390
3AE
347
19C5
1001
AcAecLayerStandard
1000

1000

1001
AcCmTransparency
1071
        0
  0
LAYER
  5
63A9
330
2
100
AcDbSymbolTableRecord
100
AcDbLayerTableRecord
  2
NOKI
 70
     0
 62
     7
  6
CONTINUOUS
370
    -3
390
3AE
347
19C5
1001
AcAecLayerStandard
1000

1000

1001
AcCmTransparency
1071
        0
  0
LAYER
  5
78AD
102
{ACAD_XDICTIONARY
360
78AE
102
}
330
2
100
AcDbSymbolTableRecord
100
AcDbLayerTableRecord
  2
YAKUMONO
 70
     0
 62
     1
  6
CONTINUOUS
370
    -3
390
3AE
347
19C5
  0
ENDTAB
  0
TABLE
  2
STYLE
  5
3
330
0
100
AcDbSymbolTable
 70
     2
  0
STYLE
  5
10
330
3
100
AcDbSymbolTableRecord
100
AcDbTextStyleTableRecord
  2
STANDARD
 70
     0
 40
5.0
 41
1.0
 50
0.0
 71
     0
 42
5.0
  3
txt.shx
  4
extfont.shx
  0
STYLE
  5
EA1
330
3
100
AcDbSymbolTableRecord
100
AcDbTextStyleTableRecord
  2
WAKU
 70
     0
 40
5.0
 41
1.0
 50
0.0
 71
     0
 42
5.0
  3

  4

1001
ACAD
1000
MS Gothic
1071
    32817
  0
ENDTAB
  0
TABLE
  2
VIEW
  5
6
330
0
100
AcDbSymbolTable
 70
     2
  0
ENDTAB
  0
TABLE
  2
UCS
  5
7
330
0
100
AcDbSymbolTable
 70
     0
  0
ENDTAB
  0
TABLE
  2
APPID
  5
9
330
0
100
AcDbSymbolTable
 70
    13
  0
APPID
  5
11
330
9
100
AcDbSymbolTableRecord
100
AcDbRegAppTableRecord
  2
ACAD
 70
     0
  0
APPID
  5
18A2
330
9
100
AcDbSymbolTableRecord
100
AcDbRegAppTableRecord
  2
AcAecLayerStandard
 70
     0
  0
APPID
  5
1A0B
330
9
100
AcDbSymbolTableRecord
100
AcDbRegAppTableRecord
  2
GENIUS_GENODEF_13
 70
     0
  0
APPID
  5
1A0C
330
9
100
AcDbSymbolTableRecord
100
AcDbRegAppTableRecord
  2
GENIUS_GENOBJ-N-FIL_13
 70
     0
  0
APPID
  5
1C2D
330
9
100
AcDbSymbolTableRecord
100
AcDbRegAppTableRecord
  2
ACAD_PSEXT
 70
     0
  0
APPID
  5
1F72
330
9
100
AcDbSymbolTableRecord
100
AcDbRegAppTableRecord
  2
ACAD_MLEADERVER
 70
     0
  0
APPID
  5
2029
330
9
100
AcDbSymbolTableRecord
100
AcDbRegAppTableRecord
  2
ACAD_EXEMPT_FROM_CAD_STANDARDS
 70
     0
  0
APPID
  5
2157
330
9
100
AcDbSymbolTableRecord
100
AcDbRegAppTableRecord
  2
ACAD_NAV_VCDISPLAY
 70
     0
  0
APPID
  5
21AA
330
9
100
AcDbSymbolTableRecord
100
AcDbRegAppTableRecord
  2
AcCmTransparency
 70
     0
  0
APPID
  5
21CB
330
9
100
AcDbSymbolTableRecord
100
AcDbRegAppTableRecord
  2
GradientColor1ACI
 70
     0
  0
APPID
  5
21CC
330
9
100
AcDbSymbolTableRecord
100
AcDbRegAppTableRecord
  2
GradientColor2ACI
 70
     0
  0
APPID
  5
5ECC
330
9
100
AcDbSymbolTableRecord
100
AcDbRegAppTableRecord
  2
ACAD_DSTYLE_DIMJAG
 70
     0
  0
APPID
  5
5ECD
330
9
100
AcDbSymbolTableRecord
100
AcDbRegAppTableRecord
  2
ACAD_DSTYLE_DIMTALN
 70
     0
  0
ENDTAB
  0
TABLE
  2
DIMSTYLE
  5
A
330
0
100
AcDbSymbolTable
 70
     1
100
AcDbDimStyleTable
 71
     1
340
1D
  0
DIMSTYLE
105
1D
102
{ACAD_REACTORS
330
6C2B
330
6CB9
330
6CBA
102
}
330
A
100
AcDbSymbolTableRecord
100
AcDbDimStyleTableRecord
  2
STANDARD
 70
     0
 41
0.0
 42
5.0
 43
3.75
 44
0.0
 73
     0
 74
     0
 77
     1
 78
     8
140
5.0
141
2.5
147
2.0
172
     1
340
10
341
B0
342
B0
  0
ENDTAB
  0
TABLE
  2
BLOCK_RECORD
  5
1
330
0
100
AcDbSymbolTable
 70
     6
  0
BLOCK_RECORD
  5
1A
102
{ACAD_XDICTIONARY
360
1A93
102
}
330
1
100
AcDbSymbolTableRecord
100
AcDbBlockTableRecord
  2
*MODEL_SPACE
340
3B3
 70
     0
280
     1
281
     0
  0
BLOCK_RECORD
  5
17
330
1
100
AcDbSymbolTableRecord
100
AcDbBlockTableRecord
  2
*PAPER_SPACE
340
3B4
 70
     0
280
     1
281
     0
  0
BLOCK_RECORD
  5
B0
330
1
100
AcDbSymbolTableRecord
100
AcDbBlockTableRecord
  2
_NONE
340
0
 70
     0
280
     1
281
     0
  0
BLOCK_RECORD
  5
E1F
330
1
100
AcDbSymbolTableRecord
100
AcDbBlockTableRecord
  2
IGロゴ
340
0
 70
     0
280
     1
281
     0
  0
BLOCK_RECORD
  5
14C3
330
1
100
AcDbSymbolTableRecord
100
AcDbBlockTableRecord
  2
_DotBlank
340
0
102
{BLKREFS
331
6D49
331
6D4A
331
77E7
331
77E8
102
}
 70
     0
280
     1
281
     0
  0
BLOCK_RECORD
  5
6D14
330
1
100
AcDbSymbolTableRecord
100
AcDbBlockTableRecord
  2
*D3
340
0
 70
     0
280
     1
281
     0
  0
BLOCK_RECORD
  5
6D1E
330
1
100
AcDbSymbolTableRecord
100
AcDbBlockTableRecord
  2
*D4
340
0
 70
     0
280
     1
281
     0
  0
BLOCK_RECORD
  5
6D2A
330
1
100
AcDbSymbolTableRecord
100
AcDbBlockTableRecord
  2
*D5
340
0
 70
     0
280
     1
281
     0
  0
ENDTAB
  0
ENDSEC
  0
SECTION
  2
BLOCKS
  0
BLOCK
  5
1B
330
1A
100
AcDbEntity
  8
0
100
AcDbBlockBegin
  2
*MODEL_SPACE
 70
     0
 10
0.0
 20
0.0
 30
0.0
  3
*MODEL_SPACE
  1

  0
ENDBLK
  5
1C
330
1A
100
AcDbEntity
  8
0
100
AcDbBlockEnd
  0
BLOCK
  5
18
330
17
100
AcDbEntity
 67
     1
  8
0
100
AcDbBlockBegin
  2
*PAPER_SPACE
 70
     0
 10
0.0
 20
0.0
 30
0.0
  3
*PAPER_SPACE
  1

  0
ENDBLK
  5
19
330
17
100
AcDbEntity
 67
     1
  8
0
100
AcDbBlockEnd
  0
BLOCK
  5
B1
330
B0
100
AcDbEntity
  8
0
100
AcDbBlockBegin
  2
_NONE
 70
     0
 10
0.0
 20
0.0
 30
0.0
  3
_NONE
  1

  0
CIRCLE
  5
B2
330
B0
100
AcDbEntity
  8
0
  6
ByBlock
 62
     0
100
AcDbCircle
 10
0.0
 20
0.0
 30
0.0
 40
0.25
  0
ENDBLK
  5
B3
330
B0
100
AcDbEntity
  8
0
100
AcDbBlockEnd
  0
BLOCK
  5
E20
330
E1F
100
AcDbEntity
  8
0
100
AcDbBlockBegin
  2
IGロゴ
 70
     0
 10
0.0
 20
0.0
 30
0.0
  3
IGロゴ
  1

  0
CIRCLE
  5
E21
330
E1F
100
AcDbEntity
  8
WAKU
100
AcDbCircle
 10
-7.133294257549736
 20
40.74217652150603
 30
0.0
 40
0.8702311197916666
  0
POLYLINE
  5
E22
330
E1F
100
AcDbEntity
  8
WAKU
100
AcDb2dPolyline
 66
     1
 10
0.0
 20
0.0
 30
0.0
 70
     1
  0
VERTEX
  5
E23
330
E22
100
AcDbEntity
  8
WAKU
100
AcDbVertex
100
AcDb2dVertex
 10
-6.558996840015013
 20
36.03789863522132
 30
0.0
  0
VERTEX
  5
E24
330
E22
100
AcDbEntity
  8
WAKU
100
AcDbVertex
100
AcDb2dVertex
 10
-7.774082017966402
 20
36.03789863522132
 30
0.0
  0
VERTEX
  5
E25
330
E22
100
AcDbEntity
  8
WAKU
100
AcDbVertex
100
AcDb2dVertex
 10
-7.774082017966402
 20
38.72059449025604
 30
0.0
  0
VERTEX
  5
E26
330
E22
100
AcDbEntity
  8
WAKU
100
AcDbVertex
100
AcDb2dVertex
 10
-6.558996840015013
 20
38.72059449025604
 30
0.0
  0
SEQEND
  5
E27
330
E22
100
AcDbEntity
  8
WAKU
  0
SPLINE
  5
E28
330
E1F
100
AcDbEntity
  8
WAKU
100
AcDbSpline
210
0.0
220
0.0
230
1.0
 70
     9
 71
     3
 72
    56
 73
    52
 74
     0
 42
0.000000001
 43
0.0000000001
 40
0.0
 40
0.0
 40
0.0
 40
0.0
 40
1.0
 40
1.0
 40
1.0
 40
2.0
 40
2.0
 40
2.0
 40
3.0
 40
3.0
 40
3.0
 40
4.0
 40
4.0
 40
4.0
 40
5.0
 40
5.0
 40
5.0
 40
6.0
 40
6.0
 40
6.0
 40
7.0
 40
7.0
 40
7.0
 40
8.0
 40
8.0
 40
8.0
 40
9.0
 40
9.0
 40
9.0
 40
10.0
 40
10.0
 40
10.0
 40
11.0
 40
11.0
 40
11.0
 40
12.0
 40
12.0
 40
12.0
 40
13.0
 40
13.0
 40
13.0
 40
14.0
 40
14.0
 40
14.0
 40
15.0
 40
15.0
 40
15.0
 40
16.0
 40
16.0
 40
16.0
 40
17.0
 40
17.0
 40
17.0
 40
17.0
 10
-3.33025335043168
 20
41.50009752845046
 30
0.0
 10
-3.33025335043168
 20
41.50009752845046
 30
0.0
 10
-3.254805759285846
 20
41.50698771942269
 30
0.0
 10
-3.254805759285846
 20
41.50698771942269
 30
0.0
 10
-3.014682603903903
 20
41.57795668643657
 30
0.0
 10
-2.824513333070568
 20
41.68785523244353
 30
0.0
 10
-2.840016262758068
 20
42.06302613088103
 30
0.0
 10
-2.853107625605291
 20
42.38342001108935
 30
0.0
 10
-3.100120971959457
 20
42.65248196855464
 30
0.0
 10
-3.420170342619181
 20
42.65248196855464
 30
0.0
 10
-3.420170342619181
 20
42.65248196855464
 30
0.0
 10
-7.55359590685529
 20
42.65213745900601
 30
0.0
 10
-7.55359590685529
 20
42.65213745900601
 30
0.0
 10
-8.404534491924735
 20
42.68383233747825
 30
0.0
 10
-8.989167195917788
 20
42.06509318817269
 30
0.0
 10
-8.989167195917788
 20
41.3305988305338
 30
0.0
 10
-8.989167195917788
 20
40.88411445553381
 30
0.0
 10
-8.740431301820567
 20
40.46932495900603
 30
0.0
 10
-8.381796861716402
 20
40.22816827497825
 30
0.0
 10
-8.381796861716402
 20
40.22816827497825
 30
0.0
 10
-8.354925116924736
 20
40.20715319251297
 30
0.0
 10
-8.354925116924736
 20
40.20715319251297
 30
0.0
 10
-8.607450616056681
 20
40.05798055796435
 30
0.0
 10
-8.748355021438625
 20
39.8075221161241
 30
0.0
 10
-8.771781670744179
 20
39.50090861786021
 30
0.0
 10
-8.794863810501125
 20
39.19601766733936
 30
0.0
 10
-8.621230998001124
 20
38.83669420813798
 30
0.0
 10
-8.330464938973346
 20
38.69854587914492
 30
0.0
 10
-8.330464938973346
 20
38.69854587914492
 30
0.0
 10
-8.350446492792791
 20
38.68407647810325
 30
0.0
 10
-8.350446492792791
 20
38.68407647810325
 30
0.0
 10
-9.024996188973345
 20
38.26515286699215
 30
0.0
 10
-9.494562703730293
 20
37.59198120900604
 30
0.0
 10
-9.243070733244179
 20
36.46681302324215
 30
0.0
 10
-9.13076062039696
 20
35.96176202497826
 30
0.0
 10
-8.617441392966401
 20
35.58314603105465
 30
0.0
 10
-8.290501831334458
 20
35.41468086178382
 30
0.0
 10
-7.829203545744179
 20
35.17765829233937
 30
0.0
 10
-6.996523966751125
 20
35.05983602671437
 30
0.0
 10
-6.482860229771957
 20
35.04467760657548
 30
0.0
 10
-6.482860229771957
 20
35.04467760657548
 30
0.0
 10
-3.647891154251124
 20
34.73668607011715
 30
0.0
 10
-3.247571058765013
 20
36.70865872636714
 30
0.0
 10
-2.847250963278903
 20
38.68028687306853
 30
0.0
 10
-4.534658732376124
 20
39.39479967688798
 30
0.0
 10
-4.775126397306681
 20
39.40513496334631
 30
0.0
 10
-5.015594062237235
 20
39.41478123070742
 30
0.0
 10
-3.57830022543168
 20
39.8912379364366
 30
0.0
 10
-3.738497165535846
 20
41.33438843556853
 30
0.0
 10
-3.738497165535846
 20
41.33438843556853
 30
0.0
 10
-3.640656453730291
 20
41.4573783444227
 30
0.0
 10
-3.33025335043168
 20
41.50009752845046
 30
0.0
  0
ELLIPSE
  5
E29
330
E1F
100
AcDbEntity
  8
WAKU
100
AcDbEllipse
 10
-6.072204847827513
 20
38.96691881751298
 30
0.0
 11
-5.716791449652776
 21
-5.716791449652776
 31
0.0
210
0.0
220
0.0
230
1.0
 40
0.7036880800289263
 41
0.0
 42
6.283185307179585
  0
POLYLINE
  5
E2A
330
E1F
100
AcDbEntity
  8
WAKU
100
AcDb2dPolyline
 66
     1
 10
0.0
 20
0.0
 30
0.0
 70
     1
  0
VERTEX
  5
E2B
330
E2A
100
AcDbEntity
  8
WAKU
100
AcDbVertex
100
AcDb2dVertex
 10
38.86320910616554
 20
39.71657159529075
 30
0.0
  0
VERTEX
  5
E2C
330
E2A
100
AcDbEntity
  8
WAKU
100
AcDbVertex
100
AcDb2dVertex
 10
38.86320910616554
 20
38.31097263695742
 30
0.0
  0
VERTEX
  5
E2D
330
E2A
100
AcDbEntity
  8
WAKU
100
AcDbVertex
100
AcDb2dVertex
 10
31.17513401935998
 20
38.31097263695742
 30
0.0
  0
VERTEX
  5
E2E
330
E2A
100
AcDbEntity
  8
WAKU
100
AcDbVertex
100
AcDb2dVertex
 10
31.17513401935998
 20
39.71657159529075
 30
0.0
  0
SEQEND
  5
E2F
330
E2A
100
AcDbEntity
  8
WAKU
  0
SPLINE
  5
E30
330
E1F
100
AcDbEntity
  8
WAKU
100
AcDbSpline
210
0.0
220
0.0
230
1.0
 70
     9
 71
     3
 72
    53
 73
    49
 74
     0
 42
0.000000001
 43
0.0000000001
 40
0.0
 40
0.0
 40
0.0
 40
0.0
 40
1.0
 40
1.0
 40
1.0
 40
2.0
 40
2.0
 40
2.0
 40
3.0
 40
3.0
 40
3.0
 40
4.0
 40
4.0
 40
4.0
 40
5.0
 40
5.0
 40
5.0
 40
6.0
 40
6.0
 40
6.0
 40
7.0
 40
7.0
 40
7.0
 40
8.0
 40
8.0
 40
8.0
 40
9.0
 40
9.0
 40
9.0
 40
10.0
 40
10.0
 40
10.0
 40
11.0
 40
11.0
 40
11.0
 40
12.0
 40
12.0
 40
12.0
 40
13.0
 40
13.0
 40
13.0
 40
14.0
 40
14.0
 40
14.0
 40
15.0
 40
15.0
 40
15.0
 40
16.0
 40
16.0
 40
16.0
 40
16.0
 10
92.00725207491553
 20
42.91637628279075
 30
0.0
 10
92.00725207491553
 20
42.87055651282547
 30
0.0
 10
92.00725207491553
 20
40.82899292775603
 30
0.0
 10
92.00725207491553
 20
40.82899292775603
 30
0.0
 10
92.00725207491553
 20
40.82899292775603
 30
0.0
 10
90.36945368081831
 20
40.82899292775603
 30
0.0
 10
90.32397842040165
 20
40.82899292775603
 30
0.0
 10
90.32397842040165
 20
40.78489570553379
 30
0.0
 10
90.32397842040165
 20
39.62424303626298
 30
0.0
 10
90.32397842040165
 20
39.57980130449215
 30
0.0
 10
90.36945368081831
 20
39.57980130449215
 30
0.0
 10
92.00725207491553
 20
39.57980130449215
 30
0.0
 10
92.00725207491553
 20
39.57980130449215
 30
0.0
 10
92.00725207491553
 20
39.57980130449215
 30
0.0
 10
92.00725207491553
 20
36.45303264129771
 30
0.0
 10
92.00725207491553
 20
36.45303264129771
 30
0.0
 10
92.00725207491553
 20
36.45303264129771
 30
0.0
 10
89.91194500026276
 20
36.45303264129771
 30
0.0
 10
89.86646973984608
 20
36.45303264129771
 30
0.0
 10
89.86646973984608
 20
36.40893541907548
 30
0.0
 10
89.86646973984608
 20
35.26481920813797
 30
0.0
 10
89.86646973984608
 20
35.22037747636714
 30
0.0
 10
89.91228950981136
 20
35.22037747636714
 30
0.0
 10
95.3272905948808
 20
35.22037747636714
 30
0.0
 10
95.3734548743947
 20
35.22037747636714
 30
0.0
 10
95.3734548743947
 20
35.26481920813797
 30
0.0
 10
95.3734548743947
 20
36.40893541907548
 30
0.0
 10
95.3734548743947
 20
36.45303264129771
 30
0.0
 10
95.32763510442942
 20
36.45303264129771
 30
0.0
 10
93.41905220512387
 20
36.45303264129771
 30
0.0
 10
93.41905220512387
 20
36.45303264129771
 30
0.0
 10
93.41905220512387
 20
36.45303264129771
 30
0.0
 10
93.41905220512387
 20
39.57980130449215
 30
0.0
 10
93.41905220512387
 20
39.57980130449215
 30
0.0
 10
93.41905220512387
 20
39.57980130449215
 30
0.0
 10
95.18776422769331
 20
39.57980130449215
 30
0.0
 10
95.23323948810995
 20
39.57980130449215
 30
0.0
 10
95.23323948810995
 20
39.62424303626298
 30
0.0
 10
95.23323948810995
 20
40.78489570553379
 30
0.0
 10
95.23323948810995
 20
40.82899292775603
 30
0.0
 10
95.18776422769331
 20
40.82899292775603
 30
0.0
 10
93.41905220512387
 20
40.82899292775603
 30
0.0
 10
93.41905220512387
 20
40.82899292775603
 30
0.0
 10
93.41905220512387
 20
40.82899292775603
 30
0.0
 10
93.41905220512387
 20
42.87055651282547
 30
0.0
 10
93.41905220512387
 20
42.91637628279075
 30
0.0
 10
93.37461047335304
 20
42.91637628279075
 30
0.0
 10
92.05134929713777
 20
42.91637628279075
 30
0.0
 10
92.00725207491553
 20
42.91637628279075
 30
0.0
  0
SPLINE
  5
E31
330
E1F
100
AcDbEntity
  8
WAKU
100
AcDbSpline
210
0.0
220
0.0
230
1.0
 70
     9
 71
     3
 72
    74
 73
    70
 74
     0
 42
0.000000001
 43
0.0000000001
 40
0.0
 40
0.0
 40
0.0
 40
0.0
 40
1.0
 40
1.0
 40
1.0
 40
2.0
 40
2.0
 40
2.0
 40
3.0
 40
3.0
 40
3.0
 40
4.0
 40
4.0
 40
4.0
 40
5.0
 40
5.0
 40
5.0
 40
6.0
 40
6.0
 40
6.0
 40
7.0
 40
7.0
 40
7.0
 40
8.0
 40
8.0
 40
8.0
 40
9.0
 40
9.0
 40
9.0
 40
10.0
 40
10.0
 40
10.0
 40
11.0
 40
11.0
 40
11.0
 40
12.0
 40
12.0
 40
12.0
 40
13.0
 40
13.0
 40
13.0
 40
14.0
 40
14.0
 40
14.0
 40
15.0
 40
15.0
 40
15.0
 40
16.0
 40
16.0
 40
16.0
 40
17.0
 40
17.0
 40
17.0
 40
18.0
 40
18.0
 40
18.0
 40
19.0
 40
19.0
 40
19.0
 40
20.0
 40
20.0
 40
20.0
 40
21.0
 40
21.0
 40
21.0
 40
22.0
 40
22.0
 40
22.0
 40
23.0
 40
23.0
 40
23.0
 40
23.0
 10
87.80871420599192
 20
42.92464451195741
 30
0.0
 10
87.80871420599192
 20
42.87951376108935
 30
0.0
 10
87.80871420599192
 20
41.76330282358935
 30
0.0
 10
87.80871420599192
 20
41.76330282358935
 30
0.0
 10
87.80871420599192
 20
41.76330282358935
 30
0.0
 10
86.67562230060999
 20
41.76330282358935
 30
0.0
 10
86.63083605929054
 20
41.76330282358935
 30
0.0
 10
86.63083605929054
 20
41.71920560136714
 30
0.0
 10
86.63083605929054
 20
40.67603068817269
 30
0.0
 10
86.63083605929054
 20
40.63193346595046
 30
0.0
 10
86.6763113197072
 20
40.63193346595046
 30
0.0
 10
88.69479276501968
 20
40.63193346595046
 30
0.0
 10
88.69479276501968
 20
40.63193346595046
 30
0.0
 10
88.69479276501968
 20
40.63193346595046
 30
0.0
 10
88.67550023029748
 20
40.59713800154074
 30
0.0
 10
88.67550023029748
 20
40.59713800154074
 30
0.0
 10
88.34959419731138
 20
40.01112725935325
 30
0.0
 10
87.48694228758914
 20
39.1315943817491
 30
0.0
 10
86.4654714759572
 20
38.57727851803382
 30
0.0
 10
86.47305068602666
 20
38.54558363956158
 30
0.0
 10
86.79516711397804
 20
37.19545071855464
 30
0.0
 10
86.8092920054711
 20
37.13585056664492
 30
0.0
 10
87.15896919731136
 20
37.34944648678381
 30
0.0
 10
87.41011665824888
 20
37.51377754147132
 30
0.0
 10
87.77116266519332
 20
37.79076321855465
 30
0.0
 10
87.77116266519332
 20
37.79076321855465
 30
0.0
 10
87.80871420599192
 20
37.81970202063798
 30
0.0
 10
87.80871420599192
 20
37.81970202063798
 30
0.0
 10
87.80871420599192
 20
37.81970202063798
 30
0.0
 10
87.80871420599192
 20
35.03089722463104
 30
0.0
 10
87.80871420599192
 20
34.98507745466576
 30
0.0
 10
87.85315593776275
 20
34.98507745466576
 30
0.0
 10
89.13886557317942
 20
34.98507745466576
 30
0.0
 10
89.18330730495027
 20
34.98507745466576
 30
0.0
 10
89.18330730495027
 20
35.03089722463104
 30
0.0
 10
89.18330730495027
 20
38.15973294511714
 30
0.0
 10
89.18330730495027
 20
38.15973294511714
 30
0.0
 10
89.18330730495027
 20
38.15973294511714
 30
0.0
 10
89.22499296033221
 20
38.10667847463103
 30
0.0
 10
89.22499296033221
 20
38.10667847463103
 30
0.0
 10
89.51128039522803
 20
37.74494344858937
 30
0.0
 10
89.71695259574886
 20
37.5471949676866
 30
0.0
 10
89.98635906276275
 20
37.32050768470048
 30
0.0
 10
90.01323080755442
 20
37.36598294511714
 30
0.0
 10
90.63782661918637
 20
38.43051745032548
 30
0.0
 10
90.6609087589433
 20
38.47013604841576
 30
0.0
 10
90.28470433186001
 20
38.66168335744354
 30
0.0
 10
89.8726709117211
 20
38.9052516083116
 30
0.0
 10
89.40551596380442
 20
39.37171753713104
 30
0.0
 10
89.40551596380442
 20
39.37171753713104
 30
0.0
 10
89.39070205321415
 20
39.38618693817271
 30
0.0
 10
89.39070205321415
 20
39.38618693817271
 30
0.0
 10
89.39070205321415
 20
39.38618693817271
 30
0.0
 10
89.40344890651275
 20
39.40237888695742
 30
0.0
 10
89.40344890651275
 20
39.40237888695742
 30
0.0
 10
89.81479330755441
 20
39.93740221595048
 30
0.0
 10
89.99256023463775
 20
40.29224705101992
 30
0.0
 10
90.13932130234607
 20
40.60988485483935
 30
0.0
 10
90.13932130234607
 20
40.60988485483935
 30
0.0
 10
90.13725424505443
 20
41.71851658226992
 30
0.0
 10
90.13725424505443
 20
41.76330282358935
 30
0.0
 10
90.09281251328358
 20
41.76330282358935
 30
0.0
 10
89.18330730495027
 20
41.76330282358935
 30
0.0
 10
89.18330730495027
 20
41.76330282358935
 30
0.0
 10
89.18330730495027
 20
41.76330282358935
 30
0.0
 10
89.18330730495027
 20
42.87951376108935
 30
0.0
 10
89.18330730495027
 20
42.92464451195741
 30
0.0
 10
89.13886557317942
 20
42.92464451195741
 30
0.0
 10
87.85315593776275
 20
42.92464451195741
 30
0.0
 10
87.80871420599192
 20
42.92464451195741
 30
0.0
  0
SPLINE
  5
E32
330
E1F
100
AcDbEntity
  8
WAKU
100
AcDbSpline
210
0.0
220
0.0
230
1.0
 70
     9
 71
     3
 72
    35
 73
    31
 74
     0
 42
0.000000001
 43
0.0000000001
 40
0.0
 40
0.0
 40
0.0
 40
0.0
 40
1.0
 40
1.0
 40
1.0
 40
2.0
 40
2.0
 40
2.0
 40
3.0
 40
3.0
 40
3.0
 40
4.0
 40
4.0
 40
4.0
 40
5.0
 40
5.0
 40
5.0
 40
6.0
 40
6.0
 40
6.0
 40
7.0
 40
7.0
 40
7.0
 40
8.0
 40
8.0
 40
8.0
 40
9.0
 40
9.0
 40
9.0
 40
10.0
 40
10.0
 40
10.0
 40
10.0
 10
80.33940268255442
 20
36.44579794077686
 30
0.0
 10
80.62155600286692
 20
36.95360501542964
 30
0.0
 10
80.80621312092246
 20
37.32808689476993
 30
0.0
 10
81.06804037786693
 20
37.88343628713104
 30
0.0
 10
81.06804037786693
 20
37.88343628713104
 30
0.0
 10
81.07424154974195
 20
37.89652764997825
 30
0.0
 10
81.07424154974195
 20
37.89652764997825
 30
0.0
 10
81.07424154974195
 20
37.89652764997825
 30
0.0
 10
83.71697429713776
 20
37.89652764997825
 30
0.0
 10
83.71697429713776
 20
37.89652764997825
 30
0.0
 10
83.71697429713776
 20
37.89652764997825
 30
0.0
 10
83.72593154540162
 20
37.85174140865882
 30
0.0
 10
83.72593154540162
 20
37.85174140865882
 30
0.0
 10
83.72593154540162
 20
37.85174140865882
 30
0.0
 10
82.7082503388044
 20
37.41731486786021
 30
0.0
 10
82.65209528238081
 20
37.39354370900603
 30
0.0
 10
82.69309191866554
 20
37.34669041039492
 30
0.0
 10
83.43034235269332
 20
36.50505358313797
 30
0.0
 10
83.43034235269332
 20
36.50505358313797
 30
0.0
 10
83.43034235269332
 20
36.50505358313797
 30
0.0
 10
83.38073297769332
 20
36.50367554494354
 30
0.0
 10
83.38073297769332
 20
36.50367554494354
 30
0.0
 10
83.38073297769332
 20
36.50367554494354
 30
0.0
 10
81.27750218342248
 20
36.41927070553381
 30
0.0
 10
81.27750218342248
 20
36.41927070553381
 30
0.0
 10
81.27750218342248
 20
36.41927070553381
 30
0.0
 10
80.3197656382836
 20
36.41065796681854
 30
0.0
 10
80.3197656382836
 20
36.41065796681854
 30
0.0
 10
80.3197656382836
 20
36.41065796681854
 30
0.0
 10
80.33940268255442
 20
36.44579794077686
 30
0.0
 10
80.33940268255442
 20
36.44579794077686
 30
0.0
  0
SPLINE
  5
E33
330
E1F
100
AcDbEntity
  8
WAKU
100
AcDbSpline
210
0.0
220
0.0
230
1.0
 70
     9
 71
     3
 72
    56
 73
    52
 74
     0
 42
0.000000001
 43
0.0000000001
 40
0.0
 40
0.0
 40
0.0
 40
0.0
 40
1.0
 40
1.0
 40
1.0
 40
2.0
 40
2.0
 40
2.0
 40
3.0
 40
3.0
 40
3.0
 40
4.0
 40
4.0
 40
4.0
 40
5.0
 40
5.0
 40
5.0
 40
6.0
 40
6.0
 40
6.0
 40
7.0
 40
7.0
 40
7.0
 40
8.0
 40
8.0
 40
8.0
 40
9.0
 40
9.0
 40
9.0
 40
10.0
 40
10.0
 40
10.0
 40
11.0
 40
11.0
 40
11.0
 40
12.0
 40
12.0
 40
12.0
 40
13.0
 40
13.0
 40
13.0
 40
14.0
 40
14.0
 40
14.0
 40
15.0
 40
15.0
 40
15.0
 40
16.0
 40
16.0
 40
16.0
 40
17.0
 40
17.0
 40
17.0
 40
17.0
 10
77.46619304713775
 20
39.06165894338104
 30
0.0
 10
77.46619304713775
 20
39.01756172115881
 30
0.0
 10
77.46619304713775
 20
37.94062487220048
 30
0.0
 10
77.46619304713775
 20
37.89652764997825
 30
0.0
 10
77.51166830755443
 20
37.89652764997825
 30
0.0
 10
79.5608111026933
 20
37.89652764997825
 30
0.0
 10
79.5608111026933
 20
37.89652764997825
 30
0.0
 10
79.5608111026933
 20
37.89652764997825
 30
0.0
 10
79.54978679713774
 20
37.86552179060326
 30
0.0
 10
79.54978679713774
 20
37.86552179060326
 30
0.0
 10
79.3306787242211
 20
37.2557398895616
 30
0.0
 10
79.0891775306447
 20
36.76998142601993
 30
0.0
 10
78.9031423743947
 20
36.41513659095048
 30
0.0
 10
78.9031423743947
 20
36.41513659095048
 30
0.0
 10
78.8965966929711
 20
36.40273424720048
 30
0.0
 10
78.8965966929711
 20
36.40273424720048
 30
0.0
 10
78.8965966929711
 20
36.40273424720048
 30
0.0
 10
77.83481826415166
 20
36.39446601803382
 30
0.0
 10
77.83481826415166
 20
36.39446601803382
 30
0.0
 10
77.83481826415166
 20
36.39446601803382
 30
0.0
 10
77.58367080321416
 20
36.40066718990882
 30
0.0
 10
77.53543946640859
 20
36.40170071855465
 30
0.0
 10
77.54474122422109
 20
36.34899075761715
 30
0.0
 10
77.74524578151275
 20
35.18317044511714
 30
0.0
 10
77.75179146293637
 20
35.14527439476992
 30
0.0
 10
79.81230307317942
 20
35.20280748938797
 30
0.0
 10
80.21331218776275
 20
35.23140178192271
 30
0.0
 10
83.93367080321414
 20
35.4980521725477
 30
0.0
 10
83.93367080321414
 20
35.4980521725477
 30
0.0
 10
84.18688532144331
 20
35.51596666907548
 30
0.0
 10
84.18688532144331
 20
35.51596666907548
 30
0.0
 10
84.18688532144331
 20
35.51596666907548
 30
0.0
 10
84.54483074245024
 20
34.9585502194227
 30
0.0
 10
84.56653484401275
 20
34.92409926456159
 30
0.0
 10
84.60236383706831
 20
34.94098023244354
 30
0.0
 10
85.82123862005444
 20
35.52010078365881
 30
0.0
 10
85.86946995685995
 20
35.54283841386715
 30
0.0
 10
85.40300402804053
 20
36.20670831404075
 30
0.0
 10
84.80769152804054
 20
36.99804674720048
 30
0.0
 10
83.92505806449888
 20
37.85656454233937
 30
0.0
 10
83.92505806449888
 20
37.85656454233937
 30
0.0
 10
83.88337240911694
 20
37.89652764997825
 30
0.0
 10
83.88337240911694
 20
37.89652764997825
 30
0.0
 10
83.88337240911694
 20
37.89652764997825
 30
0.0
 10
85.80814725720719
 20
37.89652764997825
 30
0.0
 10
85.85362251762388
 20
37.89652764997825
 30
0.0
 10
85.85362251762388
 20
37.94062487220048
 30
0.0
 10
85.85362251762388
 20
39.01756172115881
 30
0.0
 10
85.85362251762388
 20
39.06165894338104
 30
0.0
 10
85.80711372856137
 20
39.06165894338104
 30
0.0
 10
77.51235732665165
 20
39.06165894338104
 30
0.0
 10
77.46619304713775
 20
39.06165894338104
 30
0.0
  0
SPLINE
  5
E34
330
E1F
100
AcDbEntity
  8
WAKU
100
AcDbSpline
210
0.0
220
0.0
230
1.0
 70
     9
 71
     3
 72
    26
 73
    22
 74
     0
 42
0.000000001
 43
0.0000000001
 40
0.0
 40
0.0
 40
0.0
 40
0.0
 40
1.0
 40
1.0
 40
1.0
 40
2.0
 40
2.0
 40
2.0
 40
3.0
 40
3.0
 40
3.0
 40
4.0
 40
4.0
 40
4.0
 40
5.0
 40
5.0
 40
5.0
 40
6.0
 40
6.0
 40
6.0
 40
7.0
 40
7.0
 40
7.0
 40
7.0
 10
80.22502551241553
 20
40.82141371768659
 30
0.0
 10
81.11627171467246
 20
41.42912856143659
 30
0.0
 10
81.43356500894331
 20
41.75055597029075
 30
0.0
 10
81.66094131102665
 20
42.00445950761714
 30
0.0
 10
81.66094131102665
 20
42.00445950761714
 30
0.0
 10
81.67747776935998
 20
42.02237400414492
 30
0.0
 10
81.67747776935998
 20
42.02237400414492
 30
0.0
 10
81.67747776935998
 20
42.02237400414492
 30
0.0
 10
81.69504775633914
 20
42.00514852671435
 30
0.0
 10
81.69504775633914
 20
42.00514852671435
 30
0.0
 10
81.95584148463778
 20
41.74676636525602
 30
0.0
 10
82.3137869056447
 20
41.39226603973519
 30
0.0
 10
83.14991158012388
 20
40.82141371768659
 30
0.0
 10
83.14991158012388
 20
40.82141371768659
 30
0.0
 10
83.21261231797109
 20
40.77869453365879
 30
0.0
 10
83.21261231797109
 20
40.77869453365879
 30
0.0
 10
83.21261231797109
 20
40.77869453365879
 30
0.0
 10
80.1623247745683
 20
40.77869453365879
 30
0.0
 10
80.1623247745683
 20
40.77869453365879
 30
0.0
 10
80.1623247745683
 20
40.77869453365879
 30
0.0
 10
80.22502551241553
 20
40.82141371768659
 30
0.0
 10
80.22502551241553
 20
40.82141371768659
 30
0.0
  0
SPLINE
  5
E35
330
E1F
100
AcDbEntity
  8
WAKU
100
AcDbSpline
210
0.0
220
0.0
230
1.0
 70
     9
 71
     3
 72
    44
 73
    40
 74
     0
 42
0.000000001
 43
0.0000000001
 40
0.0
 40
0.0
 40
0.0
 40
0.0
 40
1.0
 40
1.0
 40
1.0
 40
2.0
 40
2.0
 40
2.0
 40
3.0
 40
3.0
 40
3.0
 40
4.0
 40
4.0
 40
4.0
 40
5.0
 40
5.0
 40
5.0
 40
6.0
 40
6.0
 40
6.0
 40
7.0
 40
7.0
 40
7.0
 40
8.0
 40
8.0
 40
8.0
 40
9.0
 40
9.0
 40
9.0
 40
10.0
 40
10.0
 40
10.0
 40
11.0
 40
11.0
 40
11.0
 40
12.0
 40
12.0
 40
12.0
 40
13.0
 40
13.0
 40
13.0
 40
13.0
 10
80.86581327283218
 20
42.98355564476993
 30
0.0
 10
80.20504395859608
 20
42.15363214216576
 30
0.0
 10
79.03681207925581
 20
41.47322578365881
 30
0.0
 10
77.08344293863081
 20
40.78110610049907
 30
0.0
 10
77.10859213567943
 20
40.73597534963103
 30
0.0
 10
77.7528249915822
 20
39.57635620900603
 30
0.0
 10
77.7714285072072
 20
39.54328329233937
 30
0.0
 10
77.7776296790822
 20
39.54535034963104
 30
0.0
 10
77.7838308509572
 20
39.54776191647132
 30
0.0
 10
77.7838308509572
 20
39.54776191647132
 30
0.0
 10
78.0573714325544
 20
39.64594713782548
 30
0.0
 10
78.46974936224192
 20
39.79443075327687
 30
0.0
 10
79.17048178411693
 20
40.17476929494352
 30
0.0
 10
79.17048178411693
 20
40.17476929494352
 30
0.0
 10
79.20493273897804
 20
40.19337281056853
 30
0.0
 10
79.20493273897804
 20
40.19337281056853
 30
0.0
 10
79.20493273897804
 20
40.19337281056853
 30
0.0
 10
79.20493273897804
 20
39.73999824459632
 30
0.0
 10
79.20493273897804
 20
39.69762357011715
 30
0.0
 10
79.2507525089433
 20
39.69762357011715
 30
0.0
 10
84.08663304279745
 20
39.69762357011715
 30
0.0
 10
84.13279732231137
 20
39.69762357011715
 30
0.0
 10
84.13279732231137
 20
39.74034275414492
 30
0.0
 10
84.13279732231137
 20
40.22679023678381
 30
0.0
 10
84.13279732231137
 20
40.22679023678381
 30
0.0
 10
84.13279732231137
 20
40.22679023678381
 30
0.0
 10
84.16724827717247
 20
40.20818672115882
 30
0.0
 10
84.16724827717247
 20
40.20818672115882
 30
0.0
 10
84.8438650306447
 20
39.83956150414492
 30
0.0
 10
85.26003256536695
 20
39.67695299720047
 30
0.0
 10
85.53874079019331
 20
39.5687769989366
 30
0.0
 10
85.55803332491553
 20
39.60219442515187
 30
0.0
 10
86.21845812960302
 20
40.75216729841574
 30
0.0
 10
86.2446408552975
 20
40.79798706838103
 30
0.0
 10
84.61338814262388
 20
41.35195842254769
 30
0.0
 10
83.39106826415164
 20
42.06681573591575
 30
0.0
 10
82.51015734835304
 20
42.98355564476993
 30
0.0
 10
82.49155383272805
 20
42.98355564476993
 30
0.0
 10
80.88648384574886
 20
42.98355564476993
 30
0.0
 10
80.86581327283218
 20
42.98355564476993
 30
0.0
  0
SPLINE
  5
E36
330
E1F
100
AcDbEntity
  8
WAKU
100
AcDbSpline
210
0.0
220
0.0
230
1.0
 70
     9
 71
     3
 72
    50
 73
    46
 74
     0
 42
0.000000001
 43
0.0000000001
 40
0.0
 40
0.0
 40
0.0
 40
0.0
 40
1.0
 40
1.0
 40
1.0
 40
2.0
 40
2.0
 40
2.0
 40
3.0
 40
3.0
 40
3.0
 40
4.0
 40
4.0
 40
4.0
 40
5.0
 40
5.0
 40
5.0
 40
6.0
 40
6.0
 40
6.0
 40
7.0
 40
7.0
 40
7.0
 40
8.0
 40
8.0
 40
8.0
 40
9.0
 40
9.0
 40
9.0
 40
10.0
 40
10.0
 40
10.0
 40
11.0
 40
11.0
 40
11.0
 40
12.0
 40
12.0
 40
12.0
 40
13.0
 40
13.0
 40
13.0
 40
14.0
 40
14.0
 40
14.0
 40
15.0
 40
15.0
 40
15.0
 40
15.0
 10
68.10483508272804
 20
39.81096721161021
 30
0.0
 10
68.10483508272804
 20
39.76686998938798
 30
0.0
 10
68.10483508272804
 20
38.68166491126298
 30
0.0
 10
68.10483508272804
 20
38.63756768904075
 30
0.0
 10
68.1499658335961
 20
38.63756768904075
 30
0.0
 10
69.59139378498497
 20
38.63756768904075
 30
0.0
 10
69.59139378498497
 20
38.63756768904075
 30
0.0
 10
69.59139378498497
 20
38.63756768904075
 30
0.0
 10
69.59139378498497
 20
36.56396471595048
 30
0.0
 10
69.59139378498497
 20
36.56396471595048
 30
0.0
 10
69.59139378498497
 20
36.56396471595048
 30
0.0
 10
68.2130110809919
 20
36.46991360917964
 30
0.0
 10
68.2130110809919
 20
36.46991360917964
 30
0.0
 10
68.21370010008914
 20
36.46991360917964
 30
0.0
 10
68.00596084227665
 20
36.46026734181854
 30
0.0
 10
68.00596084227665
 20
36.46026734181854
 30
0.0
 10
68.00596084227665
 20
36.46026734181854
 30
0.0
 10
67.88297093342248
 20
36.45578871768659
 30
0.0
 10
67.84541939262386
 20
36.45441067949214
 30
0.0
 10
67.85127605495026
 20
36.40686836178382
 30
0.0
 10
67.99355849852665
 20
35.22347806230464
 30
0.0
 10
67.99872614175581
 20
35.18041436872825
 30
0.0
 10
71.1575341929711
 20
35.4825492428602
 30
0.0
 10
71.73286513915164
 20
35.54077135657548
 30
0.0
 10
72.7794851478322
 20
35.73851983747825
 30
0.0
 10
72.77914063828359
 20
35.77572686872826
 30
0.0
 10
72.76260417995024
 20
36.83509373070742
 30
0.0
 10
72.76191516085304
 20
36.88642565345047
 30
0.0
 10
72.42085070772803
 20
36.82820353973521
 30
0.0
 10
72.03121040824886
 20
36.76205770640186
 30
0.0
 10
71.00078234835304
 20
36.67179620466575
 30
0.0
 10
71.00078234835304
 20
36.67179620466575
 30
0.0
 10
70.9749441322072
 20
36.6697291473741
 30
0.0
 10
70.9749441322072
 20
36.6697291473741
 30
0.0
 10
70.9749441322072
 20
36.6697291473741
 30
0.0
 10
70.9749441322072
 20
38.63756768904075
 30
0.0
 10
70.9749441322072
 20
38.63756768904075
 30
0.0
 10
70.9749441322072
 20
38.63756768904075
 30
0.0
 10
72.3888113197072
 20
38.63756768904075
 30
0.0
 10
72.43394207057527
 20
38.63756768904075
 30
0.0
 10
72.43394207057527
 20
38.68166491126298
 30
0.0
 10
72.43394207057527
 20
39.76686998938798
 30
0.0
 10
72.43394207057527
 20
39.81096721161021
 30
0.0
 10
72.38812230060998
 20
39.81096721161021
 30
0.0
 10
68.15065485269332
 20
39.81096721161021
 30
0.0
 10
68.10483508272804
 20
39.81096721161021
 30
0.0
  0
SPLINE
  5
E37
330
E1F
100
AcDbEntity
  8
WAKU
100
AcDbSpline
210
0.0
220
0.0
230
1.0
 70
     9
 71
     3
 72
    89
 73
    85
 74
     0
 42
0.000000001
 43
0.0000000001
 40
0.0
 40
0.0
 40
0.0
 40
0.0
 40
1.0
 40
1.0
 40
1.0
 40
2.0
 40
2.0
 40
2.0
 40
3.0
 40
3.0
 40
3.0
 40
4.0
 40
4.0
 40
4.0
 40
5.0
 40
5.0
 40
5.0
 40
6.0
 40
6.0
 40
6.0
 40
7.0
 40
7.0
 40
7.0
 40
8.0
 40
8.0
 40
8.0
 40
9.0
 40
9.0
 40
9.0
 40
10.0
 40
10.0
 40
10.0
 40
11.0
 40
11.0
 40
11.0
 40
12.0
 40
12.0
 40
12.0
 40
13.0
 40
13.0
 40
13.0
 40
14.0
 40
14.0
 40
14.0
 40
15.0
 40
15.0
 40
15.0
 40
16.0
 40
16.0
 40
16.0
 40
17.0
 40
17.0
 40
17.0
 40
18.0
 40
18.0
 40
18.0
 40
19.0
 40
19.0
 40
19.0
 40
20.0
 40
20.0
 40
20.0
 40
21.0
 40
21.0
 40
21.0
 40
22.0
 40
22.0
 40
22.0
 40
23.0
 40
23.0
 40
23.0
 40
24.0
 40
24.0
 40
24.0
 40
25.0
 40
25.0
 40
25.0
 40
26.0
 40
26.0
 40
26.0
 40
27.0
 40
27.0
 40
27.0
 40
28.0
 40
28.0
 40
28.0
 40
28.0
 10
74.36939671467247
 20
42.55980889997824
 30
0.0
 10
74.59573948810998
 20
42.36481649546436
 30
0.0
 10
74.79762208359609
 20
42.10436727671435
 30
0.0
 10
75.02844348116553
 20
41.80085436438797
 30
0.0
 10
75.02844348116553
 20
41.80085436438797
 30
0.0
 10
75.05703777370027
 20
41.76330282358935
 30
0.0
 10
75.05703777370027
 20
41.76330282358935
 30
0.0
 10
75.05703777370027
 20
41.76330282358935
 30
0.0
 10
74.07036242647802
 20
41.76330282358935
 30
0.0
 10
74.07036242647802
 20
41.76330282358935
 30
0.0
 10
74.07036242647802
 20
41.76330282358935
 30
0.0
 10
74.07036242647802
 20
42.88743748070742
 30
0.0
 10
74.07036242647802
 20
42.93325725067268
 30
0.0
 10
74.0259206947072
 20
42.93325725067268
 30
0.0
 10
72.6678640540822
 20
42.93325725067268
 30
0.0
 10
72.62169977456832
 20
42.93325725067268
 30
0.0
 10
72.62307781276277
 20
42.89122708574214
 30
0.0
 10
72.6306570228322
 20
42.66178372636714
 30
0.0
 10
72.6306570228322
 20
42.66178372636714
 30
0.0
 10
72.6303125132836
 20
42.66316176456157
 30
0.0
 10
72.64857151935998
 20
42.2325248287977
 30
0.0
 10
72.64857151935998
 20
42.2325248287977
 30
0.0
 10
72.64857151935998
 20
42.2325248287977
 30
0.0
 10
72.66855307317944
 20
41.76399184268658
 30
0.0
 10
72.66855307317944
 20
41.76399184268658
 30
0.0
 10
72.66855307317944
 20
41.76399184268658
 30
0.0
 10
72.64409289522801
 20
41.76330282358935
 30
0.0
 10
72.64409289522801
 20
41.76330282358935
 30
0.0
 10
72.64409289522801
 20
41.76330282358935
 30
0.0
 10
67.97288792560998
 20
41.76330282358935
 30
0.0
 10
67.92672364609609
 20
41.76330282358935
 30
0.0
 10
67.92672364609609
 20
41.71920560136714
 30
0.0
 10
67.92672364609609
 20
40.63400052324214
 30
0.0
 10
67.92672364609609
 20
40.58990330101992
 30
0.0
 10
67.97288792560998
 20
40.58990330101992
 30
0.0
 10
72.71333931449887
 20
40.58990330101992
 30
0.0
 10
72.71333931449887
 20
40.58990330101992
 30
0.0
 10
72.71333931449887
 20
40.58990330101992
 30
0.0
 10
72.71540637179054
 20
40.54511705970047
 30
0.0
 10
72.71540637179054
 20
40.54511705970047
 30
0.0
 10
72.7698388804711
 20
39.22702352671436
 30
0.0
 10
72.87112468776277
 20
36.77411554060326
 30
0.0
 10
74.21333388915164
 20
35.44086358747826
 30
0.0
 10
74.44415528672109
 20
35.21004218990881
 30
0.0
 10
74.88133790390858
 20
34.97646471595048
 30
0.0
 10
75.33712403672109
 20
34.97646471595048
 30
0.0
 10
76.16050185790166
 20
34.97646471595048
 30
0.0
 10
76.64005914956831
 20
35.85393053626297
 30
0.0
 10
76.85503310790164
 20
36.38344171247825
 30
0.0
 10
76.84676487873497
 20
36.40135620900603
 30
0.0
 10
76.32104330755443
 20
37.58371297983936
 30
0.0
 10
76.28176921901277
 20
37.67259644338103
 30
0.0
 10
76.0533593882836
 20
37.11449097463103
 30
0.0
 10
75.56966798203359
 20
36.56224216820742
 30
0.0
 10
75.2999170054711
 20
36.56224216820742
 30
0.0
 10
75.01294055147804
 20
36.56224216820742
 30
0.0
 10
74.7576589759572
 20
37.16754544511714
 30
0.0
 10
74.6611963023461
 20
37.42765015431853
 30
0.0
 10
74.25088542995027
 20
38.53455933400603
 30
0.0
 10
74.14512099852666
 20
39.68591024546436
 30
0.0
 10
74.09861220946416
 20
40.56509861351992
 30
0.0
 10
74.09861220946416
 20
40.56509861351992
 30
0.0
 10
74.0972341712697
 20
40.58990330101992
 30
0.0
 10
74.0972341712697
 20
40.58990330101992
 30
0.0
 10
74.0972341712697
 20
40.58990330101992
 30
0.0
 10
76.6521169837697
 20
40.58990330101992
 30
0.0
 10
76.69793675373496
 20
40.58990330101992
 30
0.0
 10
76.69793675373496
 20
40.63400052324214
 30
0.0
 10
76.69793675373496
 20
41.71920560136714
 30
0.0
 10
76.69793675373496
 20
41.76330282358935
 30
0.0
 10
76.65349502196416
 20
41.76330282358935
 30
0.0
 10
75.84217503498497
 20
41.76330282358935
 30
0.0
 10
75.84217503498497
 20
41.76330282358935
 30
0.0
 10
75.84217503498497
 20
41.76330282358935
 30
0.0
 10
75.83390680581832
 20
41.8084335744574
 30
0.0
 10
75.83390680581832
 20
41.8084335744574
 30
0.0
 10
75.83390680581832
 20
41.8084335744574
 30
0.0
 10
76.34929309054053
 20
42.01169420813797
 30
0.0
 10
76.40269207057524
 20
42.03270929060325
 30
0.0
 10
75.78636448810998
 20
42.81061185136714
 30
0.0
 10
75.65889595512387
 20
42.89639472897131
 30
0.0
 10
75.52625977890859
 20
42.98424466386713
 30
0.0
 10
75.52591526935998
 20
42.97976603973518
 30
0.0
 10
74.53579482665166
 20
42.6200980709852
 30
0.0
 10
74.36939671467247
 20
42.55980889997824
 30
0.0
  0
SPLINE
  5
E38
330
E1F
100
AcDbEntity
  8
WAKU
100
AcDbSpline
210
0.0
220
0.0
230
1.0
 70
     9
 71
     3
 72
   197
 73
   193
 74
     0
 42
0.000000001
 43
0.0000000001
 40
0.0
 40
0.0
 40
0.0
 40
0.0
 40
1.0
 40
1.0
 40
1.0
 40
2.0
 40
2.0
 40
2.0
 40
3.0
 40
3.0
 40
3.0
 40
4.0
 40
4.0
 40
4.0
 40
5.0
 40
5.0
 40
5.0
 40
6.0
 40
6.0
 40
6.0
 40
7.0
 40
7.0
 40
7.0
 40
8.0
 40
8.0
 40
8.0
 40
9.0
 40
9.0
 40
9.0
 40
10.0
 40
10.0
 40
10.0
 40
11.0
 40
11.0
 40
11.0
 40
12.0
 40
12.0
 40
12.0
 40
13.0
 40
13.0
 40
13.0
 40
14.0
 40
14.0
 40
14.0
 40
15.0
 40
15.0
 40
15.0
 40
16.0
 40
16.0
 40
16.0
 40
17.0
 40
17.0
 40
17.0
 40
18.0
 40
18.0
 40
18.0
 40
19.0
 40
19.0
 40
19.0
 40
20.0
 40
20.0
 40
20.0
 40
21.0
 40
21.0
 40
21.0
 40
22.0
 40
22.0
 40
22.0
 40
23.0
 40
23.0
 40
23.0
 40
24.0
 40
24.0
 40
24.0
 40
25.0
 40
25.0
 40
25.0
 40
26.0
 40
26.0
 40
26.0
 40
27.0
 40
27.0
 40
27.0
 40
28.0
 40
28.0
 40
28.0
 40
29.0
 40
29.0
 40
29.0
 40
30.0
 40
30.0
 40
30.0
 40
31.0
 40
31.0
 40
31.0
 40
32.0
 40
32.0
 40
32.0
 40
33.0
 40
33.0
 40
33.0
 40
34.0
 40
34.0
 40
34.0
 40
35.0
 40
35.0
 40
35.0
 40
36.0
 40
36.0
 40
36.0
 40
37.0
 40
37.0
 40
37.0
 40
38.0
 40
38.0
 40
38.0
 40
39.0
 40
39.0
 40
39.0
 40
40.0
 40
40.0
 40
40.0
 40
41.0
 40
41.0
 40
41.0
 40
42.0
 40
42.0
 40
42.0
 40
43.0
 40
43.0
 40
43.0
 40
44.0
 40
44.0
 40
44.0
 40
45.0
 40
45.0
 40
45.0
 40
46.0
 40
46.0
 40
46.0
 40
47.0
 40
47.0
 40
47.0
 40
48.0
 40
48.0
 40
48.0
 40
49.0
 40
49.0
 40
49.0
 40
50.0
 40
50.0
 40
50.0
 40
51.0
 40
51.0
 40
51.0
 40
52.0
 40
52.0
 40
52.0
 40
53.0
 40
53.0
 40
53.0
 40
54.0
 40
54.0
 40
54.0
 40
55.0
 40
55.0
 40
55.0
 40
56.0
 40
56.0
 40
56.0
 40
57.0
 40
57.0
 40
57.0
 40
58.0
 40
58.0
 40
58.0
 40
59.0
 40
59.0
 40
59.0
 40
60.0
 40
60.0
 40
60.0
 40
61.0
 40
61.0
 40
61.0
 40
62.0
 40
62.0
 40
62.0
 40
63.0
 40
63.0
 40
63.0
 40
64.0
 40
64.0
 40
64.0
 40
64.0
 10
64.0265310462697
 20
42.91637628279075
 30
0.0
 10
64.0265310462697
 20
42.87193455101991
 30
0.0
 10
64.0265310462697
 20
41.85563138261714
 30
0.0
 10
64.0265310462697
 20
41.85563138261714
 30
0.0
 10
64.0265310462697
 20
41.85563138261714
 30
0.0
 10
63.48737360269332
 20
41.85563138261714
 30
0.0
 10
63.48737360269332
 20
41.85563138261714
 30
0.0
 10
63.48737360269332
 20
41.85563138261714
 30
0.0
 10
63.66341798203359
 20
42.60872925588103
 30
0.0
 10
63.67478679713776
 20
42.65730510223519
 30
0.0
 10
63.6237993839433
 20
42.66143921681853
 30
0.0
 10
62.49966472682526
 20
42.75170071855463
 30
0.0
 10
62.4603906382836
 20
42.75480130449214
 30
0.0
 10
62.36013835963776
 20
42.10781237220047
 30
0.0
 10
62.1599783118947
 20
41.5231796682074
 30
0.0
 10
61.86301108099192
 20
41.01778416039493
 30
0.0
 10
61.86301108099192
 20
41.01778416039493
 30
0.0
 10
61.81960287786693
 20
40.94337009789492
 30
0.0
 10
61.81960287786693
 20
40.94337009789492
 30
0.0
 10
61.81960287786693
 20
40.94337009789492
 30
0.0
 10
61.81960287786693
 20
41.48493910831159
 30
0.0
 10
61.81960287786693
 20
41.52765829233937
 30
0.0
 10
61.77516114609609
 20
41.52765829233937
 30
0.0
 10
60.93145726154748
 20
41.52765829233937
 30
0.0
 10
60.93145726154748
 20
41.52765829233937
 30
0.0
 10
60.93145726154748
 20
41.52765829233937
 30
0.0
 10
60.93145726154748
 20
42.8712455319227
 30
0.0
 10
60.93145726154748
 20
42.91637628279075
 30
0.0
 10
60.88736003932526
 20
42.91637628279075
 30
0.0
 10
59.7318750132836
 20
42.91637628279075
 30
0.0
 10
59.68777779106137
 20
42.91637628279075
 30
0.0
 10
59.68777779106137
 20
42.8712455319227
 30
0.0
 10
59.68777779106137
 20
41.52765829233937
 30
0.0
 10
59.68777779106137
 20
41.52765829233937
 30
0.0
 10
59.68777779106137
 20
41.52765829233937
 30
0.0
 10
58.59154840738082
 20
41.52765829233937
 30
0.0
 10
58.54710667560998
 20
41.52765829233937
 30
0.0
 10
58.54710667560998
 20
41.48390557966575
 30
0.0
 10
58.54710667560998
 20
40.45692261525603
 30
0.0
 10
58.54710667560998
 20
40.41282539303379
 30
0.0
 10
58.59154840738082
 20
40.41282539303379
 30
0.0
 10
59.59372668429054
 20
40.41282539303379
 30
0.0
 10
59.59372668429054
 20
40.41282539303379
 30
0.0
 10
59.59372668429054
 20
40.41282539303379
 30
0.0
 10
59.58373590738081
 20
40.38250855275602
 30
0.0
 10
59.58373590738081
 20
40.38250855275602
 30
0.0
 10
59.15378799071415
 20
39.0327201412977
 30
0.0
 10
58.73314183185998
 20
38.4835719208116
 30
0.0
 10
58.37140680581832
 20
38.0777396725477
 30
0.0
 10
58.3776079776933
 20
38.05500204233937
 30
0.0
 10
58.77276042995025
 20
36.56534275414492
 30
0.0
 10
58.7958425697072
 20
36.47818183834632
 30
0.0
 10
58.99462457925581
 20
36.74035360483936
 30
0.0
 10
59.3350000132836
 20
37.21164266733936
 30
0.0
 10
59.64230253064471
 20
38.16662313608937
 30
0.0
 10
59.64230253064471
 20
38.16662313608937
 30
0.0
 10
59.68777779106137
 20
38.15973294511714
 30
0.0
 10
59.68777779106137
 20
38.15973294511714
 30
0.0
 10
59.68777779106137
 20
38.15973294511714
 30
0.0
 10
59.68777779106137
 20
35.0391654537977
 30
0.0
 10
59.68777779106137
 20
34.99334568383242
 30
0.0
 10
59.7318750132836
 20
34.99334568383242
 30
0.0
 10
60.88736003932526
 20
34.99334568383242
 30
0.0
 10
60.93145726154748
 20
34.99334568383242
 30
0.0
 10
60.93145726154748
 20
35.0391654537977
 30
0.0
 10
60.93145726154748
 20
38.47943780622826
 30
0.0
 10
60.93145726154748
 20
38.47943780622826
 30
0.0
 10
60.93145726154748
 20
38.47943780622826
 30
0.0
 10
60.97899957925581
 20
38.47943780622826
 30
0.0
 10
60.97899957925581
 20
38.47943780622826
 30
0.0
 10
61.07063911918636
 20
38.14112942949214
 30
0.0
 10
61.11921496554053
 20
37.96611857879771
 30
0.0
 10
61.49128527804053
 20
37.34152276716576
 30
0.0
 10
61.5305593665822
 20
37.38872057532547
 30
0.0
 10
62.2312917884572
 20
38.22450074025603
 30
0.0
 10
62.2591970618947
 20
38.25791816647131
 30
0.0
 10
62.13689617213775
 20
38.36092652150603
 30
0.0
 10
62.03044272161693
 20
38.45601115692271
 30
0.0
 10
61.84440756536693
 20
38.66581747202687
 30
0.0
 10
61.84440756536693
 20
38.66581747202687
 30
0.0
 10
61.8099566105058
 20
38.70474705101992
 30
0.0
 10
61.8099566105058
 20
38.70474705101992
 30
0.0
 10
61.8099566105058
 20
38.70474705101992
 30
0.0
 10
61.81719131102664
 20
38.70474705101992
 30
0.0
 10
61.82098091606136
 20
38.70474705101992
 30
0.0
 10
61.5832693275197
 20
38.98207723765187
 30
0.0
 10
61.15642199679054
 20
39.51572252845048
 30
0.0
 10
60.93386882838776
 20
40.00974922115879
 30
0.0
 10
60.93386882838776
 20
40.00974922115879
 30
0.0
 10
60.93145726154748
 20
40.01422784529075
 30
0.0
 10
60.93145726154748
 20
40.01422784529075
 30
0.0
 10
60.93145726154748
 20
40.01422784529075
 30
0.0
 10
60.93145726154748
 20
40.41282539303379
 30
0.0
 10
60.93145726154748
 20
40.41282539303379
 30
0.0
 10
60.93145726154748
 20
40.41282539303379
 30
0.0
 10
61.81512425373497
 20
40.41282539303379
 30
0.0
 10
61.81512425373497
 20
40.41282539303379
 30
0.0
 10
61.82856012613082
 20
40.40869127845048
 30
0.0
 10
62.54824057317943
 20
39.90364028018659
 30
0.0
 10
62.54824057317943
 20
39.90364028018659
 30
0.0
 10
62.54824057317943
 20
39.90364028018659
 30
0.0
 10
62.5940603431447
 20
39.87228991126297
 30
0.0
 10
62.6033621009572
 20
39.86574422983937
 30
0.0
 10
62.60818523463774
 20
39.87194540171437
 30
0.0
 10
62.62885580755442
 20
39.89916165605464
 30
0.0
 10
62.62885580755442
 20
39.89916165605464
 30
0.0
 10
62.74323297769331
 20
40.0504013478949
 30
0.0
 10
62.91721029974192
 20
40.31085056664492
 30
0.0
 10
63.09359918863082
 20
40.69394518470047
 30
0.0
 10
63.09359918863082
 20
40.69394518470047
 30
0.0
 10
63.10014487005442
 20
40.70738105709629
 30
0.0
 10
63.10014487005442
 20
40.70738105709629
 30
0.0
 10
63.10014487005442
 20
40.70738105709629
 30
0.0
 10
64.0265310462697
 20
40.70738105709629
 30
0.0
 10
64.0265310462697
 20
40.70738105709629
 30
0.0
 10
64.0265310462697
 20
40.70738105709629
 30
0.0
 10
64.0265310462697
 20
39.86161011525604
 30
0.0
 10
64.0265310462697
 20
39.86161011525604
 30
0.0
 10
64.0265310462697
 20
39.86161011525604
 30
0.0
 10
61.90986437960305
 20
39.86161011525604
 30
0.0
 10
61.86645617647805
 20
39.86161011525604
 30
0.0
 10
61.86645617647805
 20
39.8168238739366
 30
0.0
 10
61.86645617647805
 20
38.70750312740881
 30
0.0
 10
61.86645617647805
 20
38.70474705101992
 30
0.0
 10
61.87506891519332
 20
38.70474705101992
 30
0.0
 10
63.55868707925582
 20
38.70474705101992
 30
0.0
 10
63.55868707925582
 20
38.70474705101992
 30
0.0
 10
63.55868707925582
 20
38.70474705101992
 30
0.0
 10
63.53698297769331
 20
38.66891805796436
 30
0.0
 10
63.53698297769331
 20
38.66891805796436
 30
0.0
 10
63.00816082057526
 20
37.8045436004991
 30
0.0
 10
62.30398330321413
 20
37.1165580319227
 30
0.0
 10
61.44581001762386
 20
36.62184232011714
 30
0.0
 10
61.47130372422109
 20
36.58429077931854
 30
0.0
 10
62.21096572508916
 20
35.51768921681853
 30
0.0
 10
62.23956001762386
 20
35.4763480709852
 30
0.0
 10
62.9874902476586
 20
36.09474271074214
 30
0.0
 10
63.5583425697072
 20
36.7940970944227
 30
0.0
 10
63.98208931449886
 20
37.61471883921436
 30
0.0
 10
63.98208931449886
 20
37.61471883921436
 30
0.0
 10
64.0265310462697
 20
37.60403904320742
 30
0.0
 10
64.0265310462697
 20
37.60403904320742
 30
0.0
 10
64.0265310462697
 20
37.60403904320742
 30
0.0
 10
64.0265310462697
 20
35.0391654537977
 30
0.0
 10
64.0265310462697
 20
34.99334568383242
 30
0.0
 10
64.07062826849193
 20
34.99334568383242
 30
0.0
 10
65.27262208359609
 20
34.99334568383242
 30
0.0
 10
65.31671930581831
 20
34.99334568383242
 30
0.0
 10
65.31671930581831
 20
35.0391654537977
 30
0.0
 10
65.31671930581831
 20
37.41042467688798
 30
0.0
 10
65.31671930581831
 20
37.41042467688798
 30
0.0
 10
65.31671930581831
 20
37.41042467688798
 30
0.0
 10
65.36081652804054
 20
37.42144898244354
 30
0.0
 10
65.36081652804054
 20
37.42144898244354
 30
0.0
 10
65.78800836831831
 20
36.60668389997825
 30
0.0
 10
66.33474502196415
 20
35.96038398678382
 30
0.0
 10
66.9848345401933
 20
35.49632962480465
 30
0.0
 10
67.00688315130442
 20
35.55248468122825
 30
0.0
 10
67.50504395859609
 20
36.83612725935326
 30
0.0
 10
67.51813532144331
 20
36.87092272376297
 30
0.0
 10
67.1488210853322
 20
37.09761000674909
 30
0.0
 10
66.40399144123498
 20
37.56373142601992
 30
0.0
 10
65.7039480384572
 20
38.66891805796436
 30
0.0
 10
65.7039480384572
 20
38.66891805796436
 30
0.0
 10
65.68121040824888
 20
38.70474705101992
 30
0.0
 10
65.68121040824888
 20
38.70474705101992
 30
0.0
 10
65.68121040824888
 20
38.70474705101992
 30
0.0
 10
67.31005155408221
 20
38.70474705101992
 30
0.0
 10
67.35552681449886
 20
38.70474705101992
 30
0.0
 10
67.35552681449886
 20
38.74884427324214
 30
0.0
 10
67.35552681449886
 20
39.81751289303382
 30
0.0
 10
67.35552681449886
 20
39.86161011525604
 30
0.0
 10
67.30970704453359
 20
39.86161011525604
 30
0.0
 10
65.31671930581831
 20
39.86161011525604
 30
0.0
 10
65.31671930581831
 20
39.86161011525604
 30
0.0
 10
65.31671930581831
 20
39.86161011525604
 30
0.0
 10
65.31671930581831
 20
40.70738105709629
 30
0.0
 10
65.31671930581831
 20
40.70738105709629
 30
0.0
 10
65.31671930581831
 20
40.70738105709629
 30
0.0
 10
67.16949165824885
 20
40.70738105709629
 30
0.0
 10
67.21496691866554
 20
40.70738105709629
 30
0.0
 10
67.21496691866554
 20
40.75147827931853
 30
0.0
 10
67.21496691866554
 20
41.81187866994353
 30
0.0
 10
67.21496691866554
 20
41.85563138261714
 30
0.0
 10
67.16949165824885
 20
41.85563138261714
 30
0.0
 10
65.31671930581831
 20
41.85563138261714
 30
0.0
 10
65.31671930581831
 20
41.85563138261714
 30
0.0
 10
65.31671930581831
 20
41.85563138261714
 30
0.0
 10
65.31671930581831
 20
42.87193455101991
 30
0.0
 10
65.31671930581831
 20
42.91637628279075
 30
0.0
 10
65.27262208359609
 20
42.91637628279075
 30
0.0
 10
64.07062826849193
 20
42.91637628279075
 30
0.0
 10
64.0265310462697
 20
42.91637628279075
 30
0.0
  0
SPLINE
  5
E39
330
E1F
100
AcDbEntity
  8
WAKU
100
AcDbSpline
210
0.0
220
0.0
230
1.0
 70
     9
 71
     3
 72
    29
 73
    25
 74
     0
 42
0.000000001
 43
0.0000000001
 40
0.0
 40
0.0
 40
0.0
 40
0.0
 40
1.0
 40
1.0
 40
1.0
 40
2.0
 40
2.0
 40
2.0
 40
3.0
 40
3.0
 40
3.0
 40
4.0
 40
4.0
 40
4.0
 40
5.0
 40
5.0
 40
5.0
 40
6.0
 40
6.0
 40
6.0
 40
7.0
 40
7.0
 40
7.0
 40
8.0
 40
8.0
 40
8.0
 40
8.0
 10
52.86201010442942
 20
40.47552613088103
 30
0.0
 10
52.84340658880442
 20
40.53271471595047
 30
0.0
 10
52.72213922769331
 20
40.83450508053379
 30
0.0
 10
52.68596572508915
 20
40.89996189476992
 30
0.0
 10
52.68596572508915
 20
40.89996189476992
 30
0.0
 10
52.66632868081831
 20
40.93475735917964
 30
0.0
 10
52.66632868081831
 20
40.93475735917964
 30
0.0
 10
52.66632868081831
 20
40.93475735917964
 30
0.0
 10
54.5883474525197
 20
40.93475735917964
 30
0.0
 10
54.5883474525197
 20
40.93475735917964
 30
0.0
 10
54.5883474525197
 20
40.93475735917964
 30
0.0
 10
54.58042373290165
 20
40.9054740475477
 30
0.0
 10
54.58042373290165
 20
40.9054740475477
 30
0.0
 10
54.5015310462697
 20
40.61401896942268
 30
0.0
 10
54.46329048637386
 20
40.53374824459631
 30
0.0
 10
54.42815051241554
 20
40.47104750674907
 30
0.0
 10
54.42815051241554
 20
40.47104750674907
 30
0.0
 10
54.42126032144331
 20
40.45898967254768
 30
0.0
 10
54.42126032144331
 20
40.45898967254768
 30
0.0
 10
54.42126032144331
 20
40.45898967254768
 30
0.0
 10
52.86683323810998
 20
40.45898967254768
 30
0.0
 10
52.86683323810998
 20
40.45898967254768
 30
0.0
 10
52.86683323810998
 20
40.45898967254768
 30
0.0
 10
52.86201010442942
 20
40.47552613088103
 30
0.0
 10
52.86201010442942
 20
40.47552613088103
 30
0.0
  0
SPLINE
  5
E3A
330
E1F
100
AcDbEntity
  8
WAKU
100
AcDbSpline
210
0.0
220
0.0
230
1.0
 70
     9
 71
     3
 72
   203
 73
   199
 74
     0
 42
0.000000001
 43
0.0000000001
 40
0.0
 40
0.0
 40
0.0
 40
0.0
 40
1.0
 40
1.0
 40
1.0
 40
2.0
 40
2.0
 40
2.0
 40
3.0
 40
3.0
 40
3.0
 40
4.0
 40
4.0
 40
4.0
 40
5.0
 40
5.0
 40
5.0
 40
6.0
 40
6.0
 40
6.0
 40
7.0
 40
7.0
 40
7.0
 40
8.0
 40
8.0
 40
8.0
 40
9.0
 40
9.0
 40
9.0
 40
10.0
 40
10.0
 40
10.0
 40
11.0
 40
11.0
 40
11.0
 40
12.0
 40
12.0
 40
12.0
 40
13.0
 40
13.0
 40
13.0
 40
14.0
 40
14.0
 40
14.0
 40
15.0
 40
15.0
 40
15.0
 40
16.0
 40
16.0
 40
16.0
 40
17.0
 40
17.0
 40
17.0
 40
18.0
 40
18.0
 40
18.0
 40
19.0
 40
19.0
 40
19.0
 40
20.0
 40
20.0
 40
20.0
 40
21.0
 40
21.0
 40
21.0
 40
22.0
 40
22.0
 40
22.0
 40
23.0
 40
23.0
 40
23.0
 40
24.0
 40
24.0
 40
24.0
 40
25.0
 40
25.0
 40
25.0
 40
26.0
 40
26.0
 40
26.0
 40
27.0
 40
27.0
 40
27.0
 40
28.0
 40
28.0
 40
28.0
 40
29.0
 40
29.0
 40
29.0
 40
30.0
 40
30.0
 40
30.0
 40
31.0
 40
31.0
 40
31.0
 40
32.0
 40
32.0
 40
32.0
 40
33.0
 40
33.0
 40
33.0
 40
34.0
 40
34.0
 40
34.0
 40
35.0
 40
35.0
 40
35.0
 40
36.0
 40
36.0
 40
36.0
 40
37.0
 40
37.0
 40
37.0
 40
38.0
 40
38.0
 40
38.0
 40
39.0
 40
39.0
 40
39.0
 40
40.0
 40
40.0
 40
40.0
 40
41.0
 40
41.0
 40
41.0
 40
42.0
 40
42.0
 40
42.0
 40
43.0
 40
43.0
 40
43.0
 40
44.0
 40
44.0
 40
44.0
 40
45.0
 40
45.0
 40
45.0
 40
46.0
 40
46.0
 40
46.0
 40
47.0
 40
47.0
 40
47.0
 40
48.0
 40
48.0
 40
48.0
 40
49.0
 40
49.0
 40
49.0
 40
50.0
 40
50.0
 40
50.0
 40
51.0
 40
51.0
 40
51.0
 40
52.0
 40
52.0
 40
52.0
 40
53.0
 40
53.0
 40
53.0
 40
54.0
 40
54.0
 40
54.0
 40
55.0
 40
55.0
 40
55.0
 40
56.0
 40
56.0
 40
56.0
 40
57.0
 40
57.0
 40
57.0
 40
58.0
 40
58.0
 40
58.0
 40
59.0
 40
59.0
 40
59.0
 40
60.0
 40
60.0
 40
60.0
 40
61.0
 40
61.0
 40
61.0
 40
62.0
 40
62.0
 40
62.0
 40
63.0
 40
63.0
 40
63.0
 40
64.0
 40
64.0
 40
64.0
 40
65.0
 40
65.0
 40
65.0
 40
66.0
 40
66.0
 40
66.0
 40
66.0
 10
50.02221789522804
 20
42.70346938174909
 30
0.0
 10
50.17380209661692
 20
42.45611152584632
 30
0.0
 10
50.30471572508915
 20
42.2077201412977
 30
0.0
 10
50.40841309922109
 20
41.96449639997825
 30
0.0
 10
50.40841309922109
 20
41.96449639997825
 30
0.0
 10
50.42253799071414
 20
41.93176799286018
 30
0.0
 10
50.42253799071414
 20
41.93176799286018
 30
0.0
 10
50.42253799071414
 20
41.93176799286018
 30
0.0
 10
49.28669000894331
 20
41.93176799286018
 30
0.0
 10
49.24190376762386
 20
41.93176799286018
 30
0.0
 10
49.24190376762386
 20
41.88801528018657
 30
0.0
 10
49.24190376762386
 20
40.97816556230464
 30
0.0
 10
49.24190376762386
 20
40.93475735917964
 30
0.0
 10
49.28737902804054
 20
40.93475735917964
 30
0.0
 10
51.28829048637386
 20
40.93475735917964
 30
0.0
 10
51.28829048637386
 20
40.93475735917964
 30
0.0
 10
51.28829048637386
 20
40.93475735917964
 30
0.0
 10
51.29518067734609
 20
40.9237330536241
 30
0.0
 10
51.29518067734609
 20
40.9237330536241
 30
0.0
 10
51.38130806449886
 20
40.78661825327685
 30
0.0
 10
51.40921333793636
 20
40.7104816430338
 30
0.0
 10
51.48500543863081
 20
40.4899955319227
 30
0.0
 10
51.48500543863081
 20
40.4899955319227
 30
0.0
 10
51.49568523463775
 20
40.45898967254768
 30
0.0
 10
51.49568523463775
 20
40.45898967254768
 30
0.0
 10
51.49568523463775
 20
40.45898967254768
 30
0.0
 10
49.6518701304711
 20
40.45898967254768
 30
0.0
 10
49.60639487005442
 20
40.45898967254768
 30
0.0
 10
49.60639487005442
 20
40.41558146942271
 30
0.0
 10
49.60639487005442
 20
39.6063285397352
 30
0.0
 10
49.60639487005442
 20
39.56326484615882
 30
0.0
 10
49.65255914956832
 20
39.56326484615882
 30
0.0
 10
52.95399415390861
 20
39.56326484615882
 30
0.0
 10
52.95399415390861
 20
39.56326484615882
 30
0.0
 10
52.95399415390861
 20
39.56326484615882
 30
0.0
 10
52.95399415390861
 20
39.17982571855464
 30
0.0
 10
52.95399415390861
 20
39.17982571855464
 30
0.0
 10
52.95399415390861
 20
39.17982571855464
 30
0.0
 10
49.89578289088774
 20
39.17982571855464
 30
0.0
 10
49.84961861137386
 20
39.17982571855464
 30
0.0
 10
49.84961861137386
 20
39.13676202497825
 30
0.0
 10
49.84961861137386
 20
38.46117880015187
 30
0.0
 10
49.84961861137386
 20
38.4184596161241
 30
0.0
 10
49.89578289088774
 20
38.4184596161241
 30
0.0
 10
52.95399415390861
 20
38.4184596161241
 30
0.0
 10
52.95399415390861
 20
38.4184596161241
 30
0.0
 10
52.95399415390861
 20
38.4184596161241
 30
0.0
 10
52.95399415390861
 20
38.03502048851992
 30
0.0
 10
52.95399415390861
 20
38.03502048851992
 30
0.0
 10
52.95399415390861
 20
38.03502048851992
 30
0.0
 10
49.28806804713776
 20
38.03502048851992
 30
0.0
 10
49.24190376762386
 20
38.03502048851992
 30
0.0
 10
49.24190376762386
 20
37.99161228539492
 30
0.0
 10
49.24190376762386
 20
37.14067370032547
 30
0.0
 10
49.24190376762386
 20
37.09726549720048
 30
0.0
 10
49.28772353758915
 20
37.09726549720048
 30
0.0
 10
51.88325847682525
 20
37.09726549720048
 30
0.0
 10
51.88325847682525
 20
37.09726549720048
 30
0.0
 10
51.88325847682525
 20
37.09726549720048
 30
0.0
 10
51.8935937632836
 20
37.05316827497826
 30
0.0
 10
51.8935937632836
 20
37.05316827497826
 30
0.0
 10
50.77669380668638
 20
36.51573337914492
 30
0.0
 10
49.73799751762386
 20
36.26286337046437
 30
0.0
 10
49.19884007404748
 20
36.15709893904075
 30
0.0
 10
49.22915691432526
 20
36.10438897810325
 30
0.0
 10
49.8103445228322
 20
35.10358873938797
 30
0.0
 10
49.82791450981136
 20
35.0732718991102
 30
0.0
 10
51.74442112873498
 20
35.62276462914493
 30
0.0
 10
52.36109322074886
 20
36.04582235483937
 30
0.0
 10
52.91575359401275
 20
36.50264201629771
 30
0.0
 10
52.91575359401275
 20
36.50264201629771
 30
0.0
 10
52.95399415390861
 20
36.53433689476992
 30
0.0
 10
52.95399415390861
 20
36.53433689476992
 30
0.0
 10
52.95399415390861
 20
36.53433689476992
 30
0.0
 10
52.95399415390861
 20
35.04674466386715
 30
0.0
 10
52.95399415390861
 20
35.00161391299909
 30
0.0
 10
52.99809137613081
 20
35.00161391299909
 30
0.0
 10
54.24659398029748
 20
35.00161391299909
 30
0.0
 10
54.2910357120683
 20
35.00161391299909
 30
0.0
 10
54.2910357120683
 20
35.04674466386715
 30
0.0
 10
54.2910357120683
 20
36.5674098114366
 30
0.0
 10
54.2910357120683
 20
36.5674098114366
 30
0.0
 10
54.2910357120683
 20
36.5674098114366
 30
0.0
 10
54.32927627196415
 20
36.5367484616102
 30
0.0
 10
54.32927627196415
 20
36.5367484616102
 30
0.0
 10
55.1619558509572
 20
35.86116523678381
 30
0.0
 10
55.75451227456831
 20
35.53663724199215
 30
0.0
 10
57.39920085963776
 20
35.0732718991102
 30
0.0
 10
57.41642633706831
 20
35.10255521074215
 30
0.0
 10
58.03998862005443
 20
36.13505032792964
 30
0.0
 10
58.0730615367211
 20
36.18982734615882
 30
0.0
 10
57.60142796467248
 20
36.27113159963104
 30
0.0
 10
56.43422961397804
 20
36.47887085744353
 30
0.0
 10
55.3324880775197
 20
37.05316827497826
 30
0.0
 10
55.3324880775197
 20
37.05316827497826
 30
0.0
 10
55.34316787352665
 20
37.09726549720048
 30
0.0
 10
55.34316787352665
 20
37.09726549720048
 30
0.0
 10
55.34316787352665
 20
37.09726549720048
 30
0.0
 10
57.93870281276276
 20
37.09726549720048
 30
0.0
 10
57.98486709227663
 20
37.09726549720048
 30
0.0
 10
57.98486709227663
 20
37.14067370032547
 30
0.0
 10
57.98486709227663
 20
37.99161228539492
 30
0.0
 10
57.98486709227663
 20
38.03502048851992
 30
0.0
 10
57.93870281276276
 20
38.03502048851992
 30
0.0
 10
54.2910357120683
 20
38.03502048851992
 30
0.0
 10
54.2910357120683
 20
38.03502048851992
 30
0.0
 10
54.2910357120683
 20
38.03502048851992
 30
0.0
 10
54.2910357120683
 20
38.4184596161241
 30
0.0
 10
54.2910357120683
 20
38.4184596161241
 30
0.0
 10
54.2910357120683
 20
38.4184596161241
 30
0.0
 10
57.36819500026276
 20
38.4184596161241
 30
0.0
 10
57.41435927977665
 20
38.4184596161241
 30
0.0
 10
57.41435927977665
 20
38.46117880015187
 30
0.0
 10
57.41435927977665
 20
39.13676202497825
 30
0.0
 10
57.41435927977665
 20
39.17982571855464
 30
0.0
 10
57.36819500026276
 20
39.17982571855464
 30
0.0
 10
54.2910357120683
 20
39.17982571855464
 30
0.0
 10
54.2910357120683
 20
39.17982571855464
 30
0.0
 10
54.2910357120683
 20
39.17982571855464
 30
0.0
 10
54.2910357120683
 20
39.56326484615882
 30
0.0
 10
54.2910357120683
 20
39.56326484615882
 30
0.0
 10
54.2910357120683
 20
39.56326484615882
 30
0.0
 10
57.62037598984609
 20
39.56326484615882
 30
0.0
 10
57.66654026935999
 20
39.56326484615882
 30
0.0
 10
57.66654026935999
 20
39.6063285397352
 30
0.0
 10
57.66654026935999
 20
40.41558146942271
 30
0.0
 10
57.66654026935999
 20
40.45898967254768
 30
0.0
 10
57.62140951849192
 20
40.45898967254768
 30
0.0
 10
55.77759441432526
 20
40.45898967254768
 30
0.0
 10
55.77759441432526
 20
40.45898967254768
 30
0.0
 10
55.77759441432526
 20
40.45898967254768
 30
0.0
 10
55.77759441432526
 20
40.48241632185325
 30
0.0
 10
55.77759441432526
 20
40.48241632185325
 30
0.0
 10
55.77759441432526
 20
40.50033081838103
 30
0.0
 10
55.94605958359609
 20
40.91684286265186
 30
0.0
 10
55.94812664088776
 20
40.92097697723519
 30
0.0
 10
55.94812664088776
 20
40.92097697723519
 30
0.0
 10
55.95432781276276
 20
40.93475735917964
 30
0.0
 10
55.95432781276276
 20
40.93475735917964
 30
0.0
 10
55.95432781276276
 20
40.93475735917964
 30
0.0
 10
57.93904732231136
 20
40.93475735917964
 30
0.0
 10
57.98452258272803
 20
40.93475735917964
 30
0.0
 10
57.98452258272803
 20
40.97816556230464
 30
0.0
 10
57.98452258272803
 20
41.88801528018657
 30
0.0
 10
57.98452258272803
 20
41.93176799286018
 30
0.0
 10
57.9400808509572
 20
41.93176799286018
 30
0.0
 10
56.83489421901275
 20
41.93176799286018
 30
0.0
 10
56.83489421901275
 20
41.93176799286018
 30
0.0
 10
56.83489421901275
 20
41.93176799286018
 30
0.0
 10
56.85659832057526
 20
41.96725247636714
 30
0.0
 10
56.85659832057526
 20
41.96725247636714
 30
0.0
 10
57.00645997422109
 20
42.21254327497825
 30
0.0
 10
57.1370290931447
 20
42.49883070987407
 30
0.0
 10
57.22625706623498
 20
42.70243585310325
 30
0.0
 10
57.17044651935998
 20
42.71208212046436
 30
0.0
 10
55.96707466606137
 20
42.9153427541449
 30
0.0
 10
55.92952312526275
 20
42.92154392601992
 30
0.0
 10
55.85993219644332
 20
42.69141154754769
 30
0.0
 10
55.69697917995025
 20
42.24079305796435
 30
0.0
 10
55.53195910616555
 20
41.94382582706157
 30
0.0
 10
55.53195910616555
 20
41.94382582706157
 30
0.0
 10
55.52506891519332
 20
41.93176799286018
 30
0.0
 10
55.52506891519332
 20
41.93176799286018
 30
0.0
 10
55.52506891519332
 20
41.93176799286018
 30
0.0
 10
55.11372451415165
 20
41.93176799286018
 30
0.0
 10
55.11372451415165
 20
41.93176799286018
 30
0.0
 10
55.11372451415165
 20
41.93176799286018
 30
0.0
 10
55.11372451415165
 20
42.85470907358936
 30
0.0
 10
55.11372451415165
 20
42.89949531490881
 30
0.0
 10
55.06997180147804
 20
42.89949531490881
 30
0.0
 10
53.96168458359611
 20
42.89949531490881
 30
0.0
 10
53.91724285182526
 20
42.89949531490881
 30
0.0
 10
53.91724285182526
 20
42.85470907358936
 30
0.0
 10
53.91724285182526
 20
41.93176799286018
 30
0.0
 10
53.91724285182526
 20
41.93176799286018
 30
0.0
 10
53.91724285182526
 20
41.93176799286018
 30
0.0
 10
53.34639052977665
 20
41.93176799286018
 30
0.0
 10
53.34639052977665
 20
41.93176799286018
 30
0.0
 10
53.34639052977665
 20
41.93176799286018
 30
0.0
 10
53.34639052977665
 20
42.85470907358936
 30
0.0
 10
53.34639052977665
 20
42.89949531490881
 30
0.0
 10
53.30229330755443
 20
42.89949531490881
 30
0.0
 10
52.20330784748497
 20
42.89949531490881
 30
0.0
 10
52.15921062526276
 20
42.89949531490881
 30
0.0
 10
52.15921062526276
 20
42.85470907358936
 30
0.0
 10
52.15921062526276
 20
41.93176799286018
 30
0.0
 10
52.15921062526276
 20
41.93176799286018
 30
0.0
 10
52.15921062526276
 20
41.93176799286018
 30
0.0
 10
51.72616212265859
 20
41.93176799286018
 30
0.0
 10
51.72616212265859
 20
41.93176799286018
 30
0.0
 10
51.72616212265859
 20
41.93176799286018
 30
0.0
 10
51.72099447942943
 20
41.94795994164493
 30
0.0
 10
51.72099447942943
 20
41.94795994164493
 30
0.0
 10
51.57836752630442
 20
42.40064548851992
 30
0.0
 10
51.46467937526275
 20
42.65007040171435
 30
0.0
 10
51.31860732665165
 20
42.92188843556853
 30
0.0
 10
51.28691244817943
 20
42.91672079233936
 30
0.0
 10
50.08422961397805
 20
42.7138046682074
 30
0.0
 10
50.02221789522804
 20
42.70346938174909
 30
0.0
  0
SPLINE
  5
E3B
330
E1F
100
AcDbEntity
  8
WAKU
100
AcDbSpline
210
0.0
220
0.0
230
1.0
 70
     9
 71
     3
 72
    41
 73
    37
 74
     0
 42
0.000000001
 43
0.0000000001
 40
0.0
 40
0.0
 40
0.0
 40
0.0
 40
1.0
 40
1.0
 40
1.0
 40
2.0
 40
2.0
 40
2.0
 40
3.0
 40
3.0
 40
3.0
 40
4.0
 40
4.0
 40
4.0
 40
5.0
 40
5.0
 40
5.0
 40
6.0
 40
6.0
 40
6.0
 40
7.0
 40
7.0
 40
7.0
 40
8.0
 40
8.0
 40
8.0
 40
9.0
 40
9.0
 40
9.0
 40
10.0
 40
10.0
 40
10.0
 40
11.0
 40
11.0
 40
11.0
 40
12.0
 40
12.0
 40
12.0
 40
12.0
 10
40.24538141519331
 20
42.52087932098518
 30
0.0
 10
40.24538141519331
 20
42.47678209876297
 30
0.0
 10
40.24538141519331
 20
41.33232137827685
 30
0.0
 10
40.24538141519331
 20
41.28822415605464
 30
0.0
 10
40.2912011851586
 20
41.28822415605464
 30
0.0
 10
43.54647190998497
 20
41.28822415605464
 30
0.0
 10
43.54647190998497
 20
41.28822415605464
 30
0.0
 10
43.54647190998497
 20
41.28822415605464
 30
0.0
 10
43.54647190998497
 20
36.63011054928381
 30
0.0
 10
43.54647190998497
 20
36.63011054928381
 30
0.0
 10
43.54647190998497
 20
36.63011054928381
 30
0.0
 10
39.91740832491553
 20
36.63011054928381
 30
0.0
 10
39.87124404540166
 20
36.63011054928381
 30
0.0
 10
39.87124404540166
 20
36.58566881751298
 30
0.0
 10
39.87124404540166
 20
35.43293986786021
 30
0.0
 10
39.87124404540166
 20
35.38884264563797
 30
0.0
 10
39.91775283446415
 20
35.38884264563797
 30
0.0
 10
48.60525012179054
 20
35.38884264563797
 30
0.0
 10
48.65141440130443
 20
35.38884264563797
 30
0.0
 10
48.65141440130443
 20
35.43293986786021
 30
0.0
 10
48.65141440130443
 20
36.58566881751298
 30
0.0
 10
48.65141440130443
 20
36.63011054928381
 30
0.0
 10
48.60525012179054
 20
36.63011054928381
 30
0.0
 10
44.9765310462697
 20
36.63011054928381
 30
0.0
 10
44.9765310462697
 20
36.63011054928381
 30
0.0
 10
44.9765310462697
 20
36.63011054928381
 30
0.0
 10
44.9765310462697
 20
41.28822415605464
 30
0.0
 10
44.9765310462697
 20
41.28822415605464
 30
0.0
 10
44.9765310462697
 20
41.28822415605464
 30
0.0
 10
48.24075901935998
 20
41.28822415605464
 30
0.0
 10
48.28692329887386
 20
41.28822415605464
 30
0.0
 10
48.28692329887386
 20
41.33232137827685
 30
0.0
 10
48.28692329887386
 20
42.47678209876297
 30
0.0
 10
48.28692329887386
 20
42.52087932098518
 30
0.0
 10
48.24041450981138
 20
42.52087932098518
 30
0.0
 10
40.29154569470721
 20
42.52087932098518
 30
0.0
 10
40.24538141519331
 20
42.52087932098518
 30
0.0
  0
SPLINE
  5
E3C
330
E1F
100
AcDbEntity
  8
WAKU
100
AcDbSpline
210
0.0
220
0.0
230
1.0
 70
     9
 71
     3
 72
    17
 73
    13
 74
     0
 42
0.000000001
 43
0.0000000001
 40
0.0
 40
0.0
 40
0.0
 40
0.0
 40
1.0
 40
1.0
 40
1.0
 40
2.0
 40
2.0
 40
2.0
 40
3.0
 40
3.0
 40
3.0
 40
4.0
 40
4.0
 40
4.0
 40
4.0
 10
22.23166613741554
 20
36.78789592254771
 30
0.0
 10
25.25198135008916
 20
37.05695788001297
 30
0.0
 10
27.22498753498499
 20
37.56200887827687
 30
0.0
 10
28.49691678845721
 20
41.30717218122825
 30
0.0
 10
28.49691678845721
 20
41.30717218122825
 30
0.0
 10
29.86186362005443
 20
40.66741794945742
 30
0.0
 10
29.86186362005443
 20
40.66741794945742
 30
0.0
 10
28.41251194904748
 20
36.82992608747826
 30
0.0
 10
26.33684191866554
 20
35.7860621551866
 30
0.0
 10
22.65265680581832
 20
35.3488795379991
 30
0.0
 10
22.65265680581832
 20
35.3488795379991
 30
0.0
 10
22.23166613741554
 20
36.78789592254771
 30
0.0
 10
22.23166613741554
 20
36.78789592254771
 30
0.0
  0
SPLINE
  5
E3D
330
E1F
100
AcDbEntity
  8
WAKU
100
AcDbSpline
210
0.0
220
0.0
230
1.0
 70
     9
 71
     3
 72
    17
 73
    13
 74
     0
 42
0.000000001
 43
0.0000000001
 40
0.0
 40
0.0
 40
0.0
 40
0.0
 40
1.0
 40
1.0
 40
1.0
 40
2.0
 40
2.0
 40
2.0
 40
3.0
 40
3.0
 40
3.0
 40
4.0
 40
4.0
 40
4.0
 40
4.0
 10
24.45719782144332
 20
38.40364570553381
 30
0.0
 10
23.34443197942943
 20
38.92523316213104
 30
0.0
 10
22.37188152370026
 20
39.2029078583116
 30
0.0
 10
21.70801162352665
 20
39.3799857662977
 30
0.0
 10
21.70801162352665
 20
39.3799857662977
 30
0.0
 10
22.20341635442943
 20
40.52444648678379
 30
0.0
 10
22.20341635442943
 20
40.52444648678379
 30
0.0
 10
22.75532065130443
 20
40.40662422115882
 30
0.0
 10
24.08306045165165
 20
40.06969388261715
 30
0.0
 10
25.00875760876971
 20
39.63216675588103
 30
0.0
 10
25.00875760876971
 20
39.63216675588103
 30
0.0
 10
24.45719782144332
 20
38.40364570553381
 30
0.0
 10
24.45719782144332
 20
38.40364570553381
 30
0.0
  0
SPLINE
  5
E3E
330
E1F
100
AcDbEntity
  8
WAKU
100
AcDbSpline
210
0.0
220
0.0
230
1.0
 70
     9
 71
     3
 72
    17
 73
    13
 74
     0
 42
0.000000001
 43
0.0000000001
 40
0.0
 40
0.0
 40
0.0
 40
0.0
 40
1.0
 40
1.0
 40
1.0
 40
2.0
 40
2.0
 40
2.0
 40
3.0
 40
3.0
 40
3.0
 40
4.0
 40
4.0
 40
4.0
 40
4.0
 10
29.31960559054054
 20
41.70266914303382
 30
0.0
 10
29.24484701849193
 20
42.03925497202686
 30
0.0
 10
29.09532987439471
 20
42.53569323157547
 30
0.0
 10
28.90826118949887
 20
42.92292196421437
 30
0.0
 10
28.90826118949887
 20
42.92292196421437
 30
0.0
 10
29.72130372422109
 20
43.04074422983936
 30
0.0
 10
29.72130372422109
 20
43.04074422983936
 30
0.0
 10
29.96487197508915
 20
42.56945516733935
 30
0.0
 10
30.13299263481137
 20
41.92970093556853
 30
0.0
 10
30.15159615043637
 20
41.85425334442268
 30
0.0
 10
30.15159615043637
 20
41.85425334442268
 30
0.0
 10
29.31960559054054
 20
41.70266914303382
 30
0.0
 10
29.31960559054054
 20
41.70266914303382
 30
0.0
  0
SPLINE
  5
E3F
330
E1F
100
AcDbEntity
  8
WAKU
100
AcDbSpline
210
0.0
220
0.0
230
1.0
 70
     9
 71
     3
 72
    17
 73
    13
 74
     0
 42
0.000000001
 43
0.0000000001
 40
0.0
 40
0.0
 40
0.0
 40
0.0
 40
1.0
 40
1.0
 40
1.0
 40
2.0
 40
2.0
 40
2.0
 40
3.0
 40
3.0
 40
3.0
 40
4.0
 40
4.0
 40
4.0
 40
4.0
 10
27.95431424939471
 20
41.50905477671435
 30
0.0
 10
27.91710721814471
 20
41.70266914303382
 30
0.0
 10
27.78584908012387
 20
42.36722806230464
 30
0.0
 10
27.58982314696415
 20
42.83851712480464
 30
0.0
 10
27.58982314696415
 20
42.83851712480464
 30
0.0
 10
28.42181370685999
 20
42.94772665171436
 30
0.0
 10
28.42181370685999
 20
42.94772665171436
 30
0.0
 10
28.5058740367211
 20
42.75445679494352
 30
0.0
 10
28.63678766519332
 20
42.48505032792964
 30
0.0
 10
28.83315810790165
 20
41.66890720726992
 30
0.0
 10
28.83315810790165
 20
41.66890720726992
 30
0.0
 10
27.95431424939471
 20
41.50905477671435
 30
0.0
 10
27.95431424939471
 20
41.50905477671435
 30
0.0
  0
SPLINE
  5
E40
330
E1F
100
AcDbEntity
  8
WAKU
100
AcDbSpline
210
0.0
220
0.0
230
1.0
 70
     9
 71
     3
 72
    17
 73
    13
 74
     0
 42
0.000000001
 43
0.0000000001
 40
0.0
 40
0.0
 40
0.0
 40
0.0
 40
1.0
 40
1.0
 40
1.0
 40
2.0
 40
2.0
 40
2.0
 40
3.0
 40
3.0
 40
3.0
 40
4.0
 40
4.0
 40
4.0
 40
4.0
 10
25.27988662352665
 20
40.4403861569227
 30
0.0
 10
24.27012913654749
 20
40.88618151282547
 30
0.0
 10
23.50359539088776
 20
41.11355781490881
 30
0.0
 10
22.45594185356138
 20
41.35747057532547
 30
0.0
 10
22.45594185356138
 20
41.35747057532547
 30
0.0
 10
22.98924263481137
 20
42.49366306664492
 30
0.0
 10
22.98924263481137
 20
42.49366306664492
 30
0.0
 10
24.05481066866554
 20
42.28316773244353
 30
0.0
 10
24.84993870685999
 20
42.06440416907547
 30
0.0
 10
25.86899795165165
 20
41.66890720726992
 30
0.0
 10
25.86899795165165
 20
41.66890720726992
 30
0.0
 10
25.27988662352665
 20
40.4403861569227
 30
0.0
 10
25.27988662352665
 20
40.4403861569227
 30
0.0
  0
SPLINE
  5
E41
330
E1F
100
AcDbEntity
  8
WAKU
100
AcDbSpline
210
0.0
220
0.0
230
1.0
 70
    11
 71
     3
 72
    32
 73
    28
 74
     0
 42
0.000000001
 43
0.0000000001
 40
0.0
 40
0.0
 40
0.0
 40
0.0
 40
1.0
 40
1.0
 40
1.0
 40
2.0
 40
2.0
 40
2.0
 40
3.0
 40
3.0
 40
3.0
 40
4.0
 40
4.0
 40
4.0
 40
5.0
 40
5.0
 40
5.0
 40
6.0
 40
6.0
 40
6.0
 40
7.0
 40
7.0
 40
7.0
 40
8.0
 40
8.0
 40
8.0
 40
9.0
 40
9.0
 40
9.0
 40
9.0
 10
17.82917861571415
 20
35.36541599633242
 30
0.0
 10
17.82917861571415
 20
35.36541599633242
 30
0.0
 10
16.24891331623498
 20
35.36541599633242
 30
0.0
 10
16.24891331623498
 20
35.36541599633242
 30
0.0
 10
16.24891331623498
 20
35.36541599633242
 30
0.0
 10
16.24891331623498
 20
38.79914266733937
 30
0.0
 10
16.24891331623498
 20
38.79914266733937
 30
0.0
 10
14.98663033012387
 20
38.13423923851992
 30
0.0
 10
13.86421822074886
 20
37.77250421247825
 30
0.0
 10
13.12558974852665
 20
37.54512791039493
 30
0.0
 10
13.12558974852665
 20
37.54512791039493
 30
0.0
 10
12.30290094644331
 20
38.68132040171437
 30
0.0
 10
12.30290094644331
 20
38.68132040171437
 30
0.0
 10
13.72400283446415
 20
39.04305542775603
 30
0.0
 10
15.06138890217249
 20
39.64077949459632
 30
0.0
 10
16.2864648570336
 20
40.3811305145616
 30
0.0
 10
17.63280817300582
 20
41.19761814476992
 30
0.0
 10
18.52129829887387
 20
42.06440416907547
 30
0.0
 10
19.20377171467248
 20
42.77133776282546
 30
0.0
 10
19.20377171467248
 20
42.77133776282546
 30
0.0
 10
20.54081327283221
 20
41.93831367428381
 30
0.0
 10
20.54081327283221
 20
41.93831367428381
 30
0.0
 10
19.74602974418637
 20
41.16385620900604
 30
0.0
 10
19.02600478758914
 20
40.5582084225477
 30
0.0
 10
17.82917861571415
 20
39.74998902150603
 30
0.0
 10
17.82917861571415
 20
39.74998902150603
 30
0.0
 10
17.82917861571415
 20
35.36541599633242
 30
0.0
 10
17.82917861571415
 20
35.36541599633242
 30
0.0
  0
SPLINE
  5
E42
330
E1F
100
AcDbEntity
  8
WAKU
100
AcDbSpline
210
0.0
220
0.0
230
1.0
 70
     9
 71
     3
 72
    41
 73
    37
 74
     0
 42
0.000000001
 43
0.0000000001
 40
0.0
 40
0.0
 40
0.0
 40
0.0
 40
1.0
 40
1.0
 40
1.0
 40
2.0
 40
2.0
 40
2.0
 40
3.0
 40
3.0
 40
3.0
 40
4.0
 40
4.0
 40
4.0
 40
5.0
 40
5.0
 40
5.0
 40
6.0
 40
6.0
 40
6.0
 40
7.0
 40
7.0
 40
7.0
 40
8.0
 40
8.0
 40
8.0
 40
9.0
 40
9.0
 40
9.0
 40
10.0
 40
10.0
 40
10.0
 40
11.0
 40
11.0
 40
11.0
 40
12.0
 40
12.0
 40
12.0
 40
12.0
 10
3.74907336397804
 20
36.2914576629991
 30
0.0
 10
4.515951619186373
 20
36.56051962046436
 30
0.0
 10
6.133423949915536
 20
37.12448175154076
 30
0.0
 10
6.526509344880821
 20
38.98448880449215
 30
0.0
 10
6.666724731165543
 20
39.62389852671437
 30
0.0
 10
6.657078463804432
 20
40.14548598331159
 30
0.0
 10
6.648121215540541
 20
40.58335761959629
 30
0.0
 10
6.648121215540541
 20
40.58335761959629
 30
0.0
 10
8.2094384898461
 20
40.57508939042963
 30
0.0
 10
8.2094384898461
 20
40.57508939042963
 30
0.0
 10
8.200136732033596
 20
40.21300985483935
 30
0.0
 10
8.190834974221097
 20
39.94360338782548
 30
0.0
 10
8.134335408248871
 20
39.48919529320742
 30
0.0
 10
8.836101358769711
 20
39.78375095726992
 30
0.0
 10
9.54682455755443
 20
40.21300985483935
 30
0.0
 10
9.9767724742211
 20
41.1473197506727
 30
0.0
 10
9.9767724742211
 20
41.1473197506727
 30
0.0
 10
3.674314791929431
 20
41.1473197506727
 30
0.0
 10
3.674314791929431
 20
41.1473197506727
 30
0.0
 10
3.674314791929431
 20
41.1473197506727
 30
0.0
 10
3.674314791929431
 20
42.43440742428381
 30
0.0
 10
3.674314791929431
 20
42.43440742428381
 30
0.0
 10
3.674314791929431
 20
42.43440742428381
 30
0.0
 10
11.88432184488082
 20
42.43440742428381
 30
0.0
 10
11.88432184488082
 20
42.43440742428381
 30
0.0
 10
11.59458931449887
 20
40.36424954667963
 30
0.0
 10
10.65924589001971
 20
39.27869995900604
 30
0.0
 10
9.097928615714151
 20
38.46255683834632
 30
0.0
 10
9.097928615714151
 20
38.46255683834632
 30
0.0
 10
8.115731892623877
 20
39.3799857662977
 30
0.0
 10
8.115731892623877
 20
39.3799857662977
 30
0.0
 10
7.86355090304054
 20
37.67121840518659
 30
0.0
 10
7.246189791929432
 20
36.34175605709631
 30
0.0
 10
4.72162381970721
 20
35.22244453365882
 30
0.0
 10
4.72162381970721
 20
35.22244453365882
 30
0.0
 10
3.74907336397804
 20
36.2914576629991
 30
0.0
 10
3.74907336397804
 20
36.2914576629991
 30
0.0
  0
ENDBLK
  5
E43
330
E1F
100
AcDbEntity
  8
0
100
AcDbBlockEnd
  0
BLOCK
  5
14C6
330
14C3
100
AcDbEntity
  8
0
100
AcDbBlockBegin
  2
_DotBlank
 70
     0
 10
0.0
 20
0.0
 30
0.0
  3
_DotBlank
  1

  0
CIRCLE
  5
14C4
330
14C3
100
AcDbEntity
  8
0
  6
ByBlock
 62
     0
370
    -2
100
AcDbCircle
 10
0.0
 20
0.0
 30
0.0
 40
0.5
  0
LINE
  5
14C5
330
14C3
100
AcDbEntity
  8
0
  6
ByBlock
 62
     0
370
    -2
100
AcDbLine
 10
-0.5
 20
0.0
 30
0.0
 11
-1.0
 21
0.0
 31
0.0
  0
ENDBLK
  5
14C7
330
14C3
100
AcDbEntity
  8
0
100
AcDbBlockEnd
  0
BLOCK
  5
6D15
330
6D14
100
AcDbEntity
  8
0
 62
     2
100
AcDbBlockBegin
  2
*D3
 70
     1
 10
0.0
 20
0.0
 30
0.0
  3
*D3
  1

  0
LINE
  5
6D36
330
6D14
100
AcDbEntity
  8
SUNPOU
 62
     0
440
 16777216
370
    -2
100
AcDbLine
 10
271.6172467238703
 20
275.4400877522539
 30
0.0
 11
212.3663747894657
 21
275.4400877522539
 31
0.0
  0
LINE
  5
6D37
330
6D14
100
AcDbEntity
  8
SUNPOU
 62
     0
440
 16777216
370
    -2
100
AcDbLine
 10
304.9352013626515
 20
255.2592961588837
 30
0.0
 11
212.3663747894657
 21
255.2592961588837
 31
0.0
  0
LINE
  5
6D38
330
6D14
100
AcDbEntity
  8
SUNPOU
 62
     0
440
 16777216
370
    -2
100
AcDbLine
 10
212.3663747894657
 20
275.4400877522539
 30
0.0
 11
212.3663747894657
 21
255.2592961588837
 31
0.0
  0
MTEXT
  5
6D39
330
6D14
100
AcDbEntity
  8
SUNPOU
 62
     0
440
 16777216
100
AcDbMText
 10
207.8663747894657
 20
265.3496919555689
 30
0.0
 40
5.0
 41
0.0
 46
0.0
 71
     5
 72
     1
  1
\A1;ｈ※
 11
0.0000000000000001
 21
1.0
 31
0.0
 73
     1
 44
1.0
  0
POINT
  5
6D3A
330
6D14
100
AcDbEntity
  8
DEFPOINTS
 62
     0
440
 16777216
100
AcDbPoint
 10
276.6172467238703
 20
275.4400877522539
 30
0.0
  0
POINT
  5
6D3B
330
6D14
100
AcDbEntity
  8
DEFPOINTS
 62
     0
440
 16777216
100
AcDbPoint
 10
309.9352013626515
 20
255.2592961588837
 30
0.0
  0
POINT
  5
6D3C
330
6D14
100
AcDbEntity
  8
DEFPOINTS
 62
     0
440
 16777216
100
AcDbPoint
 10
212.3663747894657
 20
255.2592961588837
 30
0.0
  0
ENDBLK
  5
6D16
330
6D14
100
AcDbEntity
  8
0
 62
     2
100
AcDbBlockEnd
  0
BLOCK
  5
6D1F
330
6D1E
100
AcDbEntity
  8
0
 62
     2
100
AcDbBlockBegin
  2
*D4
 70
     1
 10
0.0
 20
0.0
 30
0.0
  3
*D4
  1

  0
LINE
  5
77E4
330
6D1E
100
AcDbEntity
  8
SUNPOU
 62
     0
440
 16777216
370
    -2
100
AcDbLine
 10
302.8352014089569
 20
65.7462150884046
 30
0.0
 11
302.8352014089569
 21
40.7462150884046
 31
0.0
  0
LINE
  5
77E5
330
6D1E
100
AcDbEntity
  8
SUNPOU
 62
     0
440
 16777216
370
    -2
100
AcDbLine
 10
352.8352014089549
 20
65.7462150884046
 30
0.0
 11
352.8352014089549
 21
40.7462150884046
 31
0.0
  0
LINE
  5
77E6
330
6D1E
100
AcDbEntity
  8
SUNPOU
 62
     0
440
 16777216
370
    -2
100
AcDbLine
 10
304.335201408957
 20
40.7462150884046
 30
0.0
 11
351.335201408955
 21
40.7462150884046
 31
0.0
  0
INSERT
  5
77E7
330
6D1E
100
AcDbEntity
  8
SUNPOU
 62
     0
440
 16777216
370
    -2
100
AcDbBlockReference
  2
_DotBlank
 10
302.8352014089569
 20
40.7462150884046
 30
0.0
 41
1.5
 42
1.5
 43
1.5
 50
180.0
  0
INSERT
  5
77E8
330
6D1E
100
AcDbEntity
  8
SUNPOU
 62
     0
440
 16777216
370
    -2
100
AcDbBlockReference
  2
_DotBlank
 10
352.8352014089549
 20
40.7462150884046
 30
0.0
 41
1.5
 42
1.5
 43
1.5
  0
MTEXT
  5
77E9
330
6D1E
100
AcDbEntity
  8
SUNPOU
 62
     0
440
 16777216
100
AcDbMText
 10
327.835201408956
 20
45.2462150884046
 30
0.0
 40
5.0
 41
0.0
 46
0.0
 71
     5
 72
     1
  1
\A1;50
 73
     1
 44
1.0
  0
POINT
  5
77EA
330
6D1E
100
AcDbEntity
  8
DEFPOINTS
 62
     0
440
 16777216
100
AcDbPoint
 10
302.8352014089569
 20
70.7462150884046
 30
0.0
  0
POINT
  5
77EB
330
6D1E
100
AcDbEntity
  8
DEFPOINTS
 62
     0
440
 16777216
100
AcDbPoint
 10
352.8352014089549
 20
70.7462150884046
 30
0.0
  0
POINT
  5
77EC
330
6D1E
100
AcDbEntity
  8
DEFPOINTS
 62
     0
440
 16777216
100
AcDbPoint
 10
352.8352014089549
 20
40.7462150884046
 30
0.0
  0
ENDBLK
  5
6D20
330
6D1E
100
AcDbEntity
  8
0
 62
     2
100
AcDbBlockEnd
  0
BLOCK
  5
6D2B
330
6D2A
100
AcDbEntity
  8
0
 62
     2
100
AcDbBlockBegin
  2
*D5
 70
     1
 10
0.0
 20
0.0
 30
0.0
  3
*D5
  1

  0
LINE
  5
6D46
330
6D2A
100
AcDbEntity
  8
SUNPOU
 62
     0
440
 16777216
370
    -2
100
AcDbLine
 10
352.935201408955
 20
65.7462150884046
 30
0.0
 11
352.935201408955
 21
40.7462150884046
 31
0.0
  0
LINE
  5
6D47
330
6D2A
100
AcDbEntity
  8
SUNPOU
 62
     0
440
 16777216
370
    -2
100
AcDbLine
 10
452.9352014089552
 20
65.7462150884046
 30
0.0
 11
452.9352014089552
 21
40.7462150884046
 31
0.0
  0
LINE
  5
6D48
330
6D2A
100
AcDbEntity
  8
SUNPOU
 62
     0
440
 16777216
370
    -2
100
AcDbLine
 10
354.435201408955
 20
40.7462150884046
 30
0.0
 11
451.4352014089551
 21
40.7462150884046
 31
0.0
  0
INSERT
  5
6D49
330
6D2A
100
AcDbEntity
  8
SUNPOU
 62
     0
440
 16777216
370
    -2
100
AcDbBlockReference
  2
_DotBlank
 10
352.935201408955
 20
40.7462150884046
 30
0.0
 41
1.5
 42
1.5
 43
1.5
 50
180.0
  0
INSERT
  5
6D4A
330
6D2A
100
AcDbEntity
  8
SUNPOU
 62
     0
440
 16777216
370
    -2
100
AcDbBlockReference
  2
_DotBlank
 10
452.9352014089552
 20
40.7462150884046
 30
0.0
 41
1.5
 42
1.5
 43
1.5
  0
MTEXT
  5
6D4B
330
6D2A
100
AcDbEntity
  8
SUNPOU
 62
     0
440
 16777216
100
AcDbMText
 10
402.9352014089552
 20
45.2462150884046
 30
0.0
 40
5.0
 41
0.0
 46
0.0
 71
     5
 72
     1
  1
\A1;100
 73
     1
 44
1.0
  0
POINT
  5
6D4C
330
6D2A
100
AcDbEntity
  8
DEFPOINTS
 62
     0
440
 16777216
100
AcDbPoint
 10
352.935201408955
 20
70.7462150884046
 30
0.0
  0
POINT
  5
6D4D
330
6D2A
100
AcDbEntity
  8
DEFPOINTS
 62
     0
440
 16777216
100
AcDbPoint
 10
452.9352014089552
 20
70.7462150884046
 30
0.0
  0
POINT
  5
6D4E
330
6D2A
100
AcDbEntity
  8
DEFPOINTS
 62
     0
440
 16777216
100
AcDbPoint
 10
452.9352014089552
 20
40.7462150884046
 30
0.0
  0
ENDBLK
  5
6D2C
330
6D2A
100
AcDbEntity
  8
0
 62
     2
100
AcDbBlockEnd
  0
ENDSEC
  0
SECTION
  2
ENTITIES
  0
MTEXT
  5
1744
330
1A
100
AcDbEntity
  8
0
100
AcDbMText
 10
1008.141078032124
 20
200.9648650421882
 30
0.0
 40
5.0
 41
0.0
 46
0.0
 71
     9
 72
     1
  1

 73
     1
 44
1.0
  0
MTEXT
  5
1746
330
1A
100
AcDbEntity
  8
0
100
AcDbMText
 10
991.9581606814372
 20
242.7597672972983
 30
0.0
 40
5.0
 41
0.0
 46
0.0
 71
     9
 72
     1
  1

 73
     1
 44
1.0
  0
LINE
  5
2180
330
1A
100
AcDbEntity
  8
WAKU
100
AcDbLine
 10
20.0
 20
10.0
 30
0.0
 11
800.0
 21
10.0
 31
0.0
  0
LINE
  5
2181
330
1A
100
AcDbEntity
  8
WAKU
100
AcDbLine
 10
800.0
 20
10.0
 30
0.0
 11
800.0
 21
560.0
 31
0.0
  0
LINE
  5
2182
330
1A
100
AcDbEntity
  8
WAKU
100
AcDbLine
 10
800.0
 20
560.0
 30
0.0
 11
20.0
 21
560.0
 31
0.0
  0
LINE
  5
2183
330
1A
100
AcDbEntity
  8
WAKU
100
AcDbLine
 10
20.0
 20
560.0
 30
0.0
 11
20.0
 21
10.0
 31
0.0
  0
LINE
  5
2184
330
1A
100
AcDbEntity
  8
WAKU
100
AcDbLine
 10
20.0
 20
30.0
 30
0.0
 11
800.0
 21
30.0
 31
0.0
  0
LINE
  5
2185
330
1A
100
AcDbEntity
  8
WAKU
100
AcDbLine
 10
120.0
 20
30.0
 30
0.0
 11
120.0
 21
10.0
 31
0.0
  0
LINE
  5
2187
330
1A
100
AcDbEntity
  8
WAKU
100
AcDbLine
 10
22.0
 20
28.0
 30
0.0
 11
118.0
 21
28.0
 31
0.0
  0
LINE
  5
2188
330
1A
100
AcDbEntity
  8
WAKU
100
AcDbLine
 10
22.0
 20
28.0
 30
0.0
 11
22.0
 21
12.0
 31
0.0
  0
LINE
  5
2189
330
1A
100
AcDbEntity
  8
WAKU
100
AcDbLine
 10
22.0
 20
12.0
 30
0.0
 11
118.0
 21
12.0
 31
0.0
  0
LINE
  5
218A
330
1A
100
AcDbEntity
  8
WAKU
100
AcDbLine
 10
118.0
 20
28.0
 30
0.0
 11
118.0
 21
12.0
 31
0.0
  0
LINE
  5
218C
330
1A
100
AcDbEntity
  8
WAKU
100
AcDbLine
 10
260.0
 20
30.0
 30
0.0
 11
260.0
 21
10.0
 31
0.0
  0
LINE
  5
218D
330
1A
100
AcDbEntity
  8
WAKU
100
AcDbLine
 10
270.0
 20
30.0
 30
0.0
 11
270.0
 21
10.0
 31
0.0
  0
MTEXT
  5
218E
330
1A
100
AcDbEntity
  8
WAKU
100
AcDbMText
 10
261.8186178625299
 20
27.72724847366113
 30
0.0
 40
5.0
 41
10.0
 46
0.0
 71
     1
 72
     5
  1
名称
  7
WAKU
 73
     1
 44
1.0
  0
LINE
  5
218F
330
1A
100
AcDbEntity
  8
WAKU
100
AcDbLine
 10
20.0
 20
30.0
 30
0.0
 11
20.0
 21
10.0
 31
0.0
  0
LINE
  5
2190
330
1A
100
AcDbEntity
  8
WAKU
100
AcDbLine
 10
520.0
 20
30.0
 30
0.0
 11
520.0
 21
10.0
 31
0.0
  0
LINE
  5
2191
330
1A
100
AcDbEntity
  8
WAKU
100
AcDbLine
 10
530.0
 20
30.0
 30
0.0
 11
530.0
 21
10.0
 31
0.0
  0
MTEXT
  5
2192
330
1A
100
AcDbEntity
  8
WAKU
100
AcDbMText
 10
521.8186178625297
 20
27.72724847366113
 30
0.0
 40
5.0
 41
10.0
 46
0.0
 71
     1
 72
     5
  1
縮尺
  7
WAKU
 73
     1
 44
1.0
  0
MTEXT
  5
2193
102
{ACAD_XDICTIONARY
360
814A
102
}
330
1A
100
AcDbEntity
  8
WAKU
100
AcDbMText
 10
274.3245405690059
 20
23.21985646788335
 30
0.0
 40
5.0
 41
190.5002997985425
 46
0.0
 71
     1
 72
     5
  1
\pi31.20193;耐火ヴァンドＲＺ５０　折板屋根軒先納まり
  7
WAKU
 73
     1
 44
1.0
  0
MTEXT
  5
2194
330
1A
100
AcDbEntity
  8
WAKU
100
AcDbMText
 10
539.3245405690057
 20
23.21985646788335
 30
0.0
 40
5.0
 41
190.5002997985425
 46
0.0
 71
     1
 72
     5
  1
1/2（A3）
  7
WAKU
 73
     1
 44
1.0
  0
MTEXT
  5
2195
330
1A
100
AcDbEntity
  8
WAKU
100
AcDbMText
 10
581.8186178625299
 20
27.72724847366113
 30
0.0
 40
5.0
 41
10.0
 46
0.0
 71
     1
 72
     5
  1
図番
  7
WAKU
 73
     1
 44
1.0
  0
LINE
  5
2196
330
1A
100
AcDbEntity
  8
WAKU
100
AcDbLine
 10
590.0
 20
30.0
 30
0.0
 11
590.0
 21
10.0
 31
0.0
  0
LINE
  5
2197
330
1A
100
AcDbEntity
  8
WAKU
100
AcDbLine
 10
580.0
 20
30.0
 30
0.0
 11
580.0
 21
10.0
 31
0.0
  0
MTEXT
  5
2198
330
1A
100
AcDbEntity
  8
WAKU
100
AcDbMText
 10
604.3245405690059
 20
23.21985646788335
 30
0.0
 40
5.0
 41
190.5002997985425
 46
0.0
 71
     1
 72
     5
  1
IGRZ5006_01
  7
WAKU
 73
     1
 44
1.0
  0
LINE
  5
2199
330
1A
100
AcDbEntity
  8
WAKU
100
AcDbLine
 10
660.0
 20
30.0
 30
0.0
 11
660.0
 21
10.0
 31
0.0
  0
LINE
  5
219A
330
1A
100
AcDbEntity
  8
WAKU
100
AcDbLine
 10
670.0
 20
30.0
 30
0.0
 11
670.0
 21
10.0
 31
0.0
  0
MTEXT
  5
219B
330
1A
100
AcDbEntity
  8
WAKU
100
AcDbMText
 10
661.8186178625299
 20
27.72724847366113
 30
0.0
 40
5.0
 41
10.0
 46
0.0
 71
     1
 72
     5
  1
特記
  7
WAKU
 73
     1
 44
1.0
  0
LINE
  5
219C
330
1A
100
AcDbEntity
  8
WAKU
  6
DASHED2
 48
0.5
100
AcDbLine
 10
670.0
 20
20.0
 30
0.0
 11
800.0
 21
20.0
 31
0.0
  0
LINE
  5
219D
330
1A
100
AcDbEntity
  8
WAKU
100
AcDbLine
 10
470.0
 20
10.0
 30
0.0
 11
470.0
 21
30.0
 31
0.0
  0
MTEXT
  5
219E
330
1A
100
AcDbEntity
  8
WAKU
100
AcDbMText
 10
496.3674469153243
 20
23.21985646788335
 30
0.0
 40
5.0
 41
190.5002997985425
 46
0.0
 71
     1
 72
     5
  1
mm
  7
WAKU
 73
     1
 44
1.0
  0
MTEXT
  5
219F
330
1A
100
AcDbEntity
  8
WAKU
100
AcDbMText
 10
471.8186178625298
 20
27.72724847366113
 30
0.0
 40
5.0
 41
10.0
 46
0.0
 71
     1
 72
     5
  1
単位
  7
WAKU
 73
     1
 44
1.0
  0
LINE
  5
21A0
330
1A
100
AcDbEntity
  8
WAKU
100
AcDbLine
 10
480.0
 20
30.0
 30
0.0
 11
480.0
 21
10.0
 31
0.0
  0
LINE
  5
6B8C
330
1A
100
AcDbEntity
  8
TEKUSU
 48
0.5
100
AcDbLine
 10
376.0352013626514
 20
193.5723932521564
 30
0.0
 11
376.0352013626514
 21
199.6723932521564
 31
0.0
  0
LINE
  5
6B8D
330
1A
100
AcDbEntity
  8
TEKUSU
  6
DASHED2
 48
0.5
100
AcDbLine
 10
321.0352013626515
 20
193.5723932521564
 30
0.0
 11
321.0352013626514
 21
199.6723932521564
 31
0.0
  0
LINE
  5
6B8E
330
1A
100
AcDbEntity
  8
TEKUSU
 48
0.5
100
AcDbLine
 10
383.7696324646858
 20
199.3223932521579
 30
0.0
 11
376.0352013626514
 21
199.322393252158
 31
0.0
  0
LINE
  5
6B8F
330
1A
100
AcDbEntity
  8
TEKUSU
 48
0.5
100
AcDbLine
 10
386.0352013626453
 20
196.6223932521492
 30
0.0
 11
383.7696324646858
 21
199.3223932521579
 31
0.0
  0
LINE
  5
6B90
330
1A
100
AcDbEntity
  8
TEKUSU
 48
0.5
100
AcDbLine
 10
383.7696324646858
 20
193.9223932521549
 30
0.0
 11
376.0352013626514
 21
193.9223932521549
 31
0.0
  0
LINE
  5
6B91
330
1A
100
AcDbEntity
  8
TEKUSU
 48
0.5
100
AcDbLine
 10
383.7696324646855
 20
193.9223932521549
 30
0.0
 11
386.0352013626453
 21
196.6223932521492
 31
0.0
  0
LINE
  5
6B92
330
1A
100
AcDbEntity
  8
TEKUSU
 48
0.5
100
AcDbLine
 10
376.0352013626512
 20
198.1708044064937
 30
0.0
 11
386.0352013626451
 21
196.6223932521492
 31
0.0
  0
LINE
  5
6B93
330
1A
100
AcDbEntity
  8
TEKUSU
  6
DASHED2
 48
0.5
100
AcDbLine
 10
321.0352013626514
 20
199.6723932521564
 30
0.0
 11
355.2352013626527
 21
199.6723932521563
 31
0.0
  0
LINE
  5
6B94
330
1A
100
AcDbEntity
  8
TEKUSU
 48
0.5
100
AcDbLine
 10
355.2352013626527
 20
199.6723932521564
 30
0.0
 11
376.0352013626514
 21
199.6723932521564
 31
0.0
  0
LINE
  5
6B95
330
1A
100
AcDbEntity
  8
TEKUSU
  6
DASHED2
 48
0.5
100
AcDbLine
 10
321.0352013626513
 20
193.5723932521564
 30
0.0
 11
355.2352013626527
 21
193.5723932521563
 31
0.0
  0
LINE
  5
6B96
330
1A
100
AcDbEntity
  8
TEKUSU
 48
0.5
100
AcDbLine
 10
355.2352013626527
 20
193.5723932521564
 30
0.0
 11
376.0352013626514
 21
193.5723932521564
 31
0.0
  0
LINE
  5
6B97
330
1A
100
AcDbEntity
  8
TEKUSU
  6
CENTER2
370
     5
100
AcDbLine
 10
275.9080451534932
 20
196.6223932521568
 30
0.0
 11
396.5033679224283
 21
196.6223932521568
 31
0.0
  0
LINE
  5
6B98
330
1A
100
AcDbEntity
  8
TEKUSU
 48
0.5
100
AcDbLine
 10
298.8352013626512
 20
193.9723932521566
 30
0.0
 11
302.1352013626516
 21
193.9723932521566
 31
0.0
  0
LINE
  5
6B99
330
1A
100
AcDbEntity
  8
TEKUSU
  6
DASHED2
 48
0.5
100
AcDbLine
 10
302.1352013626516
 20
193.9723932521568
 30
0.0
 11
321.0352013626514
 21
193.9723932521568
 31
0.0
  0
LINE
  5
6B9A
330
1A
100
AcDbEntity
  8
TEKUSU
 48
0.5
100
AcDbLine
 10
298.8352013626512
 20
199.2723932521567
 30
0.0
 11
302.1352013626516
 21
199.2723932521567
 31
0.0
  0
LINE
  5
6B9B
330
1A
100
AcDbEntity
  8
TEKUSU
  6
DASHED2
 48
0.5
100
AcDbLine
 10
302.1352013626516
 20
199.2723932521568
 30
0.0
 11
321.0352013626514
 21
199.2723932521568
 31
0.0
  0
LINE
  5
6B9C
330
1A
100
AcDbEntity
  8
TEKUSU
 48
0.5
100
AcDbLine
 10
293.4206652312724
 20
202.1649558363773
 30
0.0
 11
289.835201135062
 21
202.1649558363773
 31
0.0
  0
LINE
  5
6B9D
330
1A
100
AcDbEntity
  8
TEKUSU
 48
0.5
100
AcDbLine
 10
293.6352005714891
 20
199.3936750532045
 30
0.0
 11
289.835201135062
 21
199.393674544267
 31
0.0
  0
ARC
  5
6B9E
330
1A
100
AcDbEntity
  8
TEKUSU
 48
0.5
100
AcDbCircle
 10
290.3476931778821
 20
200.7793151903222
 30
0.0
 40
1.477378791628623
100
AcDbArc
 50
110.2973812672992
 51
249.7026187326999
  0
LINE
  5
6B9F
330
1A
100
AcDbEntity
  8
TEKUSU
 48
0.5
100
AcDbLine
 10
293.6352008821017
 20
193.8511119600464
 30
0.0
 11
289.835201135062
 21
193.8511119600464
 31
0.0
  0
ARC
  5
6BA0
330
1A
100
AcDbEntity
  8
TEKUSU
 48
0.5
100
AcDbCircle
 10
306.0914455744628
 20
196.6223932521567
 30
0.0
 40
12.76080012633567
100
AcDbArc
 50
167.4570480444482
 51
192.5429519555516
  0
ARC
  5
6BA1
330
1A
100
AcDbEntity
  8
TEKUSU
 48
0.5
100
AcDbCircle
 10
293.2870743865361
 20
196.6223932521567
 30
0.0
 40
4.4266724460077
100
AcDbArc
 50
141.2413177993247
 51
218.7586822006752
  0
ARC
  5
6BA2
330
1A
100
AcDbEntity
  8
TEKUSU
 48
0.5
100
AcDbCircle
 10
298.6949566923783
 20
201.1793143238798
 30
0.0
 40
5.36559778662658
100
AcDbArc
 50
160.5615207847183
 51
199.4384595924057
  0
LINE
  5
6BA3
330
1A
100
AcDbEntity
  8
TEKUSU
 48
0.5
100
AcDbLine
 10
293.6352013626514
 20
202.9649558363766
 30
0.0
 11
294.8352013626514
 21
202.9649558363766
 31
0.0
  0
LINE
  5
6BA4
330
1A
100
AcDbEntity
  8
TEKUSU
 48
0.5
100
AcDbLine
 10
293.4206649466014
 20
191.0798306679364
 30
0.0
 11
289.8352006331553
 21
191.0798306679364
 31
0.0
  0
LINE
  5
6BA5
330
1A
100
AcDbEntity
  8
TEKUSU
 48
0.5
100
AcDbLine
 10
288.8352013626514
 20
191.9934801429727
 30
0.0
 11
289.1916939720569
 21
191.5455174616199
 31
0.0
  0
LINE
  5
6BA6
330
1A
100
AcDbEntity
  8
TEKUSU
 48
0.5
100
AcDbLine
 10
293.6352013626514
 20
190.2798306679372
 30
0.0
 11
294.8352013626514
 21
190.2798306679372
 31
0.0
  0
ARC
  5
6BA7
330
1A
100
AcDbEntity
  8
TEKUSU
 48
0.5
100
AcDbCircle
 10
298.6949601940446
 20
192.0654711283875
 30
0.0
 40
5.365601315275026
100
AcDbArc
 50
160.5615459956228
 51
199.4384540043704
  0
ARC
  5
6BA8
330
1A
100
AcDbEntity
  8
TEKUSU
 48
0.5
100
AcDbCircle
 10
290.3476926759749
 20
192.4654713139914
 30
0.0
 40
1.477378791628314
100
AcDbArc
 50
110.2973812672966
 51
249.7026187327048
  0
LINE
  5
6BA9
330
1A
100
AcDbEntity
  8
TEKUSU
 48
0.5
100
AcDbLine
 10
293.6352013626512
 20
202.9649558363765
 30
0.0
 11
293.6352013626514
 21
190.2798306679372
 31
0.0
  0
LINE
  5
6BAA
330
1A
100
AcDbEntity
  8
TEKUSU
 48
0.5
100
AcDbLine
 10
288.8352013626514
 20
201.2513063613409
 30
0.0
 11
288.8352013626514
 21
191.9934801429727
 31
0.0
  0
LINE
  5
6BAB
330
1A
100
AcDbEntity
  8
TEKUSU
 48
0.5
100
AcDbLine
 10
294.5352013626513
 20
202.9649558363765
 30
0.0
 11
294.5352013626514
 21
190.2798306679372
 31
0.0
  0
LINE
  5
6BAC
330
1A
100
AcDbEntity
  8
TEKUSU
 48
0.5
100
AcDbLine
 10
294.8352013626514
 20
202.9649558363765
 30
0.0
 11
294.8352013626514
 21
190.2798306679372
 31
0.0
  0
LINE
  5
6BAD
330
1A
100
AcDbEntity
  8
TEKUSU
 48
0.5
100
AcDbLine
 10
298.3352013626513
 20
205.3723932521568
 30
0.0
 11
298.3352013626513
 21
187.8723932521568
 31
0.0
  0
LINE
  5
6BAE
330
1A
100
AcDbEntity
  8
TEKUSU
 48
0.5
100
AcDbLine
 10
298.8352013626514
 20
205.3723932521568
 30
0.0
 11
298.3352013626514
 21
205.3723932521569
 31
0.0
  0
LINE
  5
6BAF
330
1A
100
AcDbEntity
  8
TEKUSU
 48
0.5
100
AcDbLine
 10
298.8352013626514
 20
187.8723932521568
 30
0.0
 11
298.3352013626513
 21
187.872393252157
 31
0.0
  0
ARC
  5
6BB0
330
1A
100
AcDbEntity
  8
TEKUSU
 48
0.5
100
AcDbCircle
 10
298.168187865448
 20
191.7724945384573
 30
0.0
 40
3.404200679359156
100
AcDbArc
 50
191.7401407657914
 51
272.812117257388
  0
LINE
  5
6BB1
330
1A
100
AcDbEntity
  8
TEKUSU
 48
0.5
100
AcDbLine
 10
298.8352013626514
 20
205.3723932521568
 30
0.0
 11
298.8352013626514
 21
187.8723932521568
 31
0.0
  0
LINE
  5
6BB2
330
1A
100
AcDbEntity
  8
TEKUSU
 48
0.5
100
AcDbLine
 10
288.8352013626514
 20
201.2513063613409
 30
0.0
 11
289.1916939720569
 21
201.6992690426937
 31
0.0
  0
ARC
  5
6BB3
330
1A
100
AcDbEntity
  8
TEKUSU
 48
0.5
100
AcDbCircle
 10
298.168187865448
 20
201.4722919658563
 30
0.0
 40
3.404200679359156
100
AcDbArc
 50
87.18788274261122
 51
168.2598592342085
  0
ARC
  5
6BB4
330
1A
100
AcDbEntity
  8
NOKI
  6
DASHED2
370
     9
100
AcDbCircle
 10
308.3352013626512
 20
229.0930246769224
 30
0.0
 40
0.899999999999977
100
AcDbArc
 50
180.0
 51
0.0000000000130276
  0
ARC
  5
6BB5
330
1A
100
AcDbEntity
  8
NOKI
  6
DASHED2
370
     9
100
AcDbCircle
 10
308.3352013626512
 20
229.0930246769224
 30
0.0
 40
0.4999999999999771
100
AcDbArc
 50
180.0
 51
0.0
  0
LINE
  5
6BB6
330
1A
100
AcDbEntity
  8
SITAJI
370
     9
100
AcDbLine
 10
473.0948599378157
 20
213.0202364783993
 30
0.0
 11
485.3339196183001
 21
225.2592961588837
 31
0.0
  0
LINE
  5
6BB7
330
1A
100
AcDbEntity
  8
SITAJI
370
     9
100
AcDbLine
 10
473.0948599378153
 20
215.9228645389339
 30
0.0
 11
482.4312915577653
 21
225.2592961588838
 31
0.0
  0
LINE
  5
6BB8
330
1A
100
AcDbEntity
  8
SITAJI
100
AcDbLine
 10
473.0948599378153
 20
205.2592961588837
 30
0.0
 11
533.0948599378155
 21
205.2592961588837
 31
0.0
  0
LINE
  5
6BB9
330
1A
100
AcDbEntity
  8
SITAJI
100
AcDbLine
 10
473.0948599378153
 20
225.2592961588837
 30
0.0
 11
623.0948599378153
 21
225.2592961588836
 31
0.0
  0
LINE
  5
6BBA
330
1A
100
AcDbEntity
  8
SITAJI
100
AcDbLine
 10
473.0948599378157
 20
205.2592961588837
 30
0.0
 11
473.0948599378153
 21
225.2592961588837
 31
0.0
  0
LINE
  5
6BBB
330
1A
100
AcDbEntity
  8
SITAJI
370
     9
100
AcDbLine
 10
600.0377614343372
 20
205.2592961588837
 30
0.0
 11
620.0377614343368
 21
225.2592961588835
 31
0.0
  0
LINE
  5
6BBC
330
1A
100
AcDbEntity
  8
SITAJI
370
     9
100
AcDbLine
 10
568.606865010595
 20
205.2592961588837
 30
0.0
 11
588.6068650105951
 21
225.2592961588837
 31
0.0
  0
LINE
  5
6BBD
330
1A
100
AcDbEntity
  8
SITAJI
370
     9
100
AcDbLine
 10
536.55738290862
 20
204.6407104806506
 30
0.0
 11
557.175968586853
 21
225.2592961588836
 31
0.0
  0
LINE
  5
6BBE
330
1A
100
AcDbEntity
  8
SITAJI
370
     9
100
AcDbLine
 10
501.2549441025765
 20
205.2592961588837
 30
0.0
 11
521.2549441025763
 21
225.2592961588837
 31
0.0
  0
LINE
  5
6BBF
330
1A
100
AcDbEntity
  8
SITAJI
370
     9
100
AcDbLine
 10
597.1351333738025
 20
205.2592961588837
 30
0.0
 11
617.1351333738025
 21
225.2592961588835
 31
0.0
  0
LINE
  5
6BC0
330
1A
100
AcDbEntity
  8
SITAJI
370
     9
100
AcDbLine
 10
565.7042369500607
 20
205.2592961588837
 30
0.0
 11
585.7042369500605
 21
225.2592961588837
 31
0.0
  0
LINE
  5
6BC1
330
1A
100
AcDbEntity
  8
SITAJI
370
     9
100
AcDbLine
 10
534.210871334451
 20
205.196826967016
 30
0.0
 11
554.2733405263184
 21
225.2592961588836
 31
0.0
  0
LINE
  5
6BC2
330
1A
100
AcDbEntity
  8
SITAJI
370
     9
100
AcDbLine
 10
498.3523160420417
 20
205.2592961588837
 30
0.0
 11
518.3523160420418
 21
225.2592961588837
 31
0.0
  0
LINE
  5
6BC3
330
1A
100
AcDbEntity
  8
SITAJI
100
AcDbLine
 10
623.0948599378153
 20
205.2592961588835
 30
0.0
 11
623.0948599378153
 21
225.2592961588839
 31
0.0
  0
LINE
  5
6BC4
330
1A
100
AcDbEntity
  8
SITAJI
100
AcDbLine
 10
553.0948599378152
 20
76.24800845865094
 30
0.0
 11
553.0948599378155
 21
195.2592961588836
 31
0.0
  0
LINE
  5
6BC5
330
1A
100
AcDbEntity
  8
SITAJI
100
AcDbLine
 10
543.0948599378154
 20
76.24800845865094
 30
0.0
 11
543.0948599378154
 21
195.2592961588836
 31
0.0
  0
LINE
  5
6BC6
330
1A
100
AcDbEntity
  8
SITAJI
100
AcDbLine
 10
563.0948599378155
 20
205.2592961588837
 30
0.0
 11
623.0948599378153
 21
205.2592961588835
 31
0.0
  0
LINE
  5
6BC7
330
1A
100
AcDbEntity
  8
SITAJI
370
     9
100
AcDbLine
 10
543.0948599378154
 20
119.7881262991545
 30
0.0
 11
553.0948599378155
 21
129.7881262991545
 31
0.0
  0
LINE
  5
6BC8
330
1A
100
AcDbEntity
  8
SITAJI
370
     9
100
AcDbLine
 10
543.0948599378154
 20
85.45460181487781
 30
0.0
 11
553.0948599378155
 21
95.45460181487783
 31
0.0
  0
LINE
  5
6BC9
330
1A
100
AcDbEntity
  8
SITAJI
370
     9
100
AcDbLine
 10
543.0948599378154
 20
116.8854982386201
 30
0.0
 11
553.0948599378155
 21
126.8854982386199
 31
0.0
  0
LINE
  5
6BCA
330
1A
100
AcDbEntity
  8
SITAJI
370
     9
100
AcDbLine
 10
543.0948599378154
 20
88.35722987541249
 30
0.0
 11
553.0948599378155
 21
98.35722987541249
 31
0.0
  0
LINE
  5
6BCB
330
1A
100
AcDbEntity
  8
SITAJI
370
     9
100
AcDbLine
 10
543.0948599378157
 20
148.3163946623622
 30
0.0
 11
553.0948599378155
 21
158.316394662362
 31
0.0
  0
LINE
  5
6BCC
330
1A
100
AcDbEntity
  8
SITAJI
370
     9
100
AcDbLine
 10
543.0948599378157
 20
179.7472910861042
 30
0.0
 11
553.0948599378157
 21
189.7472910861042
 31
0.0
  0
LINE
  5
6BCD
330
1A
100
AcDbEntity
  8
SITAJI
370
     9
100
AcDbLine
 10
543.0948599378154
 20
151.2190227228966
 30
0.0
 11
553.0948599378155
 21
161.2190227228966
 31
0.0
  0
LINE
  5
6BCE
330
1A
100
AcDbEntity
  8
SITAJI
370
     9
100
AcDbLine
 10
543.0948599378154
 20
182.6499191466386
 30
0.0
 11
553.0948599378155
 21
192.6499191466387
 31
0.0
  0
ARC
  5
6BCF
330
1A
100
AcDbEntity
  8
SITAJI
100
AcDbCircle
 10
533.0948599378155
 20
195.2592961588836
 30
0.0
 40
10.0
100
AcDbArc
 50
0.0
 51
90.0
  0
ARC
  5
6BD0
330
1A
100
AcDbEntity
  8
SITAJI
100
AcDbCircle
 10
563.0948599378155
 20
195.2592961588836
 30
0.0
 40
10.0
100
AcDbArc
 50
90.0
 51
180.0
  0
LINE
  5
6BD1
330
1A
100
AcDbEntity
  8
NOKI
  6
CENTER2
100
AcDbLine
 10
548.0948599378153
 20
68.05505826141767
 30
0.0
 11
548.0948599378153
 21
297.1387737999446
 31
0.0
  0
LINE
  5
6BD2
330
1A
100
AcDbEntity
  8
NOKI
100
AcDbLine
 10
533.0948599378155
 20
280.2592961588837
 30
0.0
 11
533.0948599378155
 21
405.2592961588835
 31
0.0
  0
LINE
  5
6BD3
330
1A
100
AcDbEntity
  8
NOKI
100
AcDbLine
 10
563.0948599378155
 20
280.2592961588837
 30
0.0
 11
563.0948599378152
 21
405.2592961588835
 31
0.0
  0
LINE
  5
6BD4
330
1A
100
AcDbEntity
  8
NOKI
  6
DASHED2
100
AcDbLine
 10
530.5948599378154
 20
275.2592961588837
 30
0.0
 11
530.5948599378154
 21
277.7592961588837
 31
0.0
  0
LINE
  5
6BD5
330
1A
100
AcDbEntity
  8
NOKI
  6
DASHED2
100
AcDbLine
 10
565.5948599378157
 20
275.2592961588836
 30
0.0
 11
565.5948599378157
 21
277.7592961588837
 31
0.0
  0
LINE
  5
6BD6
330
1A
100
AcDbEntity
  8
NOKI
100
AcDbLine
 10
533.0948599378155
 20
280.2592961588837
 30
0.0
 11
563.0948599378156
 21
280.2592961588837
 31
0.0
  0
ARC
  5
6BD7
330
1A
100
AcDbEntity
  8
NOKI
  6
DASHED2
100
AcDbCircle
 10
533.0948599378155
 20
277.7592961588837
 30
0.0
 40
2.5
100
AcDbArc
 50
90.0
 51
180.0
  0
ARC
  5
6BD8
330
1A
100
AcDbEntity
  8
NOKI
  6
DASHED2
100
AcDbCircle
 10
563.0948599378156
 20
277.7592961588837
 30
0.0
 40
2.5
100
AcDbArc
 50
0.0
 51
90.0
  0
LINE
  5
6BD9
330
1A
100
AcDbEntity
  8
NOKI
100
AcDbLine
 10
276.6172467238703
 20
275.4400877522539
 30
0.0
 11
704.883462599826
 21
298.864332944702
 31
0.0
  0
LINE
  5
6BDA
330
1A
100
AcDbEntity
  8
NOKI
100
AcDbLine
 10
99.88346259982607
 20
358.9125463110163
 30
0.0
 11
704.883462599826
 21
392.003338477391
 31
0.0
  0
LINE
  5
6BDB
330
1A
100
AcDbEntity
  8
NOKI
100
AcDbLine
 10
99.88346259982607
 20
512.1412328325369
 30
0.0
 11
704.883462599826
 21
545.2320249989119
 31
0.0
  0
LINE
  5
6BDC
330
1A
100
AcDbEntity
  8
NOKI
100
AcDbLine
 10
267.4421125696176
 20
443.1893557484256
 30
0.0
 11
704.883462599826
 21
467.1154397134308
 31
0.0
  0
LINE
  5
6BDD
330
1A
100
AcDbEntity
  8
NOKI
100
AcDbLine
 10
269.080529382877
 20
413.2341293205378
 30
0.0
 11
704.883462599826
 21
437.0705992190147
 31
0.0
  0
ARC
  5
6BDE
330
1A
100
AcDbEntity
  8
NOKI
100
AcDbCircle
 10
548.0948599378153
 20
405.2592961588835
 30
0.0
 40
14.99999999999994
100
AcDbArc
 50
0.0
 51
180.0
  0
LINE
  5
6BDF
330
1A
100
AcDbEntity
  8
NOKI
100
AcDbLine
 10
533.7839899713127
 20
392.6599099559269
 30
0.0
 11
563.7392163992005
 21
394.2983267691861
 31
0.0
  0
LINE
  5
6BE0
330
1A
100
AcDbEntity
  8
NOKI
100
AcDbLine
 10
532.1455731580531
 20
422.6151363838144
 30
0.0
 11
533.7839899713127
 21
392.6599099559268
 31
0.0
  0
LINE
  5
6BE1
330
1A
100
AcDbEntity
  8
NOKI
100
AcDbLine
 10
562.1007995859412
 20
424.2535531970738
 30
0.0
 11
563.7392163992005
 21
394.2983267691862
 31
0.0
  0
LINE
  5
6BE2
330
1A
100
AcDbEntity
  8
NOKI
  6
CENTER2
 48
0.3
370
     5
100
AcDbLine
 10
538.109784461853
 20
404.7131572211303
 30
0.0
 11
558.0799354137781
 21
405.8054350966369
 31
0.0
  0
LINE
  5
6BE3
330
1A
100
AcDbEntity
  8
NOKI
  6
CENTER2
 48
0.3
370
     5
100
AcDbLine
 10
547.5487210000626
 20
415.2443716348463
 30
0.0
 11
548.6409988755686
 21
395.274220682921
 31
0.0
  0
CIRCLE
  5
6BE4
330
1A
100
AcDbEntity
  8
NOKI
 48
0.5
100
AcDbCircle
 10
548.0948599378153
 20
405.2592961588835
 30
0.0
 40
3.0
  0
LINE
  5
6BE5
330
1A
100
AcDbEntity
  8
NOKI
100
AcDbLine
 10
502.1903467301656
 20
420.9767195705551
 30
0.0
 11
532.1455731580534
 21
422.6151363838146
 31
0.0
  0
LINE
  5
6BE6
330
1A
100
AcDbEntity
  8
NOKI
100
AcDbLine
 10
500.2788604480294
 20
455.9244837364241
 30
0.0
 11
502.1903467301656
 21
420.9767195705551
 31
0.0
  0
LINE
  5
6BE7
330
1A
100
AcDbEntity
  8
NOKI
100
AcDbLine
 10
590.1445397316929
 20
460.8397341762024
 30
0.0
 11
592.0560260138289
 21
425.8919700103333
 31
0.0
  0
LINE
  5
6BE8
330
1A
100
AcDbEntity
  8
NOKI
100
AcDbLine
 10
562.1007995859412
 20
424.2535531970738
 30
0.0
 11
592.0560260138289
 21
425.8919700103333
 31
0.0
  0
LINE
  5
6BE9
330
1A
100
AcDbEntity
  8
NOKI
100
AcDbLine
 10
529.6879479381637
 20
467.5479760256463
 30
0.0
 11
527.6126199747019
 21
505.4912628343043
 31
0.0
  0
LINE
  5
6BEA
330
1A
100
AcDbEntity
  8
NOKI
100
AcDbLine
 10
559.6431743660523
 20
469.1863928389058
 30
0.0
 11
557.5678464025901
 21
507.1296796475636
 31
0.0
  0
LINE
  5
6BEB
330
1A
100
AcDbEntity
  8
NOKI
100
AcDbLine
 10
499.7327215102764
 20
465.9095592123868
 30
0.0
 11
500.2788604480294
 21
455.9244837364241
 31
0.0
  0
LINE
  5
6BEC
330
1A
100
AcDbEntity
  8
NOKI
100
AcDbLine
 10
589.5984007939397
 20
470.8248096521652
 30
0.0
 11
590.1445397316929
 21
460.8397341762024
 31
0.0
  0
LINE
  5
6BED
330
1A
100
AcDbEntity
  8
NOKI
100
AcDbLine
 10
497.6573935468144
 20
503.8528460210446
 30
0.0
 11
587.5230728304777
 21
508.7680964608229
 31
0.0
  0
LINE
  5
6BEE
330
1A
100
AcDbEntity
  8
NOKI
100
AcDbLine
 10
497.6573935468144
 20
503.852846021045
 30
0.0
 11
496.0189767335553
 21
533.8080724489327
 31
0.0
  0
LINE
  5
6BEF
330
1A
100
AcDbEntity
  8
NOKI
100
AcDbLine
 10
587.5230728304777
 20
508.7680964608229
 30
0.0
 11
585.8846560172183
 21
538.7233228887107
 31
0.0
  0
LINE
  5
6BF0
330
1A
100
AcDbEntity
  8
NOKI
100
AcDbLine
 10
499.7327215102764
 20
465.9095592123868
 30
0.0
 11
589.5984007939397
 21
470.8248096521652
 31
0.0
  0
LINE
  5
6BF1
330
1A
100
AcDbEntity
  8
NOKI
  6
CENTER2
 48
0.3
370
     5
100
AcDbLine
 10
544.6655611521074
 20
468.3671844322758
 30
0.0
 11
542.590233188646
 21
506.3104712409339
 31
0.0
  0
LINE
  5
6BF2
330
1A
100
AcDbEntity
  8
NOKI
  6
CENTER2
 48
0.3
370
     5
100
AcDbLine
 10
533.1512966504365
 20
495.779256827218
 30
0.0
 11
553.1214476023619
 21
496.8715347027246
 31
0.0
  0
LINE
  5
6BF3
330
1A
100
AcDbEntity
  8
NOKI
  6
CENTER2
 48
0.3
370
     5
100
AcDbLine
 10
534.1343467383921
 20
477.8061209704856
 30
0.0
 11
554.1044976903176
 21
478.8983988459916
 31
0.0
  0
CIRCLE
  5
6BF4
330
1A
100
AcDbEntity
  8
NOKI
 48
0.5
100
AcDbCircle
 10
543.136372126399
 20
496.3253957649714
 30
0.0
 40
3.0
  0
CIRCLE
  5
6BF5
330
1A
100
AcDbEntity
  8
NOKI
 48
0.5
100
AcDbCircle
 10
544.1194222143543
 20
478.3522599082385
 30
0.0
 40
3.0
  0
LINE
  5
6BF6
330
1A
100
AcDbEntity
  8
NOKI
100
AcDbLine
 10
99.88346259982607
 20
487.1038657538571
 30
0.0
 11
704.883462599826
 21
520.194657920232
 31
0.0
  0
LINE
  5
6BF7
330
1A
100
AcDbEntity
  8
NOKI
  6
CENTER2
 48
0.3
370
     5
100
AcDbLine
 10
244.8891991442251
 20
441.0401084050111
 30
0.0
 11
246.0830837939443
 21
421.0757742201909
 31
0.0
  0
LINE
  5
6BF8
330
1A
100
AcDbEntity
  8
NOKI
  6
CENTER2
 48
0.3
370
     5
100
AcDbLine
 10
235.5039743766746
 20
430.4609989877413
 30
0.0
 11
255.4683085614945
 21
431.6548836374606
 31
0.0
  0
LINE
  5
6BF9
330
1A
100
AcDbEntity
  8
NOKI
  6
CENTER2
 48
0.3
370
     5
100
AcDbLine
 10
317.2897287484468
 20
346.8813554941141
 30
0.0
 11
297.3253945636272
 21
345.687470844395
 31
0.0
  0
LINE
  5
6BFA
330
1A
100
AcDbEntity
  8
NOKI
  6
CENTER2
 48
0.3
370
     5
100
AcDbLine
 10
307.9045039808967
 20
336.3022460768446
 30
0.0
 11
306.7106193311774
 21
356.2665802616647
 31
0.0
  0
CIRCLE
  5
6BFB
330
1A
100
AcDbEntity
  8
NOKI
 48
0.5
370
     9
100
AcDbCircle
 10
245.4861414690847
 20
431.0579413126013
 30
0.0
 40
2.999999999999998
  0
CIRCLE
  5
6BFC
330
1A
100
AcDbEntity
  8
NOKI
 48
0.5
370
     9
100
AcDbCircle
 10
307.3075616560371
 20
346.2844131692545
 30
0.0
 40
2.999999999999998
  0
SPLINE
  5
6BFD
330
1A
100
AcDbEntity
  8
NOKI
 48
0.5
370
     9
100
AcDbSpline
210
0.0
220
0.0
230
1.0
 70
     8
 71
     3
 72
    40
 73
    36
 74
     0
 42
0.000000001
 43
0.0000000001
 40
319.657728704092
 40
319.657728704092
 40
319.657728704092
 40
319.657728704092
 40
319.6577538454442
 40
344.7376262534131
 40
392.7896813603489
 40
417.8695537683177
 40
442.9494261762866
 40
491.0014812832223
 40
516.0813536911915
 40
541.1612260991603
 40
589.2132812060962
 40
614.293153614065
 40
639.373026022034
 40
687.4250811289697
 40
712.5049535369387
 40
737.5848259449075
 40
785.6368810518432
 40
810.7167534598124
 40
835.796625867781
 40
883.8486809747168
 40
908.9285533826856
 40
934.0084257906548
 40
982.0604808975902
 40
1007.140353305559
 40
1032.220225713528
 40
1080.272280820464
 40
1105.352153228433
 40
1130.432025636401
 40
1178.484080743337
 40
1203.563953151306
 40
1228.643825559275
 40
1276.695880666211
 40
1301.77575307418
 40
1326.855625482149
 40
1374.907680589084
 40
1374.907680589085
 40
1374.907680589085
 40
1374.907680589085
 10
311.4800344874926
 20
370.4859317382491
 30
0.0
 10
311.4800391207245
 20
370.4859319916661
 30
0.0
 10
316.1019465183797
 20
370.7387166294333
 30
0.0
 10
331.6430979773945
 20
333.7437451753879
 30
0.0
 10
306.3811785223125
 20
314.9130776100023
 30
0.0
 10
327.2519695134079
 20
265.2309984484973
 30
0.0
 10
342.5796901994436
 20
316.8929777434403
 30
0.0
 10
315.4147249120349
 20
332.8561017772884
 30
0.0
 10
330.7424462571937
 20
384.518082201389
 30
0.0
 10
351.6132344047528
 20
334.8359981685638
 30
0.0
 10
326.3513318742476
 20
316.005359597014
 30
0.0
 10
347.2221200102908
 20
266.3232755444615
 30
0.0
 10
362.5498414051297
 20
317.9852560536695
 30
0.0
 10
335.3848758220292
 20
333.9483795809619
 30
0.0
 10
350.7125972170691
 20
385.6103600905143
 30
0.0
 10
371.5833853522447
 20
335.9282760364749
 30
0.0
 10
346.3214828269054
 20
317.0976374737752
 30
0.0
 10
367.1922709620774
 20
267.4155534197299
 30
0.0
 10
382.5199923571318
 20
319.0775339293078
 30
0.0
 10
355.3550267739451
 20
335.0406574564497
 30
0.0
 10
370.6827481689909
 20
386.702637966019
 30
0.0
 10
391.5535363042
 20
337.0205539120111
 30
0.0
 10
366.2916337786401
 20
318.189915349087
 30
0.0
 10
387.1624219143446
 20
268.5078312955854
 30
0.0
 10
402.4901433072544
 20
320.1698118029715
 30
0.0
 10
375.3251777367782
 20
336.132935343106
 30
0.0
 10
390.6528991013561
 20
387.7949158215306
 30
0.0
 10
411.523687359289
 20
338.112831892974
 30
0.0
 10
386.2617841062304
 20
319.2821925863818
 30
0.0
 10
407.1325739858228
 20
269.6001103155284
 30
0.0
 10
422.4602883543671
 20
321.2620836424244
 30
0.0
 10
395.2953644239105
 20
337.2252497480742
 30
0.0
 10
410.6229859731433
 20
388.8871281926467
 30
0.0
 10
431.4941762863618
 20
339.2054552554996
 30
0.0
 10
412.6815083714486
 20
325.1816910683272
 30
0.0
 10
415.1537757110886
 20
306.051793544254
 30
0.0
  0
SPLINE
  5
6BFE
330
1A
100
AcDbEntity
  8
NOKI
 48
0.5
370
     9
100
AcDbSpline
210
0.0
220
0.0
230
1.0
 70
     8
 71
     3
 72
    49
 73
    45
 74
     0
 42
0.000000001
 43
0.0000000001
 40
0.0
 40
0.0
 40
0.0
 40
0.0
 40
25.07987240796893
 40
50.15974481593787
 40
97.23415399969717
 40
123.234153999697
 40
148.3140264076659
 40
196.3660815146016
 40
221.4459539225706
 40
246.5258263305395
 40
294.5778814374753
 40
319.6577538454442
 40
344.7376262534131
 40
392.7896813603489
 40
417.8695537683177
 40
442.9494261762866
 40
491.0014812832223
 40
516.0813536911915
 40
541.1612260991603
 40
589.2132812060962
 40
614.293153614065
 40
639.373026022034
 40
687.4250811289697
 40
712.5049535369387
 40
737.5848259449075
 40
785.6368810518432
 40
810.7167534598124
 40
835.796625867781
 40
883.8486809747168
 40
908.9285533826856
 40
934.0084257906548
 40
982.0604808975902
 40
1007.140353305559
 40
1032.220225713528
 40
1080.272280820464
 40
1105.352153228433
 40
1130.432025636401
 40
1178.484080743337
 40
1203.563953151306
 40
1228.643825559275
 40
1276.695880666211
 40
1301.77575307418
 40
1326.855625482149
 40
1374.907680589084
 40
1374.907680589085
 40
1374.907680589085
 40
1374.907680589085
 10
415.1537757110884
 20
306.0517935442543
 30
0.0
 10
413.8631748367488
 20
297.7920575755902
 30
0.0
 10
428.2680862201226
 20
269.8934474437946
 30
0.0
 10
441.6677990688586
 20
322.3424598221716
 30
0.0
 10
415.6414154499224
 20
337.7447760244263
 30
0.0
 10
430.31106771958
 20
390.2965792515795
 30
0.0
 10
451.5115876390074
 20
340.3789294590252
 30
0.0
 10
426.1942215593026
 20
321.4532751556709
 30
0.0
 10
447.0743659892205
 20
271.7872195600471
 30
0.0
 10
462.3997645649384
 20
323.4452208006758
 30
0.0
 10
435.2357679935078
 20
339.4100043615267
 30
0.0
 10
450.5633259233875
 20
391.071704835596
 30
0.0
 10
471.4341546408711
 20
341.3896903039317
 30
0.0
 10
446.1722351857891
 20
322.5590227385461
 30
0.0
 10
467.0430261768845
 20
272.8769435770412
 30
0.0
 10
482.3707468629201
 20
324.5389228719842
 30
0.0
 10
455.2057815755111
 20
340.5020469058322
 30
0.0
 10
470.5335029206703
 20
392.1640273299329
 30
0.0
 10
491.4042910682294
 20
342.4819432971077
 30
0.0
 10
466.1423885377238
 20
323.6513047255578
 30
0.0
 10
487.0131766737674
 20
273.9692206730053
 30
0.0
 10
502.3408980686062
 20
325.6312011822133
 30
0.0
 10
475.1759324855056
 20
341.5943247095058
 30
0.0
 10
490.5036538805453
 20
393.2563052190583
 30
0.0
 10
511.3744420157212
 20
343.5742211650188
 30
0.0
 10
486.1125394903817
 20
324.7435826023191
 30
0.0
 10
506.9833276255536
 20
275.0614985482738
 30
0.0
 10
522.3110490206082
 20
326.7234790578517
 30
0.0
 10
495.1460834374215
 20
342.6866025849936
 30
0.0
 10
510.4738048324673
 20
394.3485830945629
 30
0.0
 10
531.3445929676763
 20
344.666499040555
 30
0.0
 10
506.0826904421166
 20
325.8358604776308
 30
0.0
 10
526.9534785778208
 20
276.1537764241293
 30
0.0
 10
542.281199970731
 20
327.8157569315153
 30
0.0
 10
515.1162344002544
 20
343.7788804716499
 30
0.0
 10
530.4439557648326
 20
395.4408609500745
 30
0.0
 10
551.3147440227657
 20
345.7587770215178
 30
0.0
 10
526.0528407697067
 20
326.9281377149257
 30
0.0
 10
546.9236306492994
 20
277.2460554440722
 30
0.0
 10
562.2513450178438
 20
328.9080287709682
 30
0.0
 10
535.0864210873871
 20
344.8711948766181
 30
0.0
 10
550.41404263662
 20
396.5330733211907
 30
0.0
 10
571.2852329498383
 20
346.8514003840435
 30
0.0
 10
552.4725650349251
 20
332.827636196871
 30
0.0
 10
554.9448323745653
 20
313.6977386727979
 30
0.0
  0
SPLINE
  5
6BFF
330
1A
100
AcDbEntity
  8
NOKI
 48
0.5
370
     9
100
AcDbSpline
210
0.0
220
0.0
230
1.0
 70
     8
 71
     3
 72
    49
 73
    45
 74
     0
 42
0.000000001
 43
0.0000000001
 40
0.0
 40
0.0
 40
0.0
 40
0.0
 40
25.07987240796893
 40
50.15974481593787
 40
97.23415399969717
 40
123.234153999697
 40
148.3140264076659
 40
196.3660815146016
 40
221.4459539225706
 40
246.5258263305395
 40
294.5778814374753
 40
319.6577538454442
 40
344.7376262534131
 40
392.7896813603489
 40
417.8695537683177
 40
442.9494261762866
 40
491.0014812832223
 40
516.0813536911915
 40
541.1612260991603
 40
589.2132812060962
 40
614.293153614065
 40
639.373026022034
 40
687.4250811289697
 40
712.5049535369387
 40
737.5848259449075
 40
785.6368810518432
 40
810.7167534598124
 40
835.796625867781
 40
883.8486809747168
 40
908.9285533826856
 40
934.0084257906548
 40
982.0604808975902
 40
1007.140353305559
 40
1032.220225713528
 40
1080.272280820464
 40
1105.352153228433
 40
1130.432025636401
 40
1178.484080743337
 40
1203.563953151306
 40
1228.643825559275
 40
1276.695880666211
 40
1301.77575307418
 40
1326.855625482149
 40
1374.907680589084
 40
1374.907680589085
 40
1374.907680589085
 40
1374.907680589085
 10
554.9448323745508
 20
313.6977386730596
 30
0.0
 10
553.6542315002114
 20
305.4380027043956
 30
0.0
 10
568.0591428835852
 20
277.5393925725998
 30
0.0
 10
581.4588557323211
 20
329.9884049509768
 30
0.0
 10
555.4324721133849
 20
345.3907211532317
 30
0.0
 10
570.1021243830425
 20
397.9425243803847
 30
0.0
 10
591.30264430247
 20
348.0248745878305
 30
0.0
 10
565.9852782227651
 20
329.0992202844762
 30
0.0
 10
586.865422652683
 20
279.4331646888522
 30
0.0
 10
602.1908212284009
 20
331.0911659294811
 30
0.0
 10
575.0268246569702
 20
347.0559494903321
 30
0.0
 10
590.3543825868499
 20
398.7176499644012
 30
0.0
 10
611.2252113043337
 20
349.0356354327371
 30
0.0
 10
585.9632918492516
 20
330.2049678673516
 30
0.0
 10
606.834082840347
 20
280.5228887058464
 30
0.0
 10
622.1618035263825
 20
332.1848680007895
 30
0.0
 10
594.9968382389737
 20
348.1479920346375
 30
0.0
 10
610.3245595841326
 20
399.8099724587381
 30
0.0
 10
631.195347731692
 20
350.127888425913
 30
0.0
 10
605.9334452011865
 20
331.2972498543631
 30
0.0
 10
626.8042333372298
 20
281.6151658018107
 30
0.0
 10
642.1319547320686
 20
333.2771463110185
 30
0.0
 10
614.9669891489683
 20
349.2402698383112
 30
0.0
 10
630.294710544008
 20
400.9022503478636
 30
0.0
 10
651.1654986791836
 20
351.2201662938242
 30
0.0
 10
625.9035961538442
 20
332.3895277311244
 30
0.0
 10
646.7743842890162
 20
282.707443677079
 30
0.0
 10
662.1021056840709
 20
334.369424186657
 30
0.0
 10
634.937140100884
 20
350.3325477137988
 30
0.0
 10
650.2648614959297
 20
401.9945282233679
 30
0.0
 10
671.1356496311387
 20
352.3124441693602
 30
0.0
 10
645.8737471055792
 20
333.4818056064362
 30
0.0
 10
666.7445352412835
 20
283.7997215529347
 30
0.0
 10
682.0722566341935
 20
335.4617020603207
 30
0.0
 10
654.9072910637171
 20
351.4248256004553
 30
0.0
 10
670.235012428295
 20
403.0868060788797
 30
0.0
 10
691.1058006862282
 20
353.4047221503231
 30
0.0
 10
665.8438974331692
 20
334.574082843731
 30
0.0
 10
686.7146873127617
 20
284.8920005728773
 30
0.0
 10
702.0424016813063
 20
336.5539738997736
 30
0.0
 10
674.8774777508494
 20
352.5171400054235
 30
0.0
 10
690.2050993000822
 20
404.1790184499958
 30
0.0
 10
711.0762896133008
 20
354.4973455128488
 30
0.0
 10
692.2636216983874
 20
340.4735813256763
 30
0.0
 10
694.7358890380276
 20
321.3436838016032
 30
0.0
  0
SPLINE
  5
6C00
330
1A
100
AcDbEntity
  8
NOKI
100
AcDbSpline
210
0.0
220
0.0
230
1.0
 70
     8
 71
     3
 72
     8
 73
     4
 74
     0
 42
0.000000001
 43
0.0000000001
 40
0.0
 40
0.0
 40
0.0
 40
0.0
 40
23.39904266478759
 40
23.39904266478759
 40
23.39904266478759
 40
23.39904266478759
 10
694.7358890380276
 20
321.3436838016023
 30
0.0
 10
693.5317830349887
 20
313.6375076621559
 30
0.0
 10
699.7204871181477
 20
300.9788266758203
 30
0.0
 10
704.8834625998258
 20
299.1457479928748
 30
0.0
  0
SPLINE
  5
6C01
330
1A
100
AcDbEntity
  8
NOKI
 48
0.5
370
     9
100
AcDbSpline
210
0.0
220
0.0
230
1.0
 70
     8
 71
     3
 72
     9
 73
     5
 74
     0
 42
0.000000001
 43
0.0000000001
 40
83.00488397667439
 40
83.00488397667439
 40
83.00488397667439
 40
83.00488397667439
 40
97.23415399969717
 40
110.4958480446224
 40
110.4958480446224
 40
110.4958480446224
 40
110.4958480446224
 10
704.8834625998258
 20
353.2192555915529
 30
0.0
 10
703.3024525045569
 20
357.4654902799645
 30
0.0
 10
701.1361743764617
 20
366.4560554407042
 30
0.0
 10
703.2579230041696
 20
379.3609574858324
 30
0.0
 10
704.883462599826
 20
384.2079950511255
 30
0.0
  0
SPLINE
  5
6C02
330
1A
100
AcDbEntity
  8
NOKI
100
AcDbSpline
210
0.0
220
0.0
230
1.0
 70
     8
 71
     3
 72
     8
 73
     4
 74
     0
 42
0.000000001
 43
0.0000000001
 40
1228.643825559275
 40
1228.643825559275
 40
1228.643825559275
 40
1228.643825559275
 40
1233.803651301003
 40
1233.803651301003
 40
1233.803651301003
 40
1233.803651301003
 10
275.3611271670381
 20
298.4057613469675
 30
0.0
 10
275.4008080611598
 20
300.4767684729404
 30
0.0
 10
275.2829771621171
 20
302.4154471918214
 30
0.0
 10
275.0414616398634
 20
304.2502162928745
 30
0.0
  0
LINE
  5
6C03
330
1A
100
AcDbEntity
  8
SITAJI
100
AcDbLine
 10
357.9352013626526
 20
252.9592961588838
 30
0.0
 11
447.9352013626526
 21
252.9592961588841
 31
0.0
  0
LINE
  5
6C04
330
1A
100
AcDbEntity
  8
SITAJI
100
AcDbLine
 10
357.9352013626526
 20
255.2592961588833
 30
0.0
 11
447.9352013626526
 21
255.2592961588841
 31
0.0
  0
LINE
  5
6C05
330
1A
100
AcDbEntity
  8
SITAJI
100
AcDbLine
 10
357.9352013626526
 20
252.9592961588838
 30
0.0
 11
447.9352013626526
 21
252.9592961588841
 31
0.0
  0
LINE
  5
6C06
330
1A
100
AcDbEntity
  8
SITAJI
100
AcDbLine
 10
357.9352013626528
 20
155.2592961588844
 30
0.0
 11
447.9352013626528
 21
155.259296158884
 31
0.0
  0
LINE
  5
6C07
330
1A
100
AcDbEntity
  8
SITAJI
100
AcDbLine
 10
352.9352013626529
 20
150.2592961588845
 30
0.0
 11
452.9352013626526
 21
150.259296158884
 31
0.0
  0
LINE
  5
6C08
330
1A
100
AcDbEntity
  8
SITAJI
100
AcDbLine
 10
357.9352013626528
 20
157.5592961588839
 30
0.0
 11
447.9352013626528
 21
157.5592961588841
 31
0.0
  0
LINE
  5
6C09
330
1A
100
AcDbEntity
  8
SITAJI
100
AcDbLine
 10
355.2352013626528
 20
160.259296158884
 30
0.0
 11
355.2352013626528
 21
250.2592961588838
 31
0.0
  0
LINE
  5
6C0A
330
1A
100
AcDbEntity
  8
SITAJI
100
AcDbLine
 10
352.9352013626529
 20
160.259296158884
 30
0.0
 11
352.9352013626529
 21
250.2592961588838
 31
0.0
  0
ARC
  5
6C0B
330
1A
100
AcDbEntity
  8
SITAJI
100
AcDbCircle
 10
357.9352013626528
 20
160.259296158884
 30
0.0
 40
2.7
100
AcDbArc
 50
180.0
 51
270.0
  0
ARC
  5
6C0C
330
1A
100
AcDbEntity
  8
SITAJI
100
AcDbCircle
 10
357.9352013626528
 20
160.259296158884
 30
0.0
 40
5.0
100
AcDbArc
 50
180.0
 51
270.0
  0
ARC
  5
6C0D
330
1A
100
AcDbEntity
  8
SITAJI
100
AcDbCircle
 10
357.9352013626526
 20
250.2592961588838
 30
0.0
 40
2.7
100
AcDbArc
 50
90.0
 51
180.0
  0
ARC
  5
6C0E
330
1A
100
AcDbEntity
  8
SITAJI
100
AcDbCircle
 10
357.9352013626526
 20
250.2592961588838
 30
0.0
 40
5.0
100
AcDbArc
 50
90.0
 51
180.0
  0
LINE
  5
6C0F
330
1A
100
AcDbEntity
  8
SITAJI
370
     9
100
AcDbLine
 10
352.9352013626529
 20
229.1102791002592
 30
0.0
 11
355.2352013626528
 21
231.4102791002593
 31
0.0
  0
LINE
  5
6C10
330
1A
100
AcDbEntity
  8
SITAJI
370
     9
100
AcDbLine
 10
376.7842184212752
 20
252.9592961588838
 30
0.0
 11
379.0842184212752
 21
255.2592961588841
 31
0.0
  0
LINE
  5
6C11
330
1A
100
AcDbEntity
  8
SITAJI
370
     9
100
AcDbLine
 10
352.9352013626529
 20
224.6201491002622
 30
0.0
 11
355.2352013626528
 21
226.9201491002618
 31
0.0
  0
LINE
  5
6C12
330
1A
100
AcDbEntity
  8
SITAJI
370
     9
100
AcDbLine
 10
381.2743484212786
 20
252.9592961588839
 30
0.0
 11
383.5743484212792
 21
255.259296158884
 31
0.0
  0
LINE
  5
6C13
330
1A
100
AcDbEntity
  8
SITAJI
370
     9
100
AcDbLine
 10
352.9352013626529
 20
178.8926696126392
 30
0.0
 11
355.2352013626527
 21
181.1926696126393
 31
0.0
  0
LINE
  5
6C14
330
1A
100
AcDbEntity
  8
SITAJI
370
     9
100
AcDbLine
 10
427.0018279088901
 20
252.9592961588839
 30
0.0
 11
429.3018279088903
 21
255.2592961588843
 31
0.0
  0
LINE
  5
6C15
330
1A
100
AcDbEntity
  8
SITAJI
370
     9
100
AcDbLine
 10
352.9352013626529
 20
174.4025396126428
 30
0.0
 11
355.2352013626528
 21
176.7025396126429
 31
0.0
  0
LINE
  5
6C16
330
1A
100
AcDbEntity
  8
SITAJI
370
     9
100
AcDbLine
 10
431.4919579088901
 20
252.9592961588841
 30
0.0
 11
433.7919579088901
 21
255.2592961588842
 31
0.0
  0
LINE
  5
6C17
330
1A
100
AcDbEntity
  8
SITAJI
100
AcDbLine
 10
450.6352013626528
 20
160.259296158884
 30
0.0
 11
450.6352013626526
 21
250.259296158884
 31
0.0
  0
LINE
  5
6C18
330
1A
100
AcDbEntity
  8
SITAJI
100
AcDbLine
 10
452.9352013626528
 20
160.2592961588841
 30
0.0
 11
452.9352013626528
 21
250.259296158884
 31
0.0
  0
LINE
  5
6C19
330
1A
100
AcDbEntity
  8
SITAJI
370
     9
100
AcDbLine
 10
445.2189586005224
 20
155.2592961588841
 30
0.0
 11
447.5189586005224
 21
157.5592961588842
 31
0.0
  0
LINE
  5
6C1A
330
1A
100
AcDbEntity
  8
SITAJI
370
     9
100
AcDbLine
 10
440.7288286005225
 20
155.2592961588842
 30
0.0
 11
443.0288286005223
 21
157.5592961588842
 31
0.0
  0
ARC
  5
6C1B
330
1A
100
AcDbEntity
  8
SITAJI
100
AcDbCircle
 10
447.9352013626528
 20
160.2592961588841
 30
0.0
 40
5.0
100
AcDbArc
 50
270.0
 51
0.0
  0
ARC
  5
6C1C
330
1A
100
AcDbEntity
  8
SITAJI
100
AcDbCircle
 10
447.9352013626528
 20
160.2592961588841
 30
0.0
 40
2.7
100
AcDbArc
 50
270.0
 51
0.0
  0
LINE
  5
6C1D
330
1A
100
AcDbEntity
  8
SITAJI
370
     9
100
AcDbLine
 10
450.6352013626528
 20
165.1656689210144
 30
0.0
 11
452.9352013626528
 21
167.4656689210145
 31
0.0
  0
LINE
  5
6C1E
330
1A
100
AcDbEntity
  8
SITAJI
370
     9
100
AcDbLine
 10
450.6352013626528
 20
160.6755389210145
 30
0.0
 11
452.9352013626528
 21
162.9755389210145
 31
0.0
  0
LINE
  5
6C1F
330
1A
100
AcDbEntity
  8
SITAJI
370
     9
100
AcDbLine
 10
391.3374218741107
 20
155.2592961588842
 30
0.0
 11
393.6374218741103
 21
157.5592961588841
 31
0.0
  0
LINE
  5
6C20
330
1A
100
AcDbEntity
  8
SITAJI
370
     9
100
AcDbLine
 10
450.6352013626526
 20
214.5570756474292
 30
0.0
 11
452.9352013626528
 21
216.8570756474294
 31
0.0
  0
LINE
  5
6C21
330
1A
100
AcDbEntity
  8
SITAJI
370
     9
100
AcDbLine
 10
386.847291874111
 20
155.2592961588843
 30
0.0
 11
389.1472918741106
 21
157.5592961588839
 31
0.0
  0
LINE
  5
6C22
330
1A
100
AcDbEntity
  8
SITAJI
370
     9
100
AcDbLine
 10
450.6352013626526
 20
219.0472056474291
 30
0.0
 11
452.9352013626528
 21
221.3472056474294
 31
0.0
  0
ARC
  5
6C23
330
1A
100
AcDbEntity
  8
SITAJI
100
AcDbCircle
 10
447.9352013626526
 20
250.259296158884
 30
0.0
 40
2.7
100
AcDbArc
 50
0.0
 51
90.0
  0
ARC
  5
6C24
330
1A
100
AcDbEntity
  8
SITAJI
100
AcDbCircle
 10
447.9352013626526
 20
250.259296158884
 30
0.0
 40
5.0
100
AcDbArc
 50
0.0
 51
90.0
  0
DIMENSION
  5
6C2B
330
1A
100
AcDbEntity
  8
SUNPOU
100
AcDbDimension
280
     0
  2
*D3
 10
212.3663747894657
 20
255.2592961588837
 30
0.0
 11
207.8663747894657
 21
265.3496919555689
 31
0.0
 70
    32
  1
ｈ※
 71
     5
 42
20.18079159337026
 73
     0
 74
     0
 75
     0
  3
STANDARD
100
AcDbAlignedDimension
 13
276.6172467238703
 23
275.4400877522539
 33
0.0
 14
309.9352013626515
 24
255.2592961588837
 34
0.0
 50
90.0
100
AcDbRotatedDimension
  0
LINE
  5
6C2D
330
1A
100
AcDbEntity
  8
NOKI
370
     9
100
AcDbLine
 10
247.3993079357021
 20
320.9871569059516
 30
0.0
 11
247.7993079357026
 21
320.9871569059516
 31
0.0
  0
ARC
  5
6C2E
330
1A
100
AcDbEntity
  8
NOKI
370
     9
100
AcDbCircle
 10
246.8993079357022
 20
311.8871569059517
 30
0.0
 40
0.899999999999977
100
AcDbArc
 50
180.0
 51
0.0000000000130276
  0
LINE
  5
6C2F
330
1A
100
AcDbEntity
  8
NOKI
370
     9
100
AcDbLine
 10
247.7993079357026
 20
311.8871569059517
 30
0.0
 11
247.7993079357026
 21
320.9871569059516
 31
0.0
  0
ARC
  5
6C30
330
1A
100
AcDbEntity
  8
NOKI
370
     9
100
AcDbCircle
 10
246.8993079357022
 20
311.8871569059517
 30
0.0
 40
0.4999999999999771
100
AcDbArc
 50
180.0
 51
0.0
  0
LINE
  5
6C31
330
1A
100
AcDbEntity
  8
NOKI
370
     9
100
AcDbLine
 10
247.3993079357021
 20
311.8871569059517
 30
0.0
 11
247.3993079357021
 21
320.9871569059516
 31
0.0
  0
ARC
  5
6C32
330
1A
100
AcDbEntity
  8
NOKI
370
     9
100
AcDbCircle
 10
232.6089809687321
 20
366.833187462717
 30
0.0
 40
0.2
100
AcDbArc
 50
183.1307000000028
 51
273.1307000103185
  0
LINE
  5
6C33
330
1A
100
AcDbEntity
  8
NOKI
370
     9
100
AcDbLine
 10
232.6199037361722
 20
366.633485952579
 30
0.0
 11
236.5859966175266
 21
366.8504132565303
 31
0.0
  0
ARC
  5
6C34
330
1A
100
AcDbEntity
  8
NOKI
370
     9
100
AcDbCircle
 10
232.6089809687321
 20
366.833187462717
 30
0.0
 40
0.5999999999999998
100
AcDbArc
 50
183.1307000000028
 51
273.1306999999996
  0
LINE
  5
6C35
330
1A
100
AcDbEntity
  8
NOKI
370
     9
100
AcDbLine
 10
226.6347853846863
 20
474.5319733629634
 30
0.0
 11
229.375341228681
 21
469.8988936122392
 31
0.0
  0
LINE
  5
6C36
330
1A
100
AcDbEntity
  8
NOKI
370
     9
100
AcDbLine
 10
231.654290758262
 20
380.9048166763282
 30
0.0
 11
233.9637243013937
 21
386.009253580094
 31
0.0
  0
LINE
  5
6C37
330
1A
100
AcDbEntity
  8
NOKI
370
     9
100
AcDbLine
 10
233.9637243013937
 20
386.009253580094
 30
0.0
 11
229.375341228681
 21
469.8988936122392
 31
0.0
  0
LINE
  5
6C38
330
1A
100
AcDbEntity
  8
NOKI
370
     9
100
AcDbLine
 10
232.6417492710526
 20
366.2340829323028
 30
0.0
 11
245.9993079357021
 21
366.9646808469696
 31
0.0
  0
LINE
  5
6C39
330
1A
100
AcDbEntity
  8
NOKI
370
     9
100
AcDbLine
 10
245.9993079357021
 20
311.8871569059517
 30
0.0
 11
245.9993079357021
 21
366.9646808469696
 31
0.0
  0
LINE
  5
6C3A
330
1A
100
AcDbEntity
  8
NOKI
370
     9
100
AcDbLine
 10
236.5859966175266
 20
366.8504132565303
 30
0.0
 11
246.3993079357022
 21
367.3871569059526
 31
0.0
  0
LINE
  5
6C3B
330
1A
100
AcDbEntity
  8
NOKI
370
     9
100
AcDbLine
 10
246.3993079357022
 20
311.8871569059517
 30
0.0
 11
246.3993079357022
 21
367.3871569059526
 31
0.0
  0
LINE
  5
6C3C
330
1A
100
AcDbEntity
  8
NOKI
370
     9
100
AcDbLine
 10
232.6199037361722
 20
366.633485952579
 30
0.0
 11
263.5815757868065
 21
395.6380390899838
 31
0.0
  0
ARC
  5
6C3D
330
1A
100
AcDbEntity
  8
NOKI
370
     9
100
AcDbCircle
 10
258.7959214290354
 20
400.7466115293192
 30
0.0
 40
7.0
100
AcDbArc
 50
313.1306999988606
 51
3.130700000009305
  0
LINE
  5
6C3E
330
1A
100
AcDbEntity
  8
NOKI
370
     9
100
AcDbLine
 10
258.2525257949779
 20
493.7629554362144
 30
0.0
 11
225.3017766221874
 21
491.9606988085821
 31
0.0
  0
LINE
  5
6C3F
330
1A
100
AcDbEntity
  8
NOKI
370
     9
100
AcDbLine
 10
260.1184676870769
 20
496.2686012322735
 30
0.0
 11
260.1403132219572
 21
495.8691982119972
 31
0.0
  0
LINE
  5
6C40
330
1A
100
AcDbEntity
  8
NOKI
370
     9
100
AcDbLine
 10
260.1403132219572
 20
495.8691982119972
 30
0.0
 11
225.7916534782002
 21
493.9904822122837
 31
0.0
  0
ARC
  5
6C41
330
1A
100
AcDbEntity
  8
NOKI
370
     9
100
AcDbCircle
 10
225.8025762456404
 20
493.7907807021454
 30
0.0
 40
0.2
100
AcDbArc
 50
93.13069999999935
 51
183.1307000000028
  0
LINE
  5
6C42
330
1A
100
AcDbEntity
  8
NOKI
370
     9
100
AcDbLine
 10
225.7698079433198
 20
494.3898852325594
 30
0.0
 11
260.1184676870769
 21
496.2686012322735
 31
0.0
  0
ARC
  5
6C43
330
1A
100
AcDbEntity
  8
NOKI
370
     9
100
AcDbCircle
 10
225.8025762456404
 20
493.7907807021454
 30
0.0
 40
0.5999999999999998
100
AcDbArc
 50
93.13069999999935
 51
183.1307000000028
  0
ARC
  5
6C44
330
1A
100
AcDbEntity
  8
NOKI
370
     9
100
AcDbCircle
 10
258.36175346938
 20
491.7659403348332
 30
0.0
 40
2.0
100
AcDbArc
 50
3.130700000002781
 51
93.13069999999935
  0
LINE
  5
6C45
330
1A
100
AcDbEntity
  8
NOKI
370
     9
100
AcDbLine
 10
225.6028747355016
 20
493.7798579347052
 30
0.0
 11
232.4092794585932
 21
366.8222646952767
 31
0.0
  0
LINE
  5
6C46
330
1A
100
AcDbEntity
  8
NOKI
370
     9
100
AcDbLine
 10
225.2034717152257
 20
493.7580123998246
 30
0.0
 11
232.0098764383173
 21
366.8004191603965
 31
0.0
  0
LINE
  5
6C47
330
1A
100
AcDbEntity
  8
NOKI
370
     9
100
AcDbLine
 10
260.3587685707612
 20
491.8751680092351
 30
0.0
 11
265.7854742838698
 21
401.1289083897262
 31
0.0
  0
LINE
  5
6C48
330
1A
100
AcDbEntity
  8
NOKI
  6
DASHED2
370
     9
100
AcDbLine
 10
308.8352013626513
 20
238.1930246769223
 30
0.0
 11
309.2352013626518
 21
238.1930246769221
 31
0.0
  0
LINE
  5
6C49
330
1A
100
AcDbEntity
  8
NOKI
  6
DASHED2
370
     9
100
AcDbLine
 10
309.2352013626518
 20
229.0930246769224
 30
0.0
 11
309.2352013626518
 21
238.1930246769223
 31
0.0
  0
LINE
  5
6C4A
330
1A
100
AcDbEntity
  8
NOKI
  6
DASHED2
370
     9
100
AcDbLine
 10
308.8352013626513
 20
229.0930246769224
 30
0.0
 11
308.8352013626513
 21
238.1930246769223
 31
0.0
  0
ARC
  5
6C4B
330
1A
100
AcDbEntity
  8
NOKI
370
     9
100
AcDbCircle
 10
294.6677823627551
 20
278.0901319883433
 30
0.0
 40
0.2
100
AcDbArc
 50
183.1307000000028
 51
273.1307000103185
  0
LINE
  5
6C4C
330
1A
100
AcDbEntity
  8
NOKI
370
     9
100
AcDbLine
 10
294.6787051301953
 20
277.8904304782052
 30
0.0
 11
298.6447980115497
 21
278.1073577821564
 31
0.0
  0
ARC
  5
6C4D
330
1A
100
AcDbEntity
  8
NOKI
370
     9
100
AcDbCircle
 10
294.6677823627551
 20
278.0901319883433
 30
0.0
 40
0.5999999999999998
100
AcDbArc
 50
183.1307000000028
 51
273.1306999999996
  0
LINE
  5
6C4E
330
1A
100
AcDbEntity
  8
NOKI
  6
DASHED2
100
AcDbLine
 10
288.6451027664273
 20
385.8708831205811
 30
0.0
 11
291.434142622704
 21
381.1558381378656
 31
0.0
  0
LINE
  5
6C4F
330
1A
100
AcDbEntity
  8
NOKI
370
     9
100
AcDbLine
 10
293.707946405422
 20
292.1503877895154
 30
0.0
 11
296.0225256954167
 21
297.2661981057204
 31
0.0
  0
LINE
  5
6C50
330
1A
100
AcDbEntity
  8
NOKI
370
     9
100
AcDbLine
 10
296.0225256954167
 20
297.2661981057204
 30
0.0
 11
291.434142622704
 21
381.1558381378656
 31
0.0
  0
LINE
  5
6C51
330
1A
100
AcDbEntity
  8
NOKI
370
     9
100
AcDbLine
 10
294.7005506650756
 20
277.4910274579288
 30
0.0
 11
307.4352013626511
 21
278.1875551301809
 31
0.0
  0
LINE
  5
6C52
330
1A
100
AcDbEntity
  8
NOKI
370
     9
100
AcDbLine
 10
307.4352013626511
 20
229.0930246769224
 30
0.0
 11
307.4352013626511
 21
278.1875551301809
 31
0.0
  0
LINE
  5
6C53
330
1A
100
AcDbEntity
  8
NOKI
370
     9
100
AcDbLine
 10
298.6447980115497
 20
278.1073577821564
 30
0.0
 11
307.8352013626512
 21
278.6100311891638
 31
0.0
  0
LINE
  5
6C54
330
1A
100
AcDbEntity
  8
NOKI
370
     9
100
AcDbLine
 10
307.8352013626512
 20
229.0930246769224
 30
0.0
 11
307.8352013626512
 21
278.6100311891638
 31
0.0
  0
LINE
  5
6C55
330
1A
100
AcDbEntity
  8
NOKI
370
     9
100
AcDbLine
 10
294.6787051301953
 20
277.8904304782052
 30
0.0
 11
325.6403771808296
 21
306.8949836156101
 31
0.0
  0
ARC
  5
6C56
330
1A
100
AcDbEntity
  8
NOKI
370
     9
100
AcDbCircle
 10
320.8547228230585
 20
312.0035560549454
 30
0.0
 40
7.0
100
AcDbArc
 50
313.1306999988606
 51
3.130700000009305
  0
LINE
  5
6C57
330
1A
100
AcDbEntity
  8
NOKI
370
     9
100
AcDbLine
 10
319.7740790966273
 20
414.0038503450096
 30
0.0
 11
286.8233299238367
 21
412.2015937173773
 31
0.0
  0
LINE
  5
6C58
330
1A
100
AcDbEntity
  8
NOKI
370
     9
100
AcDbLine
 10
321.6400209887263
 20
416.5094961410686
 30
0.0
 11
321.6618665236067
 21
416.1100931207924
 31
0.0
  0
LINE
  5
6C59
330
1A
100
AcDbEntity
  8
NOKI
370
     9
100
AcDbLine
 10
321.6618665236067
 20
416.1100931207924
 30
0.0
 11
287.3132067798496
 21
414.2313771210784
 31
0.0
  0
ARC
  5
6C5A
330
1A
100
AcDbEntity
  8
NOKI
370
     9
100
AcDbCircle
 10
287.3241295472896
 20
414.0316756109406
 30
0.0
 40
0.2
100
AcDbArc
 50
93.13069999999935
 51
183.1307000000028
  0
LINE
  5
6C5B
330
1A
100
AcDbEntity
  8
NOKI
370
     9
100
AcDbLine
 10
287.2913612449691
 20
414.6307801413546
 30
0.0
 11
321.6400209887263
 21
416.5094961410683
 31
0.0
  0
ARC
  5
6C5C
330
1A
100
AcDbEntity
  8
NOKI
370
     9
100
AcDbCircle
 10
287.3241295472896
 20
414.0316756109406
 30
0.0
 40
0.5999999999999998
100
AcDbArc
 50
93.13069999999935
 51
183.1307000000028
  0
ARC
  5
6C5D
330
1A
100
AcDbEntity
  8
NOKI
370
     9
100
AcDbCircle
 10
319.8833067710292
 20
412.0068352436281
 30
0.0
 40
2.0
100
AcDbArc
 50
3.130700000002781
 51
93.13069999999935
  0
LINE
  5
6C5E
330
1A
100
AcDbEntity
  8
NOKI
370
     9
100
AcDbLine
 10
287.1244280371509
 20
414.0207528435005
 30
0.0
 11
294.4680808526163
 21
278.0792092209028
 31
0.0
  0
LINE
  5
6C5F
330
1A
100
AcDbEntity
  8
NOKI
370
     9
100
AcDbLine
 10
286.725025016875
 20
413.9989073086201
 30
0.0
 11
294.0686778323404
 21
278.0573636860224
 31
0.0
  0
LINE
  5
6C60
330
1A
100
AcDbEntity
  8
NOKI
370
     9
100
AcDbLine
 10
321.8803218724106
 20
412.1160629180304
 30
0.0
 11
327.8442756778929
 21
312.3858529153523
 31
0.0
  0
LINE
  5
6C61
330
1A
100
AcDbEntity
  8
NOKI
370
     9
100
AcDbLine
 10
248.5993079357025
 20
366.8533321316328
 30
0.0
 11
247.7993079357025
 21
366.8533321316328
 31
0.0
  0
LINE
  5
6C62
330
1A
100
AcDbEntity
  8
NOKI
370
     9
100
AcDbLine
 10
247.7993079357026
 20
267.6533321316329
 30
0.0
 11
247.7993079357025
 21
366.8533321316328
 31
0.0
  0
ARC
  5
6C63
330
1A
100
AcDbEntity
  8
NOKI
370
     9
100
AcDbCircle
 10
248.5993079357026
 20
267.6533321316329
 30
0.0
 40
0.8
100
AcDbArc
 50
180.0
 51
270.0000000000002
  0
LINE
  5
6C64
330
1A
100
AcDbEntity
  8
NOKI
370
     9
100
AcDbLine
 10
248.5993079357026
 20
267.6533321316329
 30
0.0
 11
248.5993079357026
 21
366.8533321316328
 31
0.0
  0
LINE
  5
6C65
330
1A
100
AcDbEntity
  8
NOKI
370
     9
100
AcDbLine
 10
298.8352013626514
 20
266.8533321316331
 30
0.0
 11
248.5993079357026
 21
266.8533321316329
 31
0.0
  0
LINE
  5
6C66
330
1A
100
AcDbEntity
  8
NOKI
370
     9
100
AcDbLine
 10
298.8352013626514
 20
267.6533321316331
 30
0.0
 11
248.5993079357026
 21
267.6533321316329
 31
0.0
  0
ARC
  5
6C67
330
1A
100
AcDbEntity
  8
NOKI
370
     9
100
AcDbCircle
 10
298.8352013626514
 20
266.8533321316331
 30
0.0
 40
0.8
100
AcDbArc
 50
0.0
 51
90.00000000000019
  0
LINE
  5
6C68
330
1A
100
AcDbEntity
  8
NOKI
370
     9
100
AcDbLine
 10
298.8352013626514
 20
181.8533321316334
 30
0.0
 11
298.8352013626514
 21
266.8533321316331
 31
0.0
  0
LINE
  5
6C69
330
1A
100
AcDbEntity
  8
NOKI
370
     9
100
AcDbLine
 10
299.6352013626514
 20
181.9325477425068
 30
0.0
 11
299.6352013626514
 21
266.8533321316331
 31
0.0
  0
LINE
  5
6C6A
330
1A
100
AcDbEntity
  8
NOKI
100
AcDbLine
 10
276.6172467238703
 20
275.4400877522539
 30
0.0
 11
267.4421125696176
 21
443.1893557484256
 31
0.0
  0
LINE
  5
6C6B
330
1A
100
AcDbEntity
  8
NOKI
370
     9
100
AcDbLine
 10
298.8352013626514
 20
181.8533321316329
 30
0.0
 11
301.8352013626513
 21
166.8533321316329
 31
0.0
  0
LINE
  5
6C6C
330
1A
100
AcDbEntity
  8
NOKI
370
     9
100
AcDbLine
 10
299.6352013626514
 20
181.9325477425069
 30
0.0
 11
302.6196659032041
 21
167.0102250397434
 31
0.0
  0
LINE
  5
6C6D
330
1A
100
AcDbEntity
  8
NOKI
370
     9
100
AcDbLine
 10
301.8352013626513
 20
166.8533321316329
 30
0.0
 11
302.6196659032041
 21
167.0102250397434
 31
0.0
  0
LINE
  5
6C6E
330
1A
100
AcDbEntity
  8
SITAJI
100
AcDbLine
 10
503.0948599378155
 20
275.2592961588831
 30
0.0
 11
593.0948599378154
 21
275.2592961588839
 31
0.0
  0
LINE
  5
6C6F
330
1A
100
AcDbEntity
  8
SITAJI
100
AcDbLine
 10
503.0948599378155
 20
272.9592961588836
 30
0.0
 11
593.0948599378154
 21
272.9592961588839
 31
0.0
  0
LINE
  5
6C70
330
1A
100
AcDbEntity
  8
SITAJI
100
AcDbLine
 10
503.0948599378155
 20
275.2592961588831
 30
0.0
 11
593.0948599378154
 21
275.2592961588839
 31
0.0
  0
LINE
  5
6C71
330
1A
100
AcDbEntity
  8
SITAJI
100
AcDbLine
 10
503.0948599378155
 20
272.9592961588836
 30
0.0
 11
593.0948599378154
 21
272.9592961588839
 31
0.0
  0
LINE
  5
6C72
330
1A
100
AcDbEntity
  8
SITAJI
100
AcDbLine
 10
503.0948599378157
 20
225.2592961588842
 30
0.0
 11
518.0948599378157
 21
225.2592961588842
 31
0.0
  0
LINE
  5
6C73
330
1A
100
AcDbEntity
  8
SITAJI
100
AcDbLine
 10
578.0948599378156
 20
225.2592961588839
 30
0.0
 11
593.0948599378157
 21
225.2592961588838
 31
0.0
  0
LINE
  5
6C74
330
1A
100
AcDbEntity
  8
SITAJI
100
AcDbLine
 10
503.0948599378157
 20
227.5592961588837
 30
0.0
 11
518.0948599378157
 21
227.5592961588838
 31
0.0
  0
LINE
  5
6C75
330
1A
100
AcDbEntity
  8
SITAJI
100
AcDbLine
 10
578.0948599378157
 20
227.5592961588838
 30
0.0
 11
593.0948599378157
 21
227.5592961588838
 31
0.0
  0
LINE
  5
6C76
330
1A
100
AcDbEntity
  8
SITAJI
100
AcDbLine
 10
500.3948599378157
 20
230.2592961588838
 30
0.0
 11
500.3948599378157
 21
270.2592961588836
 31
0.0
  0
LINE
  5
6C77
330
1A
100
AcDbEntity
  8
SITAJI
100
AcDbLine
 10
498.0948599378157
 20
230.2592961588838
 30
0.0
 11
498.0948599378157
 21
270.2592961588836
 31
0.0
  0
LINE
  5
6C78
330
1A
100
AcDbEntity
  8
SITAJI
100
AcDbLine
 10
518.0948599378157
 20
225.2592961588841
 30
0.0
 11
518.0948599378157
 21
227.5592961588837
 31
0.0
  0
ARC
  5
6C79
330
1A
100
AcDbEntity
  8
SITAJI
100
AcDbCircle
 10
503.0948599378157
 20
230.2592961588838
 30
0.0
 40
2.7
100
AcDbArc
 50
180.0
 51
270.0
  0
ARC
  5
6C7A
330
1A
100
AcDbEntity
  8
SITAJI
100
AcDbCircle
 10
503.0948599378157
 20
230.2592961588838
 30
0.0
 40
5.0
100
AcDbArc
 50
180.0
 51
270.0
  0
ARC
  5
6C7B
330
1A
100
AcDbEntity
  8
SITAJI
100
AcDbCircle
 10
503.0948599378155
 20
270.2592961588836
 30
0.0
 40
2.7
100
AcDbArc
 50
90.0
 51
180.0
  0
ARC
  5
6C7C
330
1A
100
AcDbEntity
  8
SITAJI
100
AcDbCircle
 10
503.0948599378155
 20
270.2592961588836
 30
0.0
 40
5.0
100
AcDbArc
 50
90.0
 51
180.0
  0
LINE
  5
6C7D
330
1A
100
AcDbEntity
  8
SITAJI
370
     9
100
AcDbLine
 10
498.0948599378157
 20
244.6201491002591
 30
0.0
 11
500.3948599378158
 21
246.9201491002591
 31
0.0
  0
LINE
  5
6C7E
330
1A
100
AcDbEntity
  8
SITAJI
370
     9
100
AcDbLine
 10
498.0948599378158
 20
249.1102791002591
 30
0.0
 11
500.3948599378158
 21
251.4102791002592
 31
0.0
  0
LINE
  5
6C7F
330
1A
100
AcDbEntity
  8
SITAJI
370
     9
100
AcDbLine
 10
521.9438769964383
 20
272.9592961588839
 30
0.0
 11
524.2438769964381
 21
275.2592961588839
 31
0.0
  0
LINE
  5
6C80
330
1A
100
AcDbEntity
  8
SITAJI
370
     9
100
AcDbLine
 10
526.4340069964418
 20
272.9592961588839
 30
0.0
 11
528.7340069964421
 21
275.2592961588838
 31
0.0
  0
LINE
  5
6C81
330
1A
100
AcDbEntity
  8
SITAJI
370
     9
100
AcDbLine
 10
572.1614864840533
 20
272.9592961588839
 30
0.0
 11
574.4614864840532
 21
275.2592961588841
 31
0.0
  0
LINE
  5
6C82
330
1A
100
AcDbEntity
  8
SITAJI
370
     9
100
AcDbLine
 10
576.651616484053
 20
272.9592961588839
 30
0.0
 11
578.9516164840531
 21
275.259296158884
 31
0.0
  0
LINE
  5
6C83
330
1A
100
AcDbEntity
  8
SITAJI
100
AcDbLine
 10
595.7948599378156
 20
230.2592961588839
 30
0.0
 11
595.7948599378154
 21
270.2592961588838
 31
0.0
  0
LINE
  5
6C84
330
1A
100
AcDbEntity
  8
SITAJI
100
AcDbLine
 10
598.0948599378157
 20
230.2592961588839
 30
0.0
 11
598.0948599378157
 21
270.2592961588838
 31
0.0
  0
LINE
  5
6C85
330
1A
100
AcDbEntity
  8
SITAJI
100
AcDbLine
 10
578.0948599378156
 20
225.2592961588839
 30
0.0
 11
578.0948599378157
 21
227.5592961588838
 31
0.0
  0
ARC
  5
6C86
330
1A
100
AcDbEntity
  8
SITAJI
100
AcDbCircle
 10
593.0948599378157
 20
230.2592961588839
 30
0.0
 40
5.0
100
AcDbArc
 50
270.0
 51
0.0
  0
ARC
  5
6C87
330
1A
100
AcDbEntity
  8
SITAJI
100
AcDbCircle
 10
593.0948599378157
 20
230.2592961588839
 30
0.0
 40
2.7
100
AcDbArc
 50
270.0
 51
0.0
  0
LINE
  5
6C88
330
1A
100
AcDbEntity
  8
SITAJI
370
     9
100
AcDbLine
 10
586.4970804492708
 20
225.2592961588838
 30
0.0
 11
588.7970804492706
 21
227.5592961588838
 31
0.0
  0
LINE
  5
6C89
330
1A
100
AcDbEntity
  8
SITAJI
370
     9
100
AcDbLine
 10
595.7948599378157
 20
234.5570756474292
 30
0.0
 11
598.0948599378157
 21
236.8570756474292
 31
0.0
  0
LINE
  5
6C8A
330
1A
100
AcDbEntity
  8
SITAJI
370
     9
100
AcDbLine
 10
582.0069504492711
 20
225.2592961588839
 30
0.0
 11
584.3069504492712
 21
227.559296158884
 31
0.0
  0
ARC
  5
6C8B
330
1A
100
AcDbEntity
  8
SITAJI
100
AcDbCircle
 10
593.0948599378154
 20
270.2592961588838
 30
0.0
 40
2.7
100
AcDbArc
 50
0.0
 51
90.0
  0
ARC
  5
6C8C
330
1A
100
AcDbEntity
  8
SITAJI
100
AcDbCircle
 10
593.0948599378154
 20
270.2592961588838
 30
0.0
 40
5.0
100
AcDbArc
 50
0.0
 51
90.0
  0
LINE
  5
6C8D
330
1A
100
AcDbEntity
  8
SITAJI
370
     9
100
AcDbLine
 10
595.794859937816
 20
239.0472056474291
 30
0.0
 11
598.0948599378158
 21
241.3472056474291
 31
0.0
  0
LINE
  5
6C90
330
1A
100
AcDbEntity
  8
SITAJI
100
AcDbLine
 10
352.9352013626527
 20
70.7462150884046
 30
0.0
 11
352.9352013626529
 21
150.2592961588845
 31
0.0
  0
LINE
  5
6C91
330
1A
100
AcDbEntity
  8
SITAJI
  6
DASHED2
100
AcDbLine
 10
372.9352013626527
 20
70.7462150884046
 30
0.0
 11
372.935201362653
 21
150.2592961588843
 31
0.0
  0
LINE
  5
6C92
330
1A
100
AcDbEntity
  8
SITAJI
100
AcDbLine
 10
452.9352013626526
 20
70.74621508840461
 30
0.0
 11
452.9352013626526
 21
150.259296158884
 31
0.0
  0
LINE
  5
6C93
330
1A
100
AcDbEntity
  8
SITAJI
  6
DASHED2
100
AcDbLine
 10
432.9352013626526
 20
70.74621508840461
 30
0.0
 11
432.9352013626526
 21
150.2592961588841
 31
0.0
  0
LINE
  5
6CB6
330
1A
100
AcDbEntity
  8
SEIHIN
 62
     7
100
AcDbLine
 10
313.3352014089572
 20
222.2592959564991
 30
0.0
 11
352.3352014089582
 21
222.2592959564954
 31
0.0
  0
LINE
  5
6CB7
330
1A
100
AcDbEntity
  8
SEIHIN
 62
     7
100
AcDbLine
 10
320.8352014089564
 20
238.259296014543
 30
0.0
 11
320.8352014089564
 21
237.259296014543
 31
0.0
  0
LINE
  5
6CB8
330
1A
100
AcDbEntity
  8
SEIHIN
 62
     7
100
AcDbLine
 10
337.3352014089562
 20
238.259296014543
 30
0.0
 11
337.3352014089562
 21
237.2592960145407
 31
0.0
  0
DIMENSION
  5
6CB9
330
1A
100
AcDbEntity
  8
SUNPOU
100
AcDbDimension
280
     0
  2
*D4
 10
352.8352014089549
 20
40.7462150884046
 30
0.0
 11
327.835201408956
 21
40.7462150884046
 31
0.0
 70
   160
 71
     5
 42
49.99999999999801
 73
     0
 74
     0
 75
     0
  3
STANDARD
100
AcDbAlignedDimension
 13
302.8352014089569
 23
70.7462150884046
 33
0.0
 14
352.8352014089549
 24
70.7462150884046
 34
0.0
100
AcDbRotatedDimension
1001
ACAD
1000
DSTYLE
1002
{
1070
    41
1040
1.5
1070
   173
1070
     1
1070
   342
1005
0
1070
   343
1005
14C3
1070
   344
1005
14C3
1002
}
  0
DIMENSION
  5
6CBA
330
1A
100
AcDbEntity
  8
SUNPOU
100
AcDbDimension
280
     0
  2
*D5
 10
452.9352014089552
 20
40.7462150884046
 30
0.0
 11
402.9352014089552
 21
40.7462150884046
 31
0.0
 70
   160
 71
     5
 42
100.0
 73
     0
 74
     0
 75
     0
  3
STANDARD
100
AcDbAlignedDimension
 13
352.935201408955
 23
70.7462150884046
 33
0.0
 14
452.9352014089552
 24
70.7462150884046
 34
0.0
100
AcDbRotatedDimension
1001
ACAD
1000
DSTYLE
1002
{
1070
    41
1040
1.5
1070
   173
1070
     1
1070
   342
1005
0
1070
   343
1005
14C3
1070
   344
1005
14C3
1002
}
  0
LINE
  5
6CBB
330
1A
100
AcDbEntity
  8
SEIHIN
100
AcDbLine
 10
302.8352014089569
 20
70.7462150884046
 30
0.0
 11
302.8352014089571
 21
202.4468564608305
 31
0.0
  0
LINE
  5
6CBC
330
1A
100
AcDbEntity
  8
SEIHIN
100
AcDbLine
 10
303.3352014089567
 20
70.7462150884046
 30
0.0
 11
303.3352014089571
 21
202.4468564608305
 31
0.0
  0
LINE
  5
6CBD
330
1A
100
AcDbEntity
  8
SEIHIN
100
AcDbLine
 10
352.8352014089564
 20
237.259296014543
 30
0.0
 11
352.8352014089549
 21
70.7462150884046
 31
0.0
  0
HATCH
  5
6CBE
330
1A
100
AcDbEntity
  8
SEIHIN
 62
     7
370
     9
100
AcDbHatch
 10
0.0
 20
0.0
 30
0.0
210
0.0
220
0.0
230
1.0
  2
ANSI38
 70
     0
 71
     0
 91
        1
 92
        1
 93
        8
 72
     1
 10
320.8352014089562
 20
237.2592960145422
 11
320.8352014089564
 21
238.259296014543
 72
     1
 10
320.8352014089564
 20
238.259296014543
 11
316.5852014089564
 21
238.259296014543
 72
     1
 10
316.5852014089564
 20
238.259296014543
 11
316.5852014089564
 21
242.2592960145394
 72
     1
 10
316.5852014089564
 20
242.2592960145394
 11
341.5852014089554
 21
242.2592960145394
 72
     1
 10
341.5852014089554
 20
242.2592960145394
 11
341.5852014089564
 21
238.259296014543
 72
     1
 10
341.5852014089564
 20
238.259296014543
 11
337.3352014089562
 21
238.259296014543
 72
     1
 10
337.3352014089562
 20
238.259296014543
 11
337.3352014089562
 21
237.2592960145407
 72
     1
 10
337.3352014089562
 20
237.2592960145407
 11
320.8352014089562
 21
237.2592960145423
 97
        0
 75
     0
 76
     1
 52
90.0
 41
1.0
 77
     0
 78
     2
 53
135.0
 43
508.9710055027825
 44
82.75023579556318
 45
-2.245064030267287
 46
-2.245064030267287
 79
     0
 53
225.0
 43
508.9710055027825
 44
82.75023579556318
 45
-2.245064030267288
 46
-6.735192090801863
 79
     2
 49
7.9375
 49
-4.7625
 98
        1
 10
327.7077000049964
 20
239.4819939480389
1001
ACAD
1010
0.0
1020
0.0
1030
0.0
  0
LINE
  5
6CBF
330
1A
100
AcDbEntity
  8
SEIHIN
 62
     7
100
AcDbLine
 10
316.5852014089564
 20
238.259296014543
 30
0.0
 11
316.5852014089564
 21
242.2592960145394
 31
0.0
  0
LINE
  5
6CC0
330
1A
100
AcDbEntity
  8
SEIHIN
 62
     7
100
AcDbLine
 10
341.5852014089564
 20
238.259296014543
 30
0.0
 11
341.5852014089564
 21
242.2592960145394
 31
0.0
  0
LINE
  5
6CC1
330
1A
100
AcDbEntity
  8
SEIHIN
 62
     7
100
AcDbLine
 10
316.5852014089564
 20
242.2592960145394
 30
0.0
 11
341.5852014089564
 21
242.2592960145394
 31
0.0
  0
ARC
  5
6CC2
330
1A
100
AcDbEntity
  8
SEIHIN
100
AcDbCircle
 10
341.6352014089575
 20
238.9592960145401
 30
0.0
 40
0.7
100
AcDbArc
 50
270.0
 51
0.0
  0
ARC
  5
6CC3
330
1A
100
AcDbEntity
  8
SEIHIN
100
AcDbCircle
 10
341.6352014089575
 20
238.9592960145401
 30
0.0
 40
1.199999999999999
100
AcDbArc
 50
270.0
 51
0.0
  0
ARC
  5
6CC4
330
1A
100
AcDbEntity
  8
SEIHIN
100
AcDbCircle
 10
343.5352014089571
 20
254.0592960145459
 30
0.0
 40
1.199999999999999
100
AcDbArc
 50
89.99999999994789
 51
180.0
  0
ARC
  5
6CC5
330
1A
100
AcDbEntity
  8
SEIHIN
100
AcDbCircle
 10
343.5352014089571
 20
254.0592960145459
 30
0.0
 40
0.7
100
AcDbArc
 50
89.99999999994789
 51
180.0
  0
LINE
  5
6CC6
330
1A
100
AcDbEntity
  8
SEIHIN
100
AcDbLine
 10
337.3352014089562
 20
238.259296014543
 30
0.0
 11
337.3352014089562
 21
237.759296014543
 31
0.0
  0
LINE
  5
6CC7
330
1A
100
AcDbEntity
  8
SEIHIN
100
AcDbLine
 10
341.6352014089575
 20
238.259296014543
 30
0.0
 11
337.3352014089562
 21
238.259296014543
 31
0.0
  0
LINE
  5
6CC8
330
1A
100
AcDbEntity
  8
SEIHIN
100
AcDbLine
 10
341.6352014089575
 20
237.759296014543
 30
0.0
 11
337.3352014089562
 21
237.759296014543
 31
0.0
  0
LINE
  5
6CC9
330
1A
100
AcDbEntity
  8
SEIHIN
100
AcDbLine
 10
342.3352014089564
 20
254.0592960145459
 30
0.0
 11
342.3352014089564
 21
238.9592960145401
 31
0.0
  0
LINE
  5
6CCA
330
1A
100
AcDbEntity
  8
SEIHIN
100
AcDbLine
 10
342.8352014089563
 20
254.0592960145459
 30
0.0
 11
342.8352014089563
 21
238.9592960145401
 31
0.0
  0
ARC
  5
6CCB
330
1A
100
AcDbEntity
  8
SEIHIN
100
AcDbCircle
 10
345.2987656246673
 20
254.0592960145423
 30
0.0
 40
1.199999999999999
100
AcDbArc
 50
8.365886124001097
 51
89.99999999994789
  0
ARC
  5
6CCC
330
1A
100
AcDbEntity
  8
SEIHIN
100
AcDbCircle
 10
345.2987656246673
 20
254.0592960145423
 30
0.0
 40
0.7
100
AcDbArc
 50
8.365886124001097
 51
89.99999999994789
  0
ARC
  5
6CCD
330
1A
100
AcDbEntity
  8
SEIHIN
100
AcDbCircle
 10
349.4397889497926
 20
238.9592960145401
 30
0.0
 40
0.7
100
AcDbArc
 50
188.3658861240011
 51
270.0
  0
ARC
  5
6CCE
330
1A
100
AcDbEntity
  8
SEIHIN
100
AcDbCircle
 10
349.4397889497926
 20
238.9592960145401
 30
0.0
 40
1.199999999999999
100
AcDbArc
 50
188.3658861240011
 51
270.0
  0
LINE
  5
6CCF
330
1A
100
AcDbEntity
  8
SEIHIN
100
AcDbLine
 10
348.7472375550372
 20
238.8574502211941
 30
0.0
 11
346.485996587105
 21
254.2338888031354
 31
0.0
  0
LINE
  5
6CD0
330
1A
100
AcDbEntity
  8
SEIHIN
100
AcDbLine
 10
348.2525579873548
 20
238.7847032259467
 30
0.0
 11
345.9913170194225
 21
254.161141807888
 31
0.0
  0
LINE
  5
6CD1
330
1A
100
AcDbEntity
  8
SEIHIN
100
AcDbLine
 10
343.535201408958
 20
255.259296014543
 30
0.0
 11
345.2987656246682
 21
255.259296014543
 31
0.0
  0
LINE
  5
6CD2
330
1A
100
AcDbEntity
  8
SEIHIN
100
AcDbLine
 10
343.535201408958
 20
254.759296014543
 30
0.0
 11
345.2987656246682
 21
254.759296014543
 31
0.0
  0
ARC
  5
6CD3
330
1A
100
AcDbEntity
  8
SEIHIN
100
AcDbCircle
 10
351.8352014089562
 20
237.259296014543
 30
0.0
 40
1.0
100
AcDbArc
 50
0.0
 51
90.0
  0
ARC
  5
6CD4
330
1A
100
AcDbEntity
  8
SEIHIN
100
AcDbCircle
 10
351.8352014089562
 20
237.259296014543
 30
0.0
 40
0.5
100
AcDbArc
 50
0.0
 51
90.0
  0
LINE
  5
6CD5
330
1A
100
AcDbEntity
  8
SEIHIN
100
AcDbLine
 10
349.4397889497926
 20
238.2592960145394
 30
0.0
 11
351.8352014089562
 21
238.259296014543
 31
0.0
  0
LINE
  5
6CD6
330
1A
100
AcDbEntity
  8
SEIHIN
100
AcDbLine
 10
349.4397889497934
 20
237.7592960145394
 30
0.0
 11
351.8352014089571
 21
237.759296014543
 31
0.0
  0
LINE
  5
6CD7
330
1A
100
AcDbEntity
  8
SEIHIN
100
AcDbLine
 10
303.7752279355085
 20
203.0967901444474
 30
0.0
 11
307.5808702205817
 21
204.6190470584788
 31
0.0
  0
LINE
  5
6CD8
330
1A
100
AcDbEntity
  8
SEIHIN
100
AcDbLine
 10
352.3352014089562
 20
222.2592959564953
 30
0.0
 11
312.8352014089564
 21
222.259296014543
 31
0.0
  0
POINT
  5
6CD9
330
1A
100
AcDbEntity
  8
SEIHIN
100
AcDbPoint
 10
312.3352014089562
 20
236.7500559221207
 30
0.0
 50
89.99999999999998
  0
LINE
  5
6CDA
330
1A
100
AcDbEntity
  8
SEIHIN
100
AcDbLine
 10
303.5895325973327
 20
203.5610284898925
 30
0.0
 11
307.3951748824051
 21
205.08328540392
 31
0.0
  0
LINE
  5
6CDB
330
1A
100
AcDbEntity
  8
SEIHIN
100
AcDbLine
 10
307.8352014089563
 20
205.7332190875404
 30
0.0
 11
307.8352014089563
 21
217.6170755043586
 31
0.0
  0
LINE
  5
6CDC
330
1A
100
AcDbEntity
  8
SEIHIN
100
AcDbLine
 10
308.369561173486
 20
218.6155358575652
 30
0.0
 11
312.0234915463138
 21
221.0514894394455
 31
0.0
  0
ARC
  5
6CDD
330
1A
100
AcDbEntity
  8
SEIHIN
100
AcDbCircle
 10
304.0352014089571
 20
202.4468564608305
 30
0.0
 40
1.199999999999999
100
AcDbArc
 50
111.8014094863427
 51
180.0
  0
ARC
  5
6CDE
330
1A
100
AcDbEntity
  8
SEIHIN
100
AcDbCircle
 10
309.0352014089561
 20
217.6170755043586
 30
0.0
 40
1.199999999999999
100
AcDbArc
 50
123.6900675259141
 51
180.0
  0
ARC
  5
6CDF
330
1A
100
AcDbEntity
  8
SEIHIN
100
AcDbCircle
 10
307.1352014089574
 20
205.7332190875404
 30
0.0
 40
0.7
100
AcDbArc
 50
291.8014094863428
 51
0.0
  0
ARC
  5
6CE0
330
1A
100
AcDbEntity
  8
SEIHIN
100
AcDbCircle
 10
311.6352014089573
 20
221.6339246454827
 30
0.0
 40
0.7
100
AcDbArc
 50
303.6900675259141
 51
0.0
  0
ARC
  5
6CE1
330
1A
100
AcDbEntity
  8
SEIHIN
100
AcDbCircle
 10
304.0352014089571
 20
202.4468564608305
 30
0.0
 40
0.7
100
AcDbArc
 50
111.8014094863427
 51
180.0
  0
LINE
  5
6CE2
330
1A
100
AcDbEntity
  8
SEIHIN
100
AcDbLine
 10
308.3352014089564
 20
205.7332190875404
 30
0.0
 11
308.3352014089564
 21
217.6170755043586
 31
0.0
  0
ARC
  5
6CE3
330
1A
100
AcDbEntity
  8
SEIHIN
100
AcDbCircle
 10
307.1352014089574
 20
205.7332190875404
 30
0.0
 40
1.199999999999999
100
AcDbArc
 50
291.8014094863428
 51
0.0
  0
ARC
  5
6CE4
330
1A
100
AcDbEntity
  8
SEIHIN
100
AcDbCircle
 10
309.0352014089561
 20
217.6170755043586
 30
0.0
 40
0.7
100
AcDbArc
 50
123.6900675259141
 51
180.0
  0
LINE
  5
6CE5
330
1A
100
AcDbEntity
  8
SEIHIN
100
AcDbLine
 10
308.6469112715989
 20
218.1995107103958
 30
0.0
 11
312.3008416444267
 21
220.6354642922761
 31
0.0
  0
ARC
  5
6CE6
330
1A
100
AcDbEntity
  8
SEIHIN
100
AcDbCircle
 10
311.6352014089573
 20
221.6339246454827
 30
0.0
 40
1.199999999999999
100
AcDbArc
 50
303.6900675259141
 51
0.0
  0
LINE
  5
6CE7
330
1A
100
AcDbEntity
  8
SEIHIN
 62
     7
100
AcDbLine
 10
352.3352014089572
 20
237.2592960145393
 30
0.0
 11
313.3352014089572
 21
237.259296014543
 31
0.0
  0
LINE
  5
6CE8
330
1A
100
AcDbEntity
  8
SEIHIN
 62
     7
100
AcDbLine
 10
352.3352014089582
 20
222.2592959564954
 30
0.0
 11
352.3352014089582
 21
237.2592959564954
 31
0.0
  0
LINE
  5
6CE9
330
1A
100
AcDbEntity
  8
SEIHIN
 62
     7
100
AcDbLine
 10
313.3352014089572
 20
237.259296014543
 30
0.0
 11
313.3352014089572
 21
222.259296014543
 31
0.0
  0
LINE
  5
6CEA
330
1A
100
AcDbEntity
  8
SEIHIN
100
AcDbLine
 10
312.3008416444267
 20
238.8831277368099
 30
0.0
 11
308.6469112715989
 21
241.3190813186902
 31
0.0
  0
ARC
  5
6CEB
330
1A
100
AcDbEntity
  8
SEIHIN
100
AcDbCircle
 10
311.6352014089573
 20
237.8846673836033
 30
0.0
 40
1.199999999999999
100
AcDbArc
 50
0.0
 51
56.30993247408586
  0
ARC
  5
6CEC
330
1A
100
AcDbEntity
  8
SEIHIN
100
AcDbCircle
 10
311.6352014089573
 20
237.8846673836033
 30
0.0
 40
0.7
100
AcDbArc
 50
0.0
 51
56.30993247408586
  0
LINE
  5
6CED
330
1A
100
AcDbEntity
  8
SEIHIN
100
AcDbLine
 10
312.0234915463146
 20
238.4671025896405
 30
0.0
 11
308.369561173486
 21
240.9030561715208
 31
0.0
  0
ARC
  5
6CEE
330
1A
100
AcDbEntity
  8
SEIHIN
100
AcDbCircle
 10
309.0352014089561
 20
241.9015165247274
 30
0.0
 40
0.7
100
AcDbArc
 50
180.0
 51
236.3099324740859
  0
ARC
  5
6CEF
330
1A
100
AcDbEntity
  8
SEIHIN
100
AcDbCircle
 10
309.0352014089561
 20
241.9015165247274
 30
0.0
 40
1.199999999999999
100
AcDbArc
 50
180.0
 51
236.3099324740859
  0
LINE
  5
6CF0
330
1A
100
AcDbEntity
  8
SEIHIN
100
AcDbLine
 10
308.3352014089564
 20
241.9015165247274
 30
0.0
 11
308.3352014089573
 21
253.0271714162536
 31
0.0
  0
LINE
  5
6CF1
330
1A
100
AcDbEntity
  8
SEIHIN
100
AcDbLine
 10
307.8352014089563
 20
241.9015165247274
 30
0.0
 11
307.8352014089573
 21
253.0271714162536
 31
0.0
  0
ARC
  5
6CF2
330
1A
100
AcDbEntity
  8
SEIHIN
100
AcDbCircle
 10
310.0673260072439
 20
253.0271714162536
 30
0.0
 40
1.732124598286545
100
AcDbArc
 50
13.24051991533137
 51
180.0
  0
ARC
  5
6CF3
330
1A
100
AcDbEntity
  8
SEIHIN
100
AcDbCircle
 10
310.0673260072439
 20
253.0271714162536
 30
0.0
 40
2.232124598286545
100
AcDbArc
 50
13.24051991533137
 51
180.0
  0
LINE
  5
6CF4
330
1A
100
AcDbEntity
  8
SEIHIN
100
AcDbLine
 10
311.7534058289079
 20
253.4238960801758
 30
0.0
 11
315.2215110679912
 21
238.6844488140723
 31
0.0
  0
LINE
  5
6CF5
330
1A
100
AcDbEntity
  8
SEIHIN
100
AcDbLine
 10
312.2401144130748
 20
253.538415747038
 30
0.0
 11
315.7082196521582
 21
238.7989684809381
 31
0.0
  0
LINE
  5
6CF6
330
1A
100
AcDbEntity
  8
SEIHIN
100
AcDbLine
 10
316.3896116699911
 20
237.759296014543
 30
0.0
 11
320.8352014089564
 21
237.759296014543
 31
0.0
  0
ARC
  5
6CF7
330
1A
100
AcDbEntity
  8
SEIHIN
100
AcDbCircle
 10
316.3896116699911
 20
238.9592960145437
 30
0.0
 40
1.199999999999999
100
AcDbArc
 50
193.2405199151171
 51
270.0
  0
ARC
  5
6CF8
330
1A
100
AcDbEntity
  8
SEIHIN
100
AcDbCircle
 10
316.3896116699911
 20
238.9592960145437
 30
0.0
 40
0.7
100
AcDbArc
 50
193.2405199151171
 51
270.0
  0
LINE
  5
6CF9
330
1A
100
AcDbEntity
  8
SEIHIN
100
AcDbLine
 10
316.3896116699911
 20
238.259296014543
 30
0.0
 11
320.8352014089564
 21
238.259296014543
 31
0.0
  0
LINE
  5
6CFA
330
1A
100
AcDbEntity
  8
SEIHIN
100
AcDbLine
 10
320.8352014089564
 20
238.259296014543
 30
0.0
 11
320.8352014089564
 21
237.759296014543
 31
0.0
  0
LINE
  5
6CFB
330
1A
100
AcDbEntity
  8
SEIHIN
100
AcDbLine
 10
312.3352014089562
 20
221.6339246454827
 30
0.0
 11
312.3352014089562
 21
226.9308690145426
 31
0.0
  0
LINE
  5
6CFC
330
1A
100
AcDbEntity
  8
SEIHIN
100
AcDbLine
 10
312.8352014089564
 20
226.9308690145426
 30
0.0
 11
312.8352014089564
 21
221.6339246454827
 31
0.0
  0
ARC
  5
6CFD
330
1A
100
AcDbEntity
  8
SEIHIN
100
AcDbCircle
 10
311.8352014089563
 20
232.5877230145434
 30
0.0
 40
0.5
100
AcDbArc
 50
335.2643899999818
 51
0.0
  0
ARC
  5
6CFE
330
1A
100
AcDbEntity
  8
SEIHIN
100
AcDbCircle
 10
311.8352014089563
 20
232.5877230145434
 30
0.0
 40
1.0
100
AcDbArc
 50
335.2643899999818
 51
0.0
  0
ARC
  5
6CFF
330
1A
100
AcDbEntity
  8
SEIHIN
100
AcDbCircle
 10
312.8352018681798
 20
231.1735093604282
 30
0.0
 40
1.000000481575515
100
AcDbArc
 50
155.2643929896186
 51
204.7355786358718
  0
ARC
  5
6D00
330
1A
100
AcDbEntity
  8
SEIHIN
100
AcDbCircle
 10
312.8352028195225
 20
231.1735090411584
 30
0.0
 40
0.5000014792235451
100
AcDbArc
 50
155.2644083660518
 51
204.7354947945414
  0
LINE
  5
6D01
330
1A
100
AcDbEntity
  8
SEIHIN
100
AcDbLine
 10
311.9269529089565
 20
231.5919410145416
 30
0.0
 11
312.2893254089562
 21
232.3785075145443
 31
0.0
  0
LINE
  5
6D02
330
1A
100
AcDbEntity
  8
SEIHIN
100
AcDbLine
 10
312.3810769089563
 20
231.3827255145425
 30
0.0
 11
312.743449408957
 21
232.1692915145413
 31
0.0
  0
ARC
  5
6D03
330
1A
100
AcDbEntity
  8
SEIHIN
100
AcDbCircle
 10
311.8352023602957
 20
229.7592963338116
 30
0.0
 40
0.4999990023556379
100
AcDbArc
 50
335.2643375226766
 51
24.73562238684518
  0
ARC
  5
6D04
330
1A
100
AcDbEntity
  8
SEIHIN
100
AcDbCircle
 10
311.8352025666898
 20
229.7592964030773
 30
0.0
 40
0.9999987859154643
100
AcDbArc
 50
335.2643423725875
 51
24.7356175370937
  0
LINE
  5
6D05
330
1A
100
AcDbEntity
  8
SEIHIN
100
AcDbLine
 10
311.9269529089565
 20
230.7550780145411
 30
0.0
 11
312.2893254089562
 21
229.9685120145423
 31
0.0
  0
LINE
  5
6D06
330
1A
100
AcDbEntity
  8
SEIHIN
100
AcDbLine
 10
312.3810769089563
 20
230.9642935145403
 30
0.0
 11
312.743449408957
 21
230.1777275145414
 31
0.0
  0
LINE
  5
6D07
330
1A
100
AcDbEntity
  8
SEIHIN
100
AcDbLine
 10
312.3810769089563
 20
228.1358665145435
 30
0.0
 11
312.743449408957
 21
227.3493005145446
 31
0.0
  0
LINE
  5
6D08
330
1A
100
AcDbEntity
  8
SEIHIN
100
AcDbLine
 10
311.9269529089565
 20
227.9266510145408
 30
0.0
 11
312.2893254089562
 21
227.1400850145456
 31
0.0
  0
ARC
  5
6D09
330
1A
100
AcDbEntity
  8
SEIHIN
100
AcDbCircle
 10
311.8352014089563
 20
226.9308690145426
 30
0.0
 40
1.0
100
AcDbArc
 50
0.0
 51
24.73561000001819
  0
ARC
  5
6D0A
330
1A
100
AcDbEntity
  8
SEIHIN
100
AcDbCircle
 10
311.8352014089563
 20
226.9308690145426
 30
0.0
 40
0.5
100
AcDbArc
 50
0.0
 51
24.73561000001819
  0
LINE
  5
6D0B
330
1A
100
AcDbEntity
  8
SEIHIN
100
AcDbLine
 10
312.3810769089563
 20
228.5542985145458
 30
0.0
 11
312.743449408957
 21
229.3408645145409
 31
0.0
  0
LINE
  5
6D0C
330
1A
100
AcDbEntity
  8
SEIHIN
100
AcDbLine
 10
311.9269529089565
 20
228.7635140145448
 30
0.0
 11
312.2893254089562
 21
229.5500805145439
 31
0.0
  0
ARC
  5
6D0D
330
1A
100
AcDbEntity
  8
SEIHIN
100
AcDbCircle
 10
312.835202819517
 20
228.3450820411599
 30
0.0
 40
0.5000014792178277
100
AcDbArc
 50
155.2644083659731
 51
204.7354947946132
  0
ARC
  5
6D0E
330
1A
100
AcDbEntity
  8
SEIHIN
100
AcDbCircle
 10
312.8352018681798
 20
228.3450823604278
 30
0.0
 40
1.00000048157551
100
AcDbArc
 50
155.2643929896186
 51
204.7355786358718
  0
LINE
  5
6D0F
330
1A
100
AcDbEntity
  8
SEIHIN
100
AcDbLine
 10
312.8352014089564
 20
237.8846673836033
 30
0.0
 11
312.8352014089564
 21
232.5877230145434
 31
0.0
  0
LINE
  5
6D10
330
1A
100
AcDbEntity
  8
SEIHIN
100
AcDbLine
 10
312.3352014089562
 20
232.5877230145434
 30
0.0
 11
312.3352014089562
 21
237.8846673836033
 31
0.0
  0
HATCH
  5
6D11
330
1A
100
AcDbEntity
  8
SEIHIN
370
     9
100
AcDbHatch
 10
0.0
 20
0.0
 30
0.0
210
0.0
220
0.0
230
1.0
  2
ANSI35
 70
     0
 71
     0
 91
        1
 92
        1
 93
       12
 72
     1
 10
352.335201408955
 20
70.7462150884046
 11
352.3352014089562
 21
222.2592959567148
 72
     1
 10
352.3352014089562
 20
222.2592959567148
 11
312.8352014089564
 21
222.259296014543
 72
     1
 10
312.8352014089564
 20
222.259296014543
 11
312.8352014089564
 21
221.6339246454827
 72
     2
 10
311.6352014089563
 20
221.6339246454816
 40
1.200000000000024
 50
359.9999999999444
 51
416.3099324740208
 73
     0
 72
     1
 10
312.3008416444266
 20
220.6354642922761
 11
308.6469112715989
 21
218.1995107103958
 72
     2
 10
309.0352014089561
 20
217.6170755043592
 40
0.699999999999898
 50
123.6900675259462
 51
180.0000000000465
 73
     1
 72
     1
 10
308.3352014089563
 20
217.6170755043586
 11
308.3352014089564
 21
205.7332190875413
 72
     2
 10
307.1352014089563
 20
205.733219087541
 40
1.200000000000021
 50
359.999999999981
 51
428.1985905136293
 73
     0
 72
     1
 10
307.5808702205817
 20
204.6190470584788
 11
303.7752279355099
 21
203.0967901444479
 72
     2
 10
304.0352014089572
 20
202.446856460828
 40
0.7000000000000111
 50
111.801409486306
 51
179.9999999997929
 73
     1
 72
     1
 10
303.3352014089572
 20
202.4468564608305
 11
303.3352014089571
 21
70.7462150884046
 72
     1
 10
303.3352014089571
 20
70.7462150884046
 11
352.335201408955
 21
70.7462150884046
 97
        0
 75
     0
 76
     1
 52
0.0
 41
5.0
 77
     0
 78
     2
 53
45.0
 43
508.9710055027825
 44
82.75023579556318
 45
-22.45064030267288
 46
22.45064030267288
 79
     0
 53
45.0
 43
531.4216555027822
 44
82.75023579556318
 45
-22.45064030267288
 46
22.45064030267288
 79
     4
 49
39.6875
 49
-7.9375
 49
0.0
 49
-7.9375
 98
        1
 10
335.0041636287553
 20
-111.8324392821303
  0
HATCH
  5
6D12
330
1A
100
AcDbEntity
  8
SEIHIN
 62
     7
370
     9
100
AcDbHatch
 10
0.0
 20
0.0
 30
0.0
210
0.0
220
0.0
230
1.0
  2
ANSI32
 70
     0
 71
     0
 91
        1
 92
        1
 93
        4
 72
     1
 10
352.3352014089572
 20
237.2592960145393
 11
352.3352014089572
 21
222.2592959564954
 72
     1
 10
352.3352014089572
 20
222.2592959564954
 11
313.3352014089572
 21
222.2592959564991
 72
     1
 10
313.3352014089572
 20
222.2592959564991
 11
313.3352014089572
 21
237.259296014543
 72
     1
 10
313.3352014089572
 20
237.259296014543
 11
352.3352014089573
 21
237.2592960145393
 97
        0
 75
     0
 76
     1
 52
90.0
 41
0.5
 77
     0
 78
     2
 53
135.0
 43
-1.192654482327497
 44
3.870144734793711
 45
-3.367596045400933
 46
-3.367596045400931
 79
     0
 53
135.0
 43
-1.192654482327497
 44
6.115209734793666
 45
-3.367596045400933
 46
-3.367596045400931
 79
     0
 98
        1
 10
329.0207643940091
 20
229.8541231725285
  0
LINE
  5
6D13
330
1A
100
AcDbEntity
  8
SEIHIN
100
AcDbLine
 10
352.3352014089564
 20
237.259296014543
 30
0.0
 11
352.335201408955
 21
70.7462150884046
 31
0.0
  0
MULTILEADER
  5
7790
330
1A
100
AcDbEntity
  8
HIKIDASI
160
               564
310
34020000150000000C00000016000000000000C00C00000033000000000000000C00000013000000993A0000DC0000002600000063119E6AA076664010E9030141D38040000000000000000000000000000000000000000000000000000000000000F03F000000000000F03F000000000000000000000000000000004B5C39
310
6808FF25521490E55D8B4E09FF00004C0008000000010000000000000000001440000000000000F03F0000000000000000000000000000F03F000000000000000000000000000000000000000000000000000000000100000000000000000000007400780074002E00730068007800000065007800740066006F006E007400
310
2E0073006800780000000C00000033000000000000000C00000010000000040000000C00000016000000000000C00C00000012000000FF7F00000C00000013000000010000000C00000013000000891300003C0000000600000002000000A035DEA3770F6E40864A04F3331E80400000000000000000EB9926F3283F6C4010
310
E9030141E7804000000000000000000C00000013000000112700003C0000000600000002000000EB9926F3283F6C4010E9030141E780400000000000000000B866F3BFF52B6C4010E9030141E7804000000000000000000C00000016000000000000C00C00000012000000FF7F00000C00000017000000000000000C000000
310
130000009A3A00000C00000016000000000000C00C00000012000000FF7F00000C00000017000000FFFFFFFF0C0000003300000000000000
100
AcDbMLeader
270
     2
300
CONTEXT_DATA{
 40
1.0
 10
177.7070820891632
 20
540.9067402177334
 30
0.0
 41
5.0
140
0.0
145
2.0
174
     1
175
     3
176
     2
177
     0
290
     1
304
屋根（別途工事）
 11
0.0
 21
0.0
 31
1.0
340
10
 12
223.3737487558299
 22
543.4067402177333
 32
0.0
 13
1.0
 23
0.0
 33
0.0
 42
0.0
 43
0.0
 44
0.0
 45
1.0
170
     1
 90
-1073741824
171
     3
172
     5
 91
-1073741824
141
0.0
 92
        0
291
     0
292
     0
173
     0
293
     0
142
0.0
143
0.0
294
     0
295
     0
296
     0
110
240.4833545055417
120
515.775365861439
130
0.0
111
1.0
121
0.0
131
0.0
112
0.0
122
1.0
132
0.0
297
     0
302
LEADER{
290
     1
291
     1
 10
225.9737487558298
 20
540.9067402177334
 30
0.0
 11
-1.0
 21
0.0
 31
0.0
 90
        0
 40
0.6
304
LEADER_LINE{
 10
240.4833545055417
 20
515.775365861439
 30
0.0
 91
        0
305
}
271
     0
303
}
272
     9
273
     9
301
}
340
1F71
 90
   279552
170
     1
 91
-1056964608
341
14
171
    -2
290
     1
291
     1
 41
0.6
342
B0
 42
0.0
172
     2
343
10
173
     1
 95
        3
174
     1
175
     2
 92
-1056964608
292
     0
 93
-1056964608
 10
1.0
 20
1.0
 30
1.0
 43
0.0
176
     0
293
     0
294
     0
178
     0
179
     3
 45
1.0
271
     0
272
     9
273
     9
  0
MULTILEADER
  5
7792
330
1A
100
AcDbEntity
  8
HIKIDASI
160
               568
310
38020000150000000C00000016000000000000C00C00000033000000000000000C00000013000000993A0000E0000000260000007C47C3169150674097DE9D0EAFC76A40000000000000000000000000000000000000000000000000000000000000F03F000000000000F03F00000000000000000000000000000000D28E48
310
51346C075208FF25521490E55D8B4E09FF000000500A000000010000000000000000001440000000000000F03F0000000000000000000000000000F03F000000000000000000000000000000000000000000000000000000000100000000000000000000007400780074002E00730068007800000065007800740066006F00
310
6E0074002E0073006800780000000C00000033000000000000000C00000010000000040000000C00000016000000000000C00C00000012000000FF7F00000C00000013000000010000000C00000013000000891300003C0000000600000002000000E8D102E0791B7140D6DF973FA7AD7040000000000000000005D04B9F19
310
996E4097DE9D0EAF176B4000000000000000000C00000013000000112700003C000000060000000200000005D04B9F19996E4097DE9D0EAF176B400000000000000000D29C186CE6856E4097DE9D0EAF176B4000000000000000000C00000016000000000000C00C00000012000000FF7F00000C0000001700000000000000
310
0C000000130000009A3A00000C00000016000000000000C00C00000012000000FF7F00000C00000017000000FFFFFFFF0C0000003300000000000000
100
AcDbMLeader
270
     2
300
CONTEXT_DATA{
 40
1.0
 10
184.5177110494659
 20
216.7401192744625
 30
0.0
 41
5.0
140
0.0
145
2.0
174
     1
175
     3
176
     2
177
     0
290
     1
304
軒先水切（別途工事）
 11
0.0
 21
0.0
 31
1.0
340
10
 12
242.1843777161326
 22
219.2401192744625
 32
0.0
 13
1.0
 23
0.0
 33
0.0
 42
0.0
 43
0.0
 44
0.0
 45
1.0
170
     1
 90
-1073741824
171
     3
172
     5
 91
-1073741824
141
0.0
 92
        0
291
     0
292
     0
173
     0
293
     0
142
0.0
143
0.0
294
     0
295
     0
296
     0
110
273.717254649177
120
266.853332131633
130
0.0
111
1.0
121
0.0
131
0.0
112
0.0
122
1.0
132
0.0
297
     0
302
LEADER{
290
     1
291
     1
 10
244.7843777161326
 20
216.7401192744625
 30
0.0
 11
-1.0
 21
0.0
 31
0.0
 90
        0
 40
0.6
304
LEADER_LINE{
 10
273.717254649177
 20
266.853332131633
 30
0.0
 91
        0
305
}
271
     0
303
}
272
     9
273
     9
301
}
340
1F71
 90
   279552
170
     1
 91
-1056964608
341
14
171
    -2
290
     1
291
     1
 41
0.6
342
B0
 42
0.0
172
     2
343
10
173
     1
 95
        3
174
     1
175
     2
 92
-1056964608
292
     0
 93
-1056964608
 10
1.0
 20
1.0
 30
1.0
 43
0.0
176
     0
293
     0
294
     0
178
     0
179
     3
 45
1.0
271
     0
272
     9
273
     9
  0
MULTILEADER
  5
7793
330
1A
100
AcDbEntity
  8
HIKIDASI
160
               568
310
38020000150000000C00000016000000000000C00C00000033000000000000000C00000013000000993A0000E000000026000000ACDD487CF00D6C407A8947D61EAC5940000000000000000000000000000000000000000000000000000000000000F03F000000000000F03F0000000000000000000000000000000010806B
310
70F430A130F330C93032FF3AFF15FF10FF000000500A000000010000000000000000001440000000000000F03F0000000000000000000000000000F03F000000000000000000000000000000000000000000000000000000000100000000000000000000007400780074002E00730068007800000065007800740066006F00
310
6E0074002E0073006800780000000C00000033000000000000000C00000010000000040000000C00000016000000000000C00C00000012000000FF7F00000C00000013000000010000000C00000013000000891300003C0000000600000002000000B21027FC5CED72400C5C31D21613614000000000000000001BB368823C
310
CB71407A8947D61E4C5A4000000000000000000C00000013000000112700003C00000006000000020000001BB368823CCB71407A8947D61E4C5A4000000000000000008119CFE8A2C171407A8947D61E4C5A4000000000000000000C00000016000000000000C00C00000012000000FF7F00000C0000001700000000000000
310
0C000000130000009A3A00000C00000016000000000000C00C00000012000000FF7F00000C00000017000000FFFFFFFF0C0000003300000000000000
100
AcDbMLeader
270
     2
300
CONTEXT_DATA{
 40
1.0
 10
222.4356061385309
 20
105.1893821428874
 30
0.0
 41
5.0
140
0.0
145
2.0
174
     1
175
     3
176
     2
177
     0
290
     1
304
耐火ヴァンドＲＺ５０
 11
0.0
 21
0.0
 31
1.0
340
10
 12
282.1022728051976
 22
107.6893821428875
 32
0.0
 13
1.0
 23
0.0
 33
0.0
 42
0.0
 43
0.0
 44
0.0
 45
1.0
170
     1
 90
-1073741824
171
     3
172
     5
 91
-1073741824
141
0.0
 92
        0
291
     0
292
     0
173
     0
293
     0
142
0.0
143
0.0
294
     0
295
     0
296
     0
110
302.835201408957
120
136.5965357746175
130
0.0
111
1.0
121
0.0
131
0.0
112
0.0
122
1.0
132
0.0
297
     0
302
LEADER{
290
     1
291
     1
 10
284.7022728051976
 20
105.1893821428874
 30
0.0
 11
-1.0
 21
0.0
 31
0.0
 90
        0
 40
0.6
304
LEADER_LINE{
 10
302.835201408957
 20
136.5965357746175
 30
0.0
 91
        0
305
}
271
     0
303
}
272
     9
273
     9
301
}
340
1F71
 90
   279552
170
     1
 91
-1056964608
341
14
171
    -2
290
     1
291
     1
 41
0.6
342
B0
 42
0.0
172
     2
343
10
173
     1
 95
        3
174
     1
175
     2
 92
-1056964608
292
     0
 93
-1056964608
 10
1.0
 20
1.0
 30
1.0
 43
0.0
176
     0
293
     0
294
     0
178
     0
179
     3
 45
1.0
271
     0
272
     9
273
     9
  0
MULTILEADER
  5
7794
330
1A
100
AcDbEntity
  8
HIKIDASI
160
               572
310
3C020000150000000C00000016000000000000C00C00000033000000000000000C00000013000000993A0000E400000026000000BACFA93322E67640612890FBC4C86A40000000000000000000000000000000000000000000000000000000000000F03F000000000000F03F00000000000000000000000000000000025C28
310
75D330B930003034FF37FF2CFF16FF16FF15FF2EFF000000000C000000010000000000000000001440000000000000F03F0000000000000000000000000000F03F000000000000000000000000000000000000000000000000000000000100000000000000000000007400780074002E007300680078000000650078007400
310
66006F006E0074002E0073006800780000000C00000033000000000000000C00000010000000040000000C00000016000000000000C00C00000012000000FF7F00000C00000013000000010000000C00000013000000891300003C000000060000000200000046F7C5CC7D50764008B20FE2098F6C40000000000000000020
310
36109A88BC7640612890FBC4186B4000000000000000000C00000013000000112700003C00000006000000020000002036109A88BC7640612890FBC4186B400000000000000000BACFA93322C67640612890FBC4186B4000000000000000000C00000016000000000000C00C00000012000000FF7F00000C00000017000000
310
000000000C000000130000009A3A00000C00000016000000000000C00C00000012000000FF7F00000C00000017000000FFFFFFFF0C0000003300000000000000
100
AcDbMLeader
270
     2
300
CONTEXT_DATA{
 40
1.0
 10
364.383350051237
 20
216.7740457358914
 30
0.0
 41
5.0
140
0.0
145
2.0
174
     1
175
     3
176
     0
177
     0
290
     1
304
専用ビス　ＴＷＬ６６５Ｎ
 11
0.0
 21
0.0
 31
1.0
340
10
 12
366.383350051237
 22
219.2740457358914
 32
0.0
 13
1.0
 23
0.0
 33
0.0
 42
0.0
 43
0.0
 44
0.0
 45
1.0
170
     1
 90
-1073741824
171
     1
172
     5
 91
-1073741824
141
0.0
 92
        0
291
     0
292
     0
173
     0
293
     0
142
0.0
143
0.0
294
     0
295
     0
296
     0
110
357.030712865166
120
228.4699564272453
130
0.0
111
1.0
121
0.0
131
0.0
112
0.0
122
1.0
132
0.0
297
     0
302
LEADER{
290
     1
291
     1
 10
363.783350051237
 20
216.7740457358914
 30
0.0
 11
1.0
 21
0.0
 31
0.0
 90
        0
 40
0.6
304
LEADER_LINE{
 10
357.030712865166
 20
228.4699564272453
 30
0.0
 91
        0
305
}
271
     0
303
}
272
     9
273
     9
301
}
340
1F71
 90
   279552
170
     1
 91
-1056964608
341
14
171
    -2
290
     1
291
     1
 41
0.6
342
B0
 42
0.0
172
     2
343
10
173
     1
 95
        3
174
     1
175
     0
 92
-1056964608
292
     0
 93
-1056964608
 10
1.0
 20
1.0
 30
1.0
 43
0.0
176
     0
293
     0
294
     0
178
     0
179
     1
 45
1.0
271
     0
272
     9
273
     9
  0
MULTILEADER
  5
7795
330
1A
100
AcDbEntity
  8
HIKIDASI
160
               576
310
40020000150000000C00000016000000000000C00C00000033000000000000000C00000013000000993A0000E8000000260000008EC2F17DD62B7D40678E7A24F8C56240000000000000000000000000000000000000000000000000000000000000F03F000000000000F03F00000000000000000000000000000000A12531
310
0030003000D700310030003000D70032002E003300E54E0A4E000000000E000000010000000000000000001440000000000000F03F0000000000000000000000000000F03F000000000000000000000000000000000000000000000000000000000100000000000000000000007400780074002E0073006800780000006500
310
7800740066006F006E0074002E0073006800780000000C00000033000000000000000C00000010000000040000000C00000016000000000000C00C00000012000000FF7F00000C00000013000000010000000C00000013000000891300003C00000006000000020000004C3CB495F64E7C40B8DF32FEF1A765400000000000
310
0000009FD3028FE70C7D40678E7A24F815634000000000000000000C00000013000000112700003C00000006000000020000009FD3028FE70C7D40678E7A24F81563400000000000000000396D9C2881167D40678E7A24F815634000000000000000000C00000016000000000000C00C00000012000000FF7F00000C000000
310
17000000000000000C000000130000009A3A00000C00000016000000000000C00C00000012000000FF7F00000C00000017000000FFFFFFFF0C0000003300000000000000
100
AcDbMLeader
270
     2
300
CONTEXT_DATA{
 40
1.0
 10
465.4065328703323
 20
152.6865408319165
 30
0.0
 41
5.0
140
0.0
145
2.0
174
     1
175
     3
176
     0
177
     0
290
     1
304
□100×100×2.3以上
 11
0.0
 21
0.0
 31
1.0
340
10
 12
467.4065328703323
 22
155.1865408319165
 32
0.0
 13
1.0
 23
0.0
 33
0.0
 42
0.0
 43
0.0
 44
0.0
 45
1.0
170
     1
 90
-1073741824
171
     1
172
     5
 91
-1073741824
141
0.0
 92
        0
291
     0
292
     0
173
     0
293
     0
142
0.0
143
0.0
294
     0
295
     0
296
     0
110
452.9352013626528
120
173.2482901567107
130
0.0
111
1.0
121
0.0
131
0.0
112
0.0
122
1.0
132
0.0
297
     0
302
LEADER{
290
     1
291
     1
 10
464.8065328703323
 20
152.6865408319165
 30
0.0
 11
1.0
 21
0.0
 31
0.0
 90
        0
 40
0.6
304
LEADER_LINE{
 10
452.9352013626528
 20
173.2482901567107
 30
0.0
 91
        0
305
}
271
     0
303
}
272
     9
273
     9
301
}
340
1F71
 90
   279552
170
     1
 91
-1056964608
341
14
171
    -2
290
     1
291
     1
 41
0.6
342
B0
 42
0.0
172
     2
343
10
173
     1
 95
        3
174
     1
175
     0
 92
-1056964608
292
     0
 93
-1056964608
 10
1.0
 20
1.0
 30
1.0
 43
0.0
176
     0
293
     0
294
     0
178
     0
179
     1
 45
1.0
271
     0
272
     9
273
     9
  0
MTEXT
  5
8014
102
{ACAD_XDICTIONARY
360
8015
102
}
330
1A
100
AcDbEntity
  8
WAKU
100
AcDbMText
 10
124.3245405690059
 20
23.21985646788335
 30
0.0
 40
5.0
 41
130.7517663064795
 46
0.0
 71
     1
 72
     5
  1
\pi17.11446;アイジーヴァンド参考ディテール
  7
WAKU
 73
     1
 44
1.0
  0
MTEXT
  5
8016
102
{ACAD_XDICTIONARY
360
8017
102
}
330
1A
100
AcDbEntity
  8
WAKU
100
AcDbMText
 10
34.05004475349506
 20
23.21985646788335
 30
0.0
 40
5.0
 41
71.82723587241572
 46
0.0
 71
     1
 72
     5
  1
\pi3.9593;アイジー工業株式会社
  7
WAKU
 73
     1
 44
1.0
  0
LWPOLYLINE
  5
804B
330
1A
100
AcDbEntity
  8
TEKUSU
 48
0.5
100
AcDbPolyline
 90
        5
 70
     0
 43
0.0
 10
311.8352013626512
 20
237.2592961588838
 10
312.3352013626512
 20
237.2592961588838
 10
312.3352013626512
 20
222.2592961588836
 10
311.8352013626512
 20
222.2592961588836
 10
311.8352013626512
 20
236.2592961588818
  0
ARC
  5
804C
330
1A
100
AcDbEntity
  8
TEKUSU
 48
0.5
100
AcDbCircle
 10
310.5852013626511
 20
222.2592961588836
 30
0.0
 40
0.5
100
AcDbArc
 50
180.0
 51
270.0
1001
GENIUS_GENODEF_13
1002
{
1000
HIER
1070
     0
1002
}
1002
{
1000
MANEDIT
1070
     0
1002
}
1002
{
1000
NOSEL
1070
     0
1002
}
1002
{
1000
BEHIND
1070
     0
1002
}
1002
{
1000
OTHER
1070
     0
1002
}
1002
{
1000
REACTOR
1002
}
1001
GENIUS_GENOBJ-N-FIL_13
1002
{
1000
OWNER
1000
GEN
1002
}
  0
ARC
  5
804D
330
1A
100
AcDbEntity
  8
TEKUSU
 48
0.5
100
AcDbCircle
 10
311.3352013626512
 20
222.2592961588836
 30
0.0
 40
0.5
100
AcDbArc
 50
270.0
 51
0.0
1001
GENIUS_GENOBJ-N-FIL_13
1002
{
1000
OWNER
1000
GEN
1002
}
1001
GENIUS_GENODEF_13
1002
{
1000
HIER
1070
     0
1002
}
1002
{
1000
MANEDIT
1070
     0
1002
}
1002
{
1000
NOSEL
1070
     0
1002
}
1002
{
1000
BEHIND
1070
     0
1002
}
1002
{
1000
OTHER
1070
     0
1002
}
1002
{
1000
REACTOR
1002
}
  0
ARC
  5
804E
330
1A
100
AcDbEntity
  8
TEKUSU
 48
0.5
100
AcDbCircle
 10
321.7739944661001
 20
229.7592961588818
 30
0.0
 40
13.13879310344826
100
AcDbArc
 50
152.8280175842506
 51
207.1719824157493
  0
LINE
  5
804F
330
1A
100
AcDbEntity
  8
TEKUSU
 48
0.5
100
AcDbLine
 10
311.3352013626512
 20
221.7592961588836
 30
0.0
 11
310.5852013626511
 21
221.7592961588836
 31
0.0
  0
LINE
  5
8050
330
1A
100
AcDbEntity
  8
TEKUSU
 48
0.5
100
AcDbLine
 10
310.0852013626512
 20
222.2592961588836
 30
0.0
 11
310.0852013626512
 21
237.2592961588836
 31
0.0
  0
ARC
  5
8051
330
1A
100
AcDbEntity
  8
TEKUSU
 48
0.5
100
AcDbCircle
 10
310.5852013626511
 20
237.2592961588836
 30
0.0
 40
0.5
100
AcDbArc
 50
90.0
 51
180.0
1001
GENIUS_GENOBJ-N-FIL_13
1002
{
1000
OWNER
1000
GEN
1002
}
1001
GENIUS_GENODEF_13
1002
{
1000
HIER
1070
     0
1002
}
1002
{
1000
MANEDIT
1070
     0
1002
}
1002
{
1000
NOSEL
1070
     0
1002
}
1002
{
1000
BEHIND
1070
     0
1002
}
1002
{
1000
OTHER
1070
     0
1002
}
1002
{
1000
REACTOR
1002
}
  0
ARC
  5
8052
330
1A
100
AcDbEntity
  8
TEKUSU
 48
0.5
100
AcDbCircle
 10
311.3352013626512
 20
237.2592961588836
 30
0.0
 40
0.5
100
AcDbArc
 50
0.0
 51
90.0
1001
GENIUS_GENOBJ-N-FIL_13
1002
{
1000
OWNER
1000
GEN
1002
}
1001
GENIUS_GENODEF_13
1002
{
1000
HIER
1070
     0
1002
}
1002
{
1000
MANEDIT
1070
     0
1002
}
1002
{
1000
NOSEL
1070
     0
1002
}
1002
{
1000
BEHIND
1070
     0
1002
}
1002
{
1000
OTHER
1070
     0
1002
}
1002
{
1000
REACTOR
1002
}
  0
LINE
  5
8053
330
1A
100
AcDbEntity
  8
TEKUSU
 48
0.5
100
AcDbLine
 10
311.3352013626512
 20
237.7592961588818
 30
0.0
 11
310.5852013626511
 21
237.7592961588818
 31
0.0
  0
LINE
  5
8054
330
1A
100
AcDbEntity
  8
TEKUSU
 48
0.5
100
AcDbLine
 10
311.8352013626512
 20
222.2592961588836
 30
0.0
 11
311.8352013626512
 21
237.2592961588836
 31
0.0
  0
LINE
  5
8055
330
1A
100
AcDbEntity
  8
SUNPOU
  6
CENTER2
370
     5
100
AcDbLine
 10
303.9323011820609
 20
229.7592961588818
 30
-0.0000000000033931
 11
386.8352013626512
 21
229.7592961588818
 31
-0.0000000000033931
  0
LINE
  5
8056
330
1A
100
AcDbEntity
  8
TEKUSU
 48
0.5
100
AcDbLine
 10
369.8352013626512
 20
226.5092961588833
 30
-0.0000000000033931
 11
369.8352013626512
 21
233.0092961588833
 31
-0.0000000000033931
  0
LINE
  5
8057
330
1A
100
AcDbEntity
  8
TEKUSU
  6
DASHED2
 48
0.5
100
AcDbLine
 10
339.8352013626503
 20
226.5092961588836
 30
0.0
 11
339.8352013626503
 21
233.0092961588836
 31
0.0
  0
LINE
  5
8058
330
1A
100
AcDbEntity
  8
TEKUSU
 48
0.5
100
AcDbLine
 10
374.735068256365
 20
232.2592961588836
 30
-0.0000000000033931
 11
369.8352013626521
 21
232.2592961588836
 31
-0.0000000000033931
  0
LINE
  5
8059
330
1A
100
AcDbEntity
  8
TEKUSU
 48
0.5
100
AcDbLine
 10
376.8352013626512
 20
229.7592961588818
 30
-0.0000000000033931
 11
374.735068256365
 21
232.2592961588836
 31
-0.0000000000033931
  0
LINE
  5
805A
330
1A
100
AcDbEntity
  8
TEKUSU
 48
0.5
100
AcDbLine
 10
374.735068256365
 20
227.2592961588836
 30
-0.0000000000033931
 11
369.8352013626521
 21
227.2592961588834
 31
-0.0000000000033931
  0
LINE
  5
805B
330
1A
100
AcDbEntity
  8
TEKUSU
 48
0.5
100
AcDbLine
 10
374.735068256365
 20
227.2592961588836
 30
-0.0000000000033931
 11
376.8352013626512
 21
229.7592961588818
 31
-0.0000000000033931
  0
LINE
  5
805C
330
1A
100
AcDbEntity
  8
TEKUSU
 48
0.5
100
AcDbLine
 10
369.8352013626521
 20
231.2806545795396
 30
-0.0000000000033931
 11
376.8352013626512
 21
229.7592961588818
 31
-0.0000000000033931
  0
LINE
  5
805D
330
1A
100
AcDbEntity
  8
TEKUSU
  6
DASHED2
 48
0.5
100
AcDbLine
 10
339.8352013626511
 20
233.0092961588836
 30
-0.0000000000033931
 11
355.2352013626528
 21
233.0092961588835
 31
-0.0000000000033931
  0
LINE
  5
805E
330
1A
100
AcDbEntity
  8
TEKUSU
  6
DASHED2
 48
0.5
100
AcDbLine
 10
339.8352013626511
 20
226.5092981999305
 30
-0.0000000000033931
 11
355.2352013626528
 21
226.509297169369
 31
-0.0000000000033931
  0
LINE
  5
805F
330
1A
100
AcDbEntity
  8
TEKUSU
  6
DASHED2
 48
0.5
100
AcDbLine
 10
312.8352013626511
 20
227.2592961588836
 30
-0.0000000000033931
 11
339.8352013626511
 21
227.2592961588836
 31
-0.0000000000033931
  0
LINE
  5
8060
330
1A
100
AcDbEntity
  8
TEKUSU
  6
DASHED2
 48
0.5
100
AcDbLine
 10
312.8352013626511
 20
232.2592961588836
 30
-0.0000000000033931
 11
339.8352013626511
 21
232.2592961588836
 31
-0.0000000000033931
  0
LINE
  5
8061
330
1A
100
AcDbEntity
  8
TEKUSU
  6
DASHED2
 48
0.5
100
AcDbLine
 10
312.8352013626511
 20
232.2592961588836
 30
-0.0000000000033931
 11
312.8352013626511
 21
227.2592961588836
 31
-0.0000000000033931
  0
ARC
  5
8062
330
1A
100
AcDbEntity
  8
TEKUSU
 48
0.5
100
AcDbCircle
 10
312.8352013626511
 20
226.2592961588836
 30
-0.0000000000033931
 40
1.0
100
AcDbArc
 50
90.0
 51
180.0
  0
ARC
  5
8063
330
1A
100
AcDbEntity
  8
TEKUSU
 48
0.5
100
AcDbCircle
 10
312.8352013626511
 20
233.2592961588836
 30
-0.0000000000033931
 40
1.0
100
AcDbArc
 50
180.0
 51
270.0
  0
LINE
  5
810A
330
1A
100
AcDbEntity
  8
TEKUSU
 48
0.5
100
AcDbLine
 10
355.2352013626528
 20
233.0092961588835
 30
-0.0000000000033931
 11
369.8352013626512
 21
233.0092961588833
 31
-0.0000000000033931
  0
LINE
  5
810B
330
1A
100
AcDbEntity
  8
TEKUSU
 48
0.5
100
AcDbLine
 10
355.2352013626528
 20
226.509297169369
 30
-0.0000000000033931
 11
369.8352013626512
 21
226.5092961923432
 31
-0.0000000000033931
  0
TEXT
  5
8132
330
1A
100
AcDbEntity
  8
0
100
AcDbText
 10
658.3964458917062
 20
46.07743085757124
 30
0.0
 40
5.0
  1
※ｈはパネル上端クリアランス（ｈ≧２０）
100
AcDbText
  0
VIEWPORT
  5
22
330
17
100
AcDbEntity
 67
     1
  8
0
100
AcDbViewport
 10
261.5176991150442
 20
154.7242978687078
 30
0.0
 40
523.0353982300885
 41
309.4485957374157
 68
     1
 69
     1
 12
261.5176991150442
 22
154.7242978687078
 13
0.0
 23
0.0
 14
1.0
 24
1.0
 15
10.0
 25
10.0
 16
0.0
 26
0.0
 36
1.0
 17
0.0
 27
0.0
 37
0.0
 42
50.0
 43
0.0
 44
0.0
 45
309.4485957374157
 50
0.0
 51
0.0
 72
   100
 90
    32768
  1

281
     0
 71
     1
 74
     0
110
0.0
120
0.0
130
0.0
111
1.0
121
0.0
131
0.0
112
0.0
122
1.0
132
0.0
 79
     0
146
0.0
170
     0
 61
     5
348
19CC
292
     1
282
     1
141
0.0
142
0.0
 63
   250
421
  3355443
  0
ENDSEC
  0
SECTION
  2
OBJECTS
  0
DICTIONARY
  5
C
330
0
100
AcDbDictionary
281
     1
  3
ACAD_CIP_PREVIOUS_PRODUCT_INFO
350
2156
  3
ACAD_COLOR
350
3B0
  3
ACAD_DETAILVIEWSTYLE
350
27CC
  3
ACAD_GROUP
350
D
  3
ACAD_LAYOUT
350
3B1
  3
ACAD_MATERIAL
350
3AF
  3
ACAD_MLEADERSTYLE
350
1F70
  3
ACAD_MLINESTYLE
350
E
  3
ACAD_PLOTSETTINGS
350
3B2
  3
ACAD_PLOTSTYLENAME
350
3AD
  3
ACAD_SCALELIST
350
1F4E
  3
ACAD_SECTIONVIEWSTYLE
350
27CA
  3
ACAD_TABLESTYLE
350
14DD
  3
ACAD_VISUALSTYLE
350
19C6
  3
AcadDim
350
D85
  3
ACDB_RECOMPOSE_DATA
350
816E
  3
AcDbVariableDictionary
350
1897
  3
AcDsDecomposeData
350
8174
  0
DICTIONARY
  5
19DC
330
8
100
AcDbDictionary
280
     1
281
     1
  0
DICTIONARY
  5
1872
330
2
100
AcDbDictionary
280
     1
281
     1
  3
ACAD_LAYERFILTERS
360
1C08
  3
ACAD_LAYERSTATES
360
1A0D
  3
ACLYDICTIONARY
360
1C07
  0
DICTIONARY
  5
1F81
330
F
100
AcDbDictionary
280
     1
281
     1
  3
ADSK_XREC_LAYER_RECONCILED
360
1F82
  0
DICTIONARY
  5
1F83
330
87
100
AcDbDictionary
280
     1
281
     1
  3
ADSK_XREC_LAYER_RECONCILED
360
1F84
  0
DICTIONARY
  5
1F85
330
150E
100
AcDbDictionary
280
     1
281
     1
  3
ADSK_XREC_LAYER_RECONCILED
360
1F86
  0
DICTIONARY
  5
78AE
330
78AD
100
AcDbDictionary
280
     1
281
     1
  0
DICTIONARY
  5
1A93
330
1A
100
AcDbDictionary
280
     1
281
     1
  3
ACAD_SORTENTS
360
1A94
  0
DICTIONARY
  5
814A
330
2193
100
AcDbDictionary
280
     1
281
     1
  3
ACAD_MTEXT_2008_RT
360
816B
  0
DICTIONARY
  5
8015
330
8014
100
AcDbDictionary
280
     1
281
     1
  3
ACAD_MTEXT_2008_RT
360
816C
  0
DICTIONARY
  5
8017
330
8016
100
AcDbDictionary
280
     1
281
     1
  3
ACAD_MTEXT_2008_RT
360
816D
  0
XRECORD
  5
2156
102
{ACAD_REACTORS
330
C
102
}
330
C
100
AcDbXrecord
280
     1
300
ACDLT
300
2017
300
ACDLT_F_S
  0
DICTIONARY
  5
3B0
102
{ACAD_REACTORS
330
C
102
}
330
C
100
AcDbDictionary
281
     1
  0
DICTIONARY
  5
27CC
102
{ACAD_REACTORS
330
C
102
}
330
C
100
AcDbDictionary
281
     1
  3
Metric50
350
27CD
  0
DICTIONARY
  5
D
102
{ACAD_REACTORS
330
C
102
}
330
C
100
AcDbDictionary
281
     1
  0
DICTIONARY
  5
3B1
102
{ACAD_REACTORS
330
C
102
}
330
C
100
AcDbDictionary
281
     1
  3
Model
350
3B3
  3
レイアウト1
350
3B4
  0
DICTIONARY
  5
3AF
102
{ACAD_REACTORS
330
C
102
}
330
C
100
AcDbDictionary
281
     1
  3
ByBlock
350
19C4
  3
ByLayer
350
19C3
  3
Global
350
19C5
  0
DICTIONARY
  5
1F70
102
{ACAD_REACTORS
330
C
102
}
330
C
100
AcDbDictionary
281
     1
  3
Standard
350
1F71
  0
DICTIONARY
  5
E
102
{ACAD_REACTORS
330
C
102
}
330
C
100
AcDbDictionary
281
     1
  3
STANDARD
350
13
  0
DICTIONARY
  5
3B2
102
{ACAD_REACTORS
330
C
102
}
330
C
100
AcDbDictionary
281
     1
  3
セットアップ1
350
1F2A
  0
ACDBDICTIONARYWDFLT
  5
3AD
102
{ACAD_REACTORS
330
C
102
}
330
C
100
AcDbDictionary
281
     1
  3
Normal
350
3AE
100
AcDbDictionaryWithDefault
340
3AE
  0
DICTIONARY
  5
1F4E
102
{ACAD_REACTORS
330
C
102
}
330
C
100
AcDbDictionary
281
     1
  3
A0
350
1F4F
  3
A1
350
1F50
  3
A2
350
1F51
  3
A3
350
1F52
  3
A4
350
1F53
  3
A5
350
1F54
  3
A6
350
1F55
  3
A7
350
1F56
  3
A8
350
1F57
  3
A9
350
1F58
  3
B0
350
1F59
  3
B1
350
1F5A
  3
B2
350
1F5B
  3
B3
350
1F5C
  3
B4
350
1F5D
  3
B5
350
1F5E
  3
B6
350
1F5F
  3
B7
350
1F60
  3
B8
350
1F61
  3
B9
350
1F62
  3
C0
350
1F63
  3
C1
350
1F64
  3
C2
350
1F65
  3
C3
350
1F66
  3
C4
350
1F67
  3
C5
350
1F68
  3
C6
350
1F69
  3
C7
350
1F6A
  3
C8
350
1F6B
  3
C9
350
1F6C
  3
D0
350
1F6D
  3
D1
350
1F6E
  3
D2
350
1F6F
  0
DICTIONARY
  5
27CA
102
{ACAD_REACTORS
330
C
102
}
330
C
100
AcDbDictionary
281
     1
  3
Metric50
350
27CB
  0
DICTIONARY
  5
14DD
102
{ACAD_REACTORS
330
C
102
}
330
C
100
AcDbDictionary
281
     1
  3
Standard
350
14DE
  0
DICTIONARY
  5
19C6
102
{ACAD_REACTORS
330
C
102
}
330
C
100
AcDbDictionary
281
     1
  3
2dWireframe
350
19CC
  3
3D Hidden
350
19CE
  3
3dWireframe
350
19CD
  3
Basic
350
19CB
  3
Brighten
350
19D2
  3
ColorChange
350
19D6
  3
Conceptual
350
19CF
  3
Dim
350
19D1
  3
EdgeColorOff
350
2151
  3
Facepattern
350
19D5
  3
Flat
350
19C7
  3
FlatWithEdges
350
19C8
  3
Gouraud
350
19C9
  3
GouraudWithEdges
350
19CA
  3
Hidden
350
2149
  3
JitterOff
350
214F
  3
Linepattern
350
19D4
  3
OverhangOff
350
2150
  3
Realistic
350
19D0
  3
Shaded
350
214E
  3
Shaded with edges
350
214D
  3
Shades of Gray
350
214A
  3
Sketchy
350
214B
  3
Thicken
350
19D3
  3
Wireframe
350
2148
  3
X-Ray
350
214C
  0
XRECORD
  5
D85
102
{ACAD_REACTORS
330
C
102
}
330
C
100
AcDbXrecord
280
     1
 90
   990106
  3
NONE
 60
     0
 61
     0
 62
     1
 63
     3
 64
     0
 65
     0
 66
     0
 67
     3
 68
     1
 69
     0
 70
     4
 71
     4
 72
     0
 40
0.0
170
     1
340
0
  0
XRECORD
  5
816E
102
{ACAD_REACTORS
330
C
102
}
330
C
100
AcDbXrecord
280
     1
 90
        1
330
14DE
330
2193
330
8014
330
8016
  0
DICTIONARY
  5
1897
102
{ACAD_REACTORS
330
C
102
}
330
C
100
AcDbDictionary
281
     1
  3
CANNOSCALE
350
1FA1
  3
CMLEADERSTYLE
350
1FA0
  3
CTABLESTYLE
350
1898
  3
CVIEWDETAILSTYLE
350
2823
  3
CVIEWSECTIONSTYLE
350
2824
  3
DIMASSOC
350
1938
  3
INDEXCTL
350
1EEE
  3
LAYEREVAL
350
6358
  3
LAYERNOTIFY
350
6359
  3
LIGHTINGUNITS
350
6357
  3
MSLTSCALE
350
6356
  3
PROJECTNAME
350
1939
  3
SORTENTS
350
1EED
  0
DICTIONARY
  5
8174
102
{ACAD_REACTORS
330
C
102
}
330
C
100
AcDbDictionary
281
     1
  3
AcDsRecords
350
8176
  3
AcDsSchemas
350
8175
1001
ACAD
1070
     2
  0
DICTIONARY
  5
1C08
102
{ACAD_REACTORS
330
1872
102
}
330
1872
100
AcDbDictionary
281
     1
  0
DICTIONARY
  5
1A0D
102
{ACAD_REACTORS
330
1872
102
}
330
1872
100
AcDbDictionary
281
     1
  0
DICTIONARY
  5
1C07
102
{ACAD_REACTORS
330
1872
102
}
330
1872
100
AcDbDictionary
281
     1
1001
ACAD
1000
<All
  0
XRECORD
  5
1F82
102
{ACAD_REACTORS
330
1F81
102
}
330
1F81
100
AcDbXrecord
280
     1
290
     1
  0
XRECORD
  5
1F84
102
{ACAD_REACTORS
330
1F83
102
}
330
1F83
100
AcDbXrecord
280
     1
290
     1
  0
XRECORD
  5
1F86
102
{ACAD_REACTORS
330
1F85
102
}
330
1F85
100
AcDbXrecord
280
     1
290
     1
  0
SORTENTSTABLE
  5
1A94
102
{ACAD_REACTORS
330
1A93
102
}
330
1A93
100
AcDbSortentsTable
330
1A
331
219B
  5
2E01
331
219F
  5
2E05
331
218F
  5
286C
331
1744
  5
1776
331
2193
  5
2BCC
331
2180
  5
2569
331
2197
  5
2C86
331
2184
  5
268C
331
219A
  5
2E00
331
219E
  5
2E04
331
218A
  5
2832
331
218E
  5
286A
331
2192
  5
28E2
331
2196
  5
2C85
331
2183
  5
268B
331
2187
  5
282D
331
2199
  5
2C88
331
219D
  5
2E03
331
2189
  5
2831
331
218D
  5
2869
331
2191
  5
28E0
331
2195
  5
2C2E
331
1746
  5
1777
331
2182
  5
2689
331
2198
  5
2C87
331
219C
  5
2E02
331
2188
  5
282F
331
21A0
  5
2E06
331
218C
  5
2854
331
2190
  5
28DF
331
2194
  5
2BF1
331
2181
  5
2598
331
2185
  5
268D
  0
XRECORD
  5
816B
102
{ACAD_REACTORS
330
814A
102
}
330
814A
100
AcDbXrecord
280
     1
 40
13269796.0
  1
\pxqc;耐火ヴァンドＲＺ５０　折板屋根軒先納まり
  0
XRECORD
  5
816C
102
{ACAD_REACTORS
330
8015
102
}
330
8015
100
AcDbXrecord
280
     1
 40
4386876.0
  1
\pxqc;アイジーヴァンド参考ディテール
  0
XRECORD
  5
816D
102
{ACAD_REACTORS
330
8017
102
}
330
8017
100
AcDbXrecord
280
     1
 40
3316594.0
  1
\pxqc;アイジー工業株式会社
  0
ACDBDETAILVIEWSTYLE
  5
27CD
102
{ACAD_XDICTIONARY
360
7783
102
}
102
{ACAD_REACTORS
330
27CC
102
}
330
27CC
100
AcDbModelDocViewStyle
 70
     0
  3
Metric50
290
     0
100
AcDbDetailViewStyle
 70
     0
 71
     0
 90
        3
 71
     1
340
10
 62
   256
 40
5.0
340
0
 62
   256
 40
5.0
300

 40
0.0
280
     1
 71
     2
340
16
 90
       25
 62
   256
 71
     3
340
10
 62
   256
 40
5.0
 90
        0
 40
15.0
 90
        1
300
%<\AcVar ViewDetailId>% (%<\AcVar ViewScale \f "%sn">%)
 71
     4
340
16
 90
       25
 62
   256
340
16
 90
       25
 62
   256
280
     0
1001
ACAD
1000
AcRTDxfName
1000
ACDBDETAILVIEWSTYLE
1000
AcRTDxfName
1000
ACDBDETAILVIEWSTYLE
1000
AcRTDxfName
1000
ACDBDETAILVIEWSTYLE
1000
AcRTDxfName
1000
ACDBDETAILVIEWSTYLE
1000
AcRTDxfName
1000
ACDBDETAILVIEWSTYLE
1000
AcRTDxfName
1000
ACDBDETAILVIEWSTYLE
1000
AcRTDxfName
1000
ACDBDETAILVIEWSTYLE
1000
AcRTDxfName
1000
ACDBDETAILVIEWSTYLE
1000
AcRTDxfName
1000
ACDBDETAILVIEWSTYLE
1000
AcRTDxfName
1000
ACDBDETAILVIEWSTYLE
1000
AcRTDxfName
1000
ACDBDETAILVIEWSTYLE
1000
AcRTDxfName
1000
ACDBDETAILVIEWSTYLE
1000
AcRTDxfName
1000
ACDBDETAILVIEWSTYLE
1000
AcRTDxfName
1000
ACDBDETAILVIEWSTYLE
1000
AcRTDxfName
1000
ACDBDETAILVIEWSTYLE
  0
LAYOUT
  5
3B3
102
{ACAD_REACTORS
330
3B1
102
}
330
3B1
100
AcDbPlotSettings
  1

  2
none_device
  4
ISO_A3_(420.00_x_297.00_MM)
  6

 40
7.5
 41
20.0
 42
7.5
 43
20.0
 44
420.0
 45
297.0
 46
0.0
 47
0.0
 48
20.0
 49
10.0
140
800.0
141
560.0
142
1.0
143
2.0
 70
 11904
 72
     1
 73
     0
 74
     4
  7

 75
     0
147
0.305952380952381
 76
     0
 77
     2
 78
   300
148
-20.0
149
-10.0
100
AcDbLayout
  1
Model
 70
     1
 71
     0
 10
0.0
 20
0.0
 11
12.0
 21
9.0
 12
0.0
 22
0.0
 32
0.0
 14
0.0
 24
0.0
 34
0.0
 15
0.0
 25
0.0
 35
0.0
146
0.0
 13
0.0
 23
0.0
 33
0.0
 16
1.0
 26
0.0
 36
0.0
 17
0.0
 27
1.0
 37
0.0
 76
     0
330
1A
331
1FE0
1001
ACAD_PSEXT
1000
なし
1000
なし
1000
適切ではありません
1000
新しいプロッタ環境設定名を選択しない限り、レイアウトは印刷されません。
1070
     0
  0
LAYOUT
  5
3B4
102
{ACAD_REACTORS
330
3B1
102
}
330
3B1
100
AcDbPlotSettings
  1

  2
DocuCentre Color 400 (FAX)
  4

  6

 40
0.0
 41
0.0
 42
0.0
 43
0.0
 44
0.0
 45
0.0
 46
0.0
 47
0.0
 48
0.0
 49
0.0
140
0.0
141
0.0
142
1.0
143
1.0
 70
   688
 72
     0
 73
     0
 74
     5
  7
monochrome.ctb
 75
    16
147
1.0
 76
     0
 77
     2
 78
   300
148
0.0
149
0.0
100
AcDbLayout
  1
レイアウト1
 70
     1
 71
     1
 10
0.0
 20
0.0
 11
420.0
 21
297.0
 12
0.0
 22
0.0
 32
0.0
 14
1.000000000000000E+20
 24
1.000000000000000E+20
 34
1.000000000000000E+20
 15
-1.000000000000000E+20
 25
-1.000000000000000E+20
 35
-1.000000000000000E+20
146
0.0
 13
0.0
 23
0.0
 33
0.0
 16
1.0
 26
0.0
 36
0.0
 17
0.0
 27
1.0
 37
0.0
 76
     0
330
17
331
22
  0
MATERIAL
  5
19C4
102
{ACAD_XDICTIONARY
360
7747
102
}
102
{ACAD_REACTORS
330
3AF
102
}
330
3AF
100
AcDbMaterial
  1
ByBlock
 73
     1
 78
     1
172
     1
176
     1
270
     1
274
     1
  0
MATERIAL
  5
19C3
102
{ACAD_XDICTIONARY
360
7745
102
}
102
{ACAD_REACTORS
330
3AF
102
}
330
3AF
100
AcDbMaterial
  1
ByLayer
 73
     1
 78
     1
172
     1
176
     1
270
     1
274
     1
  0
MATERIAL
  5
19C5
102
{ACAD_XDICTIONARY
360
7749
102
}
102
{ACAD_REACTORS
330
3AF
102
}
330
3AF
100
AcDbMaterial
  1
Global
 73
     1
 78
     1
172
     1
176
     1
270
     1
274
     1
  0
MLEADERSTYLE
  5
1F71
102
{ACAD_REACTORS
330
1F70
330
7790
330
7792
330
7793
330
7794
330
7795
102
}
330
1F70
100
AcDbMLeaderStyle
179
     2
170
     2
171
     1
172
     0
 90
        2
 40
0.5235987755982988
 41
0.0
173
     1
 91
-1056964608
340
14
 92
       -2
290
     1
 42
2.0
291
     1
 43
0.6
  3
Standard
341
B0
 44
0.0
300

342
10
174
     1
178
     3
175
     1
176
     0
 93
-1056964608
 45
5.0
292
     0
297
     0
 46
4.0
 94
-1056964608
 47
1.0
 49
1.0
140
1.0
293
     1
141
0.0
294
     1
177
     0
142
1.0
295
     0
296
     0
143
0.2
271
     0
272
     9
273
     9
1001
ACAD_MLEADERVER
1070
     2
  0
MLINESTYLE
  5
13
102
{ACAD_REACTORS
330
E
102
}
330
E
100
AcDbMlineStyle
  2
STANDARD
 70
     0
  3

 62
     0
 51
90.0
 52
90.0
 71
     2
 49
0.5
 62
   256
  6
BYLAYER
 49
-0.5
 62
   256
  6
BYLAYER
  0
PLOTSETTINGS
  5
1F2A
102
{ACAD_REACTORS
330
3B2
102
}
330
3B2
100
AcDbPlotSettings
  1
セットアップ1
  2
DocuCentre-III C4400
  4
A4
  6

 40
4.857749938964842
 41
4.942390441894531
 42
4.942413330078125
 43
4.857757568359375
 44
209.9733276367186
 45
297.0106506347656
 46
0.0000000000000142
 47
50.06111745692236
 48
105.6030920299711
 49
24.71134454573553
140
750.3315936897672
141
627.2953067878952
142
1.0
143
3.220853822721043
 70
 11956
 72
     1
 73
     0
 74
     4
  7
monochrome.ctb
 75
     0
147
0.3104766794896577
 76
     0
 77
     2
 78
   300
148
-105.6030920299711
149
-24.71134454573553
1001
ACAD_PSEXT
1000
DocuCentre-III C4400
1000
FX DocuCentre-III C4400
1000
192.168.4.253
1000

1070
     0
  0
ACDBPLACEHOLDER
  5
3AE
102
{ACAD_REACTORS
330
3AD
102
}
330
3AD
  0
SCALE
  5
1F4F
102
{ACAD_REACTORS
330
1F4E
102
}
330
1F4E
100
AcDbScale
 70
     0
300
1:1
140
1.0
141
1.0
290
     1
  0
SCALE
  5
1F50
102
{ACAD_REACTORS
330
1F4E
102
}
330
1F4E
100
AcDbScale
 70
     0
300
1:2
140
1.0
141
2.0
290
     0
  0
SCALE
  5
1F51
102
{ACAD_REACTORS
330
1F4E
102
}
330
1F4E
100
AcDbScale
 70
     0
300
1:4
140
1.0
141
4.0
290
     0
  0
SCALE
  5
1F52
102
{ACAD_REACTORS
330
1F4E
102
}
330
1F4E
100
AcDbScale
 70
     0
300
1:5
140
1.0
141
5.0
290
     0
  0
SCALE
  5
1F53
102
{ACAD_REACTORS
330
1F4E
102
}
330
1F4E
100
AcDbScale
 70
     0
300
1:8
140
1.0
141
8.0
290
     0
  0
SCALE
  5
1F54
102
{ACAD_REACTORS
330
1F4E
102
}
330
1F4E
100
AcDbScale
 70
     0
300
1:10
140
1.0
141
10.0
290
     0
  0
SCALE
  5
1F55
102
{ACAD_REACTORS
330
1F4E
102
}
330
1F4E
100
AcDbScale
 70
     0
300
1:16
140
1.0
141
16.0
290
     0
  0
SCALE
  5
1F56
102
{ACAD_REACTORS
330
1F4E
102
}
330
1F4E
100
AcDbScale
 70
     0
300
1:20
140
1.0
141
20.0
290
     0
  0
SCALE
  5
1F57
102
{ACAD_REACTORS
330
1F4E
102
}
330
1F4E
100
AcDbScale
 70
     0
300
1:30
140
1.0
141
30.0
290
     0
  0
SCALE
  5
1F58
102
{ACAD_REACTORS
330
1F4E
102
}
330
1F4E
100
AcDbScale
 70
     0
300
1:40
140
1.0
141
40.0
290
     0
  0
SCALE
  5
1F59
102
{ACAD_REACTORS
330
1F4E
102
}
330
1F4E
100
AcDbScale
 70
     0
300
1:50
140
1.0
141
50.0
290
     0
  0
SCALE
  5
1F5A
102
{ACAD_REACTORS
330
1F4E
102
}
330
1F4E
100
AcDbScale
 70
     0
300
1:100
140
1.0
141
100.0
290
     0
  0
SCALE
  5
1F5B
102
{ACAD_REACTORS
330
1F4E
102
}
330
1F4E
100
AcDbScale
 70
     0
300
2:1
140
2.0
141
1.0
290
     0
  0
SCALE
  5
1F5C
102
{ACAD_REACTORS
330
1F4E
102
}
330
1F4E
100
AcDbScale
 70
     0
300
4:1
140
4.0
141
1.0
290
     0
  0
SCALE
  5
1F5D
102
{ACAD_REACTORS
330
1F4E
102
}
330
1F4E
100
AcDbScale
 70
     0
300
8:1
140
8.0
141
1.0
290
     0
  0
SCALE
  5
1F5E
102
{ACAD_REACTORS
330
1F4E
102
}
330
1F4E
100
AcDbScale
 70
     0
300
10:1
140
10.0
141
1.0
290
     0
  0
SCALE
  5
1F5F
102
{ACAD_REACTORS
330
1F4E
102
}
330
1F4E
100
AcDbScale
 70
     0
300
100:1
140
100.0
141
1.0
290
     0
  0
SCALE
  5
1F60
102
{ACAD_REACTORS
330
1F4E
102
}
330
1F4E
100
AcDbScale
 70
     0
300
1/128" = 1'-0"
140
0.0078125
141
12.0
290
     0
  0
SCALE
  5
1F61
102
{ACAD_REACTORS
330
1F4E
102
}
330
1F4E
100
AcDbScale
 70
     0
300
1/64" = 1'-0"
140
0.015625
141
12.0
290
     0
  0
SCALE
  5
1F62
102
{ACAD_REACTORS
330
1F4E
102
}
330
1F4E
100
AcDbScale
 70
     0
300
1/32" = 1'-0"
140
0.03125
141
12.0
290
     0
  0
SCALE
  5
1F63
102
{ACAD_REACTORS
330
1F4E
102
}
330
1F4E
100
AcDbScale
 70
     0
300
1/16" = 1'-0"
140
0.0625
141
12.0
290
     0
  0
SCALE
  5
1F64
102
{ACAD_REACTORS
330
1F4E
102
}
330
1F4E
100
AcDbScale
 70
     0
300
3/32" = 1'-0"
140
0.09375
141
12.0
290
     0
  0
SCALE
  5
1F65
102
{ACAD_REACTORS
330
1F4E
102
}
330
1F4E
100
AcDbScale
 70
     0
300
1/8" = 1'-0"
140
0.125
141
12.0
290
     0
  0
SCALE
  5
1F66
102
{ACAD_REACTORS
330
1F4E
102
}
330
1F4E
100
AcDbScale
 70
     0
300
3/16" = 1'-0"
140
0.1875
141
12.0
290
     0
  0
SCALE
  5
1F67
102
{ACAD_REACTORS
330
1F4E
102
}
330
1F4E
100
AcDbScale
 70
     0
300
1/4" = 1'-0"
140
0.25
141
12.0
290
     0
  0
SCALE
  5
1F68
102
{ACAD_REACTORS
330
1F4E
102
}
330
1F4E
100
AcDbScale
 70
     0
300
3/8" = 1'-0"
140
0.375
141
12.0
290
     0
  0
SCALE
  5
1F69
102
{ACAD_REACTORS
330
1F4E
102
}
330
1F4E
100
AcDbScale
 70
     0
300
1/2" = 1'-0"
140
0.5
141
12.0
290
     0
  0
SCALE
  5
1F6A
102
{ACAD_REACTORS
330
1F4E
102
}
330
1F4E
100
AcDbScale
 70
     0
300
3/4" = 1'-0"
140
0.75
141
12.0
290
     0
  0
SCALE
  5
1F6B
102
{ACAD_REACTORS
330
1F4E
102
}
330
1F4E
100
AcDbScale
 70
     0
300
1" = 1'-0"
140
1.0
141
12.0
290
     0
  0
SCALE
  5
1F6C
102
{ACAD_REACTORS
330
1F4E
102
}
330
1F4E
100
AcDbScale
 70
     0
300
1-1/2" = 1'-0"
140
1.5
141
12.0
290
     0
  0
SCALE
  5
1F6D
102
{ACAD_REACTORS
330
1F4E
102
}
330
1F4E
100
AcDbScale
 70
     0
300
3" = 1'-0"
140
3.0
141
12.0
290
     0
  0
SCALE
  5
1F6E
102
{ACAD_REACTORS
330
1F4E
102
}
330
1F4E
100
AcDbScale
 70
     0
300
6" = 1'-0"
140
6.0
141
12.0
290
     0
  0
SCALE
  5
1F6F
102
{ACAD_REACTORS
330
1F4E
102
}
330
1F4E
100
AcDbScale
 70
     0
300
1'-0" = 1'-0"
140
12.0
141
12.0
290
     0
  0
ACDBSECTIONVIEWSTYLE
  5
27CB
102
{ACAD_XDICTIONARY
360
7781
102
}
102
{ACAD_REACTORS
330
27CA
102
}
330
27CA
100
AcDbModelDocViewStyle
 70
     0
  3
Metric50
290
     0
100
AcDbSectionViewStyle
 70
     0
 71
     0
 90
      102
 71
     1
340
10
 62
   256
 40
5.0
340
0
340
0
 62
   256
 40
5.0
300
I, O, Q, S, X, Z
 40
10.0
 90
        0
 40
2.5
 90
        0
 71
     2
340
16
 90
       25
 62
   256
340
16
 90
       50
 62
   256
 40
5.0
 40
2.5
 40
5.0
 71
     3
340
10
 62
   256
 40
5.0
 90
        0
 40
15.0
 90
        1
300
%<\AcVar ViewSectionStartId>%-%<\AcVar ViewSectionEndId>% (%<\AcVar ViewScale \f "%sn">%)
 71
     4
 62
   256
 62
   257
300
ANSI31
 40
1.0
 90
        0
290
     0
290
     0
 90
        6
 40
0.0
 40
1.570796326794896
 40
0.2617993877991494
 40
1.308996938995747
 40
-0.2617993877991494
 40
1.832595714594045
1001
ACAD
1000
AcRTDxfName
1000
ACDBSECTIONVIEWSTYLE
1000
AcRTDxfName
1000
ACDBSECTIONVIEWSTYLE
1000
AcRTDxfName
1000
ACDBSECTIONVIEWSTYLE
1000
AcRTDxfName
1000
ACDBSECTIONVIEWSTYLE
1000
AcRTDxfName
1000
ACDBSECTIONVIEWSTYLE
1000
AcRTDxfName
1000
ACDBSECTIONVIEWSTYLE
1000
AcRTDxfName
1000
ACDBSECTIONVIEWSTYLE
1000
AcRTDxfName
1000
ACDBSECTIONVIEWSTYLE
1000
AcRTDxfName
1000
ACDBSECTIONVIEWSTYLE
1000
AcRTDxfName
1000
ACDBSECTIONVIEWSTYLE
1000
AcRTDxfName
1000
ACDBSECTIONVIEWSTYLE
1000
AcRTDxfName
1000
ACDBSECTIONVIEWSTYLE
1000
AcRTDxfName
1000
ACDBSECTIONVIEWSTYLE
1000
AcRTDxfName
1000
ACDBSECTIONVIEWSTYLE
1000
AcRTDxfName
1000
ACDBSECTIONVIEWSTYLE
  0
TABLESTYLE
  5
14DE
102
{ACAD_XDICTIONARY
360
1F87
102
}
102
{ACAD_REACTORS
330
14DD
102
}
330
14DD
100
AcDbTableStyle
280
     0
  3
Standard
 70
     0
 71
     0
 40
1.5
 41
1.5
280
     0
281
     0
  7
STANDARD
140
4.5
170
     2
 62
     0
 63
     7
283
     0
 90
        4
 91
        0
  1

274
    -2
284
     1
 64
     0
275
    -2
285
     1
 65
     0
276
    -2
286
     1
 66
     0
277
    -2
287
     1
 67
     0
278
    -2
288
     1
 68
     0
279
    -2
289
     1
 69
     0
  7
STANDARD
140
6.0
170
     5
 62
     0
 63
     7
283
     0
 90
        4
 91
        0
  1

274
    -2
284
     1
 64
     0
275
    -2
285
     1
 65
     0
276
    -2
286
     1
 66
     0
277
    -2
287
     1
 67
     0
278
    -2
288
     1
 68
     0
279
    -2
289
     1
 69
     0
  7
STANDARD
140
4.5
170
     5
 62
     0
 63
     7
283
     0
 90
        4
 91
        0
  1

274
    -2
284
     1
 64
     0
275
    -2
285
     1
 65
     0
276
    -2
286
     1
 66
     0
277
    -2
287
     1
 67
     0
278
    -2
288
     1
 68
     0
279
    -2
289
     1
 69
     0
1001
ACAD
1000
AcRTDxfName
1000
TABLESTYLE
1000
AcRTDxfName
1000
TABLESTYLE
1000
AcRTDxfName
1000
TABLESTYLE
  0
VISUALSTYLE
  5
19CC
102
{ACAD_XDICTIONARY
360
8181
102
}
102
{ACAD_REACTORS
330
19C6
102
}
330
19C6
100
AcDbVisualStyle
  2

 70
     4
177
     2
291
     0
 71
     0
176
     1
 72
     2
176
     1
 73
     0
176
     1
 90
        0
176
     1
 40
0.6
176
     1
 41
30.0
176
     1
 63
     7
176
     1
 74
     1
176
     1
 91
        4
176
     1
 64
     7
176
     1
 65
   257
176
     1
 75
     1
176
     1
175
     1
176
     1
 42
1.0
176
     1
 92
        0
176
     1
 66
   257
176
     1
 43
1.0
176
     1
 76
     1
176
     1
 77
     6
176
     1
 78
     2
176
     1
 67
     7
176
     1
 79
     5
176
     1
170
     0
176
     1
171
     0
176
     1
290
     0
176
     1
 93
        1
176
     1
 44
0.0
176
     1
173
     0
176
     1
1001
ACAD
1000
AcDbSavedByObjectVersion
1070
     0
  0
VISUALSTYLE
  5
19CE
102
{ACAD_XDICTIONARY
360
8185
102
}
102
{ACAD_REACTORS
330
19C6
102
}
330
19C6
100
AcDbVisualStyle
  2

 70
     6
177
     2
291
     0
 71
     1
176
     1
 72
     2
176
     1
 73
     2
176
     1
 90
        0
176
     1
 40
0.6
176
     1
 41
30.0
176
     1
 63
     7
176
     1
 74
     2
176
     1
 91
        2
176
     1
 64
     7
176
     1
 65
   257
176
     1
 75
     2
176
     1
175
     1
176
     1
 42
40.0
176
     1
 92
        0
176
     1
 66
   257
176
     1
 43
1.0
176
     1
 76
     1
176
     1
 77
     6
176
     1
 78
     2
176
     1
 67
     7
176
     1
 79
     3
176
     1
170
     0
176
     1
171
     0
176
     1
290
     0
176
     1
 93
        1
176
     1
 44
0.0
176
     1
173
     0
176
     1
1001
ACAD
1000
AcDbSavedByObjectVersion
1070
     0
  0
VISUALSTYLE
  5
19CD
102
{ACAD_XDICTIONARY
360
8183
102
}
102
{ACAD_REACTORS
330
19C6
102
}
330
19C6
100
AcDbVisualStyle
  2

 70
     5
177
     2
291
     0
 71
     0
176
     1
 72
     2
176
     1
 73
     0
176
     1
 90
        0
176
     1
 40
0.6
176
     1
 41
30.0
176
     1
 63
     7
176
     1
 74
     1
176
     1
 91
        4
176
     1
 64
     7
176
     1
 65
   257
176
     1
 75
     1
176
     1
175
     1
176
     1
 42
1.0
176
     1
 92
        0
176
     1
 66
   257
176
     1
 43
1.0
176
     1
 76
     1
176
     1
 77
     6
176
     1
 78
     2
176
     1
 67
     7
176
     1
 79
     5
176
     1
170
     0
176
     1
171
     0
176
     1
290
     0
176
     1
 93
        1
176
     1
 44
0.0
176
     1
173
     0
176
     1
1001
ACAD
1000
AcDbSavedByObjectVersion
1070
     0
  0
VISUALSTYLE
  5
19CB
102
{ACAD_XDICTIONARY
360
817F
102
}
102
{ACAD_REACTORS
330
19C6
102
}
330
19C6
100
AcDbVisualStyle
  2

 70
     7
177
     2
291
     1
 71
     1
176
     1
 72
     0
176
     1
 73
     1
176
     1
 90
        0
176
     1
 40
0.6
176
     1
 41
30.0
176
     1
 63
     7
176
     1
 74
     0
176
     1
 91
        4
176
     1
 64
     7
176
     1
 65
   257
176
     1
 75
     1
176
     1
175
     1
176
     1
 42
1.0
176
     1
 92
        8
176
     1
 66
     7
176
     1
 43
1.0
176
     1
 76
     1
176
     1
 77
     6
176
     1
 78
     2
176
     1
 67
     7
176
     1
 79
     5
176
     1
170
     0
176
     1
171
     0
176
     1
290
     0
176
     1
 93
        1
176
     1
 44
0.0
176
     1
173
     0
176
     1
1001
ACAD
1000
AcDbSavedByObjectVersion
1070
     0
  0
VISUALSTYLE
  5
19D2
102
{ACAD_XDICTIONARY
360
818D
102
}
102
{ACAD_REACTORS
330
19C6
102
}
330
19C6
100
AcDbVisualStyle
  2

 70
    12
177
     2
291
     1
 71
     2
176
     1
 72
     2
176
     1
 73
     0
176
     1
 90
        0
176
     1
 40
0.6
176
     1
 41
30.0
176
     1
 63
     7
176
     1
 74
     1
176
     1
 91
        4
176
     1
 64
     7
176
     1
 65
   257
176
     1
 75
     1
176
     1
175
     1
176
     1
 42
1.0
176
     1
 92
        8
176
     1
 66
     7
176
     1
 43
1.0
176
     1
 76
     1
176
     1
 77
     6
176
     1
 78
     2
176
     1
 67
     7
176
     1
 79
     5
176
     1
170
     0
176
     1
171
     0
176
     1
290
     0
176
     1
 93
        1
176
     1
 44
50.0
176
     1
173
     0
176
     1
1001
ACAD
1000
AcDbSavedByObjectVersion
1070
     0
  0
VISUALSTYLE
  5
19D6
102
{ACAD_XDICTIONARY
360
8195
102
}
102
{ACAD_REACTORS
330
19C6
102
}
330
19C6
100
AcDbVisualStyle
  2

 70
    16
177
     2
291
     1
 71
     2
176
     1
 72
     2
176
     1
 73
     3
176
     1
 90
        0
176
     1
 40
0.6
176
     1
 41
30.0
176
     1
 63
     8
176
     1
 74
     1
176
     1
 91
        4
176
     1
 64
     7
176
     1
 65
   257
176
     1
 75
     1
176
     1
175
     1
176
     1
 42
1.0
176
     1
 92
        8
176
     1
 66
     8
176
     1
 43
1.0
176
     1
 76
     1
176
     1
 77
     6
176
     1
 78
     2
176
     1
 67
     7
176
     1
 79
     5
176
     1
170
     0
176
     1
171
     0
176
     1
290
     0
176
     1
 93
        1
176
     1
 44
0.0
176
     1
173
     0
176
     1
1001
ACAD
1000
AcDbSavedByObjectVersion
1070
     0
  0
VISUALSTYLE
  5
19CF
102
{ACAD_XDICTIONARY
360
8187
102
}
102
{ACAD_REACTORS
330
19C6
102
}
330
19C6
100
AcDbVisualStyle
  2

 70
     9
177
     2
291
     0
 71
     3
176
     1
 72
     2
176
     1
 73
     0
176
     1
 90
        0
176
     1
 40
0.6
176
     1
 41
30.0
176
     1
 63
     7
176
     1
 74
     2
176
     1
 91
        2
176
     1
 64
     7
176
     1
 65
   257
176
     1
 75
     1
176
     1
175
     1
176
     1
 42
40.0
176
     1
 92
        8
176
     1
 66
     7
176
     1
 43
1.0
176
     1
 76
     1
176
     1
 77
     6
176
     1
 78
     2
176
     1
 67
     7
176
     1
 79
     3
176
     1
170
     0
176
     1
171
     0
176
     1
290
     0
176
     1
 93
        1
176
     1
 44
0.0
176
     1
173
     0
176
     1
1001
ACAD
1000
AcDbSavedByObjectVersion
1070
     0
  0
VISUALSTYLE
  5
19D1
102
{ACAD_XDICTIONARY
360
818B
102
}
102
{ACAD_REACTORS
330
19C6
102
}
330
19C6
100
AcDbVisualStyle
  2

 70
    11
177
     2
291
     1
 71
     2
176
     1
 72
     2
176
     1
 73
     0
176
     1
 90
        0
176
     1
 40
0.6
176
     1
 41
30.0
176
     1
 63
     7
176
     1
 74
     1
176
     1
 91
        4
176
     1
 64
     7
176
     1
 65
   257
176
     1
 75
     1
176
     1
175
     1
176
     1
 42
1.0
176
     1
 92
        8
176
     1
 66
     7
176
     1
 43
1.0
176
     1
 76
     1
176
     1
 77
     6
176
     1
 78
     2
176
     1
 67
     7
176
     1
 79
     5
176
     1
170
     0
176
     1
171
     0
176
     1
290
     0
176
     1
 93
        1
176
     1
 44
-50.0
176
     1
173
     0
176
     1
1001
ACAD
1000
AcDbSavedByObjectVersion
1070
     0
  0
VISUALSTYLE
  5
2151
102
{ACAD_XDICTIONARY
360
81A9
102
}
102
{ACAD_REACTORS
330
19C6
102
}
330
19C6
100
AcDbVisualStyle
  2

 70
    22
177
     2
291
     1
 71
     2
176
     0
 72
     2
176
     0
 73
     0
176
     0
 90
        0
176
     0
 40
0.6
176
     0
 41
30.0
176
     0
 63
     7
176
     0
 74
     1
176
     0
 91
        4
176
     0
 64
     7
176
     0
 65
   257
176
     0
 75
     1
176
     0
175
     1
176
     0
 42
1.0
176
     0
 92
        8
176
     2
 66
     7
176
     0
 43
1.0
176
     0
 76
     1
176
     0
 77
     6
176
     0
 78
     2
176
     0
 67
     7
176
     0
 79
     5
176
     0
170
     0
176
     0
171
     0
176
     0
290
     0
176
     0
 93
        1
176
     0
 44
0.0
176
     0
173
     0
176
     0
1001
ACAD
1000
AcDbSavedByObjectVersion
1070
     0
  0
VISUALSTYLE
  5
19D5
102
{ACAD_XDICTIONARY
360
8193
102
}
102
{ACAD_REACTORS
330
19C6
102
}
330
19C6
100
AcDbVisualStyle
  2

 70
    15
177
     2
291
     1
 71
     2
176
     1
 72
     2
176
     1
 73
     0
176
     1
 90
        0
176
     1
 40
0.6
176
     1
 41
30.0
176
     1
 63
     7
176
     1
 74
     1
176
     1
 91
        4
176
     1
 64
     7
176
     1
 65
   257
176
     1
 75
     1
176
     1
175
     1
176
     1
 42
1.0
176
     1
 92
        8
176
     1
 66
     7
176
     1
 43
1.0
176
     1
 76
     1
176
     1
 77
     6
176
     1
 78
     2
176
     1
 67
     7
176
     1
 79
     5
176
     1
170
     0
176
     1
171
     0
176
     1
290
     0
176
     1
 93
        1
176
     1
 44
0.0
176
     1
173
     0
176
     1
1001
ACAD
1000
AcDbSavedByObjectVersion
1070
     0
  0
VISUALSTYLE
  5
19C7
102
{ACAD_XDICTIONARY
360
8177
102
}
102
{ACAD_REACTORS
330
19C6
102
}
330
19C6
100
AcDbVisualStyle
  2

 70
     0
177
     2
291
     1
 71
     2
176
     1
 72
     1
176
     1
 73
     1
176
     1
 90
        2
176
     1
 40
0.6
176
     1
 41
30.0
176
     1
 63
     7
176
     1
 74
     0
176
     1
 91
        4
176
     1
 64
     7
176
     1
 65
   257
176
     1
 75
     1
176
     1
175
     1
176
     1
 42
1.0
176
     1
 92
        8
176
     1
 66
     7
176
     1
 43
1.0
176
     1
 76
     1
176
     1
 77
     6
176
     1
 78
     2
176
     1
 67
     7
176
     1
 79
     5
176
     1
170
     0
176
     1
171
     0
176
     1
290
     0
176
     1
 93
       13
176
     1
 44
0.0
176
     1
173
     0
176
     1
1001
ACAD
1000
AcDbSavedByObjectVersion
1070
     0
  0
VISUALSTYLE
  5
19C8
102
{ACAD_XDICTIONARY
360
8179
102
}
102
{ACAD_REACTORS
330
19C6
102
}
330
19C6
100
AcDbVisualStyle
  2

 70
     1
177
     2
291
     1
 71
     2
176
     1
 72
     1
176
     1
 73
     1
176
     1
 90
        2
176
     1
 40
0.6
176
     1
 41
30.0
176
     1
 63
     7
176
     1
 74
     1
176
     1
 91
        4
176
     1
 64
     7
176
     1
 65
   257
176
     1
 75
     1
176
     1
175
     1
176
     1
 42
1.0
176
     1
 92
        0
176
     1
 66
   257
176
     1
 43
1.0
176
     1
 76
     1
176
     1
 77
     6
176
     1
 78
     2
176
     1
 67
     7
176
     1
 79
     5
176
     1
170
     0
176
     1
171
     0
176
     1
290
     0
176
     1
 93
       13
176
     1
 44
0.0
176
     1
173
     0
176
     1
1001
ACAD
1000
AcDbSavedByObjectVersion
1070
     0
  0
VISUALSTYLE
  5
19C9
102
{ACAD_XDICTIONARY
360
817B
102
}
102
{ACAD_REACTORS
330
19C6
102
}
330
19C6
100
AcDbVisualStyle
  2

 70
     2
177
     2
291
     1
 71
     2
176
     1
 72
     2
176
     1
 73
     1
176
     1
 90
        2
176
     1
 40
0.6
176
     1
 41
30.0
176
     1
 63
     7
176
     1
 74
     0
176
     1
 91
        4
176
     1
 64
     7
176
     1
 65
   257
176
     1
 75
     1
176
     1
175
     1
176
     1
 42
1.0
176
     1
 92
        0
176
     1
 66
     7
176
     1
 43
1.0
176
     1
 76
     1
176
     1
 77
     6
176
     1
 78
     2
176
     1
 67
     7
176
     1
 79
     5
176
     1
170
     0
176
     1
171
     0
176
     1
290
     0
176
     1
 93
       13
176
     1
 44
0.0
176
     1
173
     0
176
     1
1001
ACAD
1000
AcDbSavedByObjectVersion
1070
     0
  0
VISUALSTYLE
  5
19CA
102
{ACAD_XDICTIONARY
360
817D
102
}
102
{ACAD_REACTORS
330
19C6
102
}
330
19C6
100
AcDbVisualStyle
  2

 70
     3
177
     2
291
     1
 71
     2
176
     1
 72
     2
176
     1
 73
     1
176
     1
 90
        2
176
     1
 40
0.6
176
     1
 41
30.0
176
     1
 63
     7
176
     1
 74
     1
176
     1
 91
        4
176
     1
 64
     7
176
     1
 65
   257
176
     1
 75
     1
176
     1
175
     1
176
     1
 42
1.0
176
     1
 92
        0
176
     1
 66
   257
176
     1
 43
1.0
176
     1
 76
     1
176
     1
 77
     6
176
     1
 78
     2
176
     1
 67
     7
176
     1
 79
     5
176
     1
170
     0
176
     1
171
     0
176
     1
290
     0
176
     1
 93
       13
176
     1
 44
0.0
176
     1
173
     0
176
     1
1001
ACAD
1000
AcDbSavedByObjectVersion
1070
     0
  0
VISUALSTYLE
  5
2149
102
{ACAD_XDICTIONARY
360
8199
102
}
102
{ACAD_REACTORS
330
19C6
102
}
330
19C6
100
AcDbVisualStyle
  2

 70
     6
177
     2
291
     0
 71
     1
176
     1
 72
     2
176
     1
 73
     2
176
     1
 90
        0
176
     1
 40
0.6
176
     1
 41
30.0
176
     1
 63
     7
176
     1
 74
     2
176
     1
 91
        2
176
     1
 64
     7
176
     1
 65
   257
176
     1
 75
     2
176
     1
175
     1
176
     1
 42
40.0
176
     1
 92
        0
176
     1
 66
   257
176
     1
 43
1.0
176
     1
 76
     1
176
     1
 77
     6
176
     1
 78
     2
176
     1
 67
     7
176
     1
 79
     3
176
     1
170
     0
176
     1
171
     0
176
     1
290
     0
176
     1
 93
        1
176
     1
 44
0.0
176
     1
173
     0
176
     1
1001
ACAD
1000
AcDbSavedByObjectVersion
1070
     0
  0
VISUALSTYLE
  5
214F
102
{ACAD_XDICTIONARY
360
81A5
102
}
102
{ACAD_REACTORS
330
19C6
102
}
330
19C6
100
AcDbVisualStyle
  2

 70
    20
177
     2
291
     1
 71
     2
176
     0
 72
     2
176
     0
 73
     0
176
     0
 90
        0
176
     0
 40
0.6
176
     0
 41
30.0
176
     0
 63
     7
176
     0
 74
     1
176
     0
 91
        4
176
     0
 64
     7
176
     0
 65
   257
176
     0
 75
     1
176
     0
175
     1
176
     0
 42
1.0
176
     0
 92
       10
176
     2
 66
     7
176
     0
 43
1.0
176
     0
 76
     1
176
     0
 77
     6
176
     0
 78
     2
176
     0
 67
     7
176
     0
 79
     5
176
     0
170
     0
176
     0
171
     0
176
     0
290
     0
176
     0
 93
        1
176
     0
 44
0.0
176
     0
173
     0
176
     0
1001
ACAD
1000
AcDbSavedByObjectVersion
1070
     0
  0
VISUALSTYLE
  5
19D4
102
{ACAD_XDICTIONARY
360
8191
102
}
102
{ACAD_REACTORS
330
19C6
102
}
330
19C6
100
AcDbVisualStyle
  2

 70
    14
177
     2
291
     1
 71
     2
176
     1
 72
     2
176
     1
 73
     0
176
     1
 90
        0
176
     1
 40
0.6
176
     1
 41
30.0
176
     1
 63
     7
176
     1
 74
     1
176
     1
 91
        4
176
     1
 64
     7
176
     1
 65
   257
176
     1
 75
     7
176
     1
175
     7
176
     1
 42
1.0
176
     1
 92
        8
176
     1
 66
     7
176
     1
 43
1.0
176
     1
 76
     1
176
     1
 77
     6
176
     1
 78
     2
176
     1
 67
     7
176
     1
 79
     5
176
     1
170
     0
176
     1
171
     0
176
     1
290
     0
176
     1
 93
        1
176
     1
 44
0.0
176
     1
173
     0
176
     1
1001
ACAD
1000
AcDbSavedByObjectVersion
1070
     0
  0
VISUALSTYLE
  5
2150
102
{ACAD_XDICTIONARY
360
81A7
102
}
102
{ACAD_REACTORS
330
19C6
102
}
330
19C6
100
AcDbVisualStyle
  2

 70
    21
177
     2
291
     1
 71
     2
176
     0
 72
     2
176
     0
 73
     0
176
     0
 90
        0
176
     0
 40
0.6
176
     0
 41
30.0
176
     0
 63
     7
176
     0
 74
     1
176
     0
 91
        4
176
     0
 64
     7
176
     0
 65
   257
176
     0
 75
     1
176
     0
175
     1
176
     0
 42
1.0
176
     0
 92
        9
176
     2
 66
     7
176
     0
 43
1.0
176
     0
 76
     1
176
     0
 77
     6
176
     0
 78
     2
176
     0
 67
     7
176
     0
 79
     5
176
     0
170
     0
176
     0
171
     0
176
     0
290
     0
176
     0
 93
        1
176
     0
 44
0.0
176
     0
173
     0
176
     0
1001
ACAD
1000
AcDbSavedByObjectVersion
1070
     0
  0
VISUALSTYLE
  5
19D0
102
{ACAD_XDICTIONARY
360
8189
102
}
102
{ACAD_REACTORS
330
19C6
102
}
330
19C6
100
AcDbVisualStyle
  2

 70
     8
177
     2
291
     0
 71
     2
176
     1
 72
     2
176
     1
 73
     0
176
     1
 90
        0
176
     1
 40
0.6
176
     1
 41
30.0
176
     1
 63
     7
176
     1
 74
     1
176
     1
 91
        0
176
     1
 64
     7
176
     1
 65
   257
176
     1
 75
     1
176
     1
175
     1
176
     1
 42
1.0
176
     1
 92
        8
176
     1
 66
     8
176
     1
 43
1.0
176
     1
 76
     1
176
     1
 77
     6
176
     1
 78
     2
176
     1
 67
     7
176
     1
 79
     5
176
     1
170
     0
176
     1
171
     0
176
     1
290
     0
176
     1
 93
       13
176
     1
 44
0.0
176
     1
173
     0
176
     1
1001
ACAD
1000
AcDbSavedByObjectVersion
1070
     0
  0
VISUALSTYLE
  5
214E
102
{ACAD_XDICTIONARY
360
81A3
102
}
102
{ACAD_REACTORS
330
19C6
102
}
330
19C6
100
AcDbVisualStyle
  2

 70
    27
177
     2
291
     0
 71
     2
176
     1
 72
     2
176
     1
 73
     1
176
     1
 90
        2
176
     1
 40
0.6
176
     1
 41
30.0
176
     1
 63
     7
176
     1
 74
     0
176
     1
 91
        4
176
     1
 64
     7
176
     1
 65
   257
176
     1
 75
     1
176
     1
175
     1
176
     1
 42
1.0
176
     1
 92
        8
176
     1
 66
   257
176
     1
 43
1.0
176
     1
 76
     1
176
     1
 77
     6
176
     1
 78
     2
176
     1
 67
     8
176
     1
 79
     3
176
     1
170
     0
176
     1
171
     0
176
     1
290
     0
176
     1
 93
        5
176
     1
 44
0.0
176
     1
173
     0
176
     1
1001
ACAD
1000
AcDbSavedByObjectVersion
1070
     0
  0
VISUALSTYLE
  5
214D
102
{ACAD_XDICTIONARY
360
81A1
102
}
102
{ACAD_REACTORS
330
19C6
102
}
330
19C6
100
AcDbVisualStyle
  2

 70
    26
177
     2
291
     0
 71
     2
176
     1
 72
     2
176
     1
 73
     1
176
     1
 90
        2
176
     1
 40
0.6
176
     1
 41
30.0
176
     1
 63
     7
176
     1
 74
     1
176
     1
 91
        2
176
     1
 64
     7
176
     1
 65
   257
176
     1
 75
     2
176
     1
175
     1
176
     1
 42
1.0
176
     1
 92
        8
176
     1
 66
   257
176
     1
 43
1.0
176
     1
 76
     1
176
     1
 77
     6
176
     1
 78
     2
176
     1
 67
     7
176
     1
 79
     3
176
     1
170
     0
176
     1
171
     0
176
     1
290
     0
176
     1
 93
        5
176
     1
 44
0.0
176
     1
173
     0
176
     1
1001
ACAD
1000
AcDbSavedByObjectVersion
1070
     0
  0
VISUALSTYLE
  5
214A
102
{ACAD_XDICTIONARY
360
819B
102
}
102
{ACAD_REACTORS
330
19C6
102
}
330
19C6
100
AcDbVisualStyle
  2

 70
    23
177
     2
291
     0
 71
     2
176
     1
 72
     2
176
     1
 73
     3
176
     1
 90
        0
176
     1
 40
0.6
176
     1
 41
30.0
176
     1
 63
     7
176
     1
 74
     2
176
     1
 91
        2
176
     1
 64
     7
176
     1
 65
     7
176
     1
 75
     1
176
     1
175
     1
176
     1
 42
40.0
176
     1
 92
        8
176
     1
 66
     7
176
     1
 43
1.0
176
     1
 76
     1
176
     1
 77
     6
176
     1
 78
     2
176
     1
 67
     7
176
     1
 79
     3
176
     1
170
     0
176
     1
171
     0
176
     1
290
     0
176
     1
 93
        1
176
     1
 44
0.0
176
     1
173
     0
176
     1
1001
ACAD
1000
AcDbSavedByObjectVersion
1070
     0
  0
VISUALSTYLE
  5
214B
102
{ACAD_XDICTIONARY
360
819D
102
}
102
{ACAD_REACTORS
330
19C6
102
}
330
19C6
100
AcDbVisualStyle
  2

 70
    24
177
     2
291
     0
 71
     1
176
     1
 72
     2
176
     1
 73
     2
176
     1
 90
        0
176
     1
 40
0.6
176
     1
 41
30.0
176
     1
 63
     7
176
     1
 74
     2
176
     1
 91
        2
176
     1
 64
     7
176
     1
 65
     7
176
     1
 75
     1
176
     1
175
     1
176
     1
 42
40.0
176
     1
 92
       11
176
     1
 66
     7
176
     1
 43
1.0
176
     1
 76
     1
176
     1
 77
     6
176
     1
 78
     2
176
     1
 67
     7
176
     1
 79
     6
176
     1
170
     0
176
     1
171
     0
176
     1
290
     0
176
     1
 93
        1
176
     1
 44
0.0
176
     1
173
     0
176
     1
1001
ACAD
1000
AcDbSavedByObjectVersion
1070
     0
  0
VISUALSTYLE
  5
19D3
102
{ACAD_XDICTIONARY
360
818F
102
}
102
{ACAD_REACTORS
330
19C6
102
}
330
19C6
100
AcDbVisualStyle
  2

 70
    13
177
     2
291
     1
 71
     2
176
     1
 72
     2
176
     1
 73
     0
176
     1
 90
        0
176
     1
 40
0.6
176
     1
 41
30.0
176
     1
 63
     7
176
     1
 74
     1
176
     1
 91
        4
176
     1
 64
     7
176
     1
 65
   257
176
     1
 75
     1
176
     1
175
     1
176
     1
 42
1.0
176
     1
 92
       12
176
     1
 66
     7
176
     1
 43
1.0
176
     1
 76
     1
176
     1
 77
     6
176
     1
 78
     2
176
     1
 67
     7
176
     1
 79
     5
176
     1
170
     0
176
     1
171
     0
176
     1
290
     0
176
     1
 93
        1
176
     1
 44
0.0
176
     1
173
     0
176
     1
1001
ACAD
1000
AcDbSavedByObjectVersion
1070
     0
  0
VISUALSTYLE
  5
2148
102
{ACAD_XDICTIONARY
360
8197
102
}
102
{ACAD_REACTORS
330
19C6
102
}
330
19C6
100
AcDbVisualStyle
  2

 70
     5
177
     2
291
     0
 71
     0
176
     1
 72
     2
176
     1
 73
     0
176
     1
 90
        0
176
     1
 40
0.6
176
     1
 41
30.0
176
     1
 63
     7
176
     1
 74
     1
176
     1
 91
        4
176
     1
 64
     7
176
     1
 65
   257
176
     1
 75
     1
176
     1
175
     1
176
     1
 42
1.0
176
     1
 92
        0
176
     1
 66
   257
176
     1
 43
1.0
176
     1
 76
     1
176
     1
 77
     6
176
     1
 78
     2
176
     1
 67
     7
176
     1
 79
     3
176
     1
170
     0
176
     1
171
     0
176
     1
290
     0
176
     1
 93
        1
176
     1
 44
0.0
176
     1
173
     0
176
     1
1001
ACAD
1000
AcDbSavedByObjectVersion
1070
     0
  0
VISUALSTYLE
  5
214C
102
{ACAD_XDICTIONARY
360
819F
102
}
102
{ACAD_REACTORS
330
19C6
102
}
330
19C6
100
AcDbVisualStyle
  2

 70
    25
177
     2
291
     0
 71
     2
176
     1
 72
     2
176
     1
 73
     1
176
     1
 90
        1
176
     1
 40
0.5
176
     1
 41
30.0
176
     1
 63
     7
176
     1
 74
     1
176
     1
 91
        0
176
     1
 64
     7
176
     1
 65
   257
176
     1
 75
     1
176
     1
175
     1
176
     1
 42
1.0
176
     1
 92
        8
176
     1
 66
     7
176
     1
 43
1.0
176
     1
 76
     1
176
     1
 77
     6
176
     1
 78
     2
176
     1
 67
     7
176
     1
 79
     3
176
     1
170
     0
176
     1
171
     0
176
     1
290
     0
176
     1
 93
       13
176
     1
 44
0.0
176
     1
173
     0
176
     1
1001
ACAD
1000
AcDbSavedByObjectVersion
1070
     0
  0
DICTIONARYVAR
  5
1FA1
102
{ACAD_REACTORS
330
1897
102
}
330
1897
100
DictionaryVariables
280
     0
  1
1:2
  0
DICTIONARYVAR
  5
1FA0
102
{ACAD_REACTORS
330
1897
102
}
330
1897
100
DictionaryVariables
280
     0
  1
STANDARD
  0
DICTIONARYVAR
  5
1898
102
{ACAD_REACTORS
330
1897
102
}
330
1897
100
DictionaryVariables
280
     0
  1
STANDARD
  0
DICTIONARYVAR
  5
2823
102
{ACAD_REACTORS
330
1897
102
}
330
1897
100
DictionaryVariables
280
     0
  1
Metric50
  0
DICTIONARYVAR
  5
2824
102
{ACAD_REACTORS
330
1897
102
}
330
1897
100
DictionaryVariables
280
     0
  1
Metric50
  0
DICTIONARYVAR
  5
1938
102
{ACAD_REACTORS
330
1897
102
}
330
1897
100
DictionaryVariables
280
     0
  1
1
  0
DICTIONARYVAR
  5
1EEE
102
{ACAD_REACTORS
330
1897
102
}
330
1897
100
DictionaryVariables
280
     0
  1
0
  0
DICTIONARYVAR
  5
6358
102
{ACAD_REACTORS
330
1897
102
}
330
1897
100
DictionaryVariables
280
     0
  1
1
  0
DICTIONARYVAR
  5
6359
102
{ACAD_REACTORS
330
1897
102
}
330
1897
100
DictionaryVariables
280
     0
  1
15
  0
DICTIONARYVAR
  5
6357
102
{ACAD_REACTORS
330
1897
102
}
330
1897
100
DictionaryVariables
280
     0
  1
0
  0
DICTIONARYVAR
  5
6356
102
{ACAD_REACTORS
330
1897
102
}
330
1897
100
DictionaryVariables
280
     0
  1
0
  0
DICTIONARYVAR
  5
1939
102
{ACAD_REACTORS
330
1897
102
}
330
1897
100
DictionaryVariables
280
     0
  1

  0
DICTIONARYVAR
  5
1EED
102
{ACAD_REACTORS
330
1897
102
}
330
1897
100
DictionaryVariables
280
     0
  1
127
  0
DICTIONARY
  5
8176
102
{ACAD_REACTORS
330
8174
102
}
330
8174
100
AcDbDictionary
281
     1
  0
DICTIONARY
  5
8175
102
{ACAD_REACTORS
330
8174
102
}
330
8174
100
AcDbDictionary
281
     1
  3
2235139222896
350
816F
  3
2235139222912
350
8170
  3
2235139222928
350
8171
  3
2235139222944
350
8172
  3
2235139222960
350
8173
  0
DICTIONARY
  5
7783
330
27CD
100
AcDbDictionary
280
     1
281
     1
  3
ACAD_XREC_ROUNDTRIP
360
81AC
  0
DICTIONARY
  5
7747
330
19C4
100
AcDbDictionary
280
     1
281
     1
  3
ACAD_XREC_ROUNDTRIP
360
7748
  0
DICTIONARY
  5
7745
330
19C3
100
AcDbDictionary
280
     1
281
     1
  3
ACAD_XREC_ROUNDTRIP
360
7746
  0
DICTIONARY
  5
7749
330
19C5
100
AcDbDictionary
280
     1
281
     1
  3
ACAD_XREC_ROUNDTRIP
360
774A
  0
DICTIONARY
  5
7781
330
27CB
100
AcDbDictionary
280
     1
281
     1
  3
ACAD_XREC_ROUNDTRIP
360
81AB
  0
DICTIONARY
  5
1F87
330
14DE
100
AcDbDictionary
280
     1
281
     1
  3
ACAD_ROUNDTRIP_2008_TABLESTYLE_CELLSTYLEMAP
360
816A
  0
DICTIONARY
  5
8181
330
19CC
100
AcDbDictionary
280
     1
281
     1
  3
ACAD_XREC_ROUNDTRIP
360
8182
  0
DICTIONARY
  5
8185
330
19CE
100
AcDbDictionary
280
     1
281
     1
  3
ACAD_XREC_ROUNDTRIP
360
8186
  0
DICTIONARY
  5
8183
330
19CD
100
AcDbDictionary
280
     1
281
     1
  3
ACAD_XREC_ROUNDTRIP
360
8184
  0
DICTIONARY
  5
817F
330
19CB
100
AcDbDictionary
280
     1
281
     1
  3
ACAD_XREC_ROUNDTRIP
360
8180
  0
DICTIONARY
  5
818D
330
19D2
100
AcDbDictionary
280
     1
281
     1
  3
ACAD_XREC_ROUNDTRIP
360
818E
  0
DICTIONARY
  5
8195
330
19D6
100
AcDbDictionary
280
     1
281
     1
  3
ACAD_XREC_ROUNDTRIP
360
8196
  0
DICTIONARY
  5
8187
330
19CF
100
AcDbDictionary
280
     1
281
     1
  3
ACAD_XREC_ROUNDTRIP
360
8188
  0
DICTIONARY
  5
818B
330
19D1
100
AcDbDictionary
280
     1
281
     1
  3
ACAD_XREC_ROUNDTRIP
360
818C
  0
DICTIONARY
  5
81A9
330
2151
100
AcDbDictionary
280
     1
281
     1
  3
ACAD_XREC_ROUNDTRIP
360
81AA
  0
DICTIONARY
  5
8193
330
19D5
100
AcDbDictionary
280
     1
281
     1
  3
ACAD_XREC_ROUNDTRIP
360
8194
  0
DICTIONARY
  5
8177
330
19C7
100
AcDbDictionary
280
     1
281
     1
  3
ACAD_XREC_ROUNDTRIP
360
8178
  0
DICTIONARY
  5
8179
330
19C8
100
AcDbDictionary
280
     1
281
     1
  3
ACAD_XREC_ROUNDTRIP
360
817A
  0
DICTIONARY
  5
817B
330
19C9
100
AcDbDictionary
280
     1
281
     1
  3
ACAD_XREC_ROUNDTRIP
360
817C
  0
DICTIONARY
  5
817D
330
19CA
100
AcDbDictionary
280
     1
281
     1
  3
ACAD_XREC_ROUNDTRIP
360
817E
  0
DICTIONARY
  5
8199
330
2149
100
AcDbDictionary
280
     1
281
     1
  3
ACAD_XREC_ROUNDTRIP
360
819A
  0
DICTIONARY
  5
81A5
330
214F
100
AcDbDictionary
280
     1
281
     1
  3
ACAD_XREC_ROUNDTRIP
360
81A6
  0
DICTIONARY
  5
8191
330
19D4
100
AcDbDictionary
280
     1
281
     1
  3
ACAD_XREC_ROUNDTRIP
360
8192
  0
DICTIONARY
  5
81A7
330
2150
100
AcDbDictionary
280
     1
281
     1
  3
ACAD_XREC_ROUNDTRIP
360
81A8
  0
DICTIONARY
  5
8189
330
19D0
100
AcDbDictionary
280
     1
281
     1
  3
ACAD_XREC_ROUNDTRIP
360
818A
  0
DICTIONARY
  5
81A3
330
214E
100
AcDbDictionary
280
     1
281
     1
  3
ACAD_XREC_ROUNDTRIP
360
81A4
  0
DICTIONARY
  5
81A1
330
214D
100
AcDbDictionary
280
     1
281
     1
  3
ACAD_XREC_ROUNDTRIP
360
81A2
  0
DICTIONARY
  5
819B
330
214A
100
AcDbDictionary
280
     1
281
     1
  3
ACAD_XREC_ROUNDTRIP
360
819C
  0
DICTIONARY
  5
819D
330
214B
100
AcDbDictionary
280
     1
281
     1
  3
ACAD_XREC_ROUNDTRIP
360
819E
  0
DICTIONARY
  5
818F
330
19D3
100
AcDbDictionary
280
     1
281
     1
  3
ACAD_XREC_ROUNDTRIP
360
8190
  0
DICTIONARY
  5
8197
330
2148
100
AcDbDictionary
280
     1
281
     1
  3
ACAD_XREC_ROUNDTRIP
360
8198
  0
DICTIONARY
  5
819F
330
214C
100
AcDbDictionary
280
     1
281
     1
  3
ACAD_XREC_ROUNDTRIP
360
81A0
  0
XRECORD
  5
816F
102
{ACAD_REACTORS
330
8175
102
}
330
8175
100
AcDbXrecord
280
     1
  1
AcDb_Thumbnail_Schema
102
{ATTRRECORD
341
8170
  2
AcDbDs::TreatedAsObjectData
280
     1
291
     1
102
ATTRRECORD}
102
{ATTRRECORD
341
8171
  2
AcDbDs::Legacy
280
     1
291
     1
102
ATTRRECORD}
  2
AcDbDs::ID
280
    10
 91
        8
102
{ATTRRECORD
341
8172
  2
AcDs:Indexable
280
     1
291
     1
102
ATTRRECORD}
102
{ATTRRECORD
341
8173
  2
AcDbDs::HandleAttribute
280
     7
282
     1
102
ATTRRECORD}
  2
Thumbnail_Data
280
    15
 91
        0
  0
XRECORD
  5
8170
102
{ACAD_REACTORS
330
8175
102
}
330
8175
100
AcDbXrecord
280
     1
  1
AcDbDs::TreatedAsObjectDataSchema
  2
AcDbDs::TreatedAsObjectData
280
     1
 91
        0
  0
XRECORD
  5
8171
102
{ACAD_REACTORS
330
8175
102
}
330
8175
100
AcDbXrecord
280
     1
  1
AcDbDs::LegacySchema
  2
AcDbDs::Legacy
280
     1
 91
        0
  0
XRECORD
  5
8172
102
{ACAD_REACTORS
330
8175
102
}
330
8175
100
AcDbXrecord
280
     1
  1
AcDbDs::IndexedPropertySchema
  2
AcDs:Indexable
280
     1
 91
        0
  0
XRECORD
  5
8173
102
{ACAD_REACTORS
330
8175
102
}
330
8175
100
AcDbXrecord
280
     1
  1
AcDbDs::HandleAttributeSchema
  2
AcDbDs::HandleAttribute
280
     7
 91
        1
284
     1
  0
XRECORD
  5
81AC
102
{ACAD_REACTORS
330
7783
102
}
330
7783
100
AcDbXrecord
280
     1
102
DISPLAYNAME
  1
Metric50
102
FLAGS
 90
        0
  0
XRECORD
  5
7748
102
{ACAD_REACTORS
330
7747
102
}
330
7747
100
AcDbXrecord
280
     1
102
MATERIAL
148
0.0
149
0.0
149
0.0
 93
        0
 94
       63
282
     0
 72
     1
 77
     1
171
     1
175
     1
179
     1
273
     0
  0
XRECORD
  5
7746
102
{ACAD_REACTORS
330
7745
102
}
330
7745
100
AcDbXrecord
280
     1
102
MATERIAL
148
0.0
149
0.0
149
0.0
 93
        0
 94
       63
282
     0
 72
     1
 77
     1
171
     1
175
     1
179
     1
273
     0
  0
XRECORD
  5
774A
102
{ACAD_REACTORS
330
7749
102
}
330
7749
100
AcDbXrecord
280
     1
102
MATERIAL
148
0.0
149
0.0
149
0.0
 93
        0
 94
       63
282
     0
 72
     1
 77
     1
171
     1
175
     1
179
     1
273
     0
  0
XRECORD
  5
81AB
102
{ACAD_REACTORS
330
7781
102
}
330
7781
100
AcDbXrecord
280
     1
102
DISPLAYNAME
  1
Metric50
102
FLAGS
 90
        0
  0
CELLSTYLEMAP
  5
816A
102
{ACAD_REACTORS
330
1F87
102
}
330
1F87
100
AcDbCellStyleMap
 90
        3
300
CELLSTYLE
  1
TABLEFORMAT_BEGIN
 90
        5
170
     1
 91
        0
 92
    32768
 62
   257
 93
        1
300
CONTENTFORMAT
  1
CONTENTFORMAT_BEGIN
 90
        0
 91
        0
 92
        4
 93
        0
300

 40
0.0
140
1.0
 94
        5
 62
     0
340
10
144
6.0
309
CONTENTFORMAT_END
171
     1
301
MARGIN
  1
CELLMARGIN_BEGIN
 40
1.5
 40
1.5
 40
1.5
 40
1.5
 40
0.18
 40
0.18
309
CELLMARGIN_END
 94
        6
 95
        1
302
GRIDFORMAT
  1
GRIDFORMAT_BEGIN
 90
        0
 91
        1
 62
     0
 92
       -2
340
0
 93
        0
 40
0.045
309
GRIDFORMAT_END
 95
        2
302
GRIDFORMAT
  1
GRIDFORMAT_BEGIN
 90
        0
 91
        1
 62
     0
 92
       -2
340
0
 93
        0
 40
0.045
309
GRIDFORMAT_END
 95
        4
302
GRIDFORMAT
  1
GRIDFORMAT_BEGIN
 90
        0
 91
        1
 62
     0
 92
       -2
340
0
 93
        0
 40
0.045
309
GRIDFORMAT_END
 95
        8
302
GRIDFORMAT
  1
GRIDFORMAT_BEGIN
 90
        0
 91
        1
 62
     0
 92
       -2
340
0
 93
        0
 40
0.045
309
GRIDFORMAT_END
 95
       16
302
GRIDFORMAT
  1
GRIDFORMAT_BEGIN
 90
        0
 91
        1
 62
     0
 92
       -2
340
0
 93
        0
 40
0.045
309
GRIDFORMAT_END
 95
       32
302
GRIDFORMAT
  1
GRIDFORMAT_BEGIN
 90
        0
 91
        1
 62
     0
 92
       -2
340
0
 93
        0
 40
0.045
309
GRIDFORMAT_END
309
TABLEFORMAT_END
  1
CELLSTYLE_BEGIN
 90
        1
 91
        1
300
_TITLE
309
CELLSTYLE_END
300
CELLSTYLE
  1
TABLEFORMAT_BEGIN
 90
        5
170
     1
 91
        0
 92
        0
 62
   257
 93
        1
300
CONTENTFORMAT
  1
CONTENTFORMAT_BEGIN
 90
        0
 91
        0
 92
        4
 93
        0
300

 40
0.0
140
1.0
 94
        5
 62
     0
340
10
144
4.5
309
CONTENTFORMAT_END
171
     1
301
MARGIN
  1
CELLMARGIN_BEGIN
 40
1.5
 40
1.5
 40
1.5
 40
1.5
 40
0.18
 40
0.18
309
CELLMARGIN_END
 94
        6
 95
        1
302
GRIDFORMAT
  1
GRIDFORMAT_BEGIN
 90
        0
 91
        1
 62
     0
 92
       -2
340
0
 93
        0
 40
0.045
309
GRIDFORMAT_END
 95
        2
302
GRIDFORMAT
  1
GRIDFORMAT_BEGIN
 90
        0
 91
        1
 62
     0
 92
       -2
340
0
 93
        0
 40
0.045
309
GRIDFORMAT_END
 95
        4
302
GRIDFORMAT
  1
GRIDFORMAT_BEGIN
 90
        0
 91
        1
 62
     0
 92
       -2
340
0
 93
        0
 40
0.045
309
GRIDFORMAT_END
 95
        8
302
GRIDFORMAT
  1
GRIDFORMAT_BEGIN
 90
        0
 91
        1
 62
     0
 92
       -2
340
0
 93
        0
 40
0.045
309
GRIDFORMAT_END
 95
       16
302
GRIDFORMAT
  1
GRIDFORMAT_BEGIN
 90
        0
 91
        1
 62
     0
 92
       -2
340
0
 93
        0
 40
0.045
309
GRIDFORMAT_END
 95
       32
302
GRIDFORMAT
  1
GRIDFORMAT_BEGIN
 90
        0
 91
        1
 62
     0
 92
       -2
340
0
 93
        0
 40
0.045
309
GRIDFORMAT_END
309
TABLEFORMAT_END
  1
CELLSTYLE_BEGIN
 90
        2
 91
        1
300
_HEADER
309
CELLSTYLE_END
300
CELLSTYLE
  1
TABLEFORMAT_BEGIN
 90
        5
170
     1
 91
        0
 92
        0
 62
   257
 93
        1
300
CONTENTFORMAT
  1
CONTENTFORMAT_BEGIN
 90
        0
 91
        0
 92
        4
 93
        0
300

 40
0.0
140
1.0
 94
        2
 62
     0
340
10
144
4.5
309
CONTENTFORMAT_END
171
     1
301
MARGIN
  1
CELLMARGIN_BEGIN
 40
1.5
 40
1.5
 40
1.5
 40
1.5
 40
0.18
 40
0.18
309
CELLMARGIN_END
 94
        6
 95
        1
302
GRIDFORMAT
  1
GRIDFORMAT_BEGIN
 90
        0
 91
        1
 62
     0
 92
       -2
340
0
 93
        0
 40
0.045
309
GRIDFORMAT_END
 95
        2
302
GRIDFORMAT
  1
GRIDFORMAT_BEGIN
 90
        0
 91
        1
 62
     0
 92
       -2
340
0
 93
        0
 40
0.045
309
GRIDFORMAT_END
 95
        4
302
GRIDFORMAT
  1
GRIDFORMAT_BEGIN
 90
        0
 91
        1
 62
     0
 92
       -2
340
0
 93
        0
 40
0.045
309
GRIDFORMAT_END
 95
        8
302
GRIDFORMAT
  1
GRIDFORMAT_BEGIN
 90
        0
 91
        1
 62
     0
 92
       -2
340
0
 93
        0
 40
0.045
309
GRIDFORMAT_END
 95
       16
302
GRIDFORMAT
  1
GRIDFORMAT_BEGIN
 90
        0
 91
        1
 62
     0
 92
       -2
340
0
 93
        0
 40
0.045
309
GRIDFORMAT_END
 95
       32
302
GRIDFORMAT
  1
GRIDFORMAT_BEGIN
 90
        0
 91
        1
 62
     0
 92
       -2
340
0
 93
        0
 40
0.045
309
GRIDFORMAT_END
309
TABLEFORMAT_END
  1
CELLSTYLE_BEGIN
 90
        3
 91
        2
300
_DATA
309
CELLSTYLE_END
  0
XRECORD
  5
8182
102
{ACAD_REACTORS
330
8181
102
}
330
8181
100
AcDbXrecord
280
     1
102
RTVSPost2010Prop28
280
     1
102
RTVSPost2010PropOp28
 70
     1
102
RTVSPost2010Prop29
280
     1
102
RTVSPost2010PropOp29
 70
     1
102
RTVSPost2010Prop30
280
     0
102
RTVSPost2010PropOp30
 70
     1
102
RTVSPost2010Prop31
280
     0
102
RTVSPost2010PropOp31
 70
     1
102
RTVSPost2010Prop32
280
     0
102
RTVSPost2010PropOp32
 70
     1
102
RTVSPost2010Prop33
280
     0
102
RTVSPost2010PropOp33
 70
     1
102
RTVSPost2010Prop34
280
     0
102
RTVSPost2010PropOp34
 70
     1
102
RTVSPost2010Prop35
280
     0
102
RTVSPost2010PropOp35
 70
     1
102
RTVSPost2010Prop36
280
     0
102
RTVSPost2010PropOp36
 70
     1
102
RTVSPost2010Prop37
 90
       50
102
RTVSPost2010PropOp37
 70
     1
102
RTVSPost2010Prop38
140
0.0
102
RTVSPost2010PropOp38
 70
     1
102
RTVSPost2010Prop39
140
1.0
102
RTVSPost2010PropOp39
 70
     1
102
RTVSPost2010Prop40
 90
        0
102
RTVSPost2010PropOp40
 70
     1
102
RTVSPost2010Prop41ColorIndex
 90
       18
102
RTVSPost2010Prop41ColorRGB
 90
        0
102
RTVSPost2010PropOp41
 70
     1
102
RTVSPost2010Prop42
 90
       50
102
RTVSPost2010PropOp42
 70
     1
102
RTVSPost2010Prop43
 90
        3
102
RTVSPost2010PropOp43
 70
     1
102
RTVSPost2010Prop44ColorIndex
 90
        5
102
RTVSPost2010Prop44ColorRGB
 90
      255
102
RTVSPost2010PropOp44
 70
     1
102
RTVSPost2010Prop45
280
     0
102
RTVSPost2010PropOp45
 70
     1
102
RTVSPost2010Prop46
 90
       50
102
RTVSPost2010PropOp46
 70
     1
102
RTVSPost2010Prop47
 90
       50
102
RTVSPost2010PropOp47
 70
     1
102
RTVSPost2010Prop48
 90
       50
102
RTVSPost2010PropOp48
 70
     1
102
RTVSPost2010Prop49
280
     0
102
RTVSPost2010PropOp49
 70
     1
102
RTVSPost2010Prop50
 90
       50
102
RTVSPost2010PropOp50
 70
     1
102
RTVSPost2010Prop51ColorIndex
 90
      256
102
RTVSPost2010Prop51ColorRGB
 90
-16777216
102
RTVSPost2010PropOp51
 70
     0
102
RTVSPost2010Prop52
140
1.0
102
RTVSPost2010PropOp52
 70
     0
102
RTVSPost2010Prop53
 90
        2
102
RTVSPost2010PropOp53
 70
     1
102
RTVSPost2010Prop54
  1
strokes_ogs.tif
102
RTVSPost2010PropOp54
 70
     1
102
RTVSPost2010Prop55
280
     0
102
RTVSPost2010PropOp55
 70
     1
102
RTVSPost2010Prop56
140
1.0
102
RTVSPost2010PropOp56
 70
     1
102
RTVSPost2010Prop57
140
1.0
102
RTVSPost2010PropOp57
 70
     1
  0
XRECORD
  5
8186
102
{ACAD_REACTORS
330
8185
102
}
330
8185
100
AcDbXrecord
280
     1
102
RTVSPost2010Prop28
280
     0
102
RTVSPost2010PropOp28
 70
     1
102
RTVSPost2010Prop29
280
     1
102
RTVSPost2010PropOp29
 70
     1
102
RTVSPost2010Prop30
280
     1
102
RTVSPost2010PropOp30
 70
     1
102
RTVSPost2010Prop31
280
     0
102
RTVSPost2010PropOp31
 70
     1
102
RTVSPost2010Prop32
280
     0
102
RTVSPost2010PropOp32
 70
     1
102
RTVSPost2010Prop33
280
     0
102
RTVSPost2010PropOp33
 70
     1
102
RTVSPost2010Prop34
280
     0
102
RTVSPost2010PropOp34
 70
     1
102
RTVSPost2010Prop35
280
     0
102
RTVSPost2010PropOp35
 70
     1
102
RTVSPost2010Prop36
280
     0
102
RTVSPost2010PropOp36
 70
     1
102
RTVSPost2010Prop37
 90
       50
102
RTVSPost2010PropOp37
 70
     1
102
RTVSPost2010Prop38
140
0.0
102
RTVSPost2010PropOp38
 70
     1
102
RTVSPost2010Prop39
140
1.0
102
RTVSPost2010PropOp39
 70
     1
102
RTVSPost2010Prop40
 90
        0
102
RTVSPost2010PropOp40
 70
     1
102
RTVSPost2010Prop41ColorIndex
 90
       18
102
RTVSPost2010Prop41ColorRGB
 90
        0
102
RTVSPost2010PropOp41
 70
     1
102
RTVSPost2010Prop42
 90
       50
102
RTVSPost2010PropOp42
 70
     1
102
RTVSPost2010Prop43
 90
        3
102
RTVSPost2010PropOp43
 70
     1
102
RTVSPost2010Prop44ColorIndex
 90
        5
102
RTVSPost2010Prop44ColorRGB
 90
      255
102
RTVSPost2010PropOp44
 70
     1
102
RTVSPost2010Prop45
280
     0
102
RTVSPost2010PropOp45
 70
     1
102
RTVSPost2010Prop46
 90
       50
102
RTVSPost2010PropOp46
 70
     1
102
RTVSPost2010Prop47
 90
       50
102
RTVSPost2010PropOp47
 70
     1
102
RTVSPost2010Prop48
 90
       50
102
RTVSPost2010PropOp48
 70
     1
102
RTVSPost2010Prop49
280
     0
102
RTVSPost2010PropOp49
 70
     1
102
RTVSPost2010Prop50
 90
       50
102
RTVSPost2010PropOp50
 70
     1
102
RTVSPost2010Prop51ColorIndex
 90
      256
102
RTVSPost2010Prop51ColorRGB
 90
-16777216
102
RTVSPost2010PropOp51
 70
     0
102
RTVSPost2010Prop52
140
1.0
102
RTVSPost2010PropOp52
 70
     0
102
RTVSPost2010Prop53
 90
        2
102
RTVSPost2010PropOp53
 70
     1
102
RTVSPost2010Prop54
  1
strokes_ogs.tif
102
RTVSPost2010PropOp54
 70
     1
102
RTVSPost2010Prop55
280
     0
102
RTVSPost2010PropOp55
 70
     1
102
RTVSPost2010Prop56
140
1.0
102
RTVSPost2010PropOp56
 70
     1
102
RTVSPost2010Prop57
140
1.0
102
RTVSPost2010PropOp57
 70
     1
  0
XRECORD
  5
8184
102
{ACAD_REACTORS
330
8183
102
}
330
8183
100
AcDbXrecord
280
     1
102
RTVSPost2010Prop28
280
     0
102
RTVSPost2010PropOp28
 70
     1
102
RTVSPost2010Prop29
280
     1
102
RTVSPost2010PropOp29
 70
     1
102
RTVSPost2010Prop30
280
     1
102
RTVSPost2010PropOp30
 70
     1
102
RTVSPost2010Prop31
280
     0
102
RTVSPost2010PropOp31
 70
     1
102
RTVSPost2010Prop32
280
     0
102
RTVSPost2010PropOp32
 70
     1
102
RTVSPost2010Prop33
280
     0
102
RTVSPost2010PropOp33
 70
     1
102
RTVSPost2010Prop34
280
     0
102
RTVSPost2010PropOp34
 70
     1
102
RTVSPost2010Prop35
280
     0
102
RTVSPost2010PropOp35
 70
     1
102
RTVSPost2010Prop36
280
     0
102
RTVSPost2010PropOp36
 70
     1
102
RTVSPost2010Prop37
 90
       50
102
RTVSPost2010PropOp37
 70
     1
102
RTVSPost2010Prop38
140
0.0
102
RTVSPost2010PropOp38
 70
     1
102
RTVSPost2010Prop39
140
1.0
102
RTVSPost2010PropOp39
 70
     1
102
RTVSPost2010Prop40
 90
        0
102
RTVSPost2010PropOp40
 70
     1
102
RTVSPost2010Prop41ColorIndex
 90
       18
102
RTVSPost2010Prop41ColorRGB
 90
        0
102
RTVSPost2010PropOp41
 70
     1
102
RTVSPost2010Prop42
 90
       50
102
RTVSPost2010PropOp42
 70
     1
102
RTVSPost2010Prop43
 90
        3
102
RTVSPost2010PropOp43
 70
     1
102
RTVSPost2010Prop44ColorIndex
 90
        5
102
RTVSPost2010Prop44ColorRGB
 90
      255
102
RTVSPost2010PropOp44
 70
     1
102
RTVSPost2010Prop45
280
     0
102
RTVSPost2010PropOp45
 70
     1
102
RTVSPost2010Prop46
 90
       50
102
RTVSPost2010PropOp46
 70
     1
102
RTVSPost2010Prop47
 90
       50
102
RTVSPost2010PropOp47
 70
     1
102
RTVSPost2010Prop48
 90
       50
102
RTVSPost2010PropOp48
 70
     1
102
RTVSPost2010Prop49
280
     0
102
RTVSPost2010PropOp49
 70
     1
102
RTVSPost2010Prop50
 90
       50
102
RTVSPost2010PropOp50
 70
     1
102
RTVSPost2010Prop51ColorIndex
 90
      256
102
RTVSPost2010Prop51ColorRGB
 90
-16777216
102
RTVSPost2010PropOp51
 70
     0
102
RTVSPost2010Prop52
140
1.0
102
RTVSPost2010PropOp52
 70
     0
102
RTVSPost2010Prop53
 90
        2
102
RTVSPost2010PropOp53
 70
     1
102
RTVSPost2010Prop54
  1
strokes_ogs.tif
102
RTVSPost2010PropOp54
 70
     1
102
RTVSPost2010Prop55
280
     0
102
RTVSPost2010PropOp55
 70
     1
102
RTVSPost2010Prop56
140
1.0
102
RTVSPost2010PropOp56
 70
     1
102
RTVSPost2010Prop57
140
1.0
102
RTVSPost2010PropOp57
 70
     1
  0
XRECORD
  5
8180
102
{ACAD_REACTORS
330
817F
102
}
330
817F
100
AcDbXrecord
280
     1
102
RTVSPost2010Prop28
280
     0
102
RTVSPost2010PropOp28
 70
     1
102
RTVSPost2010Prop29
280
     1
102
RTVSPost2010PropOp29
 70
     1
102
RTVSPost2010Prop30
280
     1
102
RTVSPost2010PropOp30
 70
     1
102
RTVSPost2010Prop31
280
     0
102
RTVSPost2010PropOp31
 70
     1
102
RTVSPost2010Prop32
280
     0
102
RTVSPost2010PropOp32
 70
     1
102
RTVSPost2010Prop33
280
     0
102
RTVSPost2010PropOp33
 70
     1
102
RTVSPost2010Prop34
280
     0
102
RTVSPost2010PropOp34
 70
     1
102
RTVSPost2010Prop35
280
     0
102
RTVSPost2010PropOp35
 70
     1
102
RTVSPost2010Prop36
280
     0
102
RTVSPost2010PropOp36
 70
     1
102
RTVSPost2010Prop37
 90
       50
102
RTVSPost2010PropOp37
 70
     1
102
RTVSPost2010Prop38
140
0.0
102
RTVSPost2010PropOp38
 70
     1
102
RTVSPost2010Prop39
140
1.0
102
RTVSPost2010PropOp39
 70
     1
102
RTVSPost2010Prop40
 90
        0
102
RTVSPost2010PropOp40
 70
     1
102
RTVSPost2010Prop41ColorIndex
 90
       18
102
RTVSPost2010Prop41ColorRGB
 90
        0
102
RTVSPost2010PropOp41
 70
     1
102
RTVSPost2010Prop42
 90
       50
102
RTVSPost2010PropOp42
 70
     1
102
RTVSPost2010Prop43
 90
        3
102
RTVSPost2010PropOp43
 70
     1
102
RTVSPost2010Prop44ColorIndex
 90
        5
102
RTVSPost2010Prop44ColorRGB
 90
      255
102
RTVSPost2010PropOp44
 70
     1
102
RTVSPost2010Prop45
280
     0
102
RTVSPost2010PropOp45
 70
     1
102
RTVSPost2010Prop46
 90
       50
102
RTVSPost2010PropOp46
 70
     1
102
RTVSPost2010Prop47
 90
       50
102
RTVSPost2010PropOp47
 70
     1
102
RTVSPost2010Prop48
 90
       50
102
RTVSPost2010PropOp48
 70
     1
102
RTVSPost2010Prop49
280
     0
102
RTVSPost2010PropOp49
 70
     1
102
RTVSPost2010Prop50
 90
       50
102
RTVSPost2010PropOp50
 70
     1
102
RTVSPost2010Prop51ColorIndex
 90
      256
102
RTVSPost2010Prop51ColorRGB
 90
-16777216
102
RTVSPost2010PropOp51
 70
     0
102
RTVSPost2010Prop52
140
1.0
102
RTVSPost2010PropOp52
 70
     0
102
RTVSPost2010Prop53
 90
        2
102
RTVSPost2010PropOp53
 70
     1
102
RTVSPost2010Prop54
  1
strokes_ogs.tif
102
RTVSPost2010PropOp54
 70
     1
102
RTVSPost2010Prop55
280
     0
102
RTVSPost2010PropOp55
 70
     1
102
RTVSPost2010Prop56
140
1.0
102
RTVSPost2010PropOp56
 70
     1
102
RTVSPost2010Prop57
140
1.0
102
RTVSPost2010PropOp57
 70
     1
  0
XRECORD
  5
818E
102
{ACAD_REACTORS
330
818D
102
}
330
818D
100
AcDbXrecord
280
     1
102
RTVSPost2010Prop28
280
     0
102
RTVSPost2010PropOp28
 70
     1
102
RTVSPost2010Prop29
280
     1
102
RTVSPost2010PropOp29
 70
     1
102
RTVSPost2010Prop30
280
     1
102
RTVSPost2010PropOp30
 70
     1
102
RTVSPost2010Prop31
280
     0
102
RTVSPost2010PropOp31
 70
     1
102
RTVSPost2010Prop32
280
     0
102
RTVSPost2010PropOp32
 70
     1
102
RTVSPost2010Prop33
280
     0
102
RTVSPost2010PropOp33
 70
     1
102
RTVSPost2010Prop34
280
     0
102
RTVSPost2010PropOp34
 70
     1
102
RTVSPost2010Prop35
280
     0
102
RTVSPost2010PropOp35
 70
     1
102
RTVSPost2010Prop36
280
     0
102
RTVSPost2010PropOp36
 70
     1
102
RTVSPost2010Prop37
 90
       50
102
RTVSPost2010PropOp37
 70
     1
102
RTVSPost2010Prop38
140
0.0
102
RTVSPost2010PropOp38
 70
     1
102
RTVSPost2010Prop39
140
1.0
102
RTVSPost2010PropOp39
 70
     1
102
RTVSPost2010Prop40
 90
        0
102
RTVSPost2010PropOp40
 70
     1
102
RTVSPost2010Prop41ColorIndex
 90
       18
102
RTVSPost2010Prop41ColorRGB
 90
        0
102
RTVSPost2010PropOp41
 70
     1
102
RTVSPost2010Prop42
 90
       50
102
RTVSPost2010PropOp42
 70
     1
102
RTVSPost2010Prop43
 90
        3
102
RTVSPost2010PropOp43
 70
     1
102
RTVSPost2010Prop44ColorIndex
 90
        5
102
RTVSPost2010Prop44ColorRGB
 90
      255
102
RTVSPost2010PropOp44
 70
     1
102
RTVSPost2010Prop45
280
     0
102
RTVSPost2010PropOp45
 70
     1
102
RTVSPost2010Prop46
 90
       50
102
RTVSPost2010PropOp46
 70
     1
102
RTVSPost2010Prop47
 90
       50
102
RTVSPost2010PropOp47
 70
     1
102
RTVSPost2010Prop48
 90
       50
102
RTVSPost2010PropOp48
 70
     1
102
RTVSPost2010Prop49
280
     0
102
RTVSPost2010PropOp49
 70
     1
102
RTVSPost2010Prop50
 90
       50
102
RTVSPost2010PropOp50
 70
     1
102
RTVSPost2010Prop51ColorIndex
 90
      256
102
RTVSPost2010Prop51ColorRGB
 90
-16777216
102
RTVSPost2010PropOp51
 70
     0
102
RTVSPost2010Prop52
140
1.0
102
RTVSPost2010PropOp52
 70
     0
102
RTVSPost2010Prop53
 90
        2
102
RTVSPost2010PropOp53
 70
     1
102
RTVSPost2010Prop54
  1
strokes_ogs.tif
102
RTVSPost2010PropOp54
 70
     1
102
RTVSPost2010Prop55
280
     0
102
RTVSPost2010PropOp55
 70
     1
102
RTVSPost2010Prop56
140
1.0
102
RTVSPost2010PropOp56
 70
     1
102
RTVSPost2010Prop57
140
1.0
102
RTVSPost2010PropOp57
 70
     1
  0
XRECORD
  5
8196
102
{ACAD_REACTORS
330
8195
102
}
330
8195
100
AcDbXrecord
280
     1
102
RTVSPost2010Prop28
280
     0
102
RTVSPost2010PropOp28
 70
     1
102
RTVSPost2010Prop29
280
     1
102
RTVSPost2010PropOp29
 70
     1
102
RTVSPost2010Prop30
280
     1
102
RTVSPost2010PropOp30
 70
     1
102
RTVSPost2010Prop31
280
     0
102
RTVSPost2010PropOp31
 70
     1
102
RTVSPost2010Prop32
280
     0
102
RTVSPost2010PropOp32
 70
     1
102
RTVSPost2010Prop33
280
     0
102
RTVSPost2010PropOp33
 70
     1
102
RTVSPost2010Prop34
280
     0
102
RTVSPost2010PropOp34
 70
     1
102
RTVSPost2010Prop35
280
     0
102
RTVSPost2010PropOp35
 70
     1
102
RTVSPost2010Prop36
280
     0
102
RTVSPost2010PropOp36
 70
     1
102
RTVSPost2010Prop37
 90
       50
102
RTVSPost2010PropOp37
 70
     1
102
RTVSPost2010Prop38
140
0.0
102
RTVSPost2010PropOp38
 70
     1
102
RTVSPost2010Prop39
140
1.0
102
RTVSPost2010PropOp39
 70
     1
102
RTVSPost2010Prop40
 90
        0
102
RTVSPost2010PropOp40
 70
     1
102
RTVSPost2010Prop41ColorIndex
 90
       18
102
RTVSPost2010Prop41ColorRGB
 90
        0
102
RTVSPost2010PropOp41
 70
     1
102
RTVSPost2010Prop42
 90
       50
102
RTVSPost2010PropOp42
 70
     1
102
RTVSPost2010Prop43
 90
        3
102
RTVSPost2010PropOp43
 70
     1
102
RTVSPost2010Prop44ColorIndex
 90
        5
102
RTVSPost2010Prop44ColorRGB
 90
      255
102
RTVSPost2010PropOp44
 70
     1
102
RTVSPost2010Prop45
280
     0
102
RTVSPost2010PropOp45
 70
     1
102
RTVSPost2010Prop46
 90
       50
102
RTVSPost2010PropOp46
 70
     1
102
RTVSPost2010Prop47
 90
       50
102
RTVSPost2010PropOp47
 70
     1
102
RTVSPost2010Prop48
 90
       50
102
RTVSPost2010PropOp48
 70
     1
102
RTVSPost2010Prop49
280
     0
102
RTVSPost2010PropOp49
 70
     1
102
RTVSPost2010Prop50
 90
       50
102
RTVSPost2010PropOp50
 70
     1
102
RTVSPost2010Prop51ColorIndex
 90
      256
102
RTVSPost2010Prop51ColorRGB
 90
-16777216
102
RTVSPost2010PropOp51
 70
     0
102
RTVSPost2010Prop52
140
1.0
102
RTVSPost2010PropOp52
 70
     0
102
RTVSPost2010Prop53
 90
        2
102
RTVSPost2010PropOp53
 70
     1
102
RTVSPost2010Prop54
  1
strokes_ogs.tif
102
RTVSPost2010PropOp54
 70
     1
102
RTVSPost2010Prop55
280
     0
102
RTVSPost2010PropOp55
 70
     1
102
RTVSPost2010Prop56
140
1.0
102
RTVSPost2010PropOp56
 70
     1
102
RTVSPost2010Prop57
140
1.0
102
RTVSPost2010PropOp57
 70
     1
  0
XRECORD
  5
8188
102
{ACAD_REACTORS
330
8187
102
}
330
8187
100
AcDbXrecord
280
     1
102
RTVSPost2010Prop28
280
     0
102
RTVSPost2010PropOp28
 70
     1
102
RTVSPost2010Prop29
280
     1
102
RTVSPost2010PropOp29
 70
     1
102
RTVSPost2010Prop30
280
     1
102
RTVSPost2010PropOp30
 70
     1
102
RTVSPost2010Prop31
280
     0
102
RTVSPost2010PropOp31
 70
     1
102
RTVSPost2010Prop32
280
     0
102
RTVSPost2010PropOp32
 70
     1
102
RTVSPost2010Prop33
280
     0
102
RTVSPost2010PropOp33
 70
     1
102
RTVSPost2010Prop34
280
     0
102
RTVSPost2010PropOp34
 70
     1
102
RTVSPost2010Prop35
280
     0
102
RTVSPost2010PropOp35
 70
     1
102
RTVSPost2010Prop36
280
     0
102
RTVSPost2010PropOp36
 70
     1
102
RTVSPost2010Prop37
 90
       50
102
RTVSPost2010PropOp37
 70
     1
102
RTVSPost2010Prop38
140
0.0
102
RTVSPost2010PropOp38
 70
     1
102
RTVSPost2010Prop39
140
1.0
102
RTVSPost2010PropOp39
 70
     1
102
RTVSPost2010Prop40
 90
        0
102
RTVSPost2010PropOp40
 70
     1
102
RTVSPost2010Prop41ColorIndex
 90
       18
102
RTVSPost2010Prop41ColorRGB
 90
        0
102
RTVSPost2010PropOp41
 70
     1
102
RTVSPost2010Prop42
 90
       50
102
RTVSPost2010PropOp42
 70
     1
102
RTVSPost2010Prop43
 90
        3
102
RTVSPost2010PropOp43
 70
     1
102
RTVSPost2010Prop44ColorIndex
 90
        5
102
RTVSPost2010Prop44ColorRGB
 90
      255
102
RTVSPost2010PropOp44
 70
     1
102
RTVSPost2010Prop45
280
     0
102
RTVSPost2010PropOp45
 70
     1
102
RTVSPost2010Prop46
 90
       50
102
RTVSPost2010PropOp46
 70
     1
102
RTVSPost2010Prop47
 90
       50
102
RTVSPost2010PropOp47
 70
     1
102
RTVSPost2010Prop48
 90
       50
102
RTVSPost2010PropOp48
 70
     1
102
RTVSPost2010Prop49
280
     0
102
RTVSPost2010PropOp49
 70
     1
102
RTVSPost2010Prop50
 90
       50
102
RTVSPost2010PropOp50
 70
     1
102
RTVSPost2010Prop51ColorIndex
 90
      256
102
RTVSPost2010Prop51ColorRGB
 90
-16777216
102
RTVSPost2010PropOp51
 70
     0
102
RTVSPost2010Prop52
140
1.0
102
RTVSPost2010PropOp52
 70
     0
102
RTVSPost2010Prop53
 90
        2
102
RTVSPost2010PropOp53
 70
     1
102
RTVSPost2010Prop54
  1
strokes_ogs.tif
102
RTVSPost2010PropOp54
 70
     1
102
RTVSPost2010Prop55
280
     0
102
RTVSPost2010PropOp55
 70
     1
102
RTVSPost2010Prop56
140
1.0
102
RTVSPost2010PropOp56
 70
     1
102
RTVSPost2010Prop57
140
1.0
102
RTVSPost2010PropOp57
 70
     1
  0
XRECORD
  5
818C
102
{ACAD_REACTORS
330
818B
102
}
330
818B
100
AcDbXrecord
280
     1
102
RTVSPost2010Prop28
280
     0
102
RTVSPost2010PropOp28
 70
     1
102
RTVSPost2010Prop29
280
     1
102
RTVSPost2010PropOp29
 70
     1
102
RTVSPost2010Prop30
280
     1
102
RTVSPost2010PropOp30
 70
     1
102
RTVSPost2010Prop31
280
     0
102
RTVSPost2010PropOp31
 70
     1
102
RTVSPost2010Prop32
280
     0
102
RTVSPost2010PropOp32
 70
     1
102
RTVSPost2010Prop33
280
     0
102
RTVSPost2010PropOp33
 70
     1
102
RTVSPost2010Prop34
280
     0
102
RTVSPost2010PropOp34
 70
     1
102
RTVSPost2010Prop35
280
     0
102
RTVSPost2010PropOp35
 70
     1
102
RTVSPost2010Prop36
280
     0
102
RTVSPost2010PropOp36
 70
     1
102
RTVSPost2010Prop37
 90
       50
102
RTVSPost2010PropOp37
 70
     1
102
RTVSPost2010Prop38
140
0.0
102
RTVSPost2010PropOp38
 70
     1
102
RTVSPost2010Prop39
140
1.0
102
RTVSPost2010PropOp39
 70
     1
102
RTVSPost2010Prop40
 90
        0
102
RTVSPost2010PropOp40
 70
     1
102
RTVSPost2010Prop41ColorIndex
 90
       18
102
RTVSPost2010Prop41ColorRGB
 90
        0
102
RTVSPost2010PropOp41
 70
     1
102
RTVSPost2010Prop42
 90
       50
102
RTVSPost2010PropOp42
 70
     1
102
RTVSPost2010Prop43
 90
        3
102
RTVSPost2010PropOp43
 70
     1
102
RTVSPost2010Prop44ColorIndex
 90
        5
102
RTVSPost2010Prop44ColorRGB
 90
      255
102
RTVSPost2010PropOp44
 70
     1
102
RTVSPost2010Prop45
280
     0
102
RTVSPost2010PropOp45
 70
     1
102
RTVSPost2010Prop46
 90
       50
102
RTVSPost2010PropOp46
 70
     1
102
RTVSPost2010Prop47
 90
       50
102
RTVSPost2010PropOp47
 70
     1
102
RTVSPost2010Prop48
 90
       50
102
RTVSPost2010PropOp48
 70
     1
102
RTVSPost2010Prop49
280
     0
102
RTVSPost2010PropOp49
 70
     1
102
RTVSPost2010Prop50
 90
       50
102
RTVSPost2010PropOp50
 70
     1
102
RTVSPost2010Prop51ColorIndex
 90
      256
102
RTVSPost2010Prop51ColorRGB
 90
-16777216
102
RTVSPost2010PropOp51
 70
     0
102
RTVSPost2010Prop52
140
1.0
102
RTVSPost2010PropOp52
 70
     0
102
RTVSPost2010Prop53
 90
        2
102
RTVSPost2010PropOp53
 70
     1
102
RTVSPost2010Prop54
  1
strokes_ogs.tif
102
RTVSPost2010PropOp54
 70
     1
102
RTVSPost2010Prop55
280
     0
102
RTVSPost2010PropOp55
 70
     1
102
RTVSPost2010Prop56
140
1.0
102
RTVSPost2010PropOp56
 70
     1
102
RTVSPost2010Prop57
140
1.0
102
RTVSPost2010PropOp57
 70
     1
  0
XRECORD
  5
81AA
102
{ACAD_REACTORS
330
81A9
102
}
330
81A9
100
AcDbXrecord
280
     1
102
RTVSPost2010Prop28
280
     0
102
RTVSPost2010PropOp28
 70
     1
102
RTVSPost2010Prop29
280
     1
102
RTVSPost2010PropOp29
 70
     1
102
RTVSPost2010Prop30
280
     1
102
RTVSPost2010PropOp30
 70
     1
102
RTVSPost2010Prop31
280
     0
102
RTVSPost2010PropOp31
 70
     1
102
RTVSPost2010Prop32
280
     0
102
RTVSPost2010PropOp32
 70
     1
102
RTVSPost2010Prop33
280
     0
102
RTVSPost2010PropOp33
 70
     1
102
RTVSPost2010Prop34
280
     0
102
RTVSPost2010PropOp34
 70
     1
102
RTVSPost2010Prop35
280
     0
102
RTVSPost2010PropOp35
 70
     1
102
RTVSPost2010Prop36
280
     0
102
RTVSPost2010PropOp36
 70
     1
102
RTVSPost2010Prop37
 90
       50
102
RTVSPost2010PropOp37
 70
     1
102
RTVSPost2010Prop38
140
0.0
102
RTVSPost2010PropOp38
 70
     1
102
RTVSPost2010Prop39
140
1.0
102
RTVSPost2010PropOp39
 70
     1
102
RTVSPost2010Prop40
 90
        0
102
RTVSPost2010PropOp40
 70
     1
102
RTVSPost2010Prop41ColorIndex
 90
       18
102
RTVSPost2010Prop41ColorRGB
 90
        0
102
RTVSPost2010PropOp41
 70
     1
102
RTVSPost2010Prop42
 90
       50
102
RTVSPost2010PropOp42
 70
     1
102
RTVSPost2010Prop43
 90
        3
102
RTVSPost2010PropOp43
 70
     1
102
RTVSPost2010Prop44ColorIndex
 90
        5
102
RTVSPost2010Prop44ColorRGB
 90
      255
102
RTVSPost2010PropOp44
 70
     1
102
RTVSPost2010Prop45
280
     0
102
RTVSPost2010PropOp45
 70
     1
102
RTVSPost2010Prop46
 90
       50
102
RTVSPost2010PropOp46
 70
     1
102
RTVSPost2010Prop47
 90
       50
102
RTVSPost2010PropOp47
 70
     1
102
RTVSPost2010Prop48
 90
       50
102
RTVSPost2010PropOp48
 70
     1
102
RTVSPost2010Prop49
280
     0
102
RTVSPost2010PropOp49
 70
     1
102
RTVSPost2010Prop50
 90
       50
102
RTVSPost2010PropOp50
 70
     1
102
RTVSPost2010Prop51ColorIndex
 90
      256
102
RTVSPost2010Prop51ColorRGB
 90
-16777216
102
RTVSPost2010PropOp51
 70
     0
102
RTVSPost2010Prop52
140
1.0
102
RTVSPost2010PropOp52
 70
     0
102
RTVSPost2010Prop53
 90
        2
102
RTVSPost2010PropOp53
 70
     1
102
RTVSPost2010Prop54
  1
strokes_ogs.tif
102
RTVSPost2010PropOp54
 70
     1
102
RTVSPost2010Prop55
280
     0
102
RTVSPost2010PropOp55
 70
     1
102
RTVSPost2010Prop56
140
1.0
102
RTVSPost2010PropOp56
 70
     1
102
RTVSPost2010Prop57
140
1.0
102
RTVSPost2010PropOp57
 70
     1
  0
XRECORD
  5
8194
102
{ACAD_REACTORS
330
8193
102
}
330
8193
100
AcDbXrecord
280
     1
102
RTVSPost2010Prop28
280
     0
102
RTVSPost2010PropOp28
 70
     1
102
RTVSPost2010Prop29
280
     1
102
RTVSPost2010PropOp29
 70
     1
102
RTVSPost2010Prop30
280
     1
102
RTVSPost2010PropOp30
 70
     1
102
RTVSPost2010Prop31
280
     0
102
RTVSPost2010PropOp31
 70
     1
102
RTVSPost2010Prop32
280
     0
102
RTVSPost2010PropOp32
 70
     1
102
RTVSPost2010Prop33
280
     0
102
RTVSPost2010PropOp33
 70
     1
102
RTVSPost2010Prop34
280
     0
102
RTVSPost2010PropOp34
 70
     1
102
RTVSPost2010Prop35
280
     0
102
RTVSPost2010PropOp35
 70
     1
102
RTVSPost2010Prop36
280
     0
102
RTVSPost2010PropOp36
 70
     1
102
RTVSPost2010Prop37
 90
       50
102
RTVSPost2010PropOp37
 70
     1
102
RTVSPost2010Prop38
140
0.0
102
RTVSPost2010PropOp38
 70
     1
102
RTVSPost2010Prop39
140
1.0
102
RTVSPost2010PropOp39
 70
     1
102
RTVSPost2010Prop40
 90
        0
102
RTVSPost2010PropOp40
 70
     1
102
RTVSPost2010Prop41ColorIndex
 90
       18
102
RTVSPost2010Prop41ColorRGB
 90
        0
102
RTVSPost2010PropOp41
 70
     1
102
RTVSPost2010Prop42
 90
       50
102
RTVSPost2010PropOp42
 70
     1
102
RTVSPost2010Prop43
 90
        3
102
RTVSPost2010PropOp43
 70
     1
102
RTVSPost2010Prop44ColorIndex
 90
        5
102
RTVSPost2010Prop44ColorRGB
 90
      255
102
RTVSPost2010PropOp44
 70
     1
102
RTVSPost2010Prop45
280
     0
102
RTVSPost2010PropOp45
 70
     1
102
RTVSPost2010Prop46
 90
       50
102
RTVSPost2010PropOp46
 70
     1
102
RTVSPost2010Prop47
 90
       50
102
RTVSPost2010PropOp47
 70
     1
102
RTVSPost2010Prop48
 90
       50
102
RTVSPost2010PropOp48
 70
     1
102
RTVSPost2010Prop49
280
     0
102
RTVSPost2010PropOp49
 70
     1
102
RTVSPost2010Prop50
 90
       50
102
RTVSPost2010PropOp50
 70
     1
102
RTVSPost2010Prop51ColorIndex
 90
      256
102
RTVSPost2010Prop51ColorRGB
 90
-16777216
102
RTVSPost2010PropOp51
 70
     0
102
RTVSPost2010Prop52
140
1.0
102
RTVSPost2010PropOp52
 70
     0
102
RTVSPost2010Prop53
 90
        2
102
RTVSPost2010PropOp53
 70
     1
102
RTVSPost2010Prop54
  1
strokes_ogs.tif
102
RTVSPost2010PropOp54
 70
     1
102
RTVSPost2010Prop55
280
     0
102
RTVSPost2010PropOp55
 70
     1
102
RTVSPost2010Prop56
140
1.0
102
RTVSPost2010PropOp56
 70
     1
102
RTVSPost2010Prop57
140
1.0
102
RTVSPost2010PropOp57
 70
     1
  0
XRECORD
  5
8178
102
{ACAD_REACTORS
330
8177
102
}
330
8177
100
AcDbXrecord
280
     1
102
RTVSPost2010Prop28
280
     0
102
RTVSPost2010PropOp28
 70
     1
102
RTVSPost2010Prop29
280
     1
102
RTVSPost2010PropOp29
 70
     1
102
RTVSPost2010Prop30
280
     1
102
RTVSPost2010PropOp30
 70
     1
102
RTVSPost2010Prop31
280
     0
102
RTVSPost2010PropOp31
 70
     1
102
RTVSPost2010Prop32
280
     0
102
RTVSPost2010PropOp32
 70
     1
102
RTVSPost2010Prop33
280
     0
102
RTVSPost2010PropOp33
 70
     1
102
RTVSPost2010Prop34
280
     0
102
RTVSPost2010PropOp34
 70
     1
102
RTVSPost2010Prop35
280
     0
102
RTVSPost2010PropOp35
 70
     1
102
RTVSPost2010Prop36
280
     0
102
RTVSPost2010PropOp36
 70
     1
102
RTVSPost2010Prop37
 90
       50
102
RTVSPost2010PropOp37
 70
     1
102
RTVSPost2010Prop38
140
0.0
102
RTVSPost2010PropOp38
 70
     1
102
RTVSPost2010Prop39
140
1.0
102
RTVSPost2010PropOp39
 70
     1
102
RTVSPost2010Prop40
 90
        0
102
RTVSPost2010PropOp40
 70
     1
102
RTVSPost2010Prop41ColorIndex
 90
       18
102
RTVSPost2010Prop41ColorRGB
 90
        0
102
RTVSPost2010PropOp41
 70
     1
102
RTVSPost2010Prop42
 90
       50
102
RTVSPost2010PropOp42
 70
     1
102
RTVSPost2010Prop43
 90
        3
102
RTVSPost2010PropOp43
 70
     1
102
RTVSPost2010Prop44ColorIndex
 90
        5
102
RTVSPost2010Prop44ColorRGB
 90
      255
102
RTVSPost2010PropOp44
 70
     1
102
RTVSPost2010Prop45
280
     0
102
RTVSPost2010PropOp45
 70
     1
102
RTVSPost2010Prop46
 90
       50
102
RTVSPost2010PropOp46
 70
     1
102
RTVSPost2010Prop47
 90
       50
102
RTVSPost2010PropOp47
 70
     1
102
RTVSPost2010Prop48
 90
       50
102
RTVSPost2010PropOp48
 70
     1
102
RTVSPost2010Prop49
280
     0
102
RTVSPost2010PropOp49
 70
     1
102
RTVSPost2010Prop50
 90
       50
102
RTVSPost2010PropOp50
 70
     1
102
RTVSPost2010Prop51ColorIndex
 90
      256
102
RTVSPost2010Prop51ColorRGB
 90
-16777216
102
RTVSPost2010PropOp51
 70
     0
102
RTVSPost2010Prop52
140
1.0
102
RTVSPost2010PropOp52
 70
     0
102
RTVSPost2010Prop53
 90
        2
102
RTVSPost2010PropOp53
 70
     1
102
RTVSPost2010Prop54
  1
strokes_ogs.tif
102
RTVSPost2010PropOp54
 70
     1
102
RTVSPost2010Prop55
280
     0
102
RTVSPost2010PropOp55
 70
     1
102
RTVSPost2010Prop56
140
1.0
102
RTVSPost2010PropOp56
 70
     1
102
RTVSPost2010Prop57
140
1.0
102
RTVSPost2010PropOp57
 70
     1
  0
XRECORD
  5
817A
102
{ACAD_REACTORS
330
8179
102
}
330
8179
100
AcDbXrecord
280
     1
102
RTVSPost2010Prop28
280
     0
102
RTVSPost2010PropOp28
 70
     1
102
RTVSPost2010Prop29
280
     1
102
RTVSPost2010PropOp29
 70
     1
102
RTVSPost2010Prop30
280
     1
102
RTVSPost2010PropOp30
 70
     1
102
RTVSPost2010Prop31
280
     0
102
RTVSPost2010PropOp31
 70
     1
102
RTVSPost2010Prop32
280
     0
102
RTVSPost2010PropOp32
 70
     1
102
RTVSPost2010Prop33
280
     0
102
RTVSPost2010PropOp33
 70
     1
102
RTVSPost2010Prop34
280
     0
102
RTVSPost2010PropOp34
 70
     1
102
RTVSPost2010Prop35
280
     0
102
RTVSPost2010PropOp35
 70
     1
102
RTVSPost2010Prop36
280
     0
102
RTVSPost2010PropOp36
 70
     1
102
RTVSPost2010Prop37
 90
       50
102
RTVSPost2010PropOp37
 70
     1
102
RTVSPost2010Prop38
140
0.0
102
RTVSPost2010PropOp38
 70
     1
102
RTVSPost2010Prop39
140
1.0
102
RTVSPost2010PropOp39
 70
     1
102
RTVSPost2010Prop40
 90
        0
102
RTVSPost2010PropOp40
 70
     1
102
RTVSPost2010Prop41ColorIndex
 90
       18
102
RTVSPost2010Prop41ColorRGB
 90
        0
102
RTVSPost2010PropOp41
 70
     1
102
RTVSPost2010Prop42
 90
       50
102
RTVSPost2010PropOp42
 70
     1
102
RTVSPost2010Prop43
 90
        3
102
RTVSPost2010PropOp43
 70
     1
102
RTVSPost2010Prop44ColorIndex
 90
        5
102
RTVSPost2010Prop44ColorRGB
 90
      255
102
RTVSPost2010PropOp44
 70
     1
102
RTVSPost2010Prop45
280
     0
102
RTVSPost2010PropOp45
 70
     1
102
RTVSPost2010Prop46
 90
       50
102
RTVSPost2010PropOp46
 70
     1
102
RTVSPost2010Prop47
 90
       50
102
RTVSPost2010PropOp47
 70
     1
102
RTVSPost2010Prop48
 90
       50
102
RTVSPost2010PropOp48
 70
     1
102
RTVSPost2010Prop49
280
     0
102
RTVSPost2010PropOp49
 70
     1
102
RTVSPost2010Prop50
 90
       50
102
RTVSPost2010PropOp50
 70
     1
102
RTVSPost2010Prop51ColorIndex
 90
      256
102
RTVSPost2010Prop51ColorRGB
 90
-16777216
102
RTVSPost2010PropOp51
 70
     0
102
RTVSPost2010Prop52
140
1.0
102
RTVSPost2010PropOp52
 70
     0
102
RTVSPost2010Prop53
 90
        2
102
RTVSPost2010PropOp53
 70
     1
102
RTVSPost2010Prop54
  1
strokes_ogs.tif
102
RTVSPost2010PropOp54
 70
     1
102
RTVSPost2010Prop55
280
     0
102
RTVSPost2010PropOp55
 70
     1
102
RTVSPost2010Prop56
140
1.0
102
RTVSPost2010PropOp56
 70
     1
102
RTVSPost2010Prop57
140
1.0
102
RTVSPost2010PropOp57
 70
     1
  0
XRECORD
  5
817C
102
{ACAD_REACTORS
330
817B
102
}
330
817B
100
AcDbXrecord
280
     1
102
RTVSPost2010Prop28
280
     0
102
RTVSPost2010PropOp28
 70
     1
102
RTVSPost2010Prop29
280
     1
102
RTVSPost2010PropOp29
 70
     1
102
RTVSPost2010Prop30
280
     1
102
RTVSPost2010PropOp30
 70
     1
102
RTVSPost2010Prop31
280
     0
102
RTVSPost2010PropOp31
 70
     1
102
RTVSPost2010Prop32
280
     0
102
RTVSPost2010PropOp32
 70
     1
102
RTVSPost2010Prop33
280
     0
102
RTVSPost2010PropOp33
 70
     1
102
RTVSPost2010Prop34
280
     0
102
RTVSPost2010PropOp34
 70
     1
102
RTVSPost2010Prop35
280
     0
102
RTVSPost2010PropOp35
 70
     1
102
RTVSPost2010Prop36
280
     0
102
RTVSPost2010PropOp36
 70
     1
102
RTVSPost2010Prop37
 90
       50
102
RTVSPost2010PropOp37
 70
     1
102
RTVSPost2010Prop38
140
0.0
102
RTVSPost2010PropOp38
 70
     1
102
RTVSPost2010Prop39
140
1.0
102
RTVSPost2010PropOp39
 70
     1
102
RTVSPost2010Prop40
 90
        0
102
RTVSPost2010PropOp40
 70
     1
102
RTVSPost2010Prop41ColorIndex
 90
       18
102
RTVSPost2010Prop41ColorRGB
 90
        0
102
RTVSPost2010PropOp41
 70
     1
102
RTVSPost2010Prop42
 90
       50
102
RTVSPost2010PropOp42
 70
     1
102
RTVSPost2010Prop43
 90
        3
102
RTVSPost2010PropOp43
 70
     1
102
RTVSPost2010Prop44ColorIndex
 90
        5
102
RTVSPost2010Prop44ColorRGB
 90
      255
102
RTVSPost2010PropOp44
 70
     1
102
RTVSPost2010Prop45
280
     0
102
RTVSPost2010PropOp45
 70
     1
102
RTVSPost2010Prop46
 90
       50
102
RTVSPost2010PropOp46
 70
     1
102
RTVSPost2010Prop47
 90
       50
102
RTVSPost2010PropOp47
 70
     1
102
RTVSPost2010Prop48
 90
       50
102
RTVSPost2010PropOp48
 70
     1
102
RTVSPost2010Prop49
280
     0
102
RTVSPost2010PropOp49
 70
     1
102
RTVSPost2010Prop50
 90
       50
102
RTVSPost2010PropOp50
 70
     1
102
RTVSPost2010Prop51ColorIndex
 90
      256
102
RTVSPost2010Prop51ColorRGB
 90
-16777216
102
RTVSPost2010PropOp51
 70
     0
102
RTVSPost2010Prop52
140
1.0
102
RTVSPost2010PropOp52
 70
     0
102
RTVSPost2010Prop53
 90
        2
102
RTVSPost2010PropOp53
 70
     1
102
RTVSPost2010Prop54
  1
strokes_ogs.tif
102
RTVSPost2010PropOp54
 70
     1
102
RTVSPost2010Prop55
280
     0
102
RTVSPost2010PropOp55
 70
     1
102
RTVSPost2010Prop56
140
1.0
102
RTVSPost2010PropOp56
 70
     1
102
RTVSPost2010Prop57
140
1.0
102
RTVSPost2010PropOp57
 70
     1
  0
XRECORD
  5
817E
102
{ACAD_REACTORS
330
817D
102
}
330
817D
100
AcDbXrecord
280
     1
102
RTVSPost2010Prop28
280
     0
102
RTVSPost2010PropOp28
 70
     1
102
RTVSPost2010Prop29
280
     1
102
RTVSPost2010PropOp29
 70
     1
102
RTVSPost2010Prop30
280
     1
102
RTVSPost2010PropOp30
 70
     1
102
RTVSPost2010Prop31
280
     0
102
RTVSPost2010PropOp31
 70
     1
102
RTVSPost2010Prop32
280
     0
102
RTVSPost2010PropOp32
 70
     1
102
RTVSPost2010Prop33
280
     0
102
RTVSPost2010PropOp33
 70
     1
102
RTVSPost2010Prop34
280
     0
102
RTVSPost2010PropOp34
 70
     1
102
RTVSPost2010Prop35
280
     0
102
RTVSPost2010PropOp35
 70
     1
102
RTVSPost2010Prop36
280
     0
102
RTVSPost2010PropOp36
 70
     1
102
RTVSPost2010Prop37
 90
       50
102
RTVSPost2010PropOp37
 70
     1
102
RTVSPost2010Prop38
140
0.0
102
RTVSPost2010PropOp38
 70
     1
102
RTVSPost2010Prop39
140
1.0
102
RTVSPost2010PropOp39
 70
     1
102
RTVSPost2010Prop40
 90
        0
102
RTVSPost2010PropOp40
 70
     1
102
RTVSPost2010Prop41ColorIndex
 90
       18
102
RTVSPost2010Prop41ColorRGB
 90
        0
102
RTVSPost2010PropOp41
 70
     1
102
RTVSPost2010Prop42
 90
       50
102
RTVSPost2010PropOp42
 70
     1
102
RTVSPost2010Prop43
 90
        3
102
RTVSPost2010PropOp43
 70
     1
102
RTVSPost2010Prop44ColorIndex
 90
        5
102
RTVSPost2010Prop44ColorRGB
 90
      255
102
RTVSPost2010PropOp44
 70
     1
102
RTVSPost2010Prop45
280
     0
102
RTVSPost2010PropOp45
 70
     1
102
RTVSPost2010Prop46
 90
       50
102
RTVSPost2010PropOp46
 70
     1
102
RTVSPost2010Prop47
 90
       50
102
RTVSPost2010PropOp47
 70
     1
102
RTVSPost2010Prop48
 90
       50
102
RTVSPost2010PropOp48
 70
     1
102
RTVSPost2010Prop49
280
     0
102
RTVSPost2010PropOp49
 70
     1
102
RTVSPost2010Prop50
 90
       50
102
RTVSPost2010PropOp50
 70
     1
102
RTVSPost2010Prop51ColorIndex
 90
      256
102
RTVSPost2010Prop51ColorRGB
 90
-16777216
102
RTVSPost2010PropOp51
 70
     0
102
RTVSPost2010Prop52
140
1.0
102
RTVSPost2010PropOp52
 70
     0
102
RTVSPost2010Prop53
 90
        2
102
RTVSPost2010PropOp53
 70
     1
102
RTVSPost2010Prop54
  1
strokes_ogs.tif
102
RTVSPost2010PropOp54
 70
     1
102
RTVSPost2010Prop55
280
     0
102
RTVSPost2010PropOp55
 70
     1
102
RTVSPost2010Prop56
140
1.0
102
RTVSPost2010PropOp56
 70
     1
102
RTVSPost2010Prop57
140
1.0
102
RTVSPost2010PropOp57
 70
     1
  0
XRECORD
  5
819A
102
{ACAD_REACTORS
330
8199
102
}
330
8199
100
AcDbXrecord
280
     1
102
RTVSPost2010Prop28
280
     0
102
RTVSPost2010PropOp28
 70
     1
102
RTVSPost2010Prop29
280
     1
102
RTVSPost2010PropOp29
 70
     1
102
RTVSPost2010Prop30
280
     1
102
RTVSPost2010PropOp30
 70
     1
102
RTVSPost2010Prop31
280
     0
102
RTVSPost2010PropOp31
 70
     1
102
RTVSPost2010Prop32
280
     0
102
RTVSPost2010PropOp32
 70
     1
102
RTVSPost2010Prop33
280
     0
102
RTVSPost2010PropOp33
 70
     1
102
RTVSPost2010Prop34
280
     0
102
RTVSPost2010PropOp34
 70
     1
102
RTVSPost2010Prop35
280
     0
102
RTVSPost2010PropOp35
 70
     1
102
RTVSPost2010Prop36
280
     0
102
RTVSPost2010PropOp36
 70
     1
102
RTVSPost2010Prop37
 90
       50
102
RTVSPost2010PropOp37
 70
     1
102
RTVSPost2010Prop38
140
0.0
102
RTVSPost2010PropOp38
 70
     1
102
RTVSPost2010Prop39
140
1.0
102
RTVSPost2010PropOp39
 70
     1
102
RTVSPost2010Prop40
 90
        0
102
RTVSPost2010PropOp40
 70
     1
102
RTVSPost2010Prop41ColorIndex
 90
       18
102
RTVSPost2010Prop41ColorRGB
 90
        0
102
RTVSPost2010PropOp41
 70
     1
102
RTVSPost2010Prop42
 90
       50
102
RTVSPost2010PropOp42
 70
     1
102
RTVSPost2010Prop43
 90
        3
102
RTVSPost2010PropOp43
 70
     1
102
RTVSPost2010Prop44ColorIndex
 90
        5
102
RTVSPost2010Prop44ColorRGB
 90
      255
102
RTVSPost2010PropOp44
 70
     1
102
RTVSPost2010Prop45
280
     0
102
RTVSPost2010PropOp45
 70
     1
102
RTVSPost2010Prop46
 90
       50
102
RTVSPost2010PropOp46
 70
     1
102
RTVSPost2010Prop47
 90
       50
102
RTVSPost2010PropOp47
 70
     1
102
RTVSPost2010Prop48
 90
       50
102
RTVSPost2010PropOp48
 70
     1
102
RTVSPost2010Prop49
280
     0
102
RTVSPost2010PropOp49
 70
     1
102
RTVSPost2010Prop50
 90
       50
102
RTVSPost2010PropOp50
 70
     1
102
RTVSPost2010Prop51ColorIndex
 90
      256
102
RTVSPost2010Prop51ColorRGB
 90
-16777216
102
RTVSPost2010PropOp51
 70
     0
102
RTVSPost2010Prop52
140
1.0
102
RTVSPost2010PropOp52
 70
     0
102
RTVSPost2010Prop53
 90
        2
102
RTVSPost2010PropOp53
 70
     1
102
RTVSPost2010Prop54
  1
strokes_ogs.tif
102
RTVSPost2010PropOp54
 70
     1
102
RTVSPost2010Prop55
280
     0
102
RTVSPost2010PropOp55
 70
     1
102
RTVSPost2010Prop56
140
1.0
102
RTVSPost2010PropOp56
 70
     1
102
RTVSPost2010Prop57
140
1.0
102
RTVSPost2010PropOp57
 70
     1
  0
XRECORD
  5
81A6
102
{ACAD_REACTORS
330
81A5
102
}
330
81A5
100
AcDbXrecord
280
     1
102
RTVSPost2010Prop28
280
     0
102
RTVSPost2010PropOp28
 70
     1
102
RTVSPost2010Prop29
280
     1
102
RTVSPost2010PropOp29
 70
     1
102
RTVSPost2010Prop30
280
     1
102
RTVSPost2010PropOp30
 70
     1
102
RTVSPost2010Prop31
280
     0
102
RTVSPost2010PropOp31
 70
     1
102
RTVSPost2010Prop32
280
     0
102
RTVSPost2010PropOp32
 70
     1
102
RTVSPost2010Prop33
280
     0
102
RTVSPost2010PropOp33
 70
     1
102
RTVSPost2010Prop34
280
     0
102
RTVSPost2010PropOp34
 70
     1
102
RTVSPost2010Prop35
280
     0
102
RTVSPost2010PropOp35
 70
     1
102
RTVSPost2010Prop36
280
     0
102
RTVSPost2010PropOp36
 70
     1
102
RTVSPost2010Prop37
 90
       50
102
RTVSPost2010PropOp37
 70
     1
102
RTVSPost2010Prop38
140
0.0
102
RTVSPost2010PropOp38
 70
     1
102
RTVSPost2010Prop39
140
1.0
102
RTVSPost2010PropOp39
 70
     1
102
RTVSPost2010Prop40
 90
        0
102
RTVSPost2010PropOp40
 70
     1
102
RTVSPost2010Prop41ColorIndex
 90
       18
102
RTVSPost2010Prop41ColorRGB
 90
        0
102
RTVSPost2010PropOp41
 70
     1
102
RTVSPost2010Prop42
 90
       50
102
RTVSPost2010PropOp42
 70
     1
102
RTVSPost2010Prop43
 90
        3
102
RTVSPost2010PropOp43
 70
     1
102
RTVSPost2010Prop44ColorIndex
 90
        5
102
RTVSPost2010Prop44ColorRGB
 90
      255
102
RTVSPost2010PropOp44
 70
     1
102
RTVSPost2010Prop45
280
     0
102
RTVSPost2010PropOp45
 70
     1
102
RTVSPost2010Prop46
 90
       50
102
RTVSPost2010PropOp46
 70
     1
102
RTVSPost2010Prop47
 90
       50
102
RTVSPost2010PropOp47
 70
     1
102
RTVSPost2010Prop48
 90
       50
102
RTVSPost2010PropOp48
 70
     1
102
RTVSPost2010Prop49
280
     0
102
RTVSPost2010PropOp49
 70
     1
102
RTVSPost2010Prop50
 90
       50
102
RTVSPost2010PropOp50
 70
     1
102
RTVSPost2010Prop51ColorIndex
 90
      256
102
RTVSPost2010Prop51ColorRGB
 90
-16777216
102
RTVSPost2010PropOp51
 70
     0
102
RTVSPost2010Prop52
140
1.0
102
RTVSPost2010PropOp52
 70
     0
102
RTVSPost2010Prop53
 90
        2
102
RTVSPost2010PropOp53
 70
     1
102
RTVSPost2010Prop54
  1
strokes_ogs.tif
102
RTVSPost2010PropOp54
 70
     1
102
RTVSPost2010Prop55
280
     0
102
RTVSPost2010PropOp55
 70
     1
102
RTVSPost2010Prop56
140
1.0
102
RTVSPost2010PropOp56
 70
     1
102
RTVSPost2010Prop57
140
1.0
102
RTVSPost2010PropOp57
 70
     1
  0
XRECORD
  5
8192
102
{ACAD_REACTORS
330
8191
102
}
330
8191
100
AcDbXrecord
280
     1
102
RTVSPost2010Prop28
280
     0
102
RTVSPost2010PropOp28
 70
     1
102
RTVSPost2010Prop29
280
     1
102
RTVSPost2010PropOp29
 70
     1
102
RTVSPost2010Prop30
280
     1
102
RTVSPost2010PropOp30
 70
     1
102
RTVSPost2010Prop31
280
     0
102
RTVSPost2010PropOp31
 70
     1
102
RTVSPost2010Prop32
280
     0
102
RTVSPost2010PropOp32
 70
     1
102
RTVSPost2010Prop33
280
     0
102
RTVSPost2010PropOp33
 70
     1
102
RTVSPost2010Prop34
280
     0
102
RTVSPost2010PropOp34
 70
     1
102
RTVSPost2010Prop35
280
     0
102
RTVSPost2010PropOp35
 70
     1
102
RTVSPost2010Prop36
280
     0
102
RTVSPost2010PropOp36
 70
     1
102
RTVSPost2010Prop37
 90
       50
102
RTVSPost2010PropOp37
 70
     1
102
RTVSPost2010Prop38
140
0.0
102
RTVSPost2010PropOp38
 70
     1
102
RTVSPost2010Prop39
140
1.0
102
RTVSPost2010PropOp39
 70
     1
102
RTVSPost2010Prop40
 90
        0
102
RTVSPost2010PropOp40
 70
     1
102
RTVSPost2010Prop41ColorIndex
 90
       18
102
RTVSPost2010Prop41ColorRGB
 90
        0
102
RTVSPost2010PropOp41
 70
     1
102
RTVSPost2010Prop42
 90
       50
102
RTVSPost2010PropOp42
 70
     1
102
RTVSPost2010Prop43
 90
        3
102
RTVSPost2010PropOp43
 70
     1
102
RTVSPost2010Prop44ColorIndex
 90
        5
102
RTVSPost2010Prop44ColorRGB
 90
      255
102
RTVSPost2010PropOp44
 70
     1
102
RTVSPost2010Prop45
280
     0
102
RTVSPost2010PropOp45
 70
     1
102
RTVSPost2010Prop46
 90
       50
102
RTVSPost2010PropOp46
 70
     1
102
RTVSPost2010Prop47
 90
       50
102
RTVSPost2010PropOp47
 70
     1
102
RTVSPost2010Prop48
 90
       50
102
RTVSPost2010PropOp48
 70
     1
102
RTVSPost2010Prop49
280
     0
102
RTVSPost2010PropOp49
 70
     1
102
RTVSPost2010Prop50
 90
       50
102
RTVSPost2010PropOp50
 70
     1
102
RTVSPost2010Prop51ColorIndex
 90
      256
102
RTVSPost2010Prop51ColorRGB
 90
-16777216
102
RTVSPost2010PropOp51
 70
     0
102
RTVSPost2010Prop52
140
1.0
102
RTVSPost2010PropOp52
 70
     0
102
RTVSPost2010Prop53
 90
        2
102
RTVSPost2010PropOp53
 70
     1
102
RTVSPost2010Prop54
  1
strokes_ogs.tif
102
RTVSPost2010PropOp54
 70
     1
102
RTVSPost2010Prop55
280
     0
102
RTVSPost2010PropOp55
 70
     1
102
RTVSPost2010Prop56
140
1.0
102
RTVSPost2010PropOp56
 70
     1
102
RTVSPost2010Prop57
140
1.0
102
RTVSPost2010PropOp57
 70
     1
  0
XRECORD
  5
81A8
102
{ACAD_REACTORS
330
81A7
102
}
330
81A7
100
AcDbXrecord
280
     1
102
RTVSPost2010Prop28
280
     0
102
RTVSPost2010PropOp28
 70
     1
102
RTVSPost2010Prop29
280
     1
102
RTVSPost2010PropOp29
 70
     1
102
RTVSPost2010Prop30
280
     1
102
RTVSPost2010PropOp30
 70
     1
102
RTVSPost2010Prop31
280
     0
102
RTVSPost2010PropOp31
 70
     1
102
RTVSPost2010Prop32
280
     0
102
RTVSPost2010PropOp32
 70
     1
102
RTVSPost2010Prop33
280
     0
102
RTVSPost2010PropOp33
 70
     1
102
RTVSPost2010Prop34
280
     0
102
RTVSPost2010PropOp34
 70
     1
102
RTVSPost2010Prop35
280
     0
102
RTVSPost2010PropOp35
 70
     1
102
RTVSPost2010Prop36
280
     0
102
RTVSPost2010PropOp36
 70
     1
102
RTVSPost2010Prop37
 90
       50
102
RTVSPost2010PropOp37
 70
     1
102
RTVSPost2010Prop38
140
0.0
102
RTVSPost2010PropOp38
 70
     1
102
RTVSPost2010Prop39
140
1.0
102
RTVSPost2010PropOp39
 70
     1
102
RTVSPost2010Prop40
 90
        0
102
RTVSPost2010PropOp40
 70
     1
102
RTVSPost2010Prop41ColorIndex
 90
       18
102
RTVSPost2010Prop41ColorRGB
 90
        0
102
RTVSPost2010PropOp41
 70
     1
102
RTVSPost2010Prop42
 90
       50
102
RTVSPost2010PropOp42
 70
     1
102
RTVSPost2010Prop43
 90
        3
102
RTVSPost2010PropOp43
 70
     1
102
RTVSPost2010Prop44ColorIndex
 90
        5
102
RTVSPost2010Prop44ColorRGB
 90
      255
102
RTVSPost2010PropOp44
 70
     1
102
RTVSPost2010Prop45
280
     0
102
RTVSPost2010PropOp45
 70
     1
102
RTVSPost2010Prop46
 90
       50
102
RTVSPost2010PropOp46
 70
     1
102
RTVSPost2010Prop47
 90
       50
102
RTVSPost2010PropOp47
 70
     1
102
RTVSPost2010Prop48
 90
       50
102
RTVSPost2010PropOp48
 70
     1
102
RTVSPost2010Prop49
280
     0
102
RTVSPost2010PropOp49
 70
     1
102
RTVSPost2010Prop50
 90
       50
102
RTVSPost2010PropOp50
 70
     1
102
RTVSPost2010Prop51ColorIndex
 90
      256
102
RTVSPost2010Prop51ColorRGB
 90
-16777216
102
RTVSPost2010PropOp51
 70
     0
102
RTVSPost2010Prop52
140
1.0
102
RTVSPost2010PropOp52
 70
     0
102
RTVSPost2010Prop53
 90
        2
102
RTVSPost2010PropOp53
 70
     1
102
RTVSPost2010Prop54
  1
strokes_ogs.tif
102
RTVSPost2010PropOp54
 70
     1
102
RTVSPost2010Prop55
280
     0
102
RTVSPost2010PropOp55
 70
     1
102
RTVSPost2010Prop56
140
1.0
102
RTVSPost2010PropOp56
 70
     1
102
RTVSPost2010Prop57
140
1.0
102
RTVSPost2010PropOp57
 70
     1
  0
XRECORD
  5
818A
102
{ACAD_REACTORS
330
8189
102
}
330
8189
100
AcDbXrecord
280
     1
102
RTVSPost2010Prop28
280
     0
102
RTVSPost2010PropOp28
 70
     1
102
RTVSPost2010Prop29
280
     1
102
RTVSPost2010PropOp29
 70
     1
102
RTVSPost2010Prop30
280
     1
102
RTVSPost2010PropOp30
 70
     1
102
RTVSPost2010Prop31
280
     0
102
RTVSPost2010PropOp31
 70
     1
102
RTVSPost2010Prop32
280
     0
102
RTVSPost2010PropOp32
 70
     1
102
RTVSPost2010Prop33
280
     0
102
RTVSPost2010PropOp33
 70
     1
102
RTVSPost2010Prop34
280
     0
102
RTVSPost2010PropOp34
 70
     1
102
RTVSPost2010Prop35
280
     0
102
RTVSPost2010PropOp35
 70
     1
102
RTVSPost2010Prop36
280
     0
102
RTVSPost2010PropOp36
 70
     1
102
RTVSPost2010Prop37
 90
       50
102
RTVSPost2010PropOp37
 70
     1
102
RTVSPost2010Prop38
140
0.0
102
RTVSPost2010PropOp38
 70
     1
102
RTVSPost2010Prop39
140
1.0
102
RTVSPost2010PropOp39
 70
     1
102
RTVSPost2010Prop40
 90
        0
102
RTVSPost2010PropOp40
 70
     1
102
RTVSPost2010Prop41ColorIndex
 90
       18
102
RTVSPost2010Prop41ColorRGB
 90
        0
102
RTVSPost2010PropOp41
 70
     1
102
RTVSPost2010Prop42
 90
       50
102
RTVSPost2010PropOp42
 70
     1
102
RTVSPost2010Prop43
 90
        3
102
RTVSPost2010PropOp43
 70
     1
102
RTVSPost2010Prop44ColorIndex
 90
        5
102
RTVSPost2010Prop44ColorRGB
 90
      255
102
RTVSPost2010PropOp44
 70
     1
102
RTVSPost2010Prop45
280
     0
102
RTVSPost2010PropOp45
 70
     1
102
RTVSPost2010Prop46
 90
       50
102
RTVSPost2010PropOp46
 70
     1
102
RTVSPost2010Prop47
 90
       50
102
RTVSPost2010PropOp47
 70
     1
102
RTVSPost2010Prop48
 90
       50
102
RTVSPost2010PropOp48
 70
     1
102
RTVSPost2010Prop49
280
     0
102
RTVSPost2010PropOp49
 70
     1
102
RTVSPost2010Prop50
 90
       50
102
RTVSPost2010PropOp50
 70
     1
102
RTVSPost2010Prop51ColorIndex
 90
      256
102
RTVSPost2010Prop51ColorRGB
 90
-16777216
102
RTVSPost2010PropOp51
 70
     0
102
RTVSPost2010Prop52
140
1.0
102
RTVSPost2010PropOp52
 70
     0
102
RTVSPost2010Prop53
 90
        2
102
RTVSPost2010PropOp53
 70
     1
102
RTVSPost2010Prop54
  1
strokes_ogs.tif
102
RTVSPost2010PropOp54
 70
     1
102
RTVSPost2010Prop55
280
     0
102
RTVSPost2010PropOp55
 70
     1
102
RTVSPost2010Prop56
140
1.0
102
RTVSPost2010PropOp56
 70
     1
102
RTVSPost2010Prop57
140
1.0
102
RTVSPost2010PropOp57
 70
     1
  0
XRECORD
  5
81A4
102
{ACAD_REACTORS
330
81A3
102
}
330
81A3
100
AcDbXrecord
280
     1
102
RTVSPost2010Prop28
280
     0
102
RTVSPost2010PropOp28
 70
     1
102
RTVSPost2010Prop29
280
     1
102
RTVSPost2010PropOp29
 70
     1
102
RTVSPost2010Prop30
280
     1
102
RTVSPost2010PropOp30
 70
     1
102
RTVSPost2010Prop31
280
     0
102
RTVSPost2010PropOp31
 70
     1
102
RTVSPost2010Prop32
280
     0
102
RTVSPost2010PropOp32
 70
     1
102
RTVSPost2010Prop33
280
     0
102
RTVSPost2010PropOp33
 70
     1
102
RTVSPost2010Prop34
280
     0
102
RTVSPost2010PropOp34
 70
     1
102
RTVSPost2010Prop35
280
     0
102
RTVSPost2010PropOp35
 70
     1
102
RTVSPost2010Prop36
280
     0
102
RTVSPost2010PropOp36
 70
     1
102
RTVSPost2010Prop37
 90
       50
102
RTVSPost2010PropOp37
 70
     1
102
RTVSPost2010Prop38
140
0.0
102
RTVSPost2010PropOp38
 70
     1
102
RTVSPost2010Prop39
140
1.0
102
RTVSPost2010PropOp39
 70
     1
102
RTVSPost2010Prop40
 90
        0
102
RTVSPost2010PropOp40
 70
     1
102
RTVSPost2010Prop41ColorIndex
 90
       18
102
RTVSPost2010Prop41ColorRGB
 90
        0
102
RTVSPost2010PropOp41
 70
     1
102
RTVSPost2010Prop42
 90
       50
102
RTVSPost2010PropOp42
 70
     1
102
RTVSPost2010Prop43
 90
        3
102
RTVSPost2010PropOp43
 70
     1
102
RTVSPost2010Prop44ColorIndex
 90
        5
102
RTVSPost2010Prop44ColorRGB
 90
      255
102
RTVSPost2010PropOp44
 70
     1
102
RTVSPost2010Prop45
280
     0
102
RTVSPost2010PropOp45
 70
     1
102
RTVSPost2010Prop46
 90
       50
102
RTVSPost2010PropOp46
 70
     1
102
RTVSPost2010Prop47
 90
       50
102
RTVSPost2010PropOp47
 70
     1
102
RTVSPost2010Prop48
 90
       50
102
RTVSPost2010PropOp48
 70
     1
102
RTVSPost2010Prop49
280
     0
102
RTVSPost2010PropOp49
 70
     1
102
RTVSPost2010Prop50
 90
       50
102
RTVSPost2010PropOp50
 70
     1
102
RTVSPost2010Prop51ColorIndex
 90
      256
102
RTVSPost2010Prop51ColorRGB
 90
-16777216
102
RTVSPost2010PropOp51
 70
     0
102
RTVSPost2010Prop52
140
1.0
102
RTVSPost2010PropOp52
 70
     0
102
RTVSPost2010Prop53
 90
        2
102
RTVSPost2010PropOp53
 70
     1
102
RTVSPost2010Prop54
  1
strokes_ogs.tif
102
RTVSPost2010PropOp54
 70
     1
102
RTVSPost2010Prop55
280
     0
102
RTVSPost2010PropOp55
 70
     1
102
RTVSPost2010Prop56
140
1.0
102
RTVSPost2010PropOp56
 70
     1
102
RTVSPost2010Prop57
140
1.0
102
RTVSPost2010PropOp57
 70
     1
  0
XRECORD
  5
81A2
102
{ACAD_REACTORS
330
81A1
102
}
330
81A1
100
AcDbXrecord
280
     1
102
RTVSPost2010Prop28
280
     0
102
RTVSPost2010PropOp28
 70
     1
102
RTVSPost2010Prop29
280
     1
102
RTVSPost2010PropOp29
 70
     1
102
RTVSPost2010Prop30
280
     1
102
RTVSPost2010PropOp30
 70
     1
102
RTVSPost2010Prop31
280
     0
102
RTVSPost2010PropOp31
 70
     1
102
RTVSPost2010Prop32
280
     0
102
RTVSPost2010PropOp32
 70
     1
102
RTVSPost2010Prop33
280
     0
102
RTVSPost2010PropOp33
 70
     1
102
RTVSPost2010Prop34
280
     0
102
RTVSPost2010PropOp34
 70
     1
102
RTVSPost2010Prop35
280
     0
102
RTVSPost2010PropOp35
 70
     1
102
RTVSPost2010Prop36
280
     0
102
RTVSPost2010PropOp36
 70
     1
102
RTVSPost2010Prop37
 90
       50
102
RTVSPost2010PropOp37
 70
     1
102
RTVSPost2010Prop38
140
0.0
102
RTVSPost2010PropOp38
 70
     1
102
RTVSPost2010Prop39
140
1.0
102
RTVSPost2010PropOp39
 70
     1
102
RTVSPost2010Prop40
 90
        0
102
RTVSPost2010PropOp40
 70
     1
102
RTVSPost2010Prop41ColorIndex
 90
       18
102
RTVSPost2010Prop41ColorRGB
 90
        0
102
RTVSPost2010PropOp41
 70
     1
102
RTVSPost2010Prop42
 90
       50
102
RTVSPost2010PropOp42
 70
     1
102
RTVSPost2010Prop43
 90
        3
102
RTVSPost2010PropOp43
 70
     1
102
RTVSPost2010Prop44ColorIndex
 90
        5
102
RTVSPost2010Prop44ColorRGB
 90
      255
102
RTVSPost2010PropOp44
 70
     1
102
RTVSPost2010Prop45
280
     0
102
RTVSPost2010PropOp45
 70
     1
102
RTVSPost2010Prop46
 90
       50
102
RTVSPost2010PropOp46
 70
     1
102
RTVSPost2010Prop47
 90
       50
102
RTVSPost2010PropOp47
 70
     1
102
RTVSPost2010Prop48
 90
       50
102
RTVSPost2010PropOp48
 70
     1
102
RTVSPost2010Prop49
280
     0
102
RTVSPost2010PropOp49
 70
     1
102
RTVSPost2010Prop50
 90
       50
102
RTVSPost2010PropOp50
 70
     1
102
RTVSPost2010Prop51ColorIndex
 90
      256
102
RTVSPost2010Prop51ColorRGB
 90
-16777216
102
RTVSPost2010PropOp51
 70
     0
102
RTVSPost2010Prop52
140
1.0
102
RTVSPost2010PropOp52
 70
     0
102
RTVSPost2010Prop53
 90
        2
102
RTVSPost2010PropOp53
 70
     1
102
RTVSPost2010Prop54
  1
strokes_ogs.tif
102
RTVSPost2010PropOp54
 70
     1
102
RTVSPost2010Prop55
280
     0
102
RTVSPost2010PropOp55
 70
     1
102
RTVSPost2010Prop56
140
1.0
102
RTVSPost2010PropOp56
 70
     1
102
RTVSPost2010Prop57
140
1.0
102
RTVSPost2010PropOp57
 70
     1
  0
XRECORD
  5
819C
102
{ACAD_REACTORS
330
819B
102
}
330
819B
100
AcDbXrecord
280
     1
102
RTVSPost2010Prop28
280
     0
102
RTVSPost2010PropOp28
 70
     1
102
RTVSPost2010Prop29
280
     1
102
RTVSPost2010PropOp29
 70
     1
102
RTVSPost2010Prop30
280
     1
102
RTVSPost2010PropOp30
 70
     1
102
RTVSPost2010Prop31
280
     0
102
RTVSPost2010PropOp31
 70
     1
102
RTVSPost2010Prop32
280
     0
102
RTVSPost2010PropOp32
 70
     1
102
RTVSPost2010Prop33
280
     0
102
RTVSPost2010PropOp33
 70
     1
102
RTVSPost2010Prop34
280
     0
102
RTVSPost2010PropOp34
 70
     1
102
RTVSPost2010Prop35
280
     0
102
RTVSPost2010PropOp35
 70
     1
102
RTVSPost2010Prop36
280
     0
102
RTVSPost2010PropOp36
 70
     1
102
RTVSPost2010Prop37
 90
       50
102
RTVSPost2010PropOp37
 70
     1
102
RTVSPost2010Prop38
140
0.0
102
RTVSPost2010PropOp38
 70
     1
102
RTVSPost2010Prop39
140
1.0
102
RTVSPost2010PropOp39
 70
     1
102
RTVSPost2010Prop40
 90
        0
102
RTVSPost2010PropOp40
 70
     1
102
RTVSPost2010Prop41ColorIndex
 90
       18
102
RTVSPost2010Prop41ColorRGB
 90
        0
102
RTVSPost2010PropOp41
 70
     1
102
RTVSPost2010Prop42
 90
       50
102
RTVSPost2010PropOp42
 70
     1
102
RTVSPost2010Prop43
 90
        3
102
RTVSPost2010PropOp43
 70
     1
102
RTVSPost2010Prop44ColorIndex
 90
        5
102
RTVSPost2010Prop44ColorRGB
 90
      255
102
RTVSPost2010PropOp44
 70
     1
102
RTVSPost2010Prop45
280
     0
102
RTVSPost2010PropOp45
 70
     1
102
RTVSPost2010Prop46
 90
       50
102
RTVSPost2010PropOp46
 70
     1
102
RTVSPost2010Prop47
 90
       50
102
RTVSPost2010PropOp47
 70
     1
102
RTVSPost2010Prop48
 90
       50
102
RTVSPost2010PropOp48
 70
     1
102
RTVSPost2010Prop49
280
     0
102
RTVSPost2010PropOp49
 70
     1
102
RTVSPost2010Prop50
 90
       50
102
RTVSPost2010PropOp50
 70
     1
102
RTVSPost2010Prop51ColorIndex
 90
      256
102
RTVSPost2010Prop51ColorRGB
 90
-16777216
102
RTVSPost2010PropOp51
 70
     0
102
RTVSPost2010Prop52
140
1.0
102
RTVSPost2010PropOp52
 70
     0
102
RTVSPost2010Prop53
 90
        2
102
RTVSPost2010PropOp53
 70
     1
102
RTVSPost2010Prop54
  1
strokes_ogs.tif
102
RTVSPost2010PropOp54
 70
     1
102
RTVSPost2010Prop55
280
     0
102
RTVSPost2010PropOp55
 70
     1
102
RTVSPost2010Prop56
140
1.0
102
RTVSPost2010PropOp56
 70
     1
102
RTVSPost2010Prop57
140
1.0
102
RTVSPost2010PropOp57
 70
     1
  0
XRECORD
  5
819E
102
{ACAD_REACTORS
330
819D
102
}
330
819D
100
AcDbXrecord
280
     1
102
RTVSPost2010Prop28
280
     0
102
RTVSPost2010PropOp28
 70
     1
102
RTVSPost2010Prop29
280
     1
102
RTVSPost2010PropOp29
 70
     1
102
RTVSPost2010Prop30
280
     1
102
RTVSPost2010PropOp30
 70
     1
102
RTVSPost2010Prop31
280
     0
102
RTVSPost2010PropOp31
 70
     1
102
RTVSPost2010Prop32
280
     0
102
RTVSPost2010PropOp32
 70
     1
102
RTVSPost2010Prop33
280
     0
102
RTVSPost2010PropOp33
 70
     1
102
RTVSPost2010Prop34
280
     0
102
RTVSPost2010PropOp34
 70
     1
102
RTVSPost2010Prop35
280
     0
102
RTVSPost2010PropOp35
 70
     1
102
RTVSPost2010Prop36
280
     0
102
RTVSPost2010PropOp36
 70
     1
102
RTVSPost2010Prop37
 90
       50
102
RTVSPost2010PropOp37
 70
     1
102
RTVSPost2010Prop38
140
0.0
102
RTVSPost2010PropOp38
 70
     1
102
RTVSPost2010Prop39
140
1.0
102
RTVSPost2010PropOp39
 70
     1
102
RTVSPost2010Prop40
 90
        0
102
RTVSPost2010PropOp40
 70
     1
102
RTVSPost2010Prop41ColorIndex
 90
       18
102
RTVSPost2010Prop41ColorRGB
 90
        0
102
RTVSPost2010PropOp41
 70
     1
102
RTVSPost2010Prop42
 90
       50
102
RTVSPost2010PropOp42
 70
     1
102
RTVSPost2010Prop43
 90
        3
102
RTVSPost2010PropOp43
 70
     1
102
RTVSPost2010Prop44ColorIndex
 90
        5
102
RTVSPost2010Prop44ColorRGB
 90
      255
102
RTVSPost2010PropOp44
 70
     1
102
RTVSPost2010Prop45
280
     0
102
RTVSPost2010PropOp45
 70
     1
102
RTVSPost2010Prop46
 90
       50
102
RTVSPost2010PropOp46
 70
     1
102
RTVSPost2010Prop47
 90
       50
102
RTVSPost2010PropOp47
 70
     1
102
RTVSPost2010Prop48
 90
       50
102
RTVSPost2010PropOp48
 70
     1
102
RTVSPost2010Prop49
280
     0
102
RTVSPost2010PropOp49
 70
     1
102
RTVSPost2010Prop50
 90
       50
102
RTVSPost2010PropOp50
 70
     1
102
RTVSPost2010Prop51ColorIndex
 90
      256
102
RTVSPost2010Prop51ColorRGB
 90
-16777216
102
RTVSPost2010PropOp51
 70
     0
102
RTVSPost2010Prop52
140
1.0
102
RTVSPost2010PropOp52
 70
     0
102
RTVSPost2010Prop53
 90
        2
102
RTVSPost2010PropOp53
 70
     1
102
RTVSPost2010Prop54
  1
strokes_ogs.tif
102
RTVSPost2010PropOp54
 70
     1
102
RTVSPost2010Prop55
280
     0
102
RTVSPost2010PropOp55
 70
     1
102
RTVSPost2010Prop56
140
1.0
102
RTVSPost2010PropOp56
 70
     1
102
RTVSPost2010Prop57
140
1.0
102
RTVSPost2010PropOp57
 70
     1
  0
XRECORD
  5
8190
102
{ACAD_REACTORS
330
818F
102
}
330
818F
100
AcDbXrecord
280
     1
102
RTVSPost2010Prop28
280
     0
102
RTVSPost2010PropOp28
 70
     1
102
RTVSPost2010Prop29
280
     1
102
RTVSPost2010PropOp29
 70
     1
102
RTVSPost2010Prop30
280
     1
102
RTVSPost2010PropOp30
 70
     1
102
RTVSPost2010Prop31
280
     0
102
RTVSPost2010PropOp31
 70
     1
102
RTVSPost2010Prop32
280
     0
102
RTVSPost2010PropOp32
 70
     1
102
RTVSPost2010Prop33
280
     0
102
RTVSPost2010PropOp33
 70
     1
102
RTVSPost2010Prop34
280
     0
102
RTVSPost2010PropOp34
 70
     1
102
RTVSPost2010Prop35
280
     0
102
RTVSPost2010PropOp35
 70
     1
102
RTVSPost2010Prop36
280
     0
102
RTVSPost2010PropOp36
 70
     1
102
RTVSPost2010Prop37
 90
       50
102
RTVSPost2010PropOp37
 70
     1
102
RTVSPost2010Prop38
140
0.0
102
RTVSPost2010PropOp38
 70
     1
102
RTVSPost2010Prop39
140
1.0
102
RTVSPost2010PropOp39
 70
     1
102
RTVSPost2010Prop40
 90
        0
102
RTVSPost2010PropOp40
 70
     1
102
RTVSPost2010Prop41ColorIndex
 90
       18
102
RTVSPost2010Prop41ColorRGB
 90
        0
102
RTVSPost2010PropOp41
 70
     1
102
RTVSPost2010Prop42
 90
       50
102
RTVSPost2010PropOp42
 70
     1
102
RTVSPost2010Prop43
 90
        3
102
RTVSPost2010PropOp43
 70
     1
102
RTVSPost2010Prop44ColorIndex
 90
        5
102
RTVSPost2010Prop44ColorRGB
 90
      255
102
RTVSPost2010PropOp44
 70
     1
102
RTVSPost2010Prop45
280
     0
102
RTVSPost2010PropOp45
 70
     1
102
RTVSPost2010Prop46
 90
       50
102
RTVSPost2010PropOp46
 70
     1
102
RTVSPost2010Prop47
 90
       50
102
RTVSPost2010PropOp47
 70
     1
102
RTVSPost2010Prop48
 90
       50
102
RTVSPost2010PropOp48
 70
     1
102
RTVSPost2010Prop49
280
     0
102
RTVSPost2010PropOp49
 70
     1
102
RTVSPost2010Prop50
 90
       50
102
RTVSPost2010PropOp50
 70
     1
102
RTVSPost2010Prop51ColorIndex
 90
      256
102
RTVSPost2010Prop51ColorRGB
 90
-16777216
102
RTVSPost2010PropOp51
 70
     0
102
RTVSPost2010Prop52
140
1.0
102
RTVSPost2010PropOp52
 70
     0
102
RTVSPost2010Prop53
 90
        2
102
RTVSPost2010PropOp53
 70
     1
102
RTVSPost2010Prop54
  1
strokes_ogs.tif
102
RTVSPost2010PropOp54
 70
     1
102
RTVSPost2010Prop55
280
     0
102
RTVSPost2010PropOp55
 70
     1
102
RTVSPost2010Prop56
140
1.0
102
RTVSPost2010PropOp56
 70
     1
102
RTVSPost2010Prop57
140
1.0
102
RTVSPost2010PropOp57
 70
     1
  0
XRECORD
  5
8198
102
{ACAD_REACTORS
330
8197
102
}
330
8197
100
AcDbXrecord
280
     1
102
RTVSPost2010Prop28
280
     0
102
RTVSPost2010PropOp28
 70
     1
102
RTVSPost2010Prop29
280
     1
102
RTVSPost2010PropOp29
 70
     1
102
RTVSPost2010Prop30
280
     1
102
RTVSPost2010PropOp30
 70
     1
102
RTVSPost2010Prop31
280
     0
102
RTVSPost2010PropOp31
 70
     1
102
RTVSPost2010Prop32
280
     0
102
RTVSPost2010PropOp32
 70
     1
102
RTVSPost2010Prop33
280
     0
102
RTVSPost2010PropOp33
 70
     1
102
RTVSPost2010Prop34
280
     0
102
RTVSPost2010PropOp34
 70
     1
102
RTVSPost2010Prop35
280
     0
102
RTVSPost2010PropOp35
 70
     1
102
RTVSPost2010Prop36
280
     0
102
RTVSPost2010PropOp36
 70
     1
102
RTVSPost2010Prop37
 90
       50
102
RTVSPost2010PropOp37
 70
     1
102
RTVSPost2010Prop38
140
0.0
102
RTVSPost2010PropOp38
 70
     1
102
RTVSPost2010Prop39
140
1.0
102
RTVSPost2010PropOp39
 70
     1
102
RTVSPost2010Prop40
 90
        0
102
RTVSPost2010PropOp40
 70
     1
102
RTVSPost2010Prop41ColorIndex
 90
       18
102
RTVSPost2010Prop41ColorRGB
 90
        0
102
RTVSPost2010PropOp41
 70
     1
102
RTVSPost2010Prop42
 90
       50
102
RTVSPost2010PropOp42
 70
     1
102
RTVSPost2010Prop43
 90
        3
102
RTVSPost2010PropOp43
 70
     1
102
RTVSPost2010Prop44ColorIndex
 90
        5
102
RTVSPost2010Prop44ColorRGB
 90
      255
102
RTVSPost2010PropOp44
 70
     1
102
RTVSPost2010Prop45
280
     0
102
RTVSPost2010PropOp45
 70
     1
102
RTVSPost2010Prop46
 90
       50
102
RTVSPost2010PropOp46
 70
     1
102
RTVSPost2010Prop47
 90
       50
102
RTVSPost2010PropOp47
 70
     1
102
RTVSPost2010Prop48
 90
       50
102
RTVSPost2010PropOp48
 70
     1
102
RTVSPost2010Prop49
280
     0
102
RTVSPost2010PropOp49
 70
     1
102
RTVSPost2010Prop50
 90
       50
102
RTVSPost2010PropOp50
 70
     1
102
RTVSPost2010Prop51ColorIndex
 90
      256
102
RTVSPost2010Prop51ColorRGB
 90
-16777216
102
RTVSPost2010PropOp51
 70
     0
102
RTVSPost2010Prop52
140
1.0
102
RTVSPost2010PropOp52
 70
     0
102
RTVSPost2010Prop53
 90
        2
102
RTVSPost2010PropOp53
 70
     1
102
RTVSPost2010Prop54
  1
strokes_ogs.tif
102
RTVSPost2010PropOp54
 70
     1
102
RTVSPost2010Prop55
280
     0
102
RTVSPost2010PropOp55
 70
     1
102
RTVSPost2010Prop56
140
1.0
102
RTVSPost2010PropOp56
 70
     1
102
RTVSPost2010Prop57
140
1.0
102
RTVSPost2010PropOp57
 70
     1
  0
XRECORD
  5
81A0
102
{ACAD_REACTORS
330
819F
102
}
330
819F
100
AcDbXrecord
280
     1
102
RTVSPost2010Prop28
280
     0
102
RTVSPost2010PropOp28
 70
     1
102
RTVSPost2010Prop29
280
     1
102
RTVSPost2010PropOp29
 70
     1
102
RTVSPost2010Prop30
280
     1
102
RTVSPost2010PropOp30
 70
     1
102
RTVSPost2010Prop31
280
     0
102
RTVSPost2010PropOp31
 70
     1
102
RTVSPost2010Prop32
280
     0
102
RTVSPost2010PropOp32
 70
     1
102
RTVSPost2010Prop33
280
     0
102
RTVSPost2010PropOp33
 70
     1
102
RTVSPost2010Prop34
280
     0
102
RTVSPost2010PropOp34
 70
     1
102
RTVSPost2010Prop35
280
     0
102
RTVSPost2010PropOp35
 70
     1
102
RTVSPost2010Prop36
280
     0
102
RTVSPost2010PropOp36
 70
     1
102
RTVSPost2010Prop37
 90
       50
102
RTVSPost2010PropOp37
 70
     1
102
RTVSPost2010Prop38
140
0.0
102
RTVSPost2010PropOp38
 70
     1
102
RTVSPost2010Prop39
140
1.0
102
RTVSPost2010PropOp39
 70
     1
102
RTVSPost2010Prop40
 90
        0
102
RTVSPost2010PropOp40
 70
     1
102
RTVSPost2010Prop41ColorIndex
 90
       18
102
RTVSPost2010Prop41ColorRGB
 90
        0
102
RTVSPost2010PropOp41
 70
     1
102
RTVSPost2010Prop42
 90
       50
102
RTVSPost2010PropOp42
 70
     1
102
RTVSPost2010Prop43
 90
        3
102
RTVSPost2010PropOp43
 70
     1
102
RTVSPost2010Prop44ColorIndex
 90
        5
102
RTVSPost2010Prop44ColorRGB
 90
      255
102
RTVSPost2010PropOp44
 70
     1
102
RTVSPost2010Prop45
280
     0
102
RTVSPost2010PropOp45
 70
     1
102
RTVSPost2010Prop46
 90
       50
102
RTVSPost2010PropOp46
 70
     1
102
RTVSPost2010Prop47
 90
       50
102
RTVSPost2010PropOp47
 70
     1
102
RTVSPost2010Prop48
 90
       50
102
RTVSPost2010PropOp48
 70
     1
102
RTVSPost2010Prop49
280
     0
102
RTVSPost2010PropOp49
 70
     1
102
RTVSPost2010Prop50
 90
       50
102
RTVSPost2010PropOp50
 70
     1
102
RTVSPost2010Prop51ColorIndex
 90
      256
102
RTVSPost2010Prop51ColorRGB
 90
-16777216
102
RTVSPost2010PropOp51
 70
     0
102
RTVSPost2010Prop52
140
1.0
102
RTVSPost2010PropOp52
 70
     0
102
RTVSPost2010Prop53
 90
        2
102
RTVSPost2010PropOp53
 70
     1
102
RTVSPost2010Prop54
  1
strokes_ogs.tif
102
RTVSPost2010PropOp54
 70
     1
102
RTVSPost2010Prop55
280
     0
102
RTVSPost2010PropOp55
 70
     1
102
RTVSPost2010Prop56
140
1.0
102
RTVSPost2010PropOp56
 70
     1
102
RTVSPost2010Prop57
140
1.0
102
RTVSPost2010PropOp57
 70
     1
  0
ENDSEC
  0
EOF
