  0
SECTION
  2
HEADER
  9
$ACADVER
  1
AC1024
  9
$ACADMAINTVER
 70
   225
  9
$DWGCODEPAGE
  3
ANSI_932
  9
$LASTSAVEDBY
  1
takanashi
  9
$INSBASE
 10
0.0
 20
0.0
 30
0.0
  9
$EXTMIN
 10
19.9694844009
 20
9.997285330199247
 30
-0.0000000000147439
  9
$EXTMAX
 10
800.0354022998775
 20
560.0291761481542
 30
0.0000000000022052
  9
$LIMMIN
 10
0.0
 20
0.0
  9
$LIMMAX
 10
840.0
 20
594.0
  9
$ORTHOMODE
 70
     0
  9
$REGENMODE
 70
     1
  9
$FILLMODE
 70
     1
  9
$QTEXTMODE
 70
     0
  9
$MIRRTEXT
 70
     1
  9
$LTSCALE
 40
1.0
  9
$ATTMODE
 70
     1
  9
$TEXTSIZE
 40
5.0
  9
$TRACEWID
 40
1.0
  9
$TEXTSTYLE
  7
STANDARD
  9
$CLAYER
  8
0
  9
$CELTYPE
  6
BYLAYER
  9
$CECOLOR
 62
   256
  9
$CELTSCALE
 40
1.0
  9
$DISPSILH
 70
     0
  9
$DIMSCALE
 40
1.0
  9
$DIMASZ
 40
1.5
  9
$DIMEXO
 40
5.0
  9
$DIMDLI
 40
3.75
  9
$DIMRND
 40
0.0
  9
$DIMDLE
 40
0.0
  9
$DIMEXE
 40
0.0
  9
$DIMTP
 40
0.0
  9
$DIMTM
 40
0.0
  9
$DIMTXT
 40
5.0
  9
$DIMCEN
 40
2.5
  9
$DIMTSZ
 40
0.0
  9
$DIMTOL
 70
     0
  9
$DIMLIM
 70
     0
  9
$DIMTIH
 70
     0
  9
$DIMTOH
 70
     0
  9
$DIMSE1
 70
     0
  9
$DIMSE2
 70
     0
  9
$DIMTAD
 70
     1
  9
$DIMZIN
 70
     8
  9
$DIMBLK
  1
DotBlank
  9
$DIMASO
 70
     1
  9
$DIMSHO
 70
     1
  9
$DIMPOST
  1

  9
$DIMAPOST
  1

  9
$DIMALT
 70
     0
  9
$DIMALTD
 70
     2
  9
$DIMALTF
 40
25.4
  9
$DIMLFAC
 40
1.0
  9
$DIMTOFL
 70
     1
  9
$DIMTVP
 40
0.0
  9
$DIMTIX
 70
     0
  9
$DIMSOXD
 70
     0
  9
$DIMSAH
 70
     0
  9
$DIMBLK1
  1

  9
$DIMBLK2
  1

  9
$DIMSTYLE
  2
STANDARD
  9
$DIMCLRD
 70
     0
  9
$DIMCLRE
 70
     0
  9
$DIMCLRT
 70
     0
  9
$DIMTFAC
 40
1.0
  9
$DIMGAP
 40
0.625
  9
$DIMJUST
 70
     0
  9
$DIMSD1
 70
     0
  9
$DIMSD2
 70
     0
  9
$DIMTOLJ
 70
     1
  9
$DIMTZIN
 70
     0
  9
$DIMALTZ
 70
     0
  9
$DIMALTTZ
 70
     0
  9
$DIMUPT
 70
     0
  9
$DIMDEC
 70
     4
  9
$DIMTDEC
 70
     4
  9
$DIMALTU
 70
     2
  9
$DIMALTTD
 70
     2
  9
$DIMTXSTY
  7
STANDARD
  9
$DIMAUNIT
 70
     0
  9
$DIMADEC
 70
     0
  9
$DIMALTRND
 40
0.0
  9
$DIMAZIN
 70
     0
  9
$DIMDSEP
 70
    46
  9
$DIMATFIT
 70
     3
  9
$DIMFRAC
 70
     0
  9
$DIMLDRBLK
  1
NONE
  9
$DIMLUNIT
 70
     2
  9
$DIMLWD
 70
    -2
  9
$DIMLWE
 70
    -2
  9
$DIMTMOVE
 70
     0
  9
$DIMFXL
 40
1.0
  9
$DIMFXLON
 70
     0
  9
$DIMJOGANG
 40
0.7853981633974483
  9
$DIMTFILL
 70
     0
  9
$DIMTFILLCLR
 70
     0
  9
$DIMARCSYM
 70
     0
  9
$DIMLTYPE
  6

  9
$DIMLTEX1
  6

  9
$DIMLTEX2
  6

  9
$DIMTXTDIRECTION
 70
     0
  9
$LUNITS
 70
     2
  9
$LUPREC
 70
     4
  9
$SKETCHINC
 40
1.0
  9
$FILLETRAD
 40
1.0
  9
$AUNITS
 70
     0
  9
$AUPREC
 70
     1
  9
$MENU
  1
.
  9
$ELEVATION
 40
0.0
  9
$PELEVATION
 40
0.0
  9
$THICKNESS
 40
0.0
  9
$LIMCHECK
 70
     0
  9
$CHAMFERA
 40
10.0
  9
$CHAMFERB
 40
10.0
  9
$CHAMFERC
 40
20.0
  9
$CHAMFERD
 40
0.0
  9
$SKPOLY
 70
     0
  9
$TDCREATE
 40
2450431.623194444
  9
$TDUCREATE
 40
2450431.248202778
  9
$TDUPDATE
 40
2459537.548472223
  9
$TDUUPDATE
 40
2459537.173472223
  9
$TDINDWG
 40
1.4779238079
  9
$TDUSRTIMER
 40
1.4779236806
  9
$USRTIMER
 70
     1
  9
$ANGBASE
 50
0.0
  9
$ANGDIR
 70
     0
  9
$PDMODE
 70
     0
  9
$PDSIZE
 40
0.0
  9
$PLINEWID
 40
0.0
  9
$SPLFRAME
 70
     0
  9
$SPLINETYPE
 70
     6
  9
$SPLINESEGS
 70
     8
  9
$HANDSEED
  5
523E
  9
$SURFTAB1
 70
     6
  9
$SURFTAB2
 70
     6
  9
$SURFTYPE
 70
     6
  9
$SURFU
 70
     6
  9
$SURFV
 70
     6
  9
$UCSBASE
  2

  9
$UCSNAME
  2

  9
$UCSORG
 10
0.0
 20
0.0
 30
0.0
  9
$UCSXDIR
 10
1.0
 20
0.0
 30
0.0
  9
$UCSYDIR
 10
0.0
 20
1.0
 30
0.0
  9
$UCSORTHOREF
  2

  9
$UCSORTHOVIEW
 70
     1
  9
$UCSORGTOP
 10
0.0
 20
0.0
 30
0.0
  9
$UCSORGBOTTOM
 10
0.0
 20
0.0
 30
0.0
  9
$UCSORGLEFT
 10
0.0
 20
0.0
 30
0.0
  9
$UCSORGRIGHT
 10
0.0
 20
0.0
 30
0.0
  9
$UCSORGFRONT
 10
0.0
 20
0.0
 30
0.0
  9
$UCSORGBACK
 10
0.0
 20
0.0
 30
0.0
  9
$PUCSBASE
  2

  9
$PUCSNAME
  2

  9
$PUCSORG
 10
0.0
 20
0.0
 30
0.0
  9
$PUCSXDIR
 10
1.0
 20
0.0
 30
0.0
  9
$PUCSYDIR
 10
0.0
 20
1.0
 30
0.0
  9
$PUCSORTHOREF
  2

  9
$PUCSORTHOVIEW
 70
     0
  9
$PUCSORGTOP
 10
0.0
 20
0.0
 30
0.0
  9
$PUCSORGBOTTOM
 10
0.0
 20
0.0
 30
0.0
  9
$PUCSORGLEFT
 10
0.0
 20
0.0
 30
0.0
  9
$PUCSORGRIGHT
 10
0.0
 20
0.0
 30
0.0
  9
$PUCSORGFRONT
 10
0.0
 20
0.0
 30
0.0
  9
$PUCSORGBACK
 10
0.0
 20
0.0
 30
0.0
  9
$USERI1
 70
     0
  9
$USERI2
 70
     0
  9
$USERI3
 70
     0
  9
$USERI4
 70
     0
  9
$USERI5
 70
     0
  9
$USERR1
 40
0.0
  9
$USERR2
 40
0.0
  9
$USERR3
 40
0.0
  9
$USERR4
 40
0.0
  9
$USERR5
 40
0.0
  9
$WORLDVIEW
 70
     1
  9
$SHADEDGE
 70
     3
  9
$SHADEDIF
 70
    70
  9
$TILEMODE
 70
     1
  9
$MAXACTVP
 70
    16
  9
$PINSBASE
 10
0.0
 20
0.0
 30
0.0
  9
$PLIMCHECK
 70
     0
  9
$PEXTMIN
 10
1.000000000000000E+20
 20
1.000000000000000E+20
 30
1.000000000000000E+20
  9
$PEXTMAX
 10
-1.000000000000000E+20
 20
-1.000000000000000E+20
 30
-1.000000000000000E+20
  9
$PLIMMIN
 10
0.0
 20
0.0
  9
$PLIMMAX
 10
420.0
 20
297.0
  9
$UNITMODE
 70
     0
  9
$VISRETAIN
 70
     0
  9
$PLINEGEN
 70
     0
  9
$PSLTSCALE
 70
     1
  9
$TREEDEPTH
 70
  3020
  9
$CMLSTYLE
  2
STANDARD
  9
$CMLJUST
 70
     0
  9
$CMLSCALE
 40
1.0
  9
$PROXYGRAPHICS
 70
     1
  9
$MEASUREMENT
 70
     1
  9
$CELWEIGHT
370
    -1
  9
$ENDCAPS
280
     0
  9
$JOINSTYLE
280
     0
  9
$LWDISPLAY
290
     0
  9
$INSUNITS
 70
     0
  9
$HYPERLINKBASE
  1

  9
$STYLESHEET
  1
MONOCHROME.CTB
  9
$XEDIT
290
     1
  9
$CEPSNTYPE
380
     0
  9
$PSTYLEMODE
290
     1
  9
$FINGERPRINTGUID
  2
{87E49A17-DA8C-4230-82A7-C569D142D783}
  9
$VERSIONGUID
  2
{BF4BD4DC-43A0-214D-88D4-8545303A6B19}
  9
$EXTNAMES
290
     1
  9
$PSVPSCALE
 40
0.0
  9
$OLESTARTUP
290
     0
  9
$SORTENTS
280
   127
  9
$INDEXCTL
280
     0
  9
$HIDETEXT
280
     0
  9
$XCLIPFRAME
280
     2
  9
$HALOGAP
280
     0
  9
$OBSCOLOR
 70
   257
  9
$OBSLTYPE
280
     0
  9
$INTERSECTIONDISPLAY
280
     0
  9
$INTERSECTIONCOLOR
 70
   257
  9
$DIMASSOC
280
     1
  9
$PROJECTNAME
  1

  9
$CAMERADISPLAY
290
     0
  9
$LENSLENGTH
 40
50.0
  9
$CAMERAHEIGHT
 40
0.0
  9
$STEPSPERSEC
 40
2.0
  9
$STEPSIZE
 40
6.0
  9
$3DDWFPREC
 40
2.0
  9
$PSOLWIDTH
 40
0.25
  9
$PSOLHEIGHT
 40
4.0
  9
$LOFTANG1
 40
1.570796326794896
  9
$LOFTANG2
 40
1.570796326794896
  9
$LOFTMAG1
 40
0.0
  9
$LOFTMAG2
 40
0.0
  9
$LOFTPARAM
 70
     7
  9
$LOFTNORMALS
280
     1
  9
$LATITUDE
 40
37.795
  9
$LONGITUDE
 40
-122.394
  9
$NORTHDIRECTION
 40
0.0
  9
$TIMEZONE
 70
 -8000
  9
$LIGHTGLYPHDISPLAY
280
     1
  9
$TILEMODELIGHTSYNCH
280
     1
  9
$CMATERIAL
347
23E6
  9
$SOLIDHIST
280
     0
  9
$SHOWHIST
280
     1
  9
$DWFFRAME
280
     2
  9
$DGNFRAME
280
     0
  9
$REALWORLDSCALE
290
     1
  9
$INTERFERECOLOR
 62
     1
  9
$INTERFEREOBJVS
345
23F3
  9
$INTERFEREVPVS
346
2FD1
  9
$CSHADOW
280
     0
  9
$SHADOWPLANELOCATION
 40
0.0
  0
ENDSEC
  0
SECTION
  2
CLASSES
  0
CLASS
  1
ACDBDICTIONARYWDFLT
  2
AcDbDictionaryWithDefault
  3
ObjectDBX Classes
 90
        0
 91
        1
280
     0
281
     0
  0
CLASS
  1
TABLESTYLE
  2
AcDbTableStyle
  3
ObjectDBX Classes
 90
     4095
 91
        1
280
     0
281
     0
  0
CLASS
  1
SORTENTSTABLE
  2
AcDbSortentsTable
  3
ObjectDBX Classes
 90
        0
 91
        1
280
     0
281
     0
  0
CLASS
  1
DIMASSOC
  2
AcDbDimAssoc
  3
"AcDbDimAssoc|Product Desc:     AcDim ARX App For Dimension|Company:          Autodesk, Inc.|WEB Address:      www.autodesk.com"
 90
        0
 91
        1
280
     0
281
     0
  0
CLASS
  1
DICTIONARYVAR
  2
AcDbDictionaryVar
  3
ObjectDBX Classes
 90
        0
 91
       14
280
     0
281
     0
  0
CLASS
  1
MATERIAL
  2
AcDbMaterial
  3
ObjectDBX Classes
 90
     1153
 91
        3
280
     0
281
     0
  0
CLASS
  1
VISUALSTYLE
  2
AcDbVisualStyle
  3
ObjectDBX Classes
 90
     4095
 91
       26
280
     0
281
     0
  0
CLASS
  1
SCALE
  2
AcDbScale
  3
ObjectDBX Classes
 90
     1153
 91
       17
280
     0
281
     0
  0
CLASS
  1
MLEADERSTYLE
  2
AcDbMLeaderStyle
  3
ACDB_MLEADERSTYLE_CLASS
 90
     4095
 91
        1
280
     0
281
     0
  0
CLASS
  1
CELLSTYLEMAP
  2
AcDbCellStyleMap
  3
ObjectDBX Classes
 90
     1152
 91
        1
280
     0
281
     0
  0
CLASS
  1
MULTILEADER
  2
AcDbMLeader
  3
ACDB_MLEADER_CLASS
 90
     1025
 91
       10
280
     0
281
     1
  0
CLASS
  1
ACDBSECTIONVIEWSTYLE
  2
AcDbSectionViewStyle
  3
ObjectDBX Classes
 90
     1025
 91
        1
280
     0
281
     0
  0
CLASS
  1
ACDBDETAILVIEWSTYLE
  2
AcDbDetailViewStyle
  3
ObjectDBX Classes
 90
     1025
 91
        1
280
     0
281
     0
  0
ENDSEC
  0
SECTION
  2
TABLES
  0
TABLE
  2
VPORT
  5
8
102
{ACAD_XDICTIONARY
360
2421
102
}
330
0
100
AcDbSymbolTable
 70
     1
  0
VPORT
  5
2FCF
330
8
100
AcDbSymbolTableRecord
100
AcDbViewportTableRecord
  2
*Active
 70
     0
 10
0.0
 20
0.0
 11
1.0
 21
1.0
 12
420.0000000000001
 22
297.0
 13
0.0
 23
0.0
 14
5.0
 24
5.0
 15
10.0
 25
10.0
 16
0.0
 26
0.0
 36
1.0
 17
0.0
 27
0.0
 37
0.0
 40
598.1684210526316
 41
1.879391100702576
 42
50.0
 43
0.0
 44
0.0
 50
0.0
 51
0.0
 71
     0
 72
   100
 73
     1
 74
     0
 75
     0
 76
     0
 77
     0
 78
     0
281
     0
 65
     1
110
0.0
120
0.0
130
0.0
111
1.0
121
0.0
131
0.0
112
0.0
122
1.0
132
0.0
 79
     0
146
0.0
348
23EF
 60
     3
 61
     5
292
     1
282
     1
141
0.0
142
0.0
 63
   250
421
  3355443
1001
ACAD_NAV_VCDISPLAY
1070
     3
  0
ENDTAB
  0
TABLE
  2
LTYPE
  5
5
330
0
100
AcDbSymbolTable
 70
     4
  0
LTYPE
  5
14
330
5
100
AcDbSymbolTableRecord
100
AcDbLinetypeTableRecord
  2
BYBLOCK
 70
     0
  3

 72
    65
 73
     0
 40
0.0
  0
LTYPE
  5
15
330
5
100
AcDbSymbolTableRecord
100
AcDbLinetypeTableRecord
  2
BYLAYER
 70
     0
  3

 72
    65
 73
     0
 40
0.0
  0
LTYPE
  5
16
330
5
100
AcDbSymbolTableRecord
100
AcDbLinetypeTableRecord
  2
CONTINUOUS
 70
     0
  3
Solid line
 72
    65
 73
     0
 40
0.0
  0
LTYPE
  5
E7E
330
5
100
AcDbSymbolTableRecord
100
AcDbLinetypeTableRecord
  2
DASHED2
 70
     0
  3
Dashed (.5x) _ _ _ _ _ _ _ _ _ _ _ _ _ _ _ _ _
 72
    65
 73
     2
 40
9.524999999999996
 49
6.349999999999997
 74
     0
 49
-3.174999999999998
 74
     0
  0
LTYPE
  5
1547
330
5
100
AcDbSymbolTableRecord
100
AcDbLinetypeTableRecord
  2
CENTER2
 70
     0
  3
Center (.5x) ___ _ ___ _ ___ _ ___ _ ___ _ ___
 72
    65
 73
     4
 40
28.575
 49
19.05
 74
     0
 49
-3.174999999999998
 74
     0
 49
3.174999999999998
 74
     0
 49
-3.174999999999998
 74
     0
  0
ENDTAB
  0
TABLE
  2
LAYER
  5
2
102
{ACAD_XDICTIONARY
360
181F
102
}
330
0
100
AcDbSymbolTable
 70
    11
  0
LAYER
  5
F
102
{ACAD_XDICTIONARY
360
3036
102
}
330
2
100
AcDbSymbolTableRecord
100
AcDbLayerTableRecord
  2
0
 70
     0
 62
     7
  6
CONTINUOUS
370
    -3
390
3AE
347
23E8
  0
LAYER
  5
87
102
{ACAD_XDICTIONARY
360
3038
102
}
330
2
100
AcDbSymbolTableRecord
100
AcDbLayerTableRecord
  2
WAKU
 70
     0
 62
     7
  6
CONTINUOUS
370
    -3
390
3AE
347
23E8
  0
LAYER
  5
9C
330
2
100
AcDbSymbolTableRecord
100
AcDbLayerTableRecord
  2
DEFPOINTS
 70
     0
 62
     7
  6
CONTINUOUS
290
     0
370
    -3
390
3AE
347
23E8
  0
LAYER
  5
1548
102
{ACAD_XDICTIONARY
360
303A
102
}
330
2
100
AcDbSymbolTableRecord
100
AcDbLayerTableRecord
  2
SITAJI
 70
     0
 62
     7
  6
CONTINUOUS
370
    -3
390
3AE
347
23E8
  0
LAYER
  5
1549
102
{ACAD_XDICTIONARY
360
303C
102
}
330
2
100
AcDbSymbolTableRecord
100
AcDbLayerTableRecord
  2
YAKUMONO
 70
     0
 62
     1
  6
CONTINUOUS
370
    -3
390
3AE
347
23E8
  0
LAYER
  5
154A
102
{ACAD_XDICTIONARY
360
303E
102
}
330
2
100
AcDbSymbolTableRecord
100
AcDbLayerTableRecord
  2
SEIHIN
 70
     0
 62
     4
  6
CONTINUOUS
370
    -3
390
3AE
347
23E8
  0
LAYER
  5
154B
102
{ACAD_XDICTIONARY
360
3040
102
}
330
2
100
AcDbSymbolTableRecord
100
AcDbLayerTableRecord
  2
TEKUSU
 70
     0
 62
     7
  6
CONTINUOUS
370
    -3
390
3AE
347
23E8
  0
LAYER
  5
154C
102
{ACAD_XDICTIONARY
360
3042
102
}
330
2
100
AcDbSymbolTableRecord
100
AcDbLayerTableRecord
  2
SEALING
 70
     0
 62
     7
  6
CONTINUOUS
370
     9
390
3AE
347
23E8
  0
LAYER
  5
154D
102
{ACAD_XDICTIONARY
360
3044
102
}
330
2
100
AcDbSymbolTableRecord
100
AcDbLayerTableRecord
  2
SUNPOU
 70
     0
 62
     7
  6
CONTINUOUS
370
     5
390
3AE
347
23E8
  0
LAYER
  5
154E
102
{ACAD_XDICTIONARY
360
3046
102
}
330
2
100
AcDbSymbolTableRecord
100
AcDbLayerTableRecord
  2
HIKIDASI
 70
     0
 62
     7
  6
CONTINUOUS
370
     5
390
3AE
347
23E8
  0
LAYER
  5
181D
102
{ACAD_XDICTIONARY
360
3048
102
}
330
2
100
AcDbSymbolTableRecord
100
AcDbLayerTableRecord
  2
PACKING
 70
     0
 62
     7
  6
CONTINUOUS
370
     9
390
3AE
347
23E8
1001
AcAecLayerStandard
1000

1000

  0
ENDTAB
  0
TABLE
  2
STYLE
  5
3
330
0
100
AcDbSymbolTable
 70
     3
  0
STYLE
  5
10
330
3
100
AcDbSymbolTableRecord
100
AcDbTextStyleTableRecord
  2
STANDARD
 70
     0
 40
5.0
 41
1.0
 50
0.0
 71
     0
 42
5.0
  3
txt.shx
  4
extfont.shx
  0
STYLE
  5
EA1
330
3
100
AcDbSymbolTableRecord
100
AcDbTextStyleTableRecord
  2
WAKU
 70
     0
 40
5.0
 41
1.0
 50
0.0
 71
     0
 42
5.0
  3

  4

1001
ACAD
1000
MS Gothic
1071
    32817
  0
STYLE
  5
247D
330
3
100
AcDbSymbolTableRecord
100
AcDbTextStyleTableRecord
  2
STYLE2
 70
     0
 40
0.0
 41
0.7
 50
0.0
 71
     0
 42
5.0
  3
MONOTXT.SHX
  4
BigFont.shx
  0
ENDTAB
  0
TABLE
  2
VIEW
  5
6
330
0
100
AcDbSymbolTable
 70
     2
  0
ENDTAB
  0
TABLE
  2
UCS
  5
7
330
0
100
AcDbSymbolTable
 70
     0
  0
ENDTAB
  0
TABLE
  2
APPID
  5
9
330
0
100
AcDbSymbolTable
 70
    15
  0
APPID
  5
11
330
9
100
AcDbSymbolTableRecord
100
AcDbRegAppTableRecord
  2
ACAD
 70
     0
  0
APPID
  5
181E
330
9
100
AcDbSymbolTableRecord
100
AcDbRegAppTableRecord
  2
AcAecLayerStandard
 70
     0
  0
APPID
  5
1F74
330
9
100
AcDbSymbolTableRecord
100
AcDbRegAppTableRecord
  2
ACAD_EXEMPT_FROM_CAD_STANDARDS
 70
     0
  0
APPID
  5
2483
330
9
100
AcDbSymbolTableRecord
100
AcDbRegAppTableRecord
  2
ACAD_PSEXT
 70
     0
  0
APPID
  5
2484
330
9
100
AcDbSymbolTableRecord
100
AcDbRegAppTableRecord
  2
ACAD_DSTYLE_DIMJAG
 70
     0
  0
APPID
  5
2485
330
9
100
AcDbSymbolTableRecord
100
AcDbRegAppTableRecord
  2
ACAD_DSTYLE_DIMBREAK
 70
     0
  0
APPID
  5
2486
330
9
100
AcDbSymbolTableRecord
100
AcDbRegAppTableRecord
  2
ACAD_DSTYLE_DIMTALN
 70
     0
  0
APPID
  5
2487
330
9
100
AcDbSymbolTableRecord
100
AcDbRegAppTableRecord
  2
GENIUS_GENODEF_13
 70
     0
  0
APPID
  5
2488
330
9
100
AcDbSymbolTableRecord
100
AcDbRegAppTableRecord
  2
GENIUS_GENOBJ-N-FIL_13
 70
     0
  0
APPID
  5
3001
330
9
100
AcDbSymbolTableRecord
100
AcDbRegAppTableRecord
  2
ACAD_NAV_VCDISPLAY
 70
     0
  0
APPID
  5
3032
330
9
100
AcDbSymbolTableRecord
100
AcDbRegAppTableRecord
  2
GradientColor1ACI
 70
     0
  0
APPID
  5
3033
330
9
100
AcDbSymbolTableRecord
100
AcDbRegAppTableRecord
  2
GradientColor2ACI
 70
     0
  0
APPID
  5
30F7
330
9
100
AcDbSymbolTableRecord
100
AcDbRegAppTableRecord
  2
ACAD_MLEADERVER
 70
     0
  0
APPID
  5
4633
330
9
100
AcDbSymbolTableRecord
100
AcDbRegAppTableRecord
  2
AcadAnnoMonitorAlertIconDisabled
 70
     0
  0
APPID
  5
46DF
330
9
100
AcDbSymbolTableRecord
100
AcDbRegAppTableRecord
  2
AcCmTransparency
 70
     0
  0
ENDTAB
  0
TABLE
  2
DIMSTYLE
  5
A
330
0
100
AcDbSymbolTable
 70
     3
100
AcDbDimStyleTable
 71
     1
340
1D
  0
DIMSTYLE
105
1D
102
{ACAD_REACTORS
330
2CEF
330
2B45
330
2B3E
330
3E0F
330
3E32
330
3E97
330
3EB8
330
4F06
102
}
330
A
100
AcDbSymbolTableRecord
100
AcDbDimStyleTableRecord
  2
STANDARD
 70
     0
 41
1.5
 42
5.0
 43
3.75
 44
0.0
 73
     0
 74
     0
 77
     1
 78
     8
140
5.0
141
2.5
147
0.625
172
     1
340
10
341
B0
342
14C3
  0
DIMSTYLE
105
2482
330
A
100
AcDbSymbolTableRecord
100
AcDbDimStyleTableRecord
  2
ISO-25
 70
     0
 41
2.5
 42
3.0
 43
3.75
 44
1.25
 73
     0
 74
     0
 77
     1
 78
     8
140
5.0
141
2.5
143
0.03937007874016
147
0.625
171
     3
172
     1
271
     2
272
     2
274
     3
278
    44
283
     0
284
     8
340
247D
  0
ENDTAB
  0
TABLE
  2
BLOCK_RECORD
  5
1
330
0
100
AcDbSymbolTable
 70
    12
  0
BLOCK_RECORD
  5
1A
102
{ACAD_XDICTIONARY
360
1FFD
102
}
330
1
100
AcDbSymbolTableRecord
100
AcDbBlockTableRecord
  2
*MODEL_SPACE
340
3B3
 70
     0
280
     1
281
     0
  0
BLOCK_RECORD
  5
17
330
1
100
AcDbSymbolTableRecord
100
AcDbBlockTableRecord
  2
*PAPER_SPACE
340
3B4
 70
     0
280
     1
281
     0
  0
BLOCK_RECORD
  5
B0
330
1
100
AcDbSymbolTableRecord
100
AcDbBlockTableRecord
  2
_NONE
340
0
 70
     0
280
     1
281
     0
  0
BLOCK_RECORD
  5
E1F
330
1
100
AcDbSymbolTableRecord
100
AcDbBlockTableRecord
  2
IGロゴ
340
0
 70
     0
280
     1
281
     0
  0
BLOCK_RECORD
  5
14C3
330
1
100
AcDbSymbolTableRecord
100
AcDbBlockTableRecord
  2
_DotBlank
340
0
102
{BLKREFS
331
3F15
331
3F16
331
5150
331
5151
331
5159
331
515A
331
518C
331
518D
331
3A63
331
3A64
331
3A6C
331
3A6D
331
51BE
331
51BF
331
51C7
331
51C8
102
}
 70
     0
280
     1
281
     0
  0
BLOCK_RECORD
  5
2BB9
330
1
100
AcDbSymbolTableRecord
100
AcDbBlockTableRecord
  2
*D3
340
0
 70
     0
280
     1
281
     0
  0
BLOCK_RECORD
  5
2BC5
330
1
100
AcDbSymbolTableRecord
100
AcDbBlockTableRecord
  2
*D4
340
0
 70
     0
280
     1
281
     0
  0
BLOCK_RECORD
  5
2CF0
330
1
100
AcDbSymbolTableRecord
100
AcDbBlockTableRecord
  2
*D5
340
0
 70
     0
280
     1
281
     0
  0
BLOCK_RECORD
  5
3E10
330
1
100
AcDbSymbolTableRecord
100
AcDbBlockTableRecord
  2
*D6
340
0
 70
     0
280
     1
281
     0
  0
BLOCK_RECORD
  5
3E33
330
1
100
AcDbSymbolTableRecord
100
AcDbBlockTableRecord
  2
*D7
340
0
 70
     0
280
     1
281
     0
  0
BLOCK_RECORD
  5
3E9A
330
1
100
AcDbSymbolTableRecord
100
AcDbBlockTableRecord
  2
*D8
340
0
 70
     0
280
     1
281
     0
  0
BLOCK_RECORD
  5
3EB9
330
1
100
AcDbSymbolTableRecord
100
AcDbBlockTableRecord
  2
*D9
340
0
 70
     0
280
     1
281
     0
  0
BLOCK_RECORD
  5
4F07
330
1
100
AcDbSymbolTableRecord
100
AcDbBlockTableRecord
  2
*D10
340
0
 70
     0
280
     1
281
     0
  0
ENDTAB
  0
ENDSEC
  0
SECTION
  2
BLOCKS
  0
BLOCK
  5
1B
330
1A
100
AcDbEntity
  8
0
100
AcDbBlockBegin
  2
*MODEL_SPACE
 70
     0
 10
0.0
 20
0.0
 30
0.0
  3
*MODEL_SPACE
  1

  0
ENDBLK
  5
1C
330
1A
100
AcDbEntity
  8
0
100
AcDbBlockEnd
  0
BLOCK
  5
18
330
17
100
AcDbEntity
 67
     1
  8
0
100
AcDbBlockBegin
  2
*PAPER_SPACE
 70
     0
 10
0.0
 20
0.0
 30
0.0
  3
*PAPER_SPACE
  1

  0
ENDBLK
  5
19
330
17
100
AcDbEntity
 67
     1
  8
0
100
AcDbBlockEnd
  0
BLOCK
  5
B1
330
B0
100
AcDbEntity
  8
0
100
AcDbBlockBegin
  2
_NONE
 70
     0
 10
0.0
 20
0.0
 30
0.0
  3
_NONE
  1

  0
CIRCLE
  5
B2
330
B0
100
AcDbEntity
  8
0
  6
ByBlock
 62
     0
100
AcDbCircle
 10
0.0
 20
0.0
 30
0.0
 40
0.25
  0
ENDBLK
  5
B3
330
B0
100
AcDbEntity
  8
0
100
AcDbBlockEnd
  0
BLOCK
  5
E20
330
E1F
100
AcDbEntity
  8
0
100
AcDbBlockBegin
  2
IGロゴ
 70
     0
 10
0.0
 20
0.0
 30
0.0
  3
IGロゴ
  1

  0
CIRCLE
  5
E21
330
E1F
100
AcDbEntity
  8
WAKU
100
AcDbCircle
 10
-7.133294257549736
 20
40.74217652150603
 30
0.0
 40
0.8702311197916666
  0
POLYLINE
  5
E22
330
E1F
100
AcDbEntity
  8
WAKU
100
AcDb2dPolyline
 66
     1
 10
0.0
 20
0.0
 30
0.0
 70
     1
  0
VERTEX
  5
E23
330
E22
100
AcDbEntity
  8
WAKU
100
AcDbVertex
100
AcDb2dVertex
 10
-6.558996840015013
 20
36.03789863522132
 30
0.0
  0
VERTEX
  5
E24
330
E22
100
AcDbEntity
  8
WAKU
100
AcDbVertex
100
AcDb2dVertex
 10
-7.774082017966402
 20
36.03789863522132
 30
0.0
  0
VERTEX
  5
E25
330
E22
100
AcDbEntity
  8
WAKU
100
AcDbVertex
100
AcDb2dVertex
 10
-7.774082017966402
 20
38.72059449025604
 30
0.0
  0
VERTEX
  5
E26
330
E22
100
AcDbEntity
  8
WAKU
100
AcDbVertex
100
AcDb2dVertex
 10
-6.558996840015013
 20
38.72059449025604
 30
0.0
  0
SEQEND
  5
E27
330
E22
100
AcDbEntity
  8
WAKU
  0
SPLINE
  5
E28
330
E1F
100
AcDbEntity
  8
WAKU
100
AcDbSpline
210
0.0
220
0.0
230
1.0
 70
     9
 71
     3
 72
    56
 73
    52
 74
     0
 42
0.000000001
 43
0.0000000001
 40
0.0
 40
0.0
 40
0.0
 40
0.0
 40
1.0
 40
1.0
 40
1.0
 40
2.0
 40
2.0
 40
2.0
 40
3.0
 40
3.0
 40
3.0
 40
4.0
 40
4.0
 40
4.0
 40
5.0
 40
5.0
 40
5.0
 40
6.0
 40
6.0
 40
6.0
 40
7.0
 40
7.0
 40
7.0
 40
8.0
 40
8.0
 40
8.0
 40
9.0
 40
9.0
 40
9.0
 40
10.0
 40
10.0
 40
10.0
 40
11.0
 40
11.0
 40
11.0
 40
12.0
 40
12.0
 40
12.0
 40
13.0
 40
13.0
 40
13.0
 40
14.0
 40
14.0
 40
14.0
 40
15.0
 40
15.0
 40
15.0
 40
16.0
 40
16.0
 40
16.0
 40
17.0
 40
17.0
 40
17.0
 40
17.0
 10
-3.33025335043168
 20
41.50009752845046
 30
0.0
 10
-3.33025335043168
 20
41.50009752845046
 30
0.0
 10
-3.254805759285846
 20
41.50698771942269
 30
0.0
 10
-3.254805759285846
 20
41.50698771942269
 30
0.0
 10
-3.014682603903903
 20
41.57795668643657
 30
0.0
 10
-2.824513333070568
 20
41.68785523244353
 30
0.0
 10
-2.840016262758068
 20
42.06302613088103
 30
0.0
 10
-2.853107625605291
 20
42.38342001108935
 30
0.0
 10
-3.100120971959456
 20
42.65248196855464
 30
0.0
 10
-3.420170342619181
 20
42.65248196855464
 30
0.0
 10
-3.420170342619181
 20
42.65248196855464
 30
0.0
 10
-7.55359590685529
 20
42.652137459006
 30
0.0
 10
-7.55359590685529
 20
42.652137459006
 30
0.0
 10
-8.404534491924735
 20
42.68383233747825
 30
0.0
 10
-8.989167195917787
 20
42.06509318817269
 30
0.0
 10
-8.989167195917787
 20
41.3305988305338
 30
0.0
 10
-8.989167195917787
 20
40.88411445553381
 30
0.0
 10
-8.740431301820567
 20
40.46932495900603
 30
0.0
 10
-8.381796861716402
 20
40.22816827497825
 30
0.0
 10
-8.381796861716402
 20
40.22816827497825
 30
0.0
 10
-8.354925116924736
 20
40.20715319251297
 30
0.0
 10
-8.354925116924736
 20
40.20715319251297
 30
0.0
 10
-8.607450616056681
 20
40.05798055796435
 30
0.0
 10
-8.748355021438625
 20
39.8075221161241
 30
0.0
 10
-8.771781670744179
 20
39.50090861786021
 30
0.0
 10
-8.794863810501125
 20
39.19601766733936
 30
0.0
 10
-8.621230998001124
 20
38.83669420813798
 30
0.0
 10
-8.330464938973346
 20
38.69854587914492
 30
0.0
 10
-8.330464938973346
 20
38.69854587914492
 30
0.0
 10
-8.350446492792791
 20
38.68407647810325
 30
0.0
 10
-8.350446492792791
 20
38.68407647810325
 30
0.0
 10
-9.024996188973343
 20
38.26515286699215
 30
0.0
 10
-9.494562703730293
 20
37.59198120900604
 30
0.0
 10
-9.243070733244179
 20
36.46681302324215
 30
0.0
 10
-9.13076062039696
 20
35.96176202497826
 30
0.0
 10
-8.617441392966401
 20
35.58314603105465
 30
0.0
 10
-8.290501831334458
 20
35.41468086178382
 30
0.0
 10
-7.829203545744178
 20
35.17765829233937
 30
0.0
 10
-6.996523966751125
 20
35.05983602671437
 30
0.0
 10
-6.482860229771957
 20
35.04467760657548
 30
0.0
 10
-6.482860229771957
 20
35.04467760657548
 30
0.0
 10
-3.647891154251122
 20
34.73668607011715
 30
0.0
 10
-3.247571058765013
 20
36.70865872636714
 30
0.0
 10
-2.847250963278903
 20
38.68028687306853
 30
0.0
 10
-4.534658732376124
 20
39.39479967688798
 30
0.0
 10
-4.775126397306681
 20
39.40513496334631
 30
0.0
 10
-5.015594062237235
 20
39.41478123070742
 30
0.0
 10
-3.57830022543168
 20
39.8912379364366
 30
0.0
 10
-3.738497165535846
 20
41.33438843556853
 30
0.0
 10
-3.738497165535846
 20
41.33438843556853
 30
0.0
 10
-3.640656453730291
 20
41.4573783444227
 30
0.0
 10
-3.33025335043168
 20
41.50009752845046
 30
0.0
  0
ELLIPSE
  5
E29
330
E1F
100
AcDbEntity
  8
WAKU
100
AcDbEllipse
 10
-6.072204847827513
 20
38.96691881751298
 30
0.0
 11
-5.716791449652776
 21
-5.716791449652776
 31
0.0
210
0.0
220
0.0
230
0.9999999999999998
 40
0.7036880800289264
 41
0.0
 42
6.283185307179584
  0
POLYLINE
  5
E2A
330
E1F
100
AcDbEntity
  8
WAKU
100
AcDb2dPolyline
 66
     1
 10
0.0
 20
0.0
 30
0.0
 70
     1
  0
VERTEX
  5
E2B
330
E2A
100
AcDbEntity
  8
WAKU
100
AcDbVertex
100
AcDb2dVertex
 10
38.86320910616554
 20
39.71657159529075
 30
0.0
  0
VERTEX
  5
E2C
330
E2A
100
AcDbEntity
  8
WAKU
100
AcDbVertex
100
AcDb2dVertex
 10
38.86320910616554
 20
38.31097263695742
 30
0.0
  0
VERTEX
  5
E2D
330
E2A
100
AcDbEntity
  8
WAKU
100
AcDbVertex
100
AcDb2dVertex
 10
31.17513401935998
 20
38.31097263695742
 30
0.0
  0
VERTEX
  5
E2E
330
E2A
100
AcDbEntity
  8
WAKU
100
AcDbVertex
100
AcDb2dVertex
 10
31.17513401935998
 20
39.71657159529075
 30
0.0
  0
SEQEND
  5
E2F
330
E2A
100
AcDbEntity
  8
WAKU
  0
SPLINE
  5
E30
330
E1F
100
AcDbEntity
  8
WAKU
100
AcDbSpline
210
0.0
220
0.0
230
1.0
 70
     9
 71
     3
 72
    53
 73
    49
 74
     0
 42
0.000000001
 43
0.0000000001
 40
0.0
 40
0.0
 40
0.0
 40
0.0
 40
1.0
 40
1.0
 40
1.0
 40
2.0
 40
2.0
 40
2.0
 40
3.0
 40
3.0
 40
3.0
 40
4.0
 40
4.0
 40
4.0
 40
5.0
 40
5.0
 40
5.0
 40
6.0
 40
6.0
 40
6.0
 40
7.0
 40
7.0
 40
7.0
 40
8.0
 40
8.0
 40
8.0
 40
9.0
 40
9.0
 40
9.0
 40
10.0
 40
10.0
 40
10.0
 40
11.0
 40
11.0
 40
11.0
 40
12.0
 40
12.0
 40
12.0
 40
13.0
 40
13.0
 40
13.0
 40
14.0
 40
14.0
 40
14.0
 40
15.0
 40
15.0
 40
15.0
 40
16.0
 40
16.0
 40
16.0
 40
16.0
 10
92.00725207491553
 20
42.91637628279075
 30
0.0
 10
92.00725207491553
 20
42.87055651282547
 30
0.0
 10
92.00725207491553
 20
40.82899292775603
 30
0.0
 10
92.00725207491553
 20
40.82899292775603
 30
0.0
 10
92.00725207491553
 20
40.82899292775603
 30
0.0
 10
90.36945368081831
 20
40.82899292775603
 30
0.0
 10
90.32397842040165
 20
40.82899292775603
 30
0.0
 10
90.32397842040165
 20
40.78489570553379
 30
0.0
 10
90.32397842040165
 20
39.62424303626298
 30
0.0
 10
90.32397842040165
 20
39.57980130449215
 30
0.0
 10
90.36945368081831
 20
39.57980130449215
 30
0.0
 10
92.00725207491553
 20
39.57980130449215
 30
0.0
 10
92.00725207491553
 20
39.57980130449215
 30
0.0
 10
92.00725207491553
 20
39.57980130449215
 30
0.0
 10
92.00725207491553
 20
36.45303264129771
 30
0.0
 10
92.00725207491553
 20
36.45303264129771
 30
0.0
 10
92.00725207491553
 20
36.45303264129771
 30
0.0
 10
89.91194500026276
 20
36.45303264129771
 30
0.0
 10
89.86646973984608
 20
36.45303264129771
 30
0.0
 10
89.86646973984608
 20
36.40893541907548
 30
0.0
 10
89.86646973984608
 20
35.26481920813797
 30
0.0
 10
89.86646973984608
 20
35.22037747636714
 30
0.0
 10
89.91228950981136
 20
35.22037747636714
 30
0.0
 10
95.3272905948808
 20
35.22037747636714
 30
0.0
 10
95.3734548743947
 20
35.22037747636714
 30
0.0
 10
95.3734548743947
 20
35.26481920813797
 30
0.0
 10
95.3734548743947
 20
36.40893541907548
 30
0.0
 10
95.3734548743947
 20
36.45303264129771
 30
0.0
 10
95.32763510442942
 20
36.45303264129771
 30
0.0
 10
93.41905220512387
 20
36.45303264129771
 30
0.0
 10
93.41905220512387
 20
36.45303264129771
 30
0.0
 10
93.41905220512387
 20
36.45303264129771
 30
0.0
 10
93.41905220512387
 20
39.57980130449215
 30
0.0
 10
93.41905220512387
 20
39.57980130449215
 30
0.0
 10
93.41905220512387
 20
39.57980130449215
 30
0.0
 10
95.18776422769331
 20
39.57980130449215
 30
0.0
 10
95.23323948810995
 20
39.57980130449215
 30
0.0
 10
95.23323948810995
 20
39.62424303626298
 30
0.0
 10
95.23323948810995
 20
40.78489570553379
 30
0.0
 10
95.23323948810995
 20
40.82899292775603
 30
0.0
 10
95.18776422769331
 20
40.82899292775603
 30
0.0
 10
93.41905220512387
 20
40.82899292775603
 30
0.0
 10
93.41905220512387
 20
40.82899292775603
 30
0.0
 10
93.41905220512387
 20
40.82899292775603
 30
0.0
 10
93.41905220512387
 20
42.87055651282547
 30
0.0
 10
93.41905220512387
 20
42.91637628279075
 30
0.0
 10
93.37461047335304
 20
42.91637628279075
 30
0.0
 10
92.05134929713777
 20
42.91637628279075
 30
0.0
 10
92.00725207491553
 20
42.91637628279075
 30
0.0
  0
SPLINE
  5
E31
330
E1F
100
AcDbEntity
  8
WAKU
100
AcDbSpline
210
0.0
220
0.0
230
1.0
 70
     9
 71
     3
 72
    74
 73
    70
 74
     0
 42
0.000000001
 43
0.0000000001
 40
0.0
 40
0.0
 40
0.0
 40
0.0
 40
1.0
 40
1.0
 40
1.0
 40
2.0
 40
2.0
 40
2.0
 40
3.0
 40
3.0
 40
3.0
 40
4.0
 40
4.0
 40
4.0
 40
5.0
 40
5.0
 40
5.0
 40
6.0
 40
6.0
 40
6.0
 40
7.0
 40
7.0
 40
7.0
 40
8.0
 40
8.0
 40
8.0
 40
9.0
 40
9.0
 40
9.0
 40
10.0
 40
10.0
 40
10.0
 40
11.0
 40
11.0
 40
11.0
 40
12.0
 40
12.0
 40
12.0
 40
13.0
 40
13.0
 40
13.0
 40
14.0
 40
14.0
 40
14.0
 40
15.0
 40
15.0
 40
15.0
 40
16.0
 40
16.0
 40
16.0
 40
17.0
 40
17.0
 40
17.0
 40
18.0
 40
18.0
 40
18.0
 40
19.0
 40
19.0
 40
19.0
 40
20.0
 40
20.0
 40
20.0
 40
21.0
 40
21.0
 40
21.0
 40
22.0
 40
22.0
 40
22.0
 40
23.0
 40
23.0
 40
23.0
 40
23.0
 10
87.80871420599192
 20
42.92464451195741
 30
0.0
 10
87.80871420599192
 20
42.87951376108935
 30
0.0
 10
87.80871420599192
 20
41.76330282358935
 30
0.0
 10
87.80871420599192
 20
41.76330282358935
 30
0.0
 10
87.80871420599192
 20
41.76330282358935
 30
0.0
 10
86.67562230060999
 20
41.76330282358935
 30
0.0
 10
86.63083605929054
 20
41.76330282358935
 30
0.0
 10
86.63083605929054
 20
41.71920560136714
 30
0.0
 10
86.63083605929054
 20
40.67603068817269
 30
0.0
 10
86.63083605929054
 20
40.63193346595046
 30
0.0
 10
86.6763113197072
 20
40.63193346595046
 30
0.0
 10
88.69479276501968
 20
40.63193346595046
 30
0.0
 10
88.69479276501968
 20
40.63193346595046
 30
0.0
 10
88.69479276501968
 20
40.63193346595046
 30
0.0
 10
88.67550023029748
 20
40.59713800154074
 30
0.0
 10
88.67550023029748
 20
40.59713800154074
 30
0.0
 10
88.34959419731138
 20
40.01112725935325
 30
0.0
 10
87.48694228758914
 20
39.1315943817491
 30
0.0
 10
86.4654714759572
 20
38.57727851803382
 30
0.0
 10
86.47305068602666
 20
38.54558363956158
 30
0.0
 10
86.79516711397804
 20
37.19545071855464
 30
0.0
 10
86.8092920054711
 20
37.13585056664492
 30
0.0
 10
87.15896919731136
 20
37.34944648678381
 30
0.0
 10
87.41011665824888
 20
37.51377754147132
 30
0.0
 10
87.77116266519332
 20
37.79076321855465
 30
0.0
 10
87.77116266519332
 20
37.79076321855465
 30
0.0
 10
87.80871420599192
 20
37.81970202063798
 30
0.0
 10
87.80871420599192
 20
37.81970202063798
 30
0.0
 10
87.80871420599192
 20
37.81970202063798
 30
0.0
 10
87.80871420599192
 20
35.03089722463104
 30
0.0
 10
87.80871420599192
 20
34.98507745466576
 30
0.0
 10
87.85315593776275
 20
34.98507745466576
 30
0.0
 10
89.13886557317942
 20
34.98507745466576
 30
0.0
 10
89.18330730495027
 20
34.98507745466576
 30
0.0
 10
89.18330730495027
 20
35.03089722463104
 30
0.0
 10
89.18330730495027
 20
38.15973294511714
 30
0.0
 10
89.18330730495027
 20
38.15973294511714
 30
0.0
 10
89.18330730495027
 20
38.15973294511714
 30
0.0
 10
89.22499296033221
 20
38.10667847463103
 30
0.0
 10
89.22499296033221
 20
38.10667847463103
 30
0.0
 10
89.51128039522803
 20
37.74494344858937
 30
0.0
 10
89.71695259574886
 20
37.5471949676866
 30
0.0
 10
89.98635906276275
 20
37.32050768470048
 30
0.0
 10
90.01323080755442
 20
37.36598294511714
 30
0.0
 10
90.63782661918637
 20
38.43051745032548
 30
0.0
 10
90.6609087589433
 20
38.47013604841576
 30
0.0
 10
90.28470433186001
 20
38.66168335744354
 30
0.0
 10
89.8726709117211
 20
38.9052516083116
 30
0.0
 10
89.40551596380442
 20
39.37171753713104
 30
0.0
 10
89.40551596380442
 20
39.37171753713104
 30
0.0
 10
89.39070205321415
 20
39.38618693817272
 30
0.0
 10
89.39070205321415
 20
39.38618693817272
 30
0.0
 10
89.39070205321415
 20
39.38618693817272
 30
0.0
 10
89.40344890651275
 20
39.40237888695742
 30
0.0
 10
89.40344890651275
 20
39.40237888695742
 30
0.0
 10
89.81479330755439
 20
39.93740221595048
 30
0.0
 10
89.99256023463775
 20
40.29224705101992
 30
0.0
 10
90.13932130234607
 20
40.60988485483934
 30
0.0
 10
90.13932130234607
 20
40.60988485483934
 30
0.0
 10
90.13725424505443
 20
41.71851658226992
 30
0.0
 10
90.13725424505443
 20
41.76330282358935
 30
0.0
 10
90.09281251328358
 20
41.76330282358935
 30
0.0
 10
89.18330730495027
 20
41.76330282358935
 30
0.0
 10
89.18330730495027
 20
41.76330282358935
 30
0.0
 10
89.18330730495027
 20
41.76330282358935
 30
0.0
 10
89.18330730495027
 20
42.87951376108935
 30
0.0
 10
89.18330730495027
 20
42.92464451195741
 30
0.0
 10
89.13886557317942
 20
42.92464451195741
 30
0.0
 10
87.85315593776275
 20
42.92464451195741
 30
0.0
 10
87.80871420599192
 20
42.92464451195741
 30
0.0
  0
SPLINE
  5
E32
330
E1F
100
AcDbEntity
  8
WAKU
100
AcDbSpline
210
0.0
220
0.0
230
1.0
 70
     9
 71
     3
 72
    35
 73
    31
 74
     0
 42
0.000000001
 43
0.0000000001
 40
0.0
 40
0.0
 40
0.0
 40
0.0
 40
1.0
 40
1.0
 40
1.0
 40
2.0
 40
2.0
 40
2.0
 40
3.0
 40
3.0
 40
3.0
 40
4.0
 40
4.0
 40
4.0
 40
5.0
 40
5.0
 40
5.0
 40
6.0
 40
6.0
 40
6.0
 40
7.0
 40
7.0
 40
7.0
 40
8.0
 40
8.0
 40
8.0
 40
9.0
 40
9.0
 40
9.0
 40
10.0
 40
10.0
 40
10.0
 40
10.0
 10
80.33940268255442
 20
36.44579794077686
 30
0.0
 10
80.62155600286692
 20
36.95360501542964
 30
0.0
 10
80.80621312092246
 20
37.32808689476993
 30
0.0
 10
81.06804037786693
 20
37.88343628713104
 30
0.0
 10
81.06804037786693
 20
37.88343628713104
 30
0.0
 10
81.07424154974195
 20
37.89652764997825
 30
0.0
 10
81.07424154974195
 20
37.89652764997825
 30
0.0
 10
81.07424154974195
 20
37.89652764997825
 30
0.0
 10
83.71697429713776
 20
37.89652764997825
 30
0.0
 10
83.71697429713776
 20
37.89652764997825
 30
0.0
 10
83.71697429713776
 20
37.89652764997825
 30
0.0
 10
83.72593154540162
 20
37.85174140865882
 30
0.0
 10
83.72593154540162
 20
37.85174140865882
 30
0.0
 10
83.72593154540162
 20
37.85174140865882
 30
0.0
 10
82.7082503388044
 20
37.41731486786021
 30
0.0
 10
82.65209528238081
 20
37.39354370900603
 30
0.0
 10
82.69309191866554
 20
37.34669041039492
 30
0.0
 10
83.43034235269332
 20
36.50505358313797
 30
0.0
 10
83.43034235269332
 20
36.50505358313797
 30
0.0
 10
83.43034235269332
 20
36.50505358313797
 30
0.0
 10
83.38073297769332
 20
36.50367554494354
 30
0.0
 10
83.38073297769332
 20
36.50367554494354
 30
0.0
 10
83.38073297769332
 20
36.50367554494354
 30
0.0
 10
81.27750218342248
 20
36.41927070553381
 30
0.0
 10
81.27750218342248
 20
36.41927070553381
 30
0.0
 10
81.27750218342248
 20
36.41927070553381
 30
0.0
 10
80.3197656382836
 20
36.41065796681854
 30
0.0
 10
80.3197656382836
 20
36.41065796681854
 30
0.0
 10
80.3197656382836
 20
36.41065796681854
 30
0.0
 10
80.33940268255442
 20
36.44579794077686
 30
0.0
 10
80.33940268255442
 20
36.44579794077686
 30
0.0
  0
SPLINE
  5
E33
330
E1F
100
AcDbEntity
  8
WAKU
100
AcDbSpline
210
0.0
220
0.0
230
1.0
 70
     9
 71
     3
 72
    56
 73
    52
 74
     0
 42
0.000000001
 43
0.0000000001
 40
0.0
 40
0.0
 40
0.0
 40
0.0
 40
1.0
 40
1.0
 40
1.0
 40
2.0
 40
2.0
 40
2.0
 40
3.0
 40
3.0
 40
3.0
 40
4.0
 40
4.0
 40
4.0
 40
5.0
 40
5.0
 40
5.0
 40
6.0
 40
6.0
 40
6.0
 40
7.0
 40
7.0
 40
7.0
 40
8.0
 40
8.0
 40
8.0
 40
9.0
 40
9.0
 40
9.0
 40
10.0
 40
10.0
 40
10.0
 40
11.0
 40
11.0
 40
11.0
 40
12.0
 40
12.0
 40
12.0
 40
13.0
 40
13.0
 40
13.0
 40
14.0
 40
14.0
 40
14.0
 40
15.0
 40
15.0
 40
15.0
 40
16.0
 40
16.0
 40
16.0
 40
17.0
 40
17.0
 40
17.0
 40
17.0
 10
77.46619304713775
 20
39.06165894338104
 30
0.0
 10
77.46619304713775
 20
39.01756172115881
 30
0.0
 10
77.46619304713775
 20
37.94062487220048
 30
0.0
 10
77.46619304713775
 20
37.89652764997825
 30
0.0
 10
77.51166830755443
 20
37.89652764997825
 30
0.0
 10
79.56081110269329
 20
37.89652764997825
 30
0.0
 10
79.56081110269329
 20
37.89652764997825
 30
0.0
 10
79.56081110269329
 20
37.89652764997825
 30
0.0
 10
79.54978679713774
 20
37.86552179060326
 30
0.0
 10
79.54978679713774
 20
37.86552179060326
 30
0.0
 10
79.3306787242211
 20
37.2557398895616
 30
0.0
 10
79.0891775306447
 20
36.76998142601993
 30
0.0
 10
78.9031423743947
 20
36.41513659095048
 30
0.0
 10
78.9031423743947
 20
36.41513659095048
 30
0.0
 10
78.8965966929711
 20
36.40273424720048
 30
0.0
 10
78.8965966929711
 20
36.40273424720048
 30
0.0
 10
78.8965966929711
 20
36.40273424720048
 30
0.0
 10
77.83481826415166
 20
36.39446601803382
 30
0.0
 10
77.83481826415166
 20
36.39446601803382
 30
0.0
 10
77.83481826415166
 20
36.39446601803382
 30
0.0
 10
77.58367080321416
 20
36.40066718990882
 30
0.0
 10
77.53543946640859
 20
36.40170071855465
 30
0.0
 10
77.54474122422109
 20
36.34899075761715
 30
0.0
 10
77.74524578151275
 20
35.18317044511714
 30
0.0
 10
77.75179146293637
 20
35.14527439476992
 30
0.0
 10
79.81230307317942
 20
35.20280748938797
 30
0.0
 10
80.21331218776275
 20
35.23140178192271
 30
0.0
 10
83.93367080321414
 20
35.4980521725477
 30
0.0
 10
83.93367080321414
 20
35.4980521725477
 30
0.0
 10
84.18688532144331
 20
35.51596666907548
 30
0.0
 10
84.18688532144331
 20
35.51596666907548
 30
0.0
 10
84.18688532144331
 20
35.51596666907548
 30
0.0
 10
84.54483074245024
 20
34.9585502194227
 30
0.0
 10
84.56653484401275
 20
34.92409926456159
 30
0.0
 10
84.60236383706831
 20
34.94098023244354
 30
0.0
 10
85.82123862005444
 20
35.52010078365881
 30
0.0
 10
85.86946995685995
 20
35.54283841386715
 30
0.0
 10
85.40300402804053
 20
36.20670831404075
 30
0.0
 10
84.80769152804054
 20
36.99804674720048
 30
0.0
 10
83.92505806449888
 20
37.85656454233937
 30
0.0
 10
83.92505806449888
 20
37.85656454233937
 30
0.0
 10
83.88337240911694
 20
37.89652764997825
 30
0.0
 10
83.88337240911694
 20
37.89652764997825
 30
0.0
 10
83.88337240911694
 20
37.89652764997825
 30
0.0
 10
85.80814725720719
 20
37.89652764997825
 30
0.0
 10
85.85362251762388
 20
37.89652764997825
 30
0.0
 10
85.85362251762388
 20
37.94062487220048
 30
0.0
 10
85.85362251762388
 20
39.01756172115881
 30
0.0
 10
85.85362251762388
 20
39.06165894338104
 30
0.0
 10
85.80711372856137
 20
39.06165894338104
 30
0.0
 10
77.51235732665165
 20
39.06165894338104
 30
0.0
 10
77.46619304713775
 20
39.06165894338104
 30
0.0
  0
SPLINE
  5
E34
330
E1F
100
AcDbEntity
  8
WAKU
100
AcDbSpline
210
0.0
220
0.0
230
1.0
 70
     9
 71
     3
 72
    26
 73
    22
 74
     0
 42
0.000000001
 43
0.0000000001
 40
0.0
 40
0.0
 40
0.0
 40
0.0
 40
1.0
 40
1.0
 40
1.0
 40
2.0
 40
2.0
 40
2.0
 40
3.0
 40
3.0
 40
3.0
 40
4.0
 40
4.0
 40
4.0
 40
5.0
 40
5.0
 40
5.0
 40
6.0
 40
6.0
 40
6.0
 40
7.0
 40
7.0
 40
7.0
 40
7.0
 10
80.22502551241553
 20
40.82141371768659
 30
0.0
 10
81.11627171467246
 20
41.42912856143659
 30
0.0
 10
81.43356500894331
 20
41.75055597029075
 30
0.0
 10
81.66094131102665
 20
42.00445950761714
 30
0.0
 10
81.66094131102665
 20
42.00445950761714
 30
0.0
 10
81.67747776935998
 20
42.02237400414492
 30
0.0
 10
81.67747776935998
 20
42.02237400414492
 30
0.0
 10
81.67747776935998
 20
42.02237400414492
 30
0.0
 10
81.69504775633914
 20
42.00514852671434
 30
0.0
 10
81.69504775633914
 20
42.00514852671434
 30
0.0
 10
81.95584148463778
 20
41.74676636525602
 30
0.0
 10
82.3137869056447
 20
41.39226603973519
 30
0.0
 10
83.14991158012388
 20
40.82141371768659
 30
0.0
 10
83.14991158012388
 20
40.82141371768659
 30
0.0
 10
83.21261231797109
 20
40.77869453365879
 30
0.0
 10
83.21261231797109
 20
40.77869453365879
 30
0.0
 10
83.21261231797109
 20
40.77869453365879
 30
0.0
 10
80.1623247745683
 20
40.77869453365879
 30
0.0
 10
80.1623247745683
 20
40.77869453365879
 30
0.0
 10
80.1623247745683
 20
40.77869453365879
 30
0.0
 10
80.22502551241553
 20
40.82141371768659
 30
0.0
 10
80.22502551241553
 20
40.82141371768659
 30
0.0
  0
SPLINE
  5
E35
330
E1F
100
AcDbEntity
  8
WAKU
100
AcDbSpline
210
0.0
220
0.0
230
1.0
 70
     9
 71
     3
 72
    44
 73
    40
 74
     0
 42
0.000000001
 43
0.0000000001
 40
0.0
 40
0.0
 40
0.0
 40
0.0
 40
1.0
 40
1.0
 40
1.0
 40
2.0
 40
2.0
 40
2.0
 40
3.0
 40
3.0
 40
3.0
 40
4.0
 40
4.0
 40
4.0
 40
5.0
 40
5.0
 40
5.0
 40
6.0
 40
6.0
 40
6.0
 40
7.0
 40
7.0
 40
7.0
 40
8.0
 40
8.0
 40
8.0
 40
9.0
 40
9.0
 40
9.0
 40
10.0
 40
10.0
 40
10.0
 40
11.0
 40
11.0
 40
11.0
 40
12.0
 40
12.0
 40
12.0
 40
13.0
 40
13.0
 40
13.0
 40
13.0
 10
80.86581327283218
 20
42.98355564476993
 30
0.0
 10
80.20504395859608
 20
42.15363214216576
 30
0.0
 10
79.03681207925581
 20
41.47322578365881
 30
0.0
 10
77.08344293863081
 20
40.78110610049907
 30
0.0
 10
77.10859213567943
 20
40.73597534963103
 30
0.0
 10
77.7528249915822
 20
39.57635620900603
 30
0.0
 10
77.7714285072072
 20
39.54328329233937
 30
0.0
 10
77.7776296790822
 20
39.54535034963104
 30
0.0
 10
77.7838308509572
 20
39.54776191647132
 30
0.0
 10
77.7838308509572
 20
39.54776191647132
 30
0.0
 10
78.0573714325544
 20
39.64594713782548
 30
0.0
 10
78.46974936224192
 20
39.79443075327687
 30
0.0
 10
79.17048178411693
 20
40.17476929494352
 30
0.0
 10
79.17048178411693
 20
40.17476929494352
 30
0.0
 10
79.20493273897804
 20
40.19337281056853
 30
0.0
 10
79.20493273897804
 20
40.19337281056853
 30
0.0
 10
79.20493273897804
 20
40.19337281056853
 30
0.0
 10
79.20493273897804
 20
39.73999824459632
 30
0.0
 10
79.20493273897804
 20
39.69762357011715
 30
0.0
 10
79.25075250894329
 20
39.69762357011715
 30
0.0
 10
84.08663304279745
 20
39.69762357011715
 30
0.0
 10
84.13279732231137
 20
39.69762357011715
 30
0.0
 10
84.13279732231137
 20
39.74034275414492
 30
0.0
 10
84.13279732231137
 20
40.22679023678381
 30
0.0
 10
84.13279732231137
 20
40.22679023678381
 30
0.0
 10
84.13279732231137
 20
40.22679023678381
 30
0.0
 10
84.16724827717247
 20
40.20818672115882
 30
0.0
 10
84.16724827717247
 20
40.20818672115882
 30
0.0
 10
84.8438650306447
 20
39.83956150414492
 30
0.0
 10
85.26003256536695
 20
39.67695299720047
 30
0.0
 10
85.53874079019331
 20
39.5687769989366
 30
0.0
 10
85.55803332491553
 20
39.60219442515187
 30
0.0
 10
86.21845812960302
 20
40.75216729841574
 30
0.0
 10
86.2446408552975
 20
40.79798706838103
 30
0.0
 10
84.61338814262388
 20
41.35195842254769
 30
0.0
 10
83.39106826415164
 20
42.06681573591575
 30
0.0
 10
82.51015734835304
 20
42.98355564476993
 30
0.0
 10
82.49155383272805
 20
42.98355564476993
 30
0.0
 10
80.88648384574886
 20
42.98355564476993
 30
0.0
 10
80.86581327283218
 20
42.98355564476993
 30
0.0
  0
SPLINE
  5
E36
330
E1F
100
AcDbEntity
  8
WAKU
100
AcDbSpline
210
0.0
220
0.0
230
1.0
 70
     9
 71
     3
 72
    50
 73
    46
 74
     0
 42
0.000000001
 43
0.0000000001
 40
0.0
 40
0.0
 40
0.0
 40
0.0
 40
1.0
 40
1.0
 40
1.0
 40
2.0
 40
2.0
 40
2.0
 40
3.0
 40
3.0
 40
3.0
 40
4.0
 40
4.0
 40
4.0
 40
5.0
 40
5.0
 40
5.0
 40
6.0
 40
6.0
 40
6.0
 40
7.0
 40
7.0
 40
7.0
 40
8.0
 40
8.0
 40
8.0
 40
9.0
 40
9.0
 40
9.0
 40
10.0
 40
10.0
 40
10.0
 40
11.0
 40
11.0
 40
11.0
 40
12.0
 40
12.0
 40
12.0
 40
13.0
 40
13.0
 40
13.0
 40
14.0
 40
14.0
 40
14.0
 40
15.0
 40
15.0
 40
15.0
 40
15.0
 10
68.10483508272804
 20
39.81096721161021
 30
0.0
 10
68.10483508272804
 20
39.76686998938798
 30
0.0
 10
68.10483508272804
 20
38.68166491126298
 30
0.0
 10
68.10483508272804
 20
38.63756768904075
 30
0.0
 10
68.1499658335961
 20
38.63756768904075
 30
0.0
 10
69.59139378498497
 20
38.63756768904075
 30
0.0
 10
69.59139378498497
 20
38.63756768904075
 30
0.0
 10
69.59139378498497
 20
38.63756768904075
 30
0.0
 10
69.59139378498497
 20
36.56396471595048
 30
0.0
 10
69.59139378498497
 20
36.56396471595048
 30
0.0
 10
69.59139378498497
 20
36.56396471595048
 30
0.0
 10
68.2130110809919
 20
36.46991360917964
 30
0.0
 10
68.2130110809919
 20
36.46991360917964
 30
0.0
 10
68.21370010008914
 20
36.46991360917964
 30
0.0
 10
68.00596084227665
 20
36.46026734181854
 30
0.0
 10
68.00596084227665
 20
36.46026734181854
 30
0.0
 10
68.00596084227665
 20
36.46026734181854
 30
0.0
 10
67.88297093342248
 20
36.45578871768659
 30
0.0
 10
67.84541939262386
 20
36.45441067949214
 30
0.0
 10
67.85127605495026
 20
36.40686836178382
 30
0.0
 10
67.99355849852665
 20
35.22347806230464
 30
0.0
 10
67.99872614175581
 20
35.18041436872825
 30
0.0
 10
71.1575341929711
 20
35.4825492428602
 30
0.0
 10
71.73286513915164
 20
35.54077135657548
 30
0.0
 10
72.7794851478322
 20
35.73851983747825
 30
0.0
 10
72.77914063828359
 20
35.77572686872826
 30
0.0
 10
72.76260417995023
 20
36.83509373070742
 30
0.0
 10
72.76191516085304
 20
36.88642565345047
 30
0.0
 10
72.42085070772803
 20
36.82820353973522
 30
0.0
 10
72.03121040824886
 20
36.76205770640186
 30
0.0
 10
71.00078234835304
 20
36.67179620466575
 30
0.0
 10
71.00078234835304
 20
36.67179620466575
 30
0.0
 10
70.9749441322072
 20
36.6697291473741
 30
0.0
 10
70.9749441322072
 20
36.6697291473741
 30
0.0
 10
70.9749441322072
 20
36.6697291473741
 30
0.0
 10
70.9749441322072
 20
38.63756768904075
 30
0.0
 10
70.9749441322072
 20
38.63756768904075
 30
0.0
 10
70.9749441322072
 20
38.63756768904075
 30
0.0
 10
72.3888113197072
 20
38.63756768904075
 30
0.0
 10
72.43394207057527
 20
38.63756768904075
 30
0.0
 10
72.43394207057527
 20
38.68166491126298
 30
0.0
 10
72.43394207057527
 20
39.76686998938798
 30
0.0
 10
72.43394207057527
 20
39.81096721161021
 30
0.0
 10
72.38812230060998
 20
39.81096721161021
 30
0.0
 10
68.15065485269332
 20
39.81096721161021
 30
0.0
 10
68.10483508272804
 20
39.81096721161021
 30
0.0
  0
SPLINE
  5
E37
330
E1F
100
AcDbEntity
  8
WAKU
100
AcDbSpline
210
0.0
220
0.0
230
1.0
 70
     9
 71
     3
 72
    89
 73
    85
 74
     0
 42
0.000000001
 43
0.0000000001
 40
0.0
 40
0.0
 40
0.0
 40
0.0
 40
1.0
 40
1.0
 40
1.0
 40
2.0
 40
2.0
 40
2.0
 40
3.0
 40
3.0
 40
3.0
 40
4.0
 40
4.0
 40
4.0
 40
5.0
 40
5.0
 40
5.0
 40
6.0
 40
6.0
 40
6.0
 40
7.0
 40
7.0
 40
7.0
 40
8.0
 40
8.0
 40
8.0
 40
9.0
 40
9.0
 40
9.0
 40
10.0
 40
10.0
 40
10.0
 40
11.0
 40
11.0
 40
11.0
 40
12.0
 40
12.0
 40
12.0
 40
13.0
 40
13.0
 40
13.0
 40
14.0
 40
14.0
 40
14.0
 40
15.0
 40
15.0
 40
15.0
 40
16.0
 40
16.0
 40
16.0
 40
17.0
 40
17.0
 40
17.0
 40
18.0
 40
18.0
 40
18.0
 40
19.0
 40
19.0
 40
19.0
 40
20.0
 40
20.0
 40
20.0
 40
21.0
 40
21.0
 40
21.0
 40
22.0
 40
22.0
 40
22.0
 40
23.0
 40
23.0
 40
23.0
 40
24.0
 40
24.0
 40
24.0
 40
25.0
 40
25.0
 40
25.0
 40
26.0
 40
26.0
 40
26.0
 40
27.0
 40
27.0
 40
27.0
 40
28.0
 40
28.0
 40
28.0
 40
28.0
 10
74.36939671467247
 20
42.55980889997824
 30
0.0
 10
74.59573948810998
 20
42.36481649546436
 30
0.0
 10
74.79762208359609
 20
42.10436727671435
 30
0.0
 10
75.02844348116553
 20
41.80085436438797
 30
0.0
 10
75.02844348116553
 20
41.80085436438797
 30
0.0
 10
75.05703777370027
 20
41.76330282358935
 30
0.0
 10
75.05703777370027
 20
41.76330282358935
 30
0.0
 10
75.05703777370027
 20
41.76330282358935
 30
0.0
 10
74.07036242647802
 20
41.76330282358935
 30
0.0
 10
74.07036242647802
 20
41.76330282358935
 30
0.0
 10
74.07036242647802
 20
41.76330282358935
 30
0.0
 10
74.07036242647802
 20
42.88743748070742
 30
0.0
 10
74.07036242647802
 20
42.93325725067268
 30
0.0
 10
74.0259206947072
 20
42.93325725067268
 30
0.0
 10
72.6678640540822
 20
42.93325725067268
 30
0.0
 10
72.62169977456832
 20
42.93325725067268
 30
0.0
 10
72.62307781276277
 20
42.89122708574214
 30
0.0
 10
72.6306570228322
 20
42.66178372636714
 30
0.0
 10
72.6306570228322
 20
42.66178372636714
 30
0.0
 10
72.6303125132836
 20
42.66316176456157
 30
0.0
 10
72.64857151935998
 20
42.2325248287977
 30
0.0
 10
72.64857151935998
 20
42.2325248287977
 30
0.0
 10
72.64857151935998
 20
42.2325248287977
 30
0.0
 10
72.66855307317944
 20
41.76399184268658
 30
0.0
 10
72.66855307317944
 20
41.76399184268658
 30
0.0
 10
72.66855307317944
 20
41.76399184268658
 30
0.0
 10
72.64409289522801
 20
41.76330282358935
 30
0.0
 10
72.64409289522801
 20
41.76330282358935
 30
0.0
 10
72.64409289522801
 20
41.76330282358935
 30
0.0
 10
67.97288792560998
 20
41.76330282358935
 30
0.0
 10
67.92672364609609
 20
41.76330282358935
 30
0.0
 10
67.92672364609609
 20
41.71920560136714
 30
0.0
 10
67.92672364609609
 20
40.63400052324214
 30
0.0
 10
67.92672364609609
 20
40.58990330101992
 30
0.0
 10
67.97288792560998
 20
40.58990330101992
 30
0.0
 10
72.71333931449887
 20
40.58990330101992
 30
0.0
 10
72.71333931449887
 20
40.58990330101992
 30
0.0
 10
72.71333931449887
 20
40.58990330101992
 30
0.0
 10
72.71540637179054
 20
40.54511705970047
 30
0.0
 10
72.71540637179054
 20
40.54511705970047
 30
0.0
 10
72.7698388804711
 20
39.22702352671436
 30
0.0
 10
72.87112468776277
 20
36.77411554060326
 30
0.0
 10
74.21333388915164
 20
35.44086358747826
 30
0.0
 10
74.44415528672109
 20
35.21004218990881
 30
0.0
 10
74.88133790390858
 20
34.97646471595048
 30
0.0
 10
75.33712403672109
 20
34.97646471595048
 30
0.0
 10
76.16050185790166
 20
34.97646471595048
 30
0.0
 10
76.64005914956831
 20
35.85393053626297
 30
0.0
 10
76.85503310790164
 20
36.38344171247825
 30
0.0
 10
76.84676487873497
 20
36.40135620900603
 30
0.0
 10
76.32104330755443
 20
37.58371297983936
 30
0.0
 10
76.28176921901277
 20
37.67259644338103
 30
0.0
 10
76.0533593882836
 20
37.11449097463103
 30
0.0
 10
75.56966798203359
 20
36.56224216820742
 30
0.0
 10
75.2999170054711
 20
36.56224216820742
 30
0.0
 10
75.01294055147804
 20
36.56224216820742
 30
0.0
 10
74.7576589759572
 20
37.16754544511714
 30
0.0
 10
74.6611963023461
 20
37.42765015431853
 30
0.0
 10
74.25088542995027
 20
38.53455933400603
 30
0.0
 10
74.14512099852666
 20
39.68591024546436
 30
0.0
 10
74.09861220946416
 20
40.56509861351992
 30
0.0
 10
74.09861220946416
 20
40.56509861351992
 30
0.0
 10
74.0972341712697
 20
40.58990330101992
 30
0.0
 10
74.0972341712697
 20
40.58990330101992
 30
0.0
 10
74.0972341712697
 20
40.58990330101992
 30
0.0
 10
76.6521169837697
 20
40.58990330101992
 30
0.0
 10
76.69793675373495
 20
40.58990330101992
 30
0.0
 10
76.69793675373495
 20
40.63400052324214
 30
0.0
 10
76.69793675373495
 20
41.71920560136714
 30
0.0
 10
76.69793675373495
 20
41.76330282358935
 30
0.0
 10
76.65349502196416
 20
41.76330282358935
 30
0.0
 10
75.84217503498497
 20
41.76330282358935
 30
0.0
 10
75.84217503498497
 20
41.76330282358935
 30
0.0
 10
75.84217503498497
 20
41.76330282358935
 30
0.0
 10
75.83390680581832
 20
41.80843357445739
 30
0.0
 10
75.83390680581832
 20
41.80843357445739
 30
0.0
 10
75.83390680581832
 20
41.80843357445739
 30
0.0
 10
76.34929309054053
 20
42.01169420813797
 30
0.0
 10
76.40269207057524
 20
42.03270929060325
 30
0.0
 10
75.78636448810998
 20
42.81061185136714
 30
0.0
 10
75.65889595512387
 20
42.89639472897131
 30
0.0
 10
75.52625977890859
 20
42.98424466386713
 30
0.0
 10
75.52591526935998
 20
42.97976603973518
 30
0.0
 10
74.53579482665166
 20
42.6200980709852
 30
0.0
 10
74.36939671467247
 20
42.55980889997824
 30
0.0
  0
SPLINE
  5
E38
330
E1F
100
AcDbEntity
  8
WAKU
100
AcDbSpline
210
0.0
220
0.0
230
1.0
 70
     9
 71
     3
 72
   197
 73
   193
 74
     0
 42
0.000000001
 43
0.0000000001
 40
0.0
 40
0.0
 40
0.0
 40
0.0
 40
1.0
 40
1.0
 40
1.0
 40
2.0
 40
2.0
 40
2.0
 40
3.0
 40
3.0
 40
3.0
 40
4.0
 40
4.0
 40
4.0
 40
5.0
 40
5.0
 40
5.0
 40
6.0
 40
6.0
 40
6.0
 40
7.0
 40
7.0
 40
7.0
 40
8.0
 40
8.0
 40
8.0
 40
9.0
 40
9.0
 40
9.0
 40
10.0
 40
10.0
 40
10.0
 40
11.0
 40
11.0
 40
11.0
 40
12.0
 40
12.0
 40
12.0
 40
13.0
 40
13.0
 40
13.0
 40
14.0
 40
14.0
 40
14.0
 40
15.0
 40
15.0
 40
15.0
 40
16.0
 40
16.0
 40
16.0
 40
17.0
 40
17.0
 40
17.0
 40
18.0
 40
18.0
 40
18.0
 40
19.0
 40
19.0
 40
19.0
 40
20.0
 40
20.0
 40
20.0
 40
21.0
 40
21.0
 40
21.0
 40
22.0
 40
22.0
 40
22.0
 40
23.0
 40
23.0
 40
23.0
 40
24.0
 40
24.0
 40
24.0
 40
25.0
 40
25.0
 40
25.0
 40
26.0
 40
26.0
 40
26.0
 40
27.0
 40
27.0
 40
27.0
 40
28.0
 40
28.0
 40
28.0
 40
29.0
 40
29.0
 40
29.0
 40
30.0
 40
30.0
 40
30.0
 40
31.0
 40
31.0
 40
31.0
 40
32.0
 40
32.0
 40
32.0
 40
33.0
 40
33.0
 40
33.0
 40
34.0
 40
34.0
 40
34.0
 40
35.0
 40
35.0
 40
35.0
 40
36.0
 40
36.0
 40
36.0
 40
37.0
 40
37.0
 40
37.0
 40
38.0
 40
38.0
 40
38.0
 40
39.0
 40
39.0
 40
39.0
 40
40.0
 40
40.0
 40
40.0
 40
41.0
 40
41.0
 40
41.0
 40
42.0
 40
42.0
 40
42.0
 40
43.0
 40
43.0
 40
43.0
 40
44.0
 40
44.0
 40
44.0
 40
45.0
 40
45.0
 40
45.0
 40
46.0
 40
46.0
 40
46.0
 40
47.0
 40
47.0
 40
47.0
 40
48.0
 40
48.0
 40
48.0
 40
49.0
 40
49.0
 40
49.0
 40
50.0
 40
50.0
 40
50.0
 40
51.0
 40
51.0
 40
51.0
 40
52.0
 40
52.0
 40
52.0
 40
53.0
 40
53.0
 40
53.0
 40
54.0
 40
54.0
 40
54.0
 40
55.0
 40
55.0
 40
55.0
 40
56.0
 40
56.0
 40
56.0
 40
57.0
 40
57.0
 40
57.0
 40
58.0
 40
58.0
 40
58.0
 40
59.0
 40
59.0
 40
59.0
 40
60.0
 40
60.0
 40
60.0
 40
61.0
 40
61.0
 40
61.0
 40
62.0
 40
62.0
 40
62.0
 40
63.0
 40
63.0
 40
63.0
 40
64.0
 40
64.0
 40
64.0
 40
64.0
 10
64.0265310462697
 20
42.91637628279075
 30
0.0
 10
64.0265310462697
 20
42.87193455101991
 30
0.0
 10
64.0265310462697
 20
41.85563138261714
 30
0.0
 10
64.0265310462697
 20
41.85563138261714
 30
0.0
 10
64.0265310462697
 20
41.85563138261714
 30
0.0
 10
63.48737360269332
 20
41.85563138261714
 30
0.0
 10
63.48737360269332
 20
41.85563138261714
 30
0.0
 10
63.48737360269332
 20
41.85563138261714
 30
0.0
 10
63.66341798203359
 20
42.60872925588103
 30
0.0
 10
63.67478679713776
 20
42.65730510223519
 30
0.0
 10
63.6237993839433
 20
42.66143921681853
 30
0.0
 10
62.49966472682526
 20
42.75170071855463
 30
0.0
 10
62.4603906382836
 20
42.75480130449214
 30
0.0
 10
62.36013835963776
 20
42.10781237220047
 30
0.0
 10
62.1599783118947
 20
41.52317966820739
 30
0.0
 10
61.86301108099192
 20
41.01778416039493
 30
0.0
 10
61.86301108099192
 20
41.01778416039493
 30
0.0
 10
61.81960287786693
 20
40.94337009789492
 30
0.0
 10
61.81960287786693
 20
40.94337009789492
 30
0.0
 10
61.81960287786693
 20
40.94337009789492
 30
0.0
 10
61.81960287786693
 20
41.48493910831159
 30
0.0
 10
61.81960287786693
 20
41.52765829233937
 30
0.0
 10
61.77516114609609
 20
41.52765829233937
 30
0.0
 10
60.93145726154748
 20
41.52765829233937
 30
0.0
 10
60.93145726154748
 20
41.52765829233937
 30
0.0
 10
60.93145726154748
 20
41.52765829233937
 30
0.0
 10
60.93145726154748
 20
42.8712455319227
 30
0.0
 10
60.93145726154748
 20
42.91637628279075
 30
0.0
 10
60.88736003932526
 20
42.91637628279075
 30
0.0
 10
59.73187501328361
 20
42.91637628279075
 30
0.0
 10
59.68777779106137
 20
42.91637628279075
 30
0.0
 10
59.68777779106137
 20
42.8712455319227
 30
0.0
 10
59.68777779106137
 20
41.52765829233937
 30
0.0
 10
59.68777779106137
 20
41.52765829233937
 30
0.0
 10
59.68777779106137
 20
41.52765829233937
 30
0.0
 10
58.59154840738082
 20
41.52765829233937
 30
0.0
 10
58.54710667560998
 20
41.52765829233937
 30
0.0
 10
58.54710667560998
 20
41.48390557966575
 30
0.0
 10
58.54710667560998
 20
40.45692261525603
 30
0.0
 10
58.54710667560998
 20
40.41282539303379
 30
0.0
 10
58.59154840738082
 20
40.41282539303379
 30
0.0
 10
59.59372668429054
 20
40.41282539303379
 30
0.0
 10
59.59372668429054
 20
40.41282539303379
 30
0.0
 10
59.59372668429054
 20
40.41282539303379
 30
0.0
 10
59.58373590738081
 20
40.38250855275602
 30
0.0
 10
59.58373590738081
 20
40.38250855275602
 30
0.0
 10
59.15378799071415
 20
39.0327201412977
 30
0.0
 10
58.73314183185998
 20
38.4835719208116
 30
0.0
 10
58.37140680581832
 20
38.0777396725477
 30
0.0
 10
58.3776079776933
 20
38.05500204233937
 30
0.0
 10
58.77276042995024
 20
36.56534275414492
 30
0.0
 10
58.7958425697072
 20
36.47818183834632
 30
0.0
 10
58.99462457925581
 20
36.74035360483936
 30
0.0
 10
59.3350000132836
 20
37.21164266733936
 30
0.0
 10
59.64230253064471
 20
38.16662313608937
 30
0.0
 10
59.64230253064471
 20
38.16662313608937
 30
0.0
 10
59.68777779106137
 20
38.15973294511714
 30
0.0
 10
59.68777779106137
 20
38.15973294511714
 30
0.0
 10
59.68777779106137
 20
38.15973294511714
 30
0.0
 10
59.68777779106137
 20
35.0391654537977
 30
0.0
 10
59.68777779106137
 20
34.99334568383242
 30
0.0
 10
59.73187501328361
 20
34.99334568383242
 30
0.0
 10
60.88736003932526
 20
34.99334568383242
 30
0.0
 10
60.93145726154748
 20
34.99334568383242
 30
0.0
 10
60.93145726154748
 20
35.0391654537977
 30
0.0
 10
60.93145726154748
 20
38.47943780622826
 30
0.0
 10
60.93145726154748
 20
38.47943780622826
 30
0.0
 10
60.93145726154748
 20
38.47943780622826
 30
0.0
 10
60.97899957925581
 20
38.47943780622826
 30
0.0
 10
60.97899957925581
 20
38.47943780622826
 30
0.0
 10
61.07063911918636
 20
38.14112942949214
 30
0.0
 10
61.11921496554053
 20
37.96611857879771
 30
0.0
 10
61.49128527804053
 20
37.34152276716576
 30
0.0
 10
61.5305593665822
 20
37.38872057532547
 30
0.0
 10
62.2312917884572
 20
38.22450074025603
 30
0.0
 10
62.2591970618947
 20
38.25791816647131
 30
0.0
 10
62.13689617213774
 20
38.36092652150603
 30
0.0
 10
62.03044272161693
 20
38.45601115692272
 30
0.0
 10
61.84440756536693
 20
38.66581747202687
 30
0.0
 10
61.84440756536693
 20
38.66581747202687
 30
0.0
 10
61.8099566105058
 20
38.70474705101992
 30
0.0
 10
61.8099566105058
 20
38.70474705101992
 30
0.0
 10
61.8099566105058
 20
38.70474705101992
 30
0.0
 10
61.81719131102664
 20
38.70474705101992
 30
0.0
 10
61.82098091606136
 20
38.70474705101992
 30
0.0
 10
61.5832693275197
 20
38.98207723765187
 30
0.0
 10
61.15642199679054
 20
39.51572252845048
 30
0.0
 10
60.93386882838776
 20
40.00974922115879
 30
0.0
 10
60.93386882838776
 20
40.00974922115879
 30
0.0
 10
60.93145726154748
 20
40.01422784529075
 30
0.0
 10
60.93145726154748
 20
40.01422784529075
 30
0.0
 10
60.93145726154748
 20
40.01422784529075
 30
0.0
 10
60.93145726154748
 20
40.41282539303379
 30
0.0
 10
60.93145726154748
 20
40.41282539303379
 30
0.0
 10
60.93145726154748
 20
40.41282539303379
 30
0.0
 10
61.81512425373497
 20
40.41282539303379
 30
0.0
 10
61.81512425373497
 20
40.41282539303379
 30
0.0
 10
61.82856012613082
 20
40.40869127845048
 30
0.0
 10
62.54824057317943
 20
39.90364028018659
 30
0.0
 10
62.54824057317943
 20
39.90364028018659
 30
0.0
 10
62.54824057317943
 20
39.90364028018659
 30
0.0
 10
62.5940603431447
 20
39.87228991126297
 30
0.0
 10
62.6033621009572
 20
39.86574422983937
 30
0.0
 10
62.60818523463774
 20
39.87194540171437
 30
0.0
 10
62.62885580755442
 20
39.89916165605464
 30
0.0
 10
62.62885580755442
 20
39.89916165605464
 30
0.0
 10
62.74323297769331
 20
40.05040134789489
 30
0.0
 10
62.91721029974192
 20
40.31085056664492
 30
0.0
 10
63.09359918863082
 20
40.69394518470047
 30
0.0
 10
63.09359918863082
 20
40.69394518470047
 30
0.0
 10
63.10014487005442
 20
40.70738105709629
 30
0.0
 10
63.10014487005442
 20
40.70738105709629
 30
0.0
 10
63.10014487005442
 20
40.70738105709629
 30
0.0
 10
64.0265310462697
 20
40.70738105709629
 30
0.0
 10
64.0265310462697
 20
40.70738105709629
 30
0.0
 10
64.0265310462697
 20
40.70738105709629
 30
0.0
 10
64.0265310462697
 20
39.86161011525604
 30
0.0
 10
64.0265310462697
 20
39.86161011525604
 30
0.0
 10
64.0265310462697
 20
39.86161011525604
 30
0.0
 10
61.90986437960305
 20
39.86161011525604
 30
0.0
 10
61.86645617647805
 20
39.86161011525604
 30
0.0
 10
61.86645617647805
 20
39.8168238739366
 30
0.0
 10
61.86645617647805
 20
38.70750312740881
 30
0.0
 10
61.86645617647805
 20
38.70474705101992
 30
0.0
 10
61.87506891519332
 20
38.70474705101992
 30
0.0
 10
63.55868707925582
 20
38.70474705101992
 30
0.0
 10
63.55868707925582
 20
38.70474705101992
 30
0.0
 10
63.55868707925582
 20
38.70474705101992
 30
0.0
 10
63.53698297769331
 20
38.66891805796436
 30
0.0
 10
63.53698297769331
 20
38.66891805796436
 30
0.0
 10
63.00816082057526
 20
37.8045436004991
 30
0.0
 10
62.30398330321413
 20
37.1165580319227
 30
0.0
 10
61.44581001762386
 20
36.62184232011714
 30
0.0
 10
61.47130372422109
 20
36.58429077931854
 30
0.0
 10
62.21096572508916
 20
35.51768921681853
 30
0.0
 10
62.23956001762386
 20
35.4763480709852
 30
0.0
 10
62.98749024765861
 20
36.09474271074214
 30
0.0
 10
63.5583425697072
 20
36.7940970944227
 30
0.0
 10
63.98208931449886
 20
37.61471883921436
 30
0.0
 10
63.98208931449886
 20
37.61471883921436
 30
0.0
 10
64.0265310462697
 20
37.60403904320742
 30
0.0
 10
64.0265310462697
 20
37.60403904320742
 30
0.0
 10
64.0265310462697
 20
37.60403904320742
 30
0.0
 10
64.0265310462697
 20
35.0391654537977
 30
0.0
 10
64.0265310462697
 20
34.99334568383242
 30
0.0
 10
64.07062826849193
 20
34.99334568383242
 30
0.0
 10
65.27262208359609
 20
34.99334568383242
 30
0.0
 10
65.31671930581831
 20
34.99334568383242
 30
0.0
 10
65.31671930581831
 20
35.0391654537977
 30
0.0
 10
65.31671930581831
 20
37.41042467688798
 30
0.0
 10
65.31671930581831
 20
37.41042467688798
 30
0.0
 10
65.31671930581831
 20
37.41042467688798
 30
0.0
 10
65.36081652804054
 20
37.42144898244354
 30
0.0
 10
65.36081652804054
 20
37.42144898244354
 30
0.0
 10
65.78800836831831
 20
36.60668389997825
 30
0.0
 10
66.33474502196415
 20
35.96038398678382
 30
0.0
 10
66.9848345401933
 20
35.49632962480465
 30
0.0
 10
67.00688315130442
 20
35.55248468122825
 30
0.0
 10
67.50504395859609
 20
36.83612725935326
 30
0.0
 10
67.51813532144331
 20
36.87092272376297
 30
0.0
 10
67.1488210853322
 20
37.09761000674909
 30
0.0
 10
66.40399144123498
 20
37.56373142601992
 30
0.0
 10
65.7039480384572
 20
38.66891805796436
 30
0.0
 10
65.7039480384572
 20
38.66891805796436
 30
0.0
 10
65.68121040824888
 20
38.70474705101992
 30
0.0
 10
65.68121040824888
 20
38.70474705101992
 30
0.0
 10
65.68121040824888
 20
38.70474705101992
 30
0.0
 10
67.31005155408221
 20
38.70474705101992
 30
0.0
 10
67.35552681449886
 20
38.70474705101992
 30
0.0
 10
67.35552681449886
 20
38.74884427324214
 30
0.0
 10
67.35552681449886
 20
39.81751289303382
 30
0.0
 10
67.35552681449886
 20
39.86161011525604
 30
0.0
 10
67.30970704453359
 20
39.86161011525604
 30
0.0
 10
65.31671930581831
 20
39.86161011525604
 30
0.0
 10
65.31671930581831
 20
39.86161011525604
 30
0.0
 10
65.31671930581831
 20
39.86161011525604
 30
0.0
 10
65.31671930581831
 20
40.70738105709629
 30
0.0
 10
65.31671930581831
 20
40.70738105709629
 30
0.0
 10
65.31671930581831
 20
40.70738105709629
 30
0.0
 10
67.16949165824885
 20
40.70738105709629
 30
0.0
 10
67.21496691866554
 20
40.70738105709629
 30
0.0
 10
67.21496691866554
 20
40.75147827931853
 30
0.0
 10
67.21496691866554
 20
41.81187866994353
 30
0.0
 10
67.21496691866554
 20
41.85563138261714
 30
0.0
 10
67.16949165824885
 20
41.85563138261714
 30
0.0
 10
65.31671930581831
 20
41.85563138261714
 30
0.0
 10
65.31671930581831
 20
41.85563138261714
 30
0.0
 10
65.31671930581831
 20
41.85563138261714
 30
0.0
 10
65.31671930581831
 20
42.87193455101991
 30
0.0
 10
65.31671930581831
 20
42.91637628279075
 30
0.0
 10
65.27262208359609
 20
42.91637628279075
 30
0.0
 10
64.07062826849193
 20
42.91637628279075
 30
0.0
 10
64.0265310462697
 20
42.91637628279075
 30
0.0
  0
SPLINE
  5
E39
330
E1F
100
AcDbEntity
  8
WAKU
100
AcDbSpline
210
0.0
220
0.0
230
1.0
 70
     9
 71
     3
 72
    29
 73
    25
 74
     0
 42
0.000000001
 43
0.0000000001
 40
0.0
 40
0.0
 40
0.0
 40
0.0
 40
1.0
 40
1.0
 40
1.0
 40
2.0
 40
2.0
 40
2.0
 40
3.0
 40
3.0
 40
3.0
 40
4.0
 40
4.0
 40
4.0
 40
5.0
 40
5.0
 40
5.0
 40
6.0
 40
6.0
 40
6.0
 40
7.0
 40
7.0
 40
7.0
 40
8.0
 40
8.0
 40
8.0
 40
8.0
 10
52.86201010442942
 20
40.47552613088103
 30
0.0
 10
52.84340658880442
 20
40.53271471595047
 30
0.0
 10
52.72213922769331
 20
40.83450508053378
 30
0.0
 10
52.68596572508915
 20
40.89996189476992
 30
0.0
 10
52.68596572508915
 20
40.89996189476992
 30
0.0
 10
52.66632868081831
 20
40.93475735917964
 30
0.0
 10
52.66632868081831
 20
40.93475735917964
 30
0.0
 10
52.66632868081831
 20
40.93475735917964
 30
0.0
 10
54.5883474525197
 20
40.93475735917964
 30
0.0
 10
54.5883474525197
 20
40.93475735917964
 30
0.0
 10
54.5883474525197
 20
40.93475735917964
 30
0.0
 10
54.58042373290165
 20
40.9054740475477
 30
0.0
 10
54.58042373290165
 20
40.9054740475477
 30
0.0
 10
54.5015310462697
 20
40.61401896942268
 30
0.0
 10
54.46329048637386
 20
40.53374824459631
 30
0.0
 10
54.42815051241554
 20
40.47104750674907
 30
0.0
 10
54.42815051241554
 20
40.47104750674907
 30
0.0
 10
54.42126032144331
 20
40.45898967254768
 30
0.0
 10
54.42126032144331
 20
40.45898967254768
 30
0.0
 10
54.42126032144331
 20
40.45898967254768
 30
0.0
 10
52.86683323810998
 20
40.45898967254768
 30
0.0
 10
52.86683323810998
 20
40.45898967254768
 30
0.0
 10
52.86683323810998
 20
40.45898967254768
 30
0.0
 10
52.86201010442942
 20
40.47552613088103
 30
0.0
 10
52.86201010442942
 20
40.47552613088103
 30
0.0
  0
SPLINE
  5
E3A
330
E1F
100
AcDbEntity
  8
WAKU
100
AcDbSpline
210
0.0
220
0.0
230
1.0
 70
     9
 71
     3
 72
   203
 73
   199
 74
     0
 42
0.000000001
 43
0.0000000001
 40
0.0
 40
0.0
 40
0.0
 40
0.0
 40
1.0
 40
1.0
 40
1.0
 40
2.0
 40
2.0
 40
2.0
 40
3.0
 40
3.0
 40
3.0
 40
4.0
 40
4.0
 40
4.0
 40
5.0
 40
5.0
 40
5.0
 40
6.0
 40
6.0
 40
6.0
 40
7.0
 40
7.0
 40
7.0
 40
8.0
 40
8.0
 40
8.0
 40
9.0
 40
9.0
 40
9.0
 40
10.0
 40
10.0
 40
10.0
 40
11.0
 40
11.0
 40
11.0
 40
12.0
 40
12.0
 40
12.0
 40
13.0
 40
13.0
 40
13.0
 40
14.0
 40
14.0
 40
14.0
 40
15.0
 40
15.0
 40
15.0
 40
16.0
 40
16.0
 40
16.0
 40
17.0
 40
17.0
 40
17.0
 40
18.0
 40
18.0
 40
18.0
 40
19.0
 40
19.0
 40
19.0
 40
20.0
 40
20.0
 40
20.0
 40
21.0
 40
21.0
 40
21.0
 40
22.0
 40
22.0
 40
22.0
 40
23.0
 40
23.0
 40
23.0
 40
24.0
 40
24.0
 40
24.0
 40
25.0
 40
25.0
 40
25.0
 40
26.0
 40
26.0
 40
26.0
 40
27.0
 40
27.0
 40
27.0
 40
28.0
 40
28.0
 40
28.0
 40
29.0
 40
29.0
 40
29.0
 40
30.0
 40
30.0
 40
30.0
 40
31.0
 40
31.0
 40
31.0
 40
32.0
 40
32.0
 40
32.0
 40
33.0
 40
33.0
 40
33.0
 40
34.0
 40
34.0
 40
34.0
 40
35.0
 40
35.0
 40
35.0
 40
36.0
 40
36.0
 40
36.0
 40
37.0
 40
37.0
 40
37.0
 40
38.0
 40
38.0
 40
38.0
 40
39.0
 40
39.0
 40
39.0
 40
40.0
 40
40.0
 40
40.0
 40
41.0
 40
41.0
 40
41.0
 40
42.0
 40
42.0
 40
42.0
 40
43.0
 40
43.0
 40
43.0
 40
44.0
 40
44.0
 40
44.0
 40
45.0
 40
45.0
 40
45.0
 40
46.0
 40
46.0
 40
46.0
 40
47.0
 40
47.0
 40
47.0
 40
48.0
 40
48.0
 40
48.0
 40
49.0
 40
49.0
 40
49.0
 40
50.0
 40
50.0
 40
50.0
 40
51.0
 40
51.0
 40
51.0
 40
52.0
 40
52.0
 40
52.0
 40
53.0
 40
53.0
 40
53.0
 40
54.0
 40
54.0
 40
54.0
 40
55.0
 40
55.0
 40
55.0
 40
56.0
 40
56.0
 40
56.0
 40
57.0
 40
57.0
 40
57.0
 40
58.0
 40
58.0
 40
58.0
 40
59.0
 40
59.0
 40
59.0
 40
60.0
 40
60.0
 40
60.0
 40
61.0
 40
61.0
 40
61.0
 40
62.0
 40
62.0
 40
62.0
 40
63.0
 40
63.0
 40
63.0
 40
64.0
 40
64.0
 40
64.0
 40
65.0
 40
65.0
 40
65.0
 40
66.0
 40
66.0
 40
66.0
 40
66.0
 10
50.02221789522804
 20
42.70346938174909
 30
0.0
 10
50.17380209661692
 20
42.45611152584632
 30
0.0
 10
50.30471572508915
 20
42.2077201412977
 30
0.0
 10
50.40841309922109
 20
41.96449639997825
 30
0.0
 10
50.40841309922109
 20
41.96449639997825
 30
0.0
 10
50.42253799071414
 20
41.93176799286018
 30
0.0
 10
50.42253799071414
 20
41.93176799286018
 30
0.0
 10
50.42253799071414
 20
41.93176799286018
 30
0.0
 10
49.28669000894331
 20
41.93176799286018
 30
0.0
 10
49.24190376762386
 20
41.93176799286018
 30
0.0
 10
49.24190376762386
 20
41.88801528018657
 30
0.0
 10
49.24190376762386
 20
40.97816556230464
 30
0.0
 10
49.24190376762386
 20
40.93475735917964
 30
0.0
 10
49.28737902804054
 20
40.93475735917964
 30
0.0
 10
51.28829048637386
 20
40.93475735917964
 30
0.0
 10
51.28829048637386
 20
40.93475735917964
 30
0.0
 10
51.28829048637386
 20
40.93475735917964
 30
0.0
 10
51.29518067734609
 20
40.9237330536241
 30
0.0
 10
51.29518067734609
 20
40.9237330536241
 30
0.0
 10
51.38130806449886
 20
40.78661825327685
 30
0.0
 10
51.40921333793636
 20
40.7104816430338
 30
0.0
 10
51.48500543863081
 20
40.4899955319227
 30
0.0
 10
51.48500543863081
 20
40.4899955319227
 30
0.0
 10
51.49568523463774
 20
40.45898967254768
 30
0.0
 10
51.49568523463774
 20
40.45898967254768
 30
0.0
 10
51.49568523463774
 20
40.45898967254768
 30
0.0
 10
49.6518701304711
 20
40.45898967254768
 30
0.0
 10
49.60639487005442
 20
40.45898967254768
 30
0.0
 10
49.60639487005442
 20
40.41558146942271
 30
0.0
 10
49.60639487005442
 20
39.6063285397352
 30
0.0
 10
49.60639487005442
 20
39.56326484615882
 30
0.0
 10
49.65255914956832
 20
39.56326484615882
 30
0.0
 10
52.95399415390861
 20
39.56326484615882
 30
0.0
 10
52.95399415390861
 20
39.56326484615882
 30
0.0
 10
52.95399415390861
 20
39.56326484615882
 30
0.0
 10
52.95399415390861
 20
39.17982571855464
 30
0.0
 10
52.95399415390861
 20
39.17982571855464
 30
0.0
 10
52.95399415390861
 20
39.17982571855464
 30
0.0
 10
49.89578289088774
 20
39.17982571855464
 30
0.0
 10
49.84961861137386
 20
39.17982571855464
 30
0.0
 10
49.84961861137386
 20
39.13676202497825
 30
0.0
 10
49.84961861137386
 20
38.46117880015187
 30
0.0
 10
49.84961861137386
 20
38.4184596161241
 30
0.0
 10
49.89578289088774
 20
38.4184596161241
 30
0.0
 10
52.95399415390861
 20
38.4184596161241
 30
0.0
 10
52.95399415390861
 20
38.4184596161241
 30
0.0
 10
52.95399415390861
 20
38.4184596161241
 30
0.0
 10
52.95399415390861
 20
38.03502048851992
 30
0.0
 10
52.95399415390861
 20
38.03502048851992
 30
0.0
 10
52.95399415390861
 20
38.03502048851992
 30
0.0
 10
49.28806804713776
 20
38.03502048851992
 30
0.0
 10
49.24190376762386
 20
38.03502048851992
 30
0.0
 10
49.24190376762386
 20
37.99161228539492
 30
0.0
 10
49.24190376762386
 20
37.14067370032547
 30
0.0
 10
49.24190376762386
 20
37.09726549720048
 30
0.0
 10
49.28772353758915
 20
37.09726549720048
 30
0.0
 10
51.88325847682524
 20
37.09726549720048
 30
0.0
 10
51.88325847682524
 20
37.09726549720048
 30
0.0
 10
51.88325847682524
 20
37.09726549720048
 30
0.0
 10
51.8935937632836
 20
37.05316827497826
 30
0.0
 10
51.8935937632836
 20
37.05316827497826
 30
0.0
 10
50.77669380668638
 20
36.51573337914492
 30
0.0
 10
49.73799751762386
 20
36.26286337046437
 30
0.0
 10
49.19884007404748
 20
36.15709893904075
 30
0.0
 10
49.22915691432526
 20
36.10438897810325
 30
0.0
 10
49.8103445228322
 20
35.10358873938797
 30
0.0
 10
49.82791450981136
 20
35.0732718991102
 30
0.0
 10
51.74442112873498
 20
35.62276462914493
 30
0.0
 10
52.36109322074886
 20
36.04582235483937
 30
0.0
 10
52.91575359401274
 20
36.50264201629771
 30
0.0
 10
52.91575359401274
 20
36.50264201629771
 30
0.0
 10
52.95399415390861
 20
36.53433689476992
 30
0.0
 10
52.95399415390861
 20
36.53433689476992
 30
0.0
 10
52.95399415390861
 20
36.53433689476992
 30
0.0
 10
52.95399415390861
 20
35.04674466386715
 30
0.0
 10
52.95399415390861
 20
35.00161391299909
 30
0.0
 10
52.99809137613081
 20
35.00161391299909
 30
0.0
 10
54.24659398029748
 20
35.00161391299909
 30
0.0
 10
54.2910357120683
 20
35.00161391299909
 30
0.0
 10
54.2910357120683
 20
35.04674466386715
 30
0.0
 10
54.2910357120683
 20
36.5674098114366
 30
0.0
 10
54.2910357120683
 20
36.5674098114366
 30
0.0
 10
54.2910357120683
 20
36.5674098114366
 30
0.0
 10
54.32927627196415
 20
36.5367484616102
 30
0.0
 10
54.32927627196415
 20
36.5367484616102
 30
0.0
 10
55.1619558509572
 20
35.86116523678381
 30
0.0
 10
55.75451227456831
 20
35.53663724199215
 30
0.0
 10
57.39920085963776
 20
35.0732718991102
 30
0.0
 10
57.41642633706831
 20
35.10255521074215
 30
0.0
 10
58.03998862005443
 20
36.13505032792964
 30
0.0
 10
58.07306153672111
 20
36.18982734615882
 30
0.0
 10
57.60142796467248
 20
36.27113159963104
 30
0.0
 10
56.43422961397804
 20
36.47887085744353
 30
0.0
 10
55.3324880775197
 20
37.05316827497826
 30
0.0
 10
55.3324880775197
 20
37.05316827497826
 30
0.0
 10
55.34316787352665
 20
37.09726549720048
 30
0.0
 10
55.34316787352665
 20
37.09726549720048
 30
0.0
 10
55.34316787352665
 20
37.09726549720048
 30
0.0
 10
57.93870281276276
 20
37.09726549720048
 30
0.0
 10
57.98486709227663
 20
37.09726549720048
 30
0.0
 10
57.98486709227663
 20
37.14067370032547
 30
0.0
 10
57.98486709227663
 20
37.99161228539492
 30
0.0
 10
57.98486709227663
 20
38.03502048851992
 30
0.0
 10
57.93870281276276
 20
38.03502048851992
 30
0.0
 10
54.2910357120683
 20
38.03502048851992
 30
0.0
 10
54.2910357120683
 20
38.03502048851992
 30
0.0
 10
54.2910357120683
 20
38.03502048851992
 30
0.0
 10
54.2910357120683
 20
38.4184596161241
 30
0.0
 10
54.2910357120683
 20
38.4184596161241
 30
0.0
 10
54.2910357120683
 20
38.4184596161241
 30
0.0
 10
57.36819500026276
 20
38.4184596161241
 30
0.0
 10
57.41435927977665
 20
38.4184596161241
 30
0.0
 10
57.41435927977665
 20
38.46117880015187
 30
0.0
 10
57.41435927977665
 20
39.13676202497825
 30
0.0
 10
57.41435927977665
 20
39.17982571855464
 30
0.0
 10
57.36819500026276
 20
39.17982571855464
 30
0.0
 10
54.2910357120683
 20
39.17982571855464
 30
0.0
 10
54.2910357120683
 20
39.17982571855464
 30
0.0
 10
54.2910357120683
 20
39.17982571855464
 30
0.0
 10
54.2910357120683
 20
39.56326484615882
 30
0.0
 10
54.2910357120683
 20
39.56326484615882
 30
0.0
 10
54.2910357120683
 20
39.56326484615882
 30
0.0
 10
57.62037598984609
 20
39.56326484615882
 30
0.0
 10
57.66654026935999
 20
39.56326484615882
 30
0.0
 10
57.66654026935999
 20
39.6063285397352
 30
0.0
 10
57.66654026935999
 20
40.41558146942271
 30
0.0
 10
57.66654026935999
 20
40.45898967254768
 30
0.0
 10
57.62140951849192
 20
40.45898967254768
 30
0.0
 10
55.77759441432526
 20
40.45898967254768
 30
0.0
 10
55.77759441432526
 20
40.45898967254768
 30
0.0
 10
55.77759441432526
 20
40.45898967254768
 30
0.0
 10
55.77759441432526
 20
40.48241632185325
 30
0.0
 10
55.77759441432526
 20
40.48241632185325
 30
0.0
 10
55.77759441432526
 20
40.50033081838103
 30
0.0
 10
55.94605958359609
 20
40.91684286265186
 30
0.0
 10
55.94812664088776
 20
40.92097697723519
 30
0.0
 10
55.94812664088776
 20
40.92097697723519
 30
0.0
 10
55.95432781276276
 20
40.93475735917964
 30
0.0
 10
55.95432781276276
 20
40.93475735917964
 30
0.0
 10
55.95432781276276
 20
40.93475735917964
 30
0.0
 10
57.93904732231136
 20
40.93475735917964
 30
0.0
 10
57.98452258272803
 20
40.93475735917964
 30
0.0
 10
57.98452258272803
 20
40.97816556230464
 30
0.0
 10
57.98452258272803
 20
41.88801528018657
 30
0.0
 10
57.98452258272803
 20
41.93176799286018
 30
0.0
 10
57.9400808509572
 20
41.93176799286018
 30
0.0
 10
56.83489421901274
 20
41.93176799286018
 30
0.0
 10
56.83489421901274
 20
41.93176799286018
 30
0.0
 10
56.83489421901274
 20
41.93176799286018
 30
0.0
 10
56.85659832057526
 20
41.96725247636714
 30
0.0
 10
56.85659832057526
 20
41.96725247636714
 30
0.0
 10
57.00645997422109
 20
42.21254327497825
 30
0.0
 10
57.1370290931447
 20
42.49883070987407
 30
0.0
 10
57.22625706623498
 20
42.70243585310325
 30
0.0
 10
57.17044651935998
 20
42.71208212046436
 30
0.0
 10
55.96707466606137
 20
42.91534275414489
 30
0.0
 10
55.92952312526275
 20
42.92154392601992
 30
0.0
 10
55.85993219644332
 20
42.69141154754769
 30
0.0
 10
55.69697917995025
 20
42.24079305796435
 30
0.0
 10
55.53195910616555
 20
41.94382582706157
 30
0.0
 10
55.53195910616555
 20
41.94382582706157
 30
0.0
 10
55.52506891519332
 20
41.93176799286018
 30
0.0
 10
55.52506891519332
 20
41.93176799286018
 30
0.0
 10
55.52506891519332
 20
41.93176799286018
 30
0.0
 10
55.11372451415165
 20
41.93176799286018
 30
0.0
 10
55.11372451415165
 20
41.93176799286018
 30
0.0
 10
55.11372451415165
 20
41.93176799286018
 30
0.0
 10
55.11372451415165
 20
42.85470907358936
 30
0.0
 10
55.11372451415165
 20
42.89949531490881
 30
0.0
 10
55.06997180147804
 20
42.89949531490881
 30
0.0
 10
53.96168458359611
 20
42.89949531490881
 30
0.0
 10
53.91724285182526
 20
42.89949531490881
 30
0.0
 10
53.91724285182526
 20
42.85470907358936
 30
0.0
 10
53.91724285182526
 20
41.93176799286018
 30
0.0
 10
53.91724285182526
 20
41.93176799286018
 30
0.0
 10
53.91724285182526
 20
41.93176799286018
 30
0.0
 10
53.34639052977665
 20
41.93176799286018
 30
0.0
 10
53.34639052977665
 20
41.93176799286018
 30
0.0
 10
53.34639052977665
 20
41.93176799286018
 30
0.0
 10
53.34639052977665
 20
42.85470907358936
 30
0.0
 10
53.34639052977665
 20
42.89949531490881
 30
0.0
 10
53.30229330755443
 20
42.89949531490881
 30
0.0
 10
52.20330784748497
 20
42.89949531490881
 30
0.0
 10
52.15921062526276
 20
42.89949531490881
 30
0.0
 10
52.15921062526276
 20
42.85470907358936
 30
0.0
 10
52.15921062526276
 20
41.93176799286018
 30
0.0
 10
52.15921062526276
 20
41.93176799286018
 30
0.0
 10
52.15921062526276
 20
41.93176799286018
 30
0.0
 10
51.72616212265859
 20
41.93176799286018
 30
0.0
 10
51.72616212265859
 20
41.93176799286018
 30
0.0
 10
51.72616212265859
 20
41.93176799286018
 30
0.0
 10
51.72099447942943
 20
41.94795994164493
 30
0.0
 10
51.72099447942943
 20
41.94795994164493
 30
0.0
 10
51.57836752630442
 20
42.40064548851992
 30
0.0
 10
51.46467937526274
 20
42.65007040171435
 30
0.0
 10
51.31860732665165
 20
42.92188843556853
 30
0.0
 10
51.28691244817943
 20
42.91672079233936
 30
0.0
 10
50.08422961397805
 20
42.7138046682074
 30
0.0
 10
50.02221789522804
 20
42.70346938174909
 30
0.0
  0
SPLINE
  5
E3B
330
E1F
100
AcDbEntity
  8
WAKU
100
AcDbSpline
210
0.0
220
0.0
230
1.0
 70
     9
 71
     3
 72
    41
 73
    37
 74
     0
 42
0.000000001
 43
0.0000000001
 40
0.0
 40
0.0
 40
0.0
 40
0.0
 40
1.0
 40
1.0
 40
1.0
 40
2.0
 40
2.0
 40
2.0
 40
3.0
 40
3.0
 40
3.0
 40
4.0
 40
4.0
 40
4.0
 40
5.0
 40
5.0
 40
5.0
 40
6.0
 40
6.0
 40
6.0
 40
7.0
 40
7.0
 40
7.0
 40
8.0
 40
8.0
 40
8.0
 40
9.0
 40
9.0
 40
9.0
 40
10.0
 40
10.0
 40
10.0
 40
11.0
 40
11.0
 40
11.0
 40
12.0
 40
12.0
 40
12.0
 40
12.0
 10
40.24538141519331
 20
42.52087932098517
 30
0.0
 10
40.24538141519331
 20
42.47678209876297
 30
0.0
 10
40.24538141519331
 20
41.33232137827685
 30
0.0
 10
40.24538141519331
 20
41.28822415605464
 30
0.0
 10
40.2912011851586
 20
41.28822415605464
 30
0.0
 10
43.54647190998497
 20
41.28822415605464
 30
0.0
 10
43.54647190998497
 20
41.28822415605464
 30
0.0
 10
43.54647190998497
 20
41.28822415605464
 30
0.0
 10
43.54647190998497
 20
36.63011054928381
 30
0.0
 10
43.54647190998497
 20
36.63011054928381
 30
0.0
 10
43.54647190998497
 20
36.63011054928381
 30
0.0
 10
39.91740832491553
 20
36.63011054928381
 30
0.0
 10
39.87124404540166
 20
36.63011054928381
 30
0.0
 10
39.87124404540166
 20
36.58566881751298
 30
0.0
 10
39.87124404540166
 20
35.43293986786022
 30
0.0
 10
39.87124404540166
 20
35.38884264563797
 30
0.0
 10
39.91775283446415
 20
35.38884264563797
 30
0.0
 10
48.60525012179054
 20
35.38884264563797
 30
0.0
 10
48.65141440130443
 20
35.38884264563797
 30
0.0
 10
48.65141440130443
 20
35.43293986786022
 30
0.0
 10
48.65141440130443
 20
36.58566881751298
 30
0.0
 10
48.65141440130443
 20
36.63011054928381
 30
0.0
 10
48.60525012179054
 20
36.63011054928381
 30
0.0
 10
44.9765310462697
 20
36.63011054928381
 30
0.0
 10
44.9765310462697
 20
36.63011054928381
 30
0.0
 10
44.9765310462697
 20
36.63011054928381
 30
0.0
 10
44.9765310462697
 20
41.28822415605464
 30
0.0
 10
44.9765310462697
 20
41.28822415605464
 30
0.0
 10
44.9765310462697
 20
41.28822415605464
 30
0.0
 10
48.24075901935998
 20
41.28822415605464
 30
0.0
 10
48.28692329887386
 20
41.28822415605464
 30
0.0
 10
48.28692329887386
 20
41.33232137827685
 30
0.0
 10
48.28692329887386
 20
42.47678209876297
 30
0.0
 10
48.28692329887386
 20
42.52087932098517
 30
0.0
 10
48.24041450981138
 20
42.52087932098517
 30
0.0
 10
40.29154569470721
 20
42.52087932098517
 30
0.0
 10
40.24538141519331
 20
42.52087932098517
 30
0.0
  0
SPLINE
  5
E3C
330
E1F
100
AcDbEntity
  8
WAKU
100
AcDbSpline
210
0.0
220
0.0
230
1.0
 70
     9
 71
     3
 72
    17
 73
    13
 74
     0
 42
0.000000001
 43
0.0000000001
 40
0.0
 40
0.0
 40
0.0
 40
0.0
 40
1.0
 40
1.0
 40
1.0
 40
2.0
 40
2.0
 40
2.0
 40
3.0
 40
3.0
 40
3.0
 40
4.0
 40
4.0
 40
4.0
 40
4.0
 10
22.23166613741554
 20
36.78789592254771
 30
0.0
 10
25.25198135008916
 20
37.05695788001297
 30
0.0
 10
27.22498753498499
 20
37.56200887827687
 30
0.0
 10
28.49691678845721
 20
41.30717218122825
 30
0.0
 10
28.49691678845721
 20
41.30717218122825
 30
0.0
 10
29.86186362005443
 20
40.66741794945742
 30
0.0
 10
29.86186362005443
 20
40.66741794945742
 30
0.0
 10
28.41251194904748
 20
36.82992608747826
 30
0.0
 10
26.33684191866554
 20
35.7860621551866
 30
0.0
 10
22.65265680581832
 20
35.3488795379991
 30
0.0
 10
22.65265680581832
 20
35.3488795379991
 30
0.0
 10
22.23166613741554
 20
36.78789592254771
 30
0.0
 10
22.23166613741554
 20
36.78789592254771
 30
0.0
  0
SPLINE
  5
E3D
330
E1F
100
AcDbEntity
  8
WAKU
100
AcDbSpline
210
0.0
220
0.0
230
1.0
 70
     9
 71
     3
 72
    17
 73
    13
 74
     0
 42
0.000000001
 43
0.0000000001
 40
0.0
 40
0.0
 40
0.0
 40
0.0
 40
1.0
 40
1.0
 40
1.0
 40
2.0
 40
2.0
 40
2.0
 40
3.0
 40
3.0
 40
3.0
 40
4.0
 40
4.0
 40
4.0
 40
4.0
 10
24.45719782144332
 20
38.40364570553381
 30
0.0
 10
23.34443197942943
 20
38.92523316213104
 30
0.0
 10
22.37188152370026
 20
39.2029078583116
 30
0.0
 10
21.70801162352665
 20
39.3799857662977
 30
0.0
 10
21.70801162352665
 20
39.3799857662977
 30
0.0
 10
22.20341635442943
 20
40.52444648678378
 30
0.0
 10
22.20341635442943
 20
40.52444648678378
 30
0.0
 10
22.75532065130443
 20
40.40662422115882
 30
0.0
 10
24.08306045165165
 20
40.06969388261715
 30
0.0
 10
25.00875760876971
 20
39.63216675588103
 30
0.0
 10
25.00875760876971
 20
39.63216675588103
 30
0.0
 10
24.45719782144332
 20
38.40364570553381
 30
0.0
 10
24.45719782144332
 20
38.40364570553381
 30
0.0
  0
SPLINE
  5
E3E
330
E1F
100
AcDbEntity
  8
WAKU
100
AcDbSpline
210
0.0
220
0.0
230
1.0
 70
     9
 71
     3
 72
    17
 73
    13
 74
     0
 42
0.000000001
 43
0.0000000001
 40
0.0
 40
0.0
 40
0.0
 40
0.0
 40
1.0
 40
1.0
 40
1.0
 40
2.0
 40
2.0
 40
2.0
 40
3.0
 40
3.0
 40
3.0
 40
4.0
 40
4.0
 40
4.0
 40
4.0
 10
29.31960559054054
 20
41.70266914303382
 30
0.0
 10
29.24484701849193
 20
42.03925497202686
 30
0.0
 10
29.09532987439471
 20
42.53569323157547
 30
0.0
 10
28.90826118949887
 20
42.92292196421437
 30
0.0
 10
28.90826118949887
 20
42.92292196421437
 30
0.0
 10
29.72130372422109
 20
43.04074422983936
 30
0.0
 10
29.72130372422109
 20
43.04074422983936
 30
0.0
 10
29.96487197508915
 20
42.56945516733935
 30
0.0
 10
30.13299263481137
 20
41.92970093556853
 30
0.0
 10
30.15159615043637
 20
41.85425334442268
 30
0.0
 10
30.15159615043637
 20
41.85425334442268
 30
0.0
 10
29.31960559054054
 20
41.70266914303382
 30
0.0
 10
29.31960559054054
 20
41.70266914303382
 30
0.0
  0
SPLINE
  5
E3F
330
E1F
100
AcDbEntity
  8
WAKU
100
AcDbSpline
210
0.0
220
0.0
230
1.0
 70
     9
 71
     3
 72
    17
 73
    13
 74
     0
 42
0.000000001
 43
0.0000000001
 40
0.0
 40
0.0
 40
0.0
 40
0.0
 40
1.0
 40
1.0
 40
1.0
 40
2.0
 40
2.0
 40
2.0
 40
3.0
 40
3.0
 40
3.0
 40
4.0
 40
4.0
 40
4.0
 40
4.0
 10
27.95431424939471
 20
41.50905477671435
 30
0.0
 10
27.91710721814471
 20
41.70266914303382
 30
0.0
 10
27.78584908012387
 20
42.36722806230464
 30
0.0
 10
27.58982314696415
 20
42.83851712480464
 30
0.0
 10
27.58982314696415
 20
42.83851712480464
 30
0.0
 10
28.42181370685999
 20
42.94772665171436
 30
0.0
 10
28.42181370685999
 20
42.94772665171436
 30
0.0
 10
28.5058740367211
 20
42.75445679494352
 30
0.0
 10
28.63678766519332
 20
42.48505032792964
 30
0.0
 10
28.83315810790165
 20
41.66890720726992
 30
0.0
 10
28.83315810790165
 20
41.66890720726992
 30
0.0
 10
27.95431424939471
 20
41.50905477671435
 30
0.0
 10
27.95431424939471
 20
41.50905477671435
 30
0.0
  0
SPLINE
  5
E40
330
E1F
100
AcDbEntity
  8
WAKU
100
AcDbSpline
210
0.0
220
0.0
230
1.0
 70
     9
 71
     3
 72
    17
 73
    13
 74
     0
 42
0.000000001
 43
0.0000000001
 40
0.0
 40
0.0
 40
0.0
 40
0.0
 40
1.0
 40
1.0
 40
1.0
 40
2.0
 40
2.0
 40
2.0
 40
3.0
 40
3.0
 40
3.0
 40
4.0
 40
4.0
 40
4.0
 40
4.0
 10
25.27988662352665
 20
40.4403861569227
 30
0.0
 10
24.27012913654749
 20
40.88618151282547
 30
0.0
 10
23.50359539088776
 20
41.11355781490881
 30
0.0
 10
22.45594185356138
 20
41.35747057532547
 30
0.0
 10
22.45594185356138
 20
41.35747057532547
 30
0.0
 10
22.98924263481137
 20
42.49366306664492
 30
0.0
 10
22.98924263481137
 20
42.49366306664492
 30
0.0
 10
24.05481066866554
 20
42.28316773244353
 30
0.0
 10
24.84993870685999
 20
42.06440416907547
 30
0.0
 10
25.86899795165165
 20
41.66890720726992
 30
0.0
 10
25.86899795165165
 20
41.66890720726992
 30
0.0
 10
25.27988662352665
 20
40.4403861569227
 30
0.0
 10
25.27988662352665
 20
40.4403861569227
 30
0.0
  0
SPLINE
  5
E41
330
E1F
100
AcDbEntity
  8
WAKU
100
AcDbSpline
210
0.0
220
0.0
230
1.0
 70
    11
 71
     3
 72
    32
 73
    28
 74
     0
 42
0.000000001
 43
0.0000000001
 40
0.0
 40
0.0
 40
0.0
 40
0.0
 40
1.0
 40
1.0
 40
1.0
 40
2.0
 40
2.0
 40
2.0
 40
3.0
 40
3.0
 40
3.0
 40
4.0
 40
4.0
 40
4.0
 40
5.0
 40
5.0
 40
5.0
 40
6.0
 40
6.0
 40
6.0
 40
7.0
 40
7.0
 40
7.0
 40
8.0
 40
8.0
 40
8.0
 40
9.0
 40
9.0
 40
9.0
 40
9.0
 10
17.82917861571415
 20
35.36541599633242
 30
0.0
 10
17.82917861571415
 20
35.36541599633242
 30
0.0
 10
16.24891331623498
 20
35.36541599633242
 30
0.0
 10
16.24891331623498
 20
35.36541599633242
 30
0.0
 10
16.24891331623498
 20
35.36541599633242
 30
0.0
 10
16.24891331623498
 20
38.79914266733937
 30
0.0
 10
16.24891331623498
 20
38.79914266733937
 30
0.0
 10
14.98663033012387
 20
38.13423923851992
 30
0.0
 10
13.86421822074886
 20
37.77250421247825
 30
0.0
 10
13.12558974852665
 20
37.54512791039493
 30
0.0
 10
13.12558974852665
 20
37.54512791039493
 30
0.0
 10
12.30290094644331
 20
38.68132040171437
 30
0.0
 10
12.30290094644331
 20
38.68132040171437
 30
0.0
 10
13.72400283446415
 20
39.04305542775603
 30
0.0
 10
15.06138890217249
 20
39.64077949459632
 30
0.0
 10
16.2864648570336
 20
40.3811305145616
 30
0.0
 10
17.63280817300582
 20
41.19761814476992
 30
0.0
 10
18.52129829887387
 20
42.06440416907547
 30
0.0
 10
19.20377171467248
 20
42.77133776282545
 30
0.0
 10
19.20377171467248
 20
42.77133776282545
 30
0.0
 10
20.54081327283221
 20
41.93831367428381
 30
0.0
 10
20.54081327283221
 20
41.93831367428381
 30
0.0
 10
19.74602974418637
 20
41.16385620900604
 30
0.0
 10
19.02600478758914
 20
40.5582084225477
 30
0.0
 10
17.82917861571415
 20
39.74998902150603
 30
0.0
 10
17.82917861571415
 20
39.74998902150603
 30
0.0
 10
17.82917861571415
 20
35.36541599633242
 30
0.0
 10
17.82917861571415
 20
35.36541599633242
 30
0.0
  0
SPLINE
  5
E42
330
E1F
100
AcDbEntity
  8
WAKU
100
AcDbSpline
210
0.0
220
0.0
230
1.0
 70
     9
 71
     3
 72
    41
 73
    37
 74
     0
 42
0.000000001
 43
0.0000000001
 40
0.0
 40
0.0
 40
0.0
 40
0.0
 40
1.0
 40
1.0
 40
1.0
 40
2.0
 40
2.0
 40
2.0
 40
3.0
 40
3.0
 40
3.0
 40
4.0
 40
4.0
 40
4.0
 40
5.0
 40
5.0
 40
5.0
 40
6.0
 40
6.0
 40
6.0
 40
7.0
 40
7.0
 40
7.0
 40
8.0
 40
8.0
 40
8.0
 40
9.0
 40
9.0
 40
9.0
 40
10.0
 40
10.0
 40
10.0
 40
11.0
 40
11.0
 40
11.0
 40
12.0
 40
12.0
 40
12.0
 40
12.0
 10
3.74907336397804
 20
36.2914576629991
 30
0.0
 10
4.515951619186371
 20
36.56051962046436
 30
0.0
 10
6.133423949915536
 20
37.12448175154076
 30
0.0
 10
6.526509344880821
 20
38.98448880449215
 30
0.0
 10
6.666724731165542
 20
39.62389852671437
 30
0.0
 10
6.657078463804432
 20
40.14548598331159
 30
0.0
 10
6.648121215540541
 20
40.58335761959629
 30
0.0
 10
6.648121215540541
 20
40.58335761959629
 30
0.0
 10
8.2094384898461
 20
40.57508939042963
 30
0.0
 10
8.2094384898461
 20
40.57508939042963
 30
0.0
 10
8.200136732033596
 20
40.21300985483935
 30
0.0
 10
8.190834974221097
 20
39.94360338782548
 30
0.0
 10
8.134335408248871
 20
39.48919529320742
 30
0.0
 10
8.836101358769711
 20
39.78375095726992
 30
0.0
 10
9.54682455755443
 20
40.21300985483935
 30
0.0
 10
9.9767724742211
 20
41.1473197506727
 30
0.0
 10
9.9767724742211
 20
41.1473197506727
 30
0.0
 10
3.67431479192943
 20
41.1473197506727
 30
0.0
 10
3.67431479192943
 20
41.1473197506727
 30
0.0
 10
3.67431479192943
 20
41.1473197506727
 30
0.0
 10
3.67431479192943
 20
42.43440742428381
 30
0.0
 10
3.67431479192943
 20
42.43440742428381
 30
0.0
 10
3.67431479192943
 20
42.43440742428381
 30
0.0
 10
11.88432184488082
 20
42.43440742428381
 30
0.0
 10
11.88432184488082
 20
42.43440742428381
 30
0.0
 10
11.59458931449887
 20
40.36424954667963
 30
0.0
 10
10.65924589001971
 20
39.27869995900604
 30
0.0
 10
9.097928615714151
 20
38.46255683834632
 30
0.0
 10
9.097928615714151
 20
38.46255683834632
 30
0.0
 10
8.115731892623877
 20
39.3799857662977
 30
0.0
 10
8.115731892623877
 20
39.3799857662977
 30
0.0
 10
7.86355090304054
 20
37.67121840518659
 30
0.0
 10
7.246189791929432
 20
36.34175605709631
 30
0.0
 10
4.721623819707208
 20
35.22244453365882
 30
0.0
 10
4.721623819707208
 20
35.22244453365882
 30
0.0
 10
3.74907336397804
 20
36.2914576629991
 30
0.0
 10
3.74907336397804
 20
36.2914576629991
 30
0.0
  0
ENDBLK
  5
E43
330
E1F
100
AcDbEntity
  8
0
100
AcDbBlockEnd
  0
BLOCK
  5
14C6
330
14C3
100
AcDbEntity
  8
0
100
AcDbBlockBegin
  2
_DotBlank
 70
     0
 10
0.0
 20
0.0
 30
0.0
  3
_DotBlank
  1

  0
CIRCLE
  5
14C4
330
14C3
100
AcDbEntity
  8
0
  6
ByBlock
 62
     0
370
    -2
100
AcDbCircle
 10
0.0
 20
0.0
 30
0.0
 40
0.5
  0
LINE
  5
14C5
330
14C3
100
AcDbEntity
  8
0
  6
ByBlock
 62
     0
370
    -2
100
AcDbLine
 10
-0.5
 20
0.0
 30
0.0
 11
-1.0
 21
0.0
 31
0.0
  0
ENDBLK
  5
14C7
330
14C3
100
AcDbEntity
  8
0
100
AcDbBlockEnd
  0
BLOCK
  5
2BC3
330
2BB9
100
AcDbEntity
  8
0
100
AcDbBlockBegin
  2
*D3
 70
     1
 10
0.0
 20
0.0
 30
0.0
  3
*D3
  1

  0
LINE
  5
3F12
330
2BB9
100
AcDbEntity
  8
SUNPOU
 62
     0
440
 16777216
370
    -2
100
AcDbLine
 10
405.0075551134203
 20
271.7000000000003
 30
0.0
 11
405.0075551134203
 21
249.1972336068541
 31
0.0
  0
LINE
  5
3F13
330
2BB9
100
AcDbEntity
  8
SUNPOU
 62
     0
440
 16777216
370
    -2
100
AcDbLine
 10
380.0075551134261
 20
319.8000000000029
 30
0.0
 11
380.0075551134261
 21
249.1972336068541
 31
0.0
  0
LINE
  5
3F14
330
2BB9
100
AcDbEntity
  8
SUNPOU
 62
     0
440
 16777216
370
    -2
100
AcDbLine
 10
403.5075551134203
 20
249.1972336068541
 30
0.0
 11
381.5075551134261
 21
249.1972336068541
 31
0.0
  0
INSERT
  5
3F15
330
2BB9
100
AcDbEntity
  8
SUNPOU
 62
     0
440
 16777216
370
    -2
100
AcDbBlockReference
  2
_DotBlank
 10
405.0075551134203
 20
249.1972336068541
 30
0.0
 41
1.5
 42
1.5
 43
1.5
  0
INSERT
  5
3F16
330
2BB9
100
AcDbEntity
  8
SUNPOU
 62
     0
440
 16777216
370
    -2
100
AcDbBlockReference
  2
_DotBlank
 10
380.0075551134261
 20
249.1972336068541
 30
0.0
 41
1.5
 42
1.5
 43
1.5
 50
180.0
  0
MTEXT
  5
3F17
330
2BB9
100
AcDbEntity
  8
SUNPOU
 62
     0
440
 16777216
100
AcDbMText
 10
392.5075551134114
 20
252.3222336068541
 30
0.0
 40
5.0
 41
0.0
 46
0.0
 71
     5
 72
     1
  1
\A1;25
 73
     1
 44
1.0
  0
POINT
  5
3F18
330
2BB9
100
AcDbEntity
  8
DEFPOINTS
 62
     0
440
 16777216
100
AcDbPoint
 10
405.0075551134203
 20
276.7000000000003
 30
0.0000000000016808
  0
POINT
  5
3F19
330
2BB9
100
AcDbEntity
  8
DEFPOINTS
 62
     0
440
 16777216
100
AcDbPoint
 10
380.0075551134261
 20
324.8000000000029
 30
0.0000000000016793
  0
POINT
  5
3F1A
330
2BB9
100
AcDbEntity
  8
DEFPOINTS
 62
     0
440
 16777216
100
AcDbPoint
 10
380.0075551134261
 20
249.1972336068541
 30
0.0
  0
ENDBLK
  5
2BC4
330
2BB9
100
AcDbEntity
  8
0
100
AcDbBlockEnd
  0
BLOCK
  5
2BCF
330
2BC5
100
AcDbEntity
  8
0
100
AcDbBlockBegin
  2
*D4
 70
     1
 10
0.0
 20
0.0
 30
0.0
  3
*D4
  1

  0
LINE
  5
3A69
330
2BC5
100
AcDbEntity
  8
SUNPOU
 62
     0
440
 16777216
370
    -2
100
AcDbLine
 10
615.5075551134232
 20
350.5000000000014
 30
0.0
 11
640.5075551134232
 21
350.5000000000013
 31
0.0
  0
LINE
  5
3A6A
330
2BC5
100
AcDbEntity
  8
SUNPOU
 62
     0
440
 16777216
370
    -2
100
AcDbLine
 10
615.5075551134232
 20
275.4999999999995
 30
0.0
 11
640.5075551134232
 21
275.4999999999995
 31
0.0
  0
LINE
  5
3A6B
330
2BC5
100
AcDbEntity
  8
SUNPOU
 62
     0
440
 16777216
370
    -2
100
AcDbLine
 10
640.5075551134232
 20
349.0000000000013
 30
0.0
 11
640.5075551134232
 21
276.9999999999995
 31
0.0
  0
INSERT
  5
3A6C
330
2BC5
100
AcDbEntity
  8
SUNPOU
 62
     0
440
 16777216
370
    -2
100
AcDbBlockReference
  2
_DotBlank
 10
640.5075551134232
 20
350.5000000000013
 30
0.0
 41
1.5
 42
1.5
 43
1.5
 50
90.0
  0
INSERT
  5
3A6D
330
2BC5
100
AcDbEntity
  8
SUNPOU
 62
     0
440
 16777216
370
    -2
100
AcDbBlockReference
  2
_DotBlank
 10
640.5075551134232
 20
275.4999999999995
 30
0.0
 41
1.5
 42
1.5
 43
1.5
 50
270.0
  0
MTEXT
  5
3A6E
330
2BC5
100
AcDbEntity
  8
SUNPOU
 62
     0
440
 16777216
100
AcDbMText
 10
637.3825551134231
 20
313.2500000000014
 30
0.0
 40
5.0
 41
0.0
 46
0.0
 71
     5
 72
     1
  1
\A1;75
 11
0.0000000000000001
 21
1.0
 31
0.0
 73
     1
 44
1.0
  0
POINT
  5
3A6F
330
2BC5
100
AcDbEntity
  8
DEFPOINTS
 62
     0
440
 16777216
100
AcDbPoint
 10
610.5075551134232
 20
350.5000000000014
 30
0.0
  0
POINT
  5
3A70
330
2BC5
100
AcDbEntity
  8
DEFPOINTS
 62
     0
440
 16777216
100
AcDbPoint
 10
610.5075551134232
 20
275.4999999999995
 30
0.0000000000000031
  0
POINT
  5
3A71
330
2BC5
100
AcDbEntity
  8
DEFPOINTS
 62
     0
440
 16777216
100
AcDbPoint
 10
640.5075551134232
 20
275.4999999999995
 30
0.0
  0
ENDBLK
  5
2BD0
330
2BC5
100
AcDbEntity
  8
0
100
AcDbBlockEnd
  0
BLOCK
  5
2CFA
330
2CF0
100
AcDbEntity
  8
0
100
AcDbBlockBegin
  2
*D5
 70
     1
 10
0.0
 20
0.0
 30
0.0
  3
*D5
  1

  0
LINE
  5
3A60
330
2CF0
100
AcDbEntity
  8
SUNPOU
 62
     0
440
 16777216
370
    -2
100
AcDbLine
 10
615.5075551134231
 20
353.0000000000014
 30
0.0
 11
640.5075551134232
 21
353.0000000000013
 31
0.0
  0
LINE
  5
3A61
330
2CF0
100
AcDbEntity
  8
SUNPOU
 62
     0
440
 16777216
370
    -2
100
AcDbLine
 10
615.5075551134231
 20
453.0000000000013
 30
0.0
 11
640.5075551134232
 21
453.0000000000011
 31
0.0
  0
LINE
  5
3A62
330
2CF0
100
AcDbEntity
  8
SUNPOU
 62
     0
440
 16777216
370
    -2
100
AcDbLine
 10
640.5075551134232
 20
354.5000000000013
 30
0.0
 11
640.5075551134232
 21
451.5000000000013
 31
0.0
  0
INSERT
  5
3A63
330
2CF0
100
AcDbEntity
  8
SUNPOU
 62
     0
440
 16777216
370
    -2
100
AcDbBlockReference
  2
_DotBlank
 10
640.5075551134232
 20
353.0000000000013
 30
0.0
 41
1.5
 42
1.5
 43
1.5
 50
270.0
  0
INSERT
  5
3A64
330
2CF0
100
AcDbEntity
  8
SUNPOU
 62
     0
440
 16777216
370
    -2
100
AcDbBlockReference
  2
_DotBlank
 10
640.5075551134232
 20
453.0000000000011
 30
0.0
 41
1.5
 42
1.5
 43
1.5
 50
90.0
  0
MTEXT
  5
3A65
330
2CF0
100
AcDbEntity
  8
SUNPOU
 62
     0
440
 16777216
100
AcDbMText
 10
637.3825551134232
 20
403.0000000000013
 30
0.0
 40
5.0
 41
0.0
 46
0.0
 71
     5
 72
     1
  1
\A1;100
 11
0.0000000000000001
 21
1.0
 31
0.0
 73
     1
 44
1.0
  0
POINT
  5
3A66
330
2CF0
100
AcDbEntity
  8
DEFPOINTS
 62
     0
440
 16777216
100
AcDbPoint
 10
610.507555113423
 20
353.0000000000014
 30
0.0
  0
POINT
  5
3A67
330
2CF0
100
AcDbEntity
  8
DEFPOINTS
 62
     0
440
 16777216
100
AcDbPoint
 10
610.507555113423
 20
453.0000000000013
 30
0.0
  0
POINT
  5
3A68
330
2CF0
100
AcDbEntity
  8
DEFPOINTS
 62
     0
440
 16777216
100
AcDbPoint
 10
640.5075551134232
 20
453.0000000000011
 30
0.0
  0
ENDBLK
  5
2CFB
330
2CF0
100
AcDbEntity
  8
0
100
AcDbBlockEnd
  0
BLOCK
  5
3E11
330
3E10
100
AcDbEntity
  8
0
100
AcDbBlockBegin
  2
*D6
 70
     1
 10
0.0
 20
0.0
 30
0.0
  3
*D6
  1

  0
LINE
  5
5156
330
3E10
100
AcDbEntity
  8
SUNPOU
 62
     0
440
 16777216
370
    -2
100
AcDbLine
 10
197.5075551134233
 20
233.0000000000044
 30
0.0
 11
182.8307496065073
 21
233.0000000000044
 31
0.0
  0
LINE
  5
5157
330
3E10
100
AcDbEntity
  8
SUNPOU
 62
     0
440
 16777216
370
    -2
100
AcDbLine
 10
192.7259952395767
 20
403.0000000000013
 30
0.0
 11
182.8307496065072
 21
403.0000000000013
 31
0.0
  0
LINE
  5
5158
330
3E10
100
AcDbEntity
  8
SUNPOU
 62
     0
440
 16777216
370
    -2
100
AcDbLine
 10
182.8307496065073
 20
234.5000000000044
 30
0.0
 11
182.8307496065072
 21
401.5000000000013
 31
0.0
  0
INSERT
  5
5159
330
3E10
100
AcDbEntity
  8
SUNPOU
 62
     0
440
 16777216
370
    -2
100
AcDbBlockReference
  2
_DotBlank
 10
182.8307496065073
 20
233.0000000000044
 30
0.0
 41
1.5
 42
1.5
 43
1.5
 50
270.0
  0
INSERT
  5
515A
330
3E10
100
AcDbEntity
  8
SUNPOU
 62
     0
440
 16777216
370
    -2
100
AcDbBlockReference
  2
_DotBlank
 10
182.8307496065072
 20
403.0000000000013
 30
0.0
 41
1.5
 42
1.5
 43
1.5
 50
90.0
  0
MTEXT
  5
515B
330
3E10
100
AcDbEntity
  8
SUNPOU
 62
     0
440
 16777216
100
AcDbMText
 10
179.7057496065073
 20
318.0000000000027
 30
0.0
 40
5.0
 41
0.0
 46
0.0
 71
     5
 72
     1
  1
\A1;170
 11
0.0000000000000001
 21
1.0
 31
0.0
 73
     1
 44
1.0
  0
POINT
  5
515C
330
3E10
100
AcDbEntity
  8
DEFPOINTS
 62
     0
440
 16777216
100
AcDbPoint
 10
202.5075551134233
 20
233.0000000000044
 30
0.0000000000016747
  0
POINT
  5
515D
330
3E10
100
AcDbEntity
  8
DEFPOINTS
 62
     0
440
 16777216
100
AcDbPoint
 10
197.7259952395767
 20
403.0000000000013
 30
0.0000000000016747
  0
POINT
  5
515E
330
3E10
100
AcDbEntity
  8
DEFPOINTS
 62
     0
440
 16777216
100
AcDbPoint
 10
182.8307496065072
 20
403.0000000000013
 30
0.0
  0
ENDBLK
  5
3E12
330
3E10
100
AcDbEntity
  8
0
100
AcDbBlockEnd
  0
BLOCK
  5
3E34
330
3E33
100
AcDbEntity
  8
0
100
AcDbBlockBegin
  2
*D7
 70
     1
 10
0.0
 20
0.0
 30
0.0
  3
*D7
  1

  0
LINE
  5
514D
330
3E33
100
AcDbEntity
  8
SUNPOU
 62
     0
440
 16777216
370
    -2
100
AcDbLine
 10
422.5075551134193
 20
458.0000000000013
 30
0.0
 11
422.5075551134193
 21
464.5775140327437
 31
0.0
  0
LINE
  5
514E
330
3E33
100
AcDbEntity
  8
SUNPOU
 62
     0
440
 16777216
370
    -2
100
AcDbLine
 10
252.5075551134233
 20
465.7456355245581
 30
0.0
 11
252.5075551134233
 21
464.5775140327437
 31
0.0
  0
LINE
  5
514F
330
3E33
100
AcDbEntity
  8
SUNPOU
 62
     0
440
 16777216
370
    -2
100
AcDbLine
 10
421.0075551134194
 20
464.5775140327437
 30
0.0
 11
254.0075551134233
 21
464.5775140327437
 31
0.0
  0
INSERT
  5
5150
330
3E33
100
AcDbEntity
  8
SUNPOU
 62
     0
440
 16777216
370
    -2
100
AcDbBlockReference
  2
_DotBlank
 10
422.5075551134193
 20
464.5775140327437
 30
0.0
 41
1.5
 42
1.5
 43
1.5
  0
INSERT
  5
5151
330
3E33
100
AcDbEntity
  8
SUNPOU
 62
     0
440
 16777216
370
    -2
100
AcDbBlockReference
  2
_DotBlank
 10
252.5075551134233
 20
464.5775140327437
 30
0.0
 41
1.5
 42
1.5
 43
1.5
 50
180.0
  0
MTEXT
  5
5152
330
3E33
100
AcDbEntity
  8
SUNPOU
 62
     0
440
 16777216
100
AcDbMText
 10
337.5075551134214
 20
467.7025140327437
 30
0.0
 40
5.0
 41
0.0
 46
0.0
 71
     5
 72
     1
  1
\A1;170
 73
     1
 44
1.0
  0
POINT
  5
5153
330
3E33
100
AcDbEntity
  8
DEFPOINTS
 62
     0
440
 16777216
100
AcDbPoint
 10
422.5075551134193
 20
453.0000000000013
 30
0.0000000000019996
  0
POINT
  5
5154
330
3E33
100
AcDbEntity
  8
DEFPOINTS
 62
     0
440
 16777216
100
AcDbPoint
 10
252.5075551134233
 20
460.7456355245581
 30
0.0
  0
POINT
  5
5155
330
3E33
100
AcDbEntity
  8
DEFPOINTS
 62
     0
440
 16777216
100
AcDbPoint
 10
252.5075551134233
 20
464.5775140327437
 30
0.0
  0
ENDBLK
  5
3E35
330
3E33
100
AcDbEntity
  8
0
100
AcDbBlockEnd
  0
BLOCK
  5
3E9B
330
3E9A
100
AcDbEntity
  8
0
 62
     2
100
AcDbBlockBegin
  2
*D8
 70
     1
 10
0.0
 20
0.0
 30
0.0
  3
*D8
  1

  0
LINE
  5
51C4
330
3E9A
100
AcDbEntity
  8
SUNPOU
 62
     0
440
 16777216
370
    -2
100
AcDbLine
 10
295.2075551134241
 20
233.0000000000044
 30
0.0
 11
277.4629616517568
 21
233.0000000000044
 31
0.0
  0
LINE
  5
51C5
330
3E9A
100
AcDbEntity
  8
SUNPOU
 62
     0
440
 16777216
370
    -2
100
AcDbLine
 10
354.2075551134212
 20
326.0000000000026
 30
0.0
 11
277.4629616517568
 21
326.0000000000026
 31
0.0
  0
LINE
  5
51C6
330
3E9A
100
AcDbEntity
  8
SUNPOU
 62
     0
440
 16777216
370
    -2
100
AcDbLine
 10
277.4629616517568
 20
234.5000000000045
 30
0.0
 11
277.4629616517568
 21
324.5000000000026
 31
0.0
  0
INSERT
  5
51C7
330
3E9A
100
AcDbEntity
  8
SUNPOU
 62
     0
440
 16777216
370
    -2
100
AcDbBlockReference
  2
_DotBlank
 10
277.4629616517568
 20
233.0000000000044
 30
0.0
 41
1.5
 42
1.5
 43
1.5
 50
270.0
  0
INSERT
  5
51C8
330
3E9A
100
AcDbEntity
  8
SUNPOU
 62
     0
440
 16777216
370
    -2
100
AcDbBlockReference
  2
_DotBlank
 10
277.4629616517568
 20
326.0000000000026
 30
0.0
 41
1.5
 42
1.5
 43
1.5
 50
90.0
  0
MTEXT
  5
51C9
330
3E9A
100
AcDbEntity
  8
SUNPOU
 62
     0
440
 16777216
100
AcDbMText
 10
274.3379616517568
 20
297.389227527074
 30
0.0
 40
5.0
 41
0.0
 46
0.0
 71
     5
 72
     1
  1
\A1;95
 11
0.0000000000000001
 21
1.0
 31
0.0
 73
     1
 44
1.0
  0
POINT
  5
51CA
330
3E9A
100
AcDbEntity
  8
DEFPOINTS
 62
     0
440
 16777216
100
AcDbPoint
 10
300.2075551134241
 20
233.0000000000044
 30
0.0000000000016747
  0
POINT
  5
51CB
330
3E9A
100
AcDbEntity
  8
DEFPOINTS
 62
     0
440
 16777216
100
AcDbPoint
 10
359.2075551134212
 20
326.0000000000026
 30
0.000000000004194
  0
POINT
  5
51CC
330
3E9A
100
AcDbEntity
  8
DEFPOINTS
 62
     0
440
 16777216
100
AcDbPoint
 10
277.4629616517568
 20
326.0000000000026
 30
0.0
  0
ENDBLK
  5
3E9C
330
3E9A
100
AcDbEntity
  8
0
 62
     2
100
AcDbBlockEnd
  0
BLOCK
  5
3EBA
330
3EB9
100
AcDbEntity
  8
0
 62
     2
100
AcDbBlockBegin
  2
*D9
 70
     1
 10
0.0
 20
0.0
 30
0.0
  3
*D9
  1

  0
LINE
  5
5189
330
3EB9
100
AcDbEntity
  8
SUNPOU
 62
     0
440
 16777216
370
    -2
100
AcDbLine
 10
422.5075551134193
 20
360.3000000000012
 30
0.0000000000000348
 11
422.5075551134193
 21
388.0000000000013
 31
0.0000000000000348
  0
LINE
  5
518A
330
3EB9
100
AcDbEntity
  8
SUNPOU
 62
     0
440
 16777216
370
    -2
100
AcDbLine
 10
405.0075551134086
 20
299.79999999998
 30
0.0000000000000348
 11
405.0075551134086
 21
388.0000000000013
 31
0.0000000000000348
  0
LINE
  5
518B
330
3EB9
100
AcDbEntity
  8
SUNPOU
 62
     0
440
 16777216
370
    -2
100
AcDbLine
 10
421.0075551134194
 20
388.0000000000013
 30
0.0000000000000348
 11
406.5075551134087
 21
388.0000000000013
 31
0.0000000000000348
  0
INSERT
  5
518C
330
3EB9
100
AcDbEntity
  8
SUNPOU
 62
     0
440
 16777216
370
    -2
100
AcDbBlockReference
  2
_DotBlank
 10
422.5075551134193
 20
388.0000000000013
 30
0.0000000000000348
 41
1.5
 42
1.5
 43
1.5
  0
INSERT
  5
518D
330
3EB9
100
AcDbEntity
  8
SUNPOU
 62
     0
440
 16777216
370
    -2
100
AcDbBlockReference
  2
_DotBlank
 10
405.0075551134086
 20
388.0000000000013
 30
0.0000000000000348
 41
1.5
 42
1.5
 43
1.5
 50
180.0
  0
MTEXT
  5
518E
330
3EB9
100
AcDbEntity
  8
SUNPOU
 62
     0
440
 16777216
100
AcDbMText
 10
413.757555113414
 20
391.1250000000013
 30
0.0000000000000348
 40
5.0
 41
0.0
 46
0.0
 71
     5
 72
     1
  1
\A1;20
 73
     1
 44
1.0
  0
POINT
  5
518F
330
3EB9
100
AcDbEntity
  8
DEFPOINTS
 62
     0
440
 16777216
100
AcDbPoint
 10
422.5075551134193
 20
355.3000000000011
 30
-0.000000000000738
  0
POINT
  5
5190
330
3EB9
100
AcDbEntity
  8
DEFPOINTS
 62
     0
440
 16777216
100
AcDbPoint
 10
405.0075551134086
 20
294.79999999998
 30
0.0000000000000696
  0
POINT
  5
5191
330
3EB9
100
AcDbEntity
  8
DEFPOINTS
 62
     0
440
 16777216
100
AcDbPoint
 10
405.0075551134086
 20
388.0000000000013
 30
0.0000000000000348
  0
ENDBLK
  5
3EBB
330
3EB9
100
AcDbEntity
  8
0
 62
     2
100
AcDbBlockEnd
  0
BLOCK
  5
4F08
330
4F07
100
AcDbEntity
  8
0
100
AcDbBlockBegin
  2
*D10
 70
     1
 10
0.0
 20
0.0
 30
0.0
  3
*D10
  1

  0
LINE
  5
51BB
330
4F07
100
AcDbEntity
  8
SUNPOU
 62
     0
440
 16777216
370
    -2
100
AcDbLine
 10
354.2075551134212
 20
326.0000000000025
 30
0.0
 11
277.4629616517569
 21
326.0000000000025
 31
0.0
  0
LINE
  5
51BC
330
4F07
100
AcDbEntity
  8
SUNPOU
 62
     0
440
 16777216
370
    -2
100
AcDbLine
 10
299.0075551134233
 20
353.0000000000015
 30
0.0
 11
277.4629616517569
 21
353.0000000000015
 31
0.0
  0
LINE
  5
51BD
330
4F07
100
AcDbEntity
  8
SUNPOU
 62
     0
440
 16777216
370
    -2
100
AcDbLine
 10
277.4629616517569
 20
327.5000000000024
 30
0.0
 11
277.4629616517569
 21
351.5000000000015
 31
0.0
  0
INSERT
  5
51BE
330
4F07
100
AcDbEntity
  8
SUNPOU
 62
     0
440
 16777216
370
    -2
100
AcDbBlockReference
  2
_DotBlank
 10
277.4629616517569
 20
326.0000000000025
 30
0.0
 41
1.5
 42
1.5
 43
1.5
 50
270.0
  0
INSERT
  5
51BF
330
4F07
100
AcDbEntity
  8
SUNPOU
 62
     0
440
 16777216
370
    -2
100
AcDbBlockReference
  2
_DotBlank
 10
277.4629616517569
 20
353.0000000000015
 30
0.0
 41
1.5
 42
1.5
 43
1.5
 50
90.0
  0
MTEXT
  5
51C0
330
4F07
100
AcDbEntity
  8
SUNPOU
 62
     0
440
 16777216
100
AcDbMText
 10
274.3379616517569
 20
339.5000000000018
 30
0.0
 40
5.0
 41
0.0
 46
0.0
 71
     5
 72
     1
  1
\A1;25
 11
0.0000000000000001
 21
1.0
 31
0.0
 73
     1
 44
1.0
  0
POINT
  5
51C1
330
4F07
100
AcDbEntity
  8
DEFPOINTS
 62
     0
440
 16777216
100
AcDbPoint
 10
359.2075551134212
 20
326.0000000000025
 30
0.0
  0
POINT
  5
51C2
330
4F07
100
AcDbEntity
  8
DEFPOINTS
 62
     0
440
 16777216
100
AcDbPoint
 10
304.0075551134233
 20
353.0000000000015
 30
-0.00000000000164
  0
POINT
  5
51C3
330
4F07
100
AcDbEntity
  8
DEFPOINTS
 62
     0
440
 16777216
100
AcDbPoint
 10
277.4629616517569
 20
353.0000000000015
 30
0.0
  0
ENDBLK
  5
4F09
330
4F07
100
AcDbEntity
  8
0
100
AcDbBlockEnd
  0
ENDSEC
  0
SECTION
  2
ENTITIES
  0
LINE
  5
E15
330
1A
100
AcDbEntity
  8
WAKU
100
AcDbLine
 10
20.0
 20
10.0
 30
0.0
 11
800.0
 21
10.0
 31
0.0
  0
LINE
  5
E16
330
1A
100
AcDbEntity
  8
WAKU
100
AcDbLine
 10
800.0
 20
10.0
 30
0.0
 11
800.0
 21
560.0
 31
0.0
  0
LINE
  5
E17
330
1A
100
AcDbEntity
  8
WAKU
100
AcDbLine
 10
800.0
 20
560.0
 30
0.0
 11
20.0
 21
560.0
 31
0.0
  0
LINE
  5
E18
330
1A
100
AcDbEntity
  8
WAKU
100
AcDbLine
 10
20.0
 20
560.0
 30
0.0
 11
20.0
 21
10.0
 31
0.0
  0
LINE
  5
E1D
330
1A
100
AcDbEntity
  8
WAKU
100
AcDbLine
 10
20.0
 20
30.0
 30
0.0
 11
800.0
 21
30.0
 31
0.0
  0
LINE
  5
E1E
330
1A
100
AcDbEntity
  8
WAKU
100
AcDbLine
 10
120.0
 20
30.0
 30
0.0
 11
120.0
 21
10.0
 31
0.0
  0
LINE
  5
E4F
330
1A
100
AcDbEntity
  8
WAKU
100
AcDbLine
 10
22.0
 20
28.0
 30
0.0
 11
118.0
 21
28.0
 31
0.0
  0
LINE
  5
E50
330
1A
100
AcDbEntity
  8
WAKU
100
AcDbLine
 10
22.0
 20
28.0
 30
0.0
 11
22.0
 21
12.0
 31
0.0
  0
LINE
  5
E51
330
1A
100
AcDbEntity
  8
WAKU
100
AcDbLine
 10
22.0
 20
12.0
 30
0.0
 11
118.0
 21
12.0
 31
0.0
  0
LINE
  5
E52
330
1A
100
AcDbEntity
  8
WAKU
100
AcDbLine
 10
118.0
 20
28.0
 30
0.0
 11
118.0
 21
12.0
 31
0.0
  0
LINE
  5
E59
330
1A
100
AcDbEntity
  8
WAKU
100
AcDbLine
 10
260.0
 20
30.0
 30
0.0
 11
260.0
 21
10.0
 31
0.0
  0
LINE
  5
E5A
330
1A
100
AcDbEntity
  8
WAKU
100
AcDbLine
 10
270.0
 20
30.0
 30
0.0
 11
270.0
 21
10.0
 31
0.0
  0
MTEXT
  5
E5B
330
1A
100
AcDbEntity
  8
WAKU
100
AcDbMText
 10
261.8186178625299
 20
27.72724847366113
 30
0.0
 40
5.0
 41
10.0
 46
0.0
 71
     1
 72
     5
  1
名称
  7
WAKU
 73
     1
 44
1.0
  0
LINE
  5
E5C
330
1A
100
AcDbEntity
  8
WAKU
100
AcDbLine
 10
20.0
 20
30.0
 30
0.0
 11
20.0
 21
10.0
 31
0.0
  0
LINE
  5
E5E
330
1A
100
AcDbEntity
  8
WAKU
100
AcDbLine
 10
520.0
 20
30.0
 30
0.0
 11
520.0
 21
10.0
 31
0.0
  0
LINE
  5
E6C
330
1A
100
AcDbEntity
  8
WAKU
100
AcDbLine
 10
530.0
 20
30.0
 30
0.0
 11
530.0
 21
10.0
 31
0.0
  0
MTEXT
  5
E6D
330
1A
100
AcDbEntity
  8
WAKU
100
AcDbMText
 10
521.8186178625295
 20
27.72724847366113
 30
0.0
 40
5.0
 41
10.0
 46
0.0
 71
     1
 72
     5
  1
縮尺
  7
WAKU
 73
     1
 44
1.0
  0
MTEXT
  5
E6E
102
{ACAD_XDICTIONARY
360
5053
102
}
330
1A
100
AcDbEntity
  8
WAKU
100
AcDbMText
 10
274.3245405690059
 20
23.21985646788335
 30
0.0
 40
5.0
 41
190.5002997985425
 46
0.0
 71
     1
 72
     5
  1
\pi30.59279;耐火ヴァンドＲＺ７５　入隅部・シーリング
  7
WAKU
 73
     1
 44
1.0
  0
MTEXT
  5
E6F
330
1A
100
AcDbEntity
  8
WAKU
100
AcDbMText
 10
539.3245405690056
 20
23.21985646788335
 30
0.0
 40
5.0
 41
190.5002997985425
 46
0.0
 71
     1
 72
     5
  1
1/2（A3）
  7
WAKU
 73
     1
 44
1.0
  0
MTEXT
  5
E71
330
1A
100
AcDbEntity
  8
WAKU
100
AcDbMText
 10
581.8186178625299
 20
27.72724847366113
 30
0.0
 40
5.0
 41
10.0
 46
0.0
 71
     1
 72
     5
  1
図番
  7
WAKU
 73
     1
 44
1.0
  0
LINE
  5
E72
330
1A
100
AcDbEntity
  8
WAKU
100
AcDbLine
 10
590.0
 20
30.0
 30
0.0
 11
590.0
 21
10.0
 31
0.0
  0
LINE
  5
E73
330
1A
100
AcDbEntity
  8
WAKU
100
AcDbLine
 10
580.0
 20
30.0
 30
0.0
 11
580.0
 21
10.0
 31
0.0
  0
MTEXT
  5
E74
330
1A
100
AcDbEntity
  8
WAKU
100
AcDbMText
 10
604.3245405690059
 20
23.21985646788335
 30
0.0
 40
5.0
 41
190.5002997985425
 46
0.0
 71
     1
 72
     5
  1
IGRZ7504_01
  7
WAKU
 73
     1
 44
1.0
  0
LINE
  5
E78
330
1A
100
AcDbEntity
  8
WAKU
100
AcDbLine
 10
660.0
 20
30.0
 30
0.0
 11
660.0
 21
10.0
 31
0.0
  0
LINE
  5
E79
330
1A
100
AcDbEntity
  8
WAKU
100
AcDbLine
 10
670.0
 20
30.0
 30
0.0
 11
670.0
 21
10.0
 31
0.0
  0
MTEXT
  5
E7A
330
1A
100
AcDbEntity
  8
WAKU
100
AcDbMText
 10
661.8186178625299
 20
27.72724847366113
 30
0.0
 40
5.0
 41
10.0
 46
0.0
 71
     1
 72
     5
  1
特記
  7
WAKU
 73
     1
 44
1.0
  0
LINE
  5
E7B
330
1A
100
AcDbEntity
  8
WAKU
  6
DASHED2
 48
0.5
100
AcDbLine
 10
670.0
 20
20.0
 30
0.0
 11
800.0
 21
20.0
 31
0.0
  0
LINE
  5
E8B
330
1A
100
AcDbEntity
  8
WAKU
100
AcDbLine
 10
470.0
 20
10.0
 30
0.0
 11
470.0
 21
30.0
 31
0.0
  0
MTEXT
  5
E8C
330
1A
100
AcDbEntity
  8
WAKU
100
AcDbMText
 10
496.3674469153243
 20
23.21985646788335
 30
0.0
 40
5.0
 41
190.5002997985425
 46
0.0
 71
     1
 72
     5
  1
mm
  7
WAKU
 73
     1
 44
1.0
  0
MTEXT
  5
E8D
330
1A
100
AcDbEntity
  8
WAKU
100
AcDbMText
 10
471.8186178625298
 20
27.72724847366113
 30
0.0
 40
5.0
 41
10.0
 46
0.0
 71
     1
 72
     5
  1
単位
  7
WAKU
 73
     1
 44
1.0
  0
LINE
  5
E8E
330
1A
100
AcDbEntity
  8
WAKU
100
AcDbLine
 10
480.0
 20
30.0
 30
0.0
 11
480.0
 21
10.0
 31
0.0
  0
LINE
  5
2AC0
330
1A
100
AcDbEntity
  8
YAKUMONO
 62
     7
100
AcDbLine
 10
305.0075551134232
 20
238.0000000000014
 30
-0.00000000000164
 11
305.0075551134232
 21
228.0000000000014
 31
-0.00000000000164
  0
LINE
  5
2AC1
330
1A
100
AcDbEntity
  8
YAKUMONO
 62
     7
100
AcDbLine
 10
303.0075551134232
 20
238.0000000000014
 30
-0.00000000000164
 11
305.0075551134232
 21
238.0000000000014
 31
-0.00000000000164
  0
LINE
  5
2AC2
330
1A
100
AcDbEntity
  8
YAKUMONO
 62
     7
100
AcDbLine
 10
303.0075551134232
 20
228.0000000000014
 30
-0.00000000000164
 11
303.0075551134232
 21
238.0000000000014
 31
-0.00000000000164
  0
LINE
  5
2AC3
330
1A
100
AcDbEntity
  8
YAKUMONO
 62
     7
100
AcDbLine
 10
305.0075551134232
 20
228.0000000000014
 30
-0.00000000000164
 11
303.0075551134232
 21
228.0000000000014
 31
-0.00000000000164
  0
LINE
  5
2AC5
330
1A
100
AcDbEntity
  8
YAKUMONO
 62
     7
100
AcDbLine
 10
417.5075551134232
 20
352.5000000000014
 30
-0.00000000000164
 11
417.5075551134233
 21
350.5000000000014
 31
-0.00000000000164
  0
LINE
  5
2AC6
330
1A
100
AcDbEntity
  8
YAKUMONO
100
AcDbLine
 10
427.5075551134231
 20
352.5000000000014
 30
-0.00000000000164
 11
417.5075551134232
 21
352.5000000000014
 31
-0.00000000000164
  0
LINE
  5
2AC7
330
1A
100
AcDbEntity
  8
YAKUMONO
 62
     7
100
AcDbLine
 10
427.5075551134231
 20
350.5000000000014
 30
-0.00000000000164
 11
427.5075551134231
 21
352.5000000000014
 31
-0.00000000000164
  0
LINE
  5
2AC8
330
1A
100
AcDbEntity
  8
SITAJI
100
AcDbLine
 10
372.5075551134197
 20
358.0000000000014
 30
-0.00000000000164
 11
372.5075551134197
 21
448.0000000000011
 31
-0.00000000000164
  0
LINE
  5
2AC9
330
1A
100
AcDbEntity
  8
SITAJI
100
AcDbLine
 10
472.5075551134193
 20
358.0000000000014
 30
-0.00000000000164
 11
472.5075551134193
 21
448.0000000000011
 31
-0.00000000000164
  0
LINE
  5
2ACA
330
1A
100
AcDbEntity
  8
SITAJI
370
     9
100
AcDbLine
 10
372.5075551134197
 20
392.2501191633983
 30
-0.00000000000164
 11
374.8075551134188
 21
394.5501191633983
 31
-0.00000000000164
  0
LINE
  5
2ACB
330
1A
100
AcDbEntity
  8
SITAJI
370
     9
100
AcDbLine
 10
372.5075551134197
 20
389.4216920386525
 30
-0.00000000000164
 11
374.8075551134188
 21
391.7216920386528
 31
-0.00000000000164
  0
LINE
  5
2ACC
330
1A
100
AcDbEntity
  8
SITAJI
370
     9
100
AcDbLine
 10
372.5075551134197
 20
431.8480989098453
 30
-0.00000000000164
 11
374.8075551134188
 21
434.1480989098451
 31
-0.00000000000164
  0
LINE
  5
2ACD
330
1A
100
AcDbEntity
  8
SITAJI
370
     9
100
AcDbLine
 10
372.5075551134197
 20
434.676526034591
 30
-0.00000000000164
 11
374.8075551134188
 21
436.9765260345912
 31
-0.00000000000164
  0
LINE
  5
2ACE
330
1A
100
AcDbEntity
  8
SITAJI
370
     9
100
AcDbLine
 10
418.1102496924046
 20
353.0000000000014
 30
-0.00000000000164
 11
420.4102496924042
 21
355.3000000000011
 31
-0.00000000000164
  0
LINE
  5
2ACF
330
1A
100
AcDbEntity
  8
SITAJI
370
     9
100
AcDbLine
 10
420.9386768171551
 20
353.0000000000014
 30
-0.00000000000164
 11
423.2386768171581
 21
355.3000000000015
 31
-0.00000000000164
  0
LINE
  5
2AD0
330
1A
100
AcDbEntity
  8
SITAJI
100
AcDbLine
 10
207.5075551134232
 20
283.0000000000046
 30
-0.00000000000164
 11
297.5075551134232
 21
283.0000000000041
 31
-0.00000000000164
  0
LINE
  5
2AD1
330
1A
100
AcDbEntity
  8
SITAJI
100
AcDbLine
 10
207.5075551134232
 20
183.0000000000041
 30
-0.00000000000164
 11
297.5075551134232
 21
183.0000000000041
 31
-0.00000000000164
  0
LINE
  5
2AD6
330
1A
100
AcDbEntity
  8
SITAJI
100
AcDbLine
 10
302.5075551134232
 20
188.0000000000041
 30
-0.00000000000164
 11
302.5075551134232
 21
278.0000000000041
 31
-0.00000000000164
  0
LINE
  5
2AD7
330
1A
100
AcDbEntity
  8
SITAJI
100
AcDbLine
 10
377.5075551134197
 20
353.0000000000014
 30
-0.00000000000164
 11
467.5075551134193
 21
353.0000000000014
 31
-0.00000000000164
  0
LINE
  5
2AD8
330
1A
100
AcDbEntity
  8
SITAJI
370
     9
100
AcDbLine
 10
430.9574359500238
 20
450.7000000000015
 30
-0.00000000000164
 11
433.2574359500231
 21
453.0000000000013
 31
-0.00000000000164
  0
LINE
  5
2AD9
330
1A
100
AcDbEntity
  8
SITAJI
370
     9
100
AcDbLine
 10
433.7858630747668
 20
450.7000000000015
 30
-0.00000000000164
 11
436.0858630747697
 21
453.0000000000013
 31
-0.00000000000164
  0
LINE
  5
2ADE
330
1A
100
AcDbEntity
  8
SITAJI
370
     9
100
AcDbLine
 10
375.9369335282008
 20
353.253090706994
 30
-0.00000000000164
 11
377.9838428212079
 21
355.3000000000011
 31
-0.00000000000164
  0
LINE
  5
2ADF
330
1A
100
AcDbEntity
  8
SITAJI
370
     9
100
AcDbLine
 10
378.5122699459735
 20
353.0000000000014
 30
-0.00000000000164
 11
380.8122699459726
 21
355.3000000000011
 31
-0.00000000000164
  0
LINE
  5
2AE4
330
1A
100
AcDbEntity
  8
SITAJI
100
AcDbLine
 10
377.5075551134197
 20
453.0000000000013
 30
-0.00000000000164
 11
467.5075551134193
 21
453.0000000000013
 31
-0.00000000000164
  0
LINE
  5
2AE5
330
1A
100
AcDbEntity
  8
SITAJI
370
     9
100
AcDbLine
 10
463.365083688348
 20
353.0000000000018
 30
-0.00000000000164
 11
465.665083688347
 21
355.3000000000011
 31
-0.00000000000164
  0
LINE
  5
2AE6
330
1A
100
AcDbEntity
  8
SITAJI
370
     9
100
AcDbLine
 10
460.536656563601
 20
353.0000000000014
 30
-0.00000000000164
 11
462.8366565636006
 21
355.3000000000011
 31
-0.00000000000164
  0
LINE
  5
2AE7
330
1A
100
AcDbEntity
  8
SITAJI
370
     9
100
AcDbLine
 10
470.2075551134202
 20
362.6708985498199
 30
-0.00000000000164
 11
472.5075551134193
 21
364.9708985498201
 31
-0.00000000000164
  0
LINE
  5
2AE8
330
1A
100
AcDbEntity
  8
SITAJI
370
     9
100
AcDbLine
 10
470.2075551134202
 20
359.8424714250742
 30
-0.00000000000164
 11
472.5075551134193
 21
362.1424714250743
 31
-0.00000000000164
  0
LINE
  5
2AE9
330
1A
100
AcDbEntity
  8
SITAJI
370
     9
100
AcDbLine
 10
470.2075551134202
 20
447.5237122922058
 30
-0.00000000000164
 11
472.2544644064273
 21
449.5706215852151
 31
-0.00000000000164
  0
LINE
  5
2AEA
330
1A
100
AcDbEntity
  8
SITAJI
370
     9
100
AcDbLine
 10
470.2075551134202
 20
444.6952851674596
 30
-0.00000000000164
 11
472.5075551134193
 21
446.9952851674597
 31
-0.00000000000164
  0
LINE
  5
2AEB
330
1A
100
AcDbEntity
  8
SITAJI
370
     9
100
AcDbLine
 10
470.2075551134202
 20
405.097305421013
 30
-0.00000000000164
 11
472.5075551134193
 21
407.3973054210126
 31
-0.00000000000164
  0
LINE
  5
2AEC
330
1A
100
AcDbEntity
  8
SITAJI
370
     9
100
AcDbLine
 10
470.2075551134202
 20
402.2688782962667
 30
-0.00000000000164
 11
472.5075551134193
 21
404.5688782962669
 31
-0.00000000000164
  0
LINE
  5
2AED
330
1A
100
AcDbEntity
  8
SITAJI
100
AcDbLine
 10
202.5075551134232
 20
188.0000000000046
 30
-0.00000000000164
 11
202.5075551134232
 21
278.0000000000041
 31
-0.00000000000164
  0
ARC
  5
2AEE
330
1A
100
AcDbEntity
  8
SITAJI
100
AcDbCircle
 10
207.5075551134232
 20
188.0000000000046
 30
-0.00000000000164
 40
5.0
100
AcDbArc
 50
180.0
 51
270.0
  0
ARC
  5
2AEF
330
1A
100
AcDbEntity
  8
SITAJI
100
AcDbCircle
 10
207.5075551134232
 20
278.0000000000041
 30
-0.00000000000164
 40
5.0
100
AcDbArc
 50
90.0
 51
180.0
  0
ARC
  5
2AF0
330
1A
100
AcDbEntity
  8
SITAJI
100
AcDbCircle
 10
297.5075551134232
 20
278.0000000000041
 30
-0.00000000000164
 40
5.0
100
AcDbArc
 50
0.0
 51
90.0
  0
ARC
  5
2AF1
330
1A
100
AcDbEntity
  8
SITAJI
100
AcDbCircle
 10
297.5075551134232
 20
188.0000000000041
 30
-0.00000000000164
 40
5.0
100
AcDbArc
 50
270.0
 51
0.0
  0
LINE
  5
2AF4
330
1A
100
AcDbEntity
  8
SITAJI
100
AcDbLine
 10
204.8075551134225
 20
188.0000000000046
 30
-0.00000000000164
 11
204.8075551134225
 21
278.0000000000041
 31
-0.00000000000164
  0
LINE
  5
2AF5
330
1A
100
AcDbEntity
  8
SITAJI
100
AcDbLine
 10
207.5075551134232
 20
280.7000000000044
 30
-0.00000000000164
 11
297.5075551134232
 21
280.7000000000044
 31
-0.00000000000164
  0
LINE
  5
2AF6
330
1A
100
AcDbEntity
  8
SITAJI
100
AcDbLine
 10
300.207555113424
 20
188.0000000000041
 30
-0.00000000000164
 11
300.207555113424
 21
278.0000000000041
 31
-0.00000000000164
  0
LINE
  5
2AF7
330
1A
100
AcDbEntity
  8
SITAJI
100
AcDbLine
 10
207.5075551134232
 20
185.3000000000043
 30
-0.00000000000164
 11
297.5075551134232
 21
185.3000000000038
 31
-0.00000000000164
  0
ARC
  5
2AF8
330
1A
100
AcDbEntity
  8
SITAJI
100
AcDbCircle
 10
207.5075551134232
 20
188.0000000000046
 30
-0.00000000000164
 40
2.7
100
AcDbArc
 50
180.0
 51
270.0
  0
ARC
  5
2AF9
330
1A
100
AcDbEntity
  8
SITAJI
100
AcDbCircle
 10
207.5075551134232
 20
278.0000000000041
 30
-0.00000000000164
 40
2.7
100
AcDbArc
 50
90.0
 51
180.0
  0
ARC
  5
2AFA
330
1A
100
AcDbEntity
  8
SITAJI
100
AcDbCircle
 10
297.5075551134232
 20
278.0000000000041
 30
-0.00000000000164
 40
2.7
100
AcDbArc
 50
0.0
 51
90.0
  0
ARC
  5
2AFB
330
1A
100
AcDbEntity
  8
SITAJI
100
AcDbCircle
 10
297.5075551134232
 20
188.0000000000041
 30
-0.00000000000164
 40
2.7
100
AcDbArc
 50
270.0
 51
0.0
  0
ARC
  5
2B02
330
1A
100
AcDbEntity
  8
SITAJI
100
AcDbCircle
 10
377.5075551134197
 20
448.0000000000011
 30
-0.00000000000164
 40
5.0
100
AcDbArc
 50
90.0
 51
180.0
  0
ARC
  5
2B03
330
1A
100
AcDbEntity
  8
SITAJI
100
AcDbCircle
 10
467.5075551134193
 20
448.0000000000011
 30
-0.00000000000164
 40
5.0
100
AcDbArc
 50
0.0
 51
90.0
  0
ARC
  5
2B04
330
1A
100
AcDbEntity
  8
SITAJI
100
AcDbCircle
 10
467.5075551134193
 20
358.0000000000014
 30
-0.00000000000164
 40
5.0
100
AcDbArc
 50
270.0
 51
0.0
  0
ARC
  5
2B05
330
1A
100
AcDbEntity
  8
SITAJI
100
AcDbCircle
 10
377.5075551134197
 20
358.0000000000014
 30
-0.00000000000164
 40
5.0
100
AcDbArc
 50
180.0
 51
270.0
  0
LINE
  5
2B06
330
1A
100
AcDbEntity
  8
SITAJI
100
AcDbLine
 10
374.8075551134188
 20
358.0000000000014
 30
-0.00000000000164
 11
374.8075551134188
 21
448.0000000000011
 31
-0.00000000000164
  0
LINE
  5
2B07
330
1A
100
AcDbEntity
  8
SITAJI
100
AcDbLine
 10
377.5075551134197
 20
355.3000000000011
 30
-0.00000000000164
 11
467.5075551134193
 21
355.3000000000011
 31
-0.00000000000164
  0
LINE
  5
2B08
330
1A
100
AcDbEntity
  8
SITAJI
100
AcDbLine
 10
470.2075551134202
 20
358.0000000000014
 30
-0.00000000000164
 11
470.2075551134202
 21
448.0000000000011
 31
-0.00000000000164
  0
LINE
  5
2B09
330
1A
100
AcDbEntity
  8
SITAJI
100
AcDbLine
 10
377.5075551134197
 20
450.7000000000015
 30
-0.00000000000164
 11
467.5075551134193
 21
450.7000000000005
 31
-0.00000000000164
  0
ARC
  5
2B0A
330
1A
100
AcDbEntity
  8
SITAJI
100
AcDbCircle
 10
377.5075551134197
 20
448.0000000000011
 30
-0.00000000000164
 40
2.7
100
AcDbArc
 50
90.0
 51
180.0
  0
ARC
  5
2B0B
330
1A
100
AcDbEntity
  8
SITAJI
100
AcDbCircle
 10
467.5075551134193
 20
448.0000000000011
 30
-0.00000000000164
 40
2.7
100
AcDbArc
 50
0.0
 51
90.0
  0
ARC
  5
2B0C
330
1A
100
AcDbEntity
  8
SITAJI
100
AcDbCircle
 10
467.5075551134193
 20
358.0000000000014
 30
-0.00000000000164
 40
2.7
100
AcDbArc
 50
270.0
 51
0.0
  0
ARC
  5
2B0D
330
1A
100
AcDbEntity
  8
SITAJI
100
AcDbCircle
 10
377.5075551134197
 20
358.0000000000014
 30
-0.00000000000164
 40
2.7
100
AcDbArc
 50
180.0
 51
270.0
  0
LINE
  5
2B0E
330
1A
100
AcDbEntity
  8
SITAJI
370
     9
100
AcDbLine
 10
391.3594562035742
 20
450.7000000000015
 30
-0.00000000000164
 11
393.6594562035771
 21
453.0000000000013
 31
-0.00000000000164
  0
LINE
  5
2B0F
330
1A
100
AcDbEntity
  8
SITAJI
370
     9
100
AcDbLine
 10
388.5310290788275
 20
450.7000000000015
 30
-0.00000000000164
 11
390.8310290788303
 21
453.0000000000013
 31
-0.00000000000164
  0
LINE
  5
2B10
330
1A
100
AcDbEntity
  8
YAKUMONO
100
AcDbLine
 10
436.2575551134232
 20
353.0000000000014
 30
-0.00000000000164
 11
304.0075551134232
 21
353.0000000000014
 31
-0.00000000000164
  0
LINE
  5
2B11
330
1A
100
AcDbEntity
  8
YAKUMONO
100
AcDbLine
 10
436.2575551134232
 20
352.5000000000014
 30
-0.00000000000164
 11
304.0075551134232
 21
352.5000000000014
 31
-0.00000000000164
  0
LINE
  5
2B12
330
1A
100
AcDbEntity
  8
YAKUMONO
100
AcDbLine
 10
302.5075551134232
 20
219.2500000000014
 30
-0.00000000000164
 11
302.5075551134232
 21
351.5000000000014
 31
-0.00000000000164
  0
LINE
  5
2B13
330
1A
100
AcDbEntity
  8
YAKUMONO
100
AcDbLine
 10
303.0075551134232
 20
219.2500000000014
 30
-0.00000000000164
 11
303.0075551134232
 21
351.5000000000014
 31
-0.00000000000164
  0
LINE
  5
2B14
330
1A
100
AcDbEntity
  8
YAKUMONO
100
AcDbLine
 10
305.0075551134232
 20
219.2500000000014
 30
-0.00000000000164
 11
305.0075551134232
 21
228.0000000000014
 31
-0.00000000000164
  0
LINE
  5
2B15
330
1A
100
AcDbEntity
  8
YAKUMONO
100
AcDbLine
 10
304.5075551134232
 20
228.0000000000014
 30
-0.00000000000164
 11
304.5075551134232
 21
219.2500000000014
 31
-0.00000000000164
  0
ARC
  5
2B16
330
1A
100
AcDbEntity
  8
YAKUMONO
100
AcDbCircle
 10
303.7575551134232
 20
219.2500000000014
 30
-0.00000000000164
 40
1.25
100
AcDbArc
 50
180.0
 51
0.0
  0
ARC
  5
2B17
330
1A
100
AcDbEntity
  8
YAKUMONO
100
AcDbCircle
 10
303.7575551134232
 20
219.2500000000014
 30
-0.00000000000164
 40
0.75
100
AcDbArc
 50
180.0
 51
0.0
  0
ARC
  5
2B18
330
1A
100
AcDbEntity
  8
YAKUMONO
100
AcDbCircle
 10
304.0075551134232
 20
351.5000000000014
 30
-0.00000000000164
 40
1.5
100
AcDbArc
 50
90.0
 51
180.0
  0
ARC
  5
2B19
330
1A
100
AcDbEntity
  8
YAKUMONO
100
AcDbCircle
 10
304.0075551134232
 20
351.5000000000014
 30
-0.00000000000164
 40
1.0
100
AcDbArc
 50
90.0
 51
180.0
  0
LINE
  5
2B1A
330
1A
100
AcDbEntity
  8
YAKUMONO
100
AcDbLine
 10
427.5075551134231
 20
351.0000000000013
 30
-0.00000000000164
 11
436.2575551134232
 21
351.0000000000013
 31
-0.00000000000164
  0
LINE
  5
2B1B
330
1A
100
AcDbEntity
  8
YAKUMONO
100
AcDbLine
 10
436.2575551134232
 20
350.5000000000014
 30
-0.00000000000164
 11
427.5075551134231
 21
350.5000000000014
 31
-0.00000000000164
  0
ARC
  5
2B1C
330
1A
100
AcDbEntity
  8
YAKUMONO
100
AcDbCircle
 10
436.2575551134232
 20
351.7500000000014
 30
-0.00000000000164
 40
0.75
100
AcDbArc
 50
270.0
 51
90.0
  0
ARC
  5
2B1D
330
1A
100
AcDbEntity
  8
YAKUMONO
100
AcDbCircle
 10
436.2575551134232
 20
351.7500000000014
 30
-0.00000000000164
 40
1.25
100
AcDbArc
 50
270.0
 51
90.0
  0
LINE
  5
2B1E
330
1A
100
AcDbEntity
  8
SEIHIN
100
AcDbLine
 10
380.0075551134228
 20
120.5000000000023
 30
-0.0000000000018868
 11
380.0075551134261
 21
324.8000000000029
 31
0.0000000000000393
  0
LINE
  5
2B1F
330
1A
100
AcDbEntity
  8
SEIHIN
  6
DASHED2
100
AcDbLine
 10
370.5075551134232
 20
120.500000000002
 30
-0.0000000000013865
 11
370.5075551134228
 21
320.500000000002
 31
-0.0000000000032765
  0
LINE
  5
2B21
330
1A
100
AcDbEntity
  8
SEIHIN
100
AcDbLine
 10
379.5075551134228
 20
120.5000000000022
 30
-0.0000000000018868
 11
379.5075551134261
 21
324.8000000000029
 31
0.0000000000000393
  0
ARC
  5
2B22
330
1A
100
AcDbEntity
  8
SEIHIN
100
AcDbCircle
 10
378.8075551134261
 20
324.8000000000029
 30
0.0000000000000393
 40
0.7
100
AcDbArc
 50
0.0
 51
90.0
  0
ARC
  5
2B23
102
{ACAD_REACTORS
330
2B40
102
}
330
1A
100
AcDbEntity
  8
SEIHIN
100
AcDbCircle
 10
378.8075551134261
 20
324.8000000000029
 30
0.0000000000000393
 40
1.199999999999999
100
AcDbArc
 50
0.0
 51
90.0
  0
LINE
  5
2B24
330
1A
100
AcDbEntity
  8
SEIHIN
100
AcDbLine
 10
378.8075551134261
 20
326.0000000000023
 30
-0.0000000000016385
 11
359.2075551134211
 21
326.0000000000023
 31
-0.0000000000016397
  0
LINE
  5
2B25
330
1A
100
AcDbEntity
  8
SEIHIN
100
AcDbLine
 10
378.8075551134261
 20
325.5000000000023
 30
-0.0000000000016385
 11
359.2075551134211
 21
325.5000000000023
 31
-0.0000000000016397
  0
ARC
  5
2B27
330
1A
100
AcDbEntity
  8
SEIHIN
100
AcDbCircle
 10
359.2075551134211
 20
326.7000000000026
 30
0.0000000000008793
 40
1.199999999999999
100
AcDbArc
 50
180.0
 51
270.0
  0
ARC
  5
2B28
330
1A
100
AcDbEntity
  8
SEIHIN
100
AcDbCircle
 10
359.2075551134211
 20
326.7000000000026
 30
0.0000000000008793
 40
0.7
100
AcDbArc
 50
180.0
 51
270.0
  0
LINE
  5
2B29
330
1A
100
AcDbEntity
  8
SEIHIN
100
AcDbLine
 10
358.5075551134203
 20
326.700000000003
 30
0.0000000000000393
 11
358.5075551134203
 21
347.0000000000005
 31
0.0000000000000393
  0
LINE
  5
2B2A
330
1A
100
AcDbEntity
  8
SEIHIN
100
AcDbLine
 10
358.5075551134203
 20
347.0000000000005
 30
0.0000000000000393
 11
358.0075551134203
 21
347.0000000000005
 31
0.0000000000000393
  0
LINE
  5
2B2B
330
1A
100
AcDbEntity
  8
SEIHIN
 62
     7
100
AcDbLine
 10
404.2673956776881
 20
299.9999999999825
 30
0.0000000000017215
 11
387.0075551134232
 21
299.9999999999825
 31
0.0000000000017215
  0
LINE
  5
2B2C
330
1A
100
AcDbEntity
  8
SEIHIN
100
AcDbLine
 10
379.5075551134232
 20
320.5000000000023
 30
-0.0000000000016385
 11
305.0075551134232
 21
320.5000000000004
 31
-0.0000000000016415
  0
LINE
  5
2B2D
330
1A
100
AcDbEntity
  8
SEIHIN
100
AcDbLine
 10
305.5075551134232
 20
120.5000000000004
 30
-0.00000000000164
 11
305.5075551134232
 21
320.5000000000004
 31
-0.00000000000164
  0
LINE
  5
2B2E
330
1A
100
AcDbEntity
  8
SEIHIN
100
AcDbLine
 10
305.0075551134232
 20
120.5000000000004
 30
-0.00000000000164
 11
305.0075551134232
 21
320.5000000000004
 31
-0.00000000000164
  0
LINE
  5
2B2F
330
1A
100
AcDbEntity
  8
SEIHIN
100
AcDbLine
 10
610.5075551134232
 20
276.0000000000016
 30
-0.0000000000018979
 11
406.2075551134203
 21
276.0
 31
0.0000000000000408
  0
LINE
  5
2B30
330
1A
100
AcDbEntity
  8
SEIHIN
100
AcDbLine
 10
610.5075551134232
 20
350.5000000000014
 30
-0.00000000000164
 11
410.5075551134231
 21
350.5000000000014
 31
-0.00000000000164
  0
LINE
  5
2B31
330
1A
100
AcDbEntity
  8
SEIHIN
100
AcDbLine
 10
610.5075551134232
 20
349.9999999999996
 30
-0.00000000000164
 11
410.5075551134231
 21
349.9999999999996
 31
-0.00000000000164
  0
LINE
  5
2B32
330
1A
100
AcDbEntity
  8
SEIHIN
100
AcDbLine
 10
404.3075551134225
 20
295.9999999999807
 30
0.0000000000000408
 11
387.0075551134232
 21
295.9999999999825
 31
0.0000000000000408
  0
LINE
  5
2B33
330
1A
100
AcDbEntity
  8
SEIHIN
100
AcDbLine
 10
387.0075551134232
 20
295.4999999999825
 30
0.0000000000000408
 11
387.0075551134232
 21
295.9999999999825
 31
0.0000000000000408
  0
LINE
  5
2B34
330
1A
100
AcDbEntity
  8
SEIHIN
100
AcDbLine
 10
404.3075551134225
 20
295.4999999999825
 30
0.0000000000000408
 11
387.0075551134232
 21
295.4999999999825
 31
0.0000000000000408
  0
ARC
  5
2B35
330
1A
100
AcDbEntity
  8
SEIHIN
100
AcDbCircle
 10
404.3075551134225
 20
294.79999999998
 30
0.0000000000008809
 40
0.7
100
AcDbArc
 50
0.0
 51
90.0
  0
ARC
  5
2B36
330
1A
100
AcDbEntity
  8
SEIHIN
100
AcDbCircle
 10
404.3075551134225
 20
294.79999999998
 30
0.0000000000008809
 40
1.199999999999999
100
AcDbArc
 50
0.0
 51
90.0
  0
LINE
  5
2B37
330
1A
100
AcDbEntity
  8
SEIHIN
100
AcDbLine
 10
405.5075551134232
 20
276.7000000000003
 30
-0.000000000001637
 11
405.5075551134232
 21
294.79999999998
 31
-0.0000000000016381
  0
LINE
  5
2B38
330
1A
100
AcDbEntity
  8
SEIHIN
100
AcDbLine
 10
405.0075551134232
 20
276.7000000000003
 30
-0.000000000001637
 11
405.0075551134232
 21
294.79999999998
 31
-0.0000000000016381
  0
ARC
  5
2B39
102
{ACAD_REACTORS
330
2B40
102
}
330
1A
100
AcDbEntity
  8
SEIHIN
100
AcDbCircle
 10
406.2075551134203
 20
276.7000000000003
 30
0.0000000000000408
 40
1.199999999999999
100
AcDbArc
 50
180.0
 51
270.0
  0
ARC
  5
2B3A
330
1A
100
AcDbEntity
  8
SEIHIN
100
AcDbCircle
 10
406.2075551134203
 20
276.7000000000003
 30
0.0000000000000408
 40
0.7
100
AcDbArc
 50
180.0
 51
270.0
  0
LINE
  5
2B3B
330
1A
100
AcDbEntity
  8
SEIHIN
100
AcDbLine
 10
610.5075551134232
 20
275.4999999999995
 30
-0.0000000000018979
 11
406.2075551134203
 21
275.5
 31
0.0000000000000408
  0
LINE
  5
2B3C
330
1A
100
AcDbEntity
  8
SEIHIN
  6
DASHED2
100
AcDbLine
 10
610.5075551134232
 20
284.9999999999994
 30
-0.0000000000018979
 11
410.5075551134231
 21
285.0
 31
0.0
  0
DIMENSION
  5
2B3E
102
{ACAD_XDICTIONARY
360
2B3F
102
}
102
{ACAD_REACTORS
330
2B40
102
}
330
1A
100
AcDbEntity
  8
SUNPOU
100
AcDbDimension
280
     0
  2
*D3
 10
380.0075551134261
 20
249.1972336068541
 30
-0.00000000000164
 11
392.5075551134114
 21
249.1972336068541
 31
-0.00000000000164
 70
   160
 71
     5
 42
24.9999999999942
 73
     0
 74
     0
 75
     0
  3
STANDARD
100
AcDbAlignedDimension
 13
405.0075551134203
 23
276.7000000000003
 33
0.0000000000000408
 14
380.0075551134261
 24
324.8000000000029
 34
0.0000000000000393
100
AcDbRotatedDimension
  0
ARC
  5
2B41
330
1A
100
AcDbEntity
  8
SEALING
100
AcDbCircle
 10
393.1075551133649
 20
191.4534188246966
 30
0.0000000000000408
 40
85.0613767067956
100
AcDbArc
 50
81.14082228195014
 51
98.85917771797224
  0
DIMENSION
  5
2B45
330
1A
100
AcDbEntity
  8
SUNPOU
100
AcDbDimension
280
     0
  2
*D4
 10
640.5075551134232
 20
275.4999999999995
 30
-0.00000000000164
 11
640.5075551134231
 21
313.2500000000014
 31
-0.00000000000164
 70
   160
 71
     5
 42
75.00000000000182
 73
     0
 74
     0
 75
     0
  3
STANDARD
100
AcDbAlignedDimension
 13
610.5075551134232
 23
350.5000000000014
 33
-0.00000000000164
 14
610.5075551134232
 24
275.4999999999995
 34
-0.0000000000016369
 50
90.0
100
AcDbRotatedDimension
  0
LINE
  5
2BA2
330
1A
100
AcDbEntity
  8
SEIHIN
100
AcDbLine
 10
410.5075551134231
 20
276.0000000000013
 30
-0.000000000001637
 11
410.5075551134231
 21
350.5000000000014
 31
-0.00000000000164
  0
LINE
  5
2BA3
330
1A
100
AcDbEntity
  8
PACKING
  6
DASHED2
 48
0.5
100
AcDbLine
 10
410.5075551134231
 20
294.7999999999802
 30
-0.0000000000016381
 11
405.5075551134232
 21
294.79999999998
 31
-0.0000000000016381
  0
LINE
  5
2C72
330
1A
100
AcDbEntity
  8
YAKUMONO
  6
CENTER2
 62
     7
100
AcDbLine
 10
427.5075551134231
 20
350.5000000000014
 30
-0.00000000000164
 11
417.5075551134233
 21
350.5000000000014
 31
-0.00000000000164
  0
HATCH
  5
2C77
330
1A
100
AcDbEntity
  8
YAKUMONO
 62
     7
370
     9
100
AcDbHatch
 10
0.0
 20
0.0
 30
-0.00000000000164
210
0.0
220
0.0
230
1.0
  2
ANSI31
 70
     0
 71
     0
 91
        1
 92
        7
 72
     0
 73
     1
 93
        4
 10
427.5075551134231
 20
352.5000000000014
 10
417.5075551134232
 20
352.5000000000014
 10
417.5075551134233
 20
350.5000000000014
 10
427.5075551134231
 20
350.5000000000014
 97
        0
 75
     0
 76
     1
 52
0.0
 41
0.5
 77
     0
 78
     1
 53
45.0
 43
-31.2000000002123
 44
-6.464523344648227
 45
-1.122532015133643
 46
1.122532015133643
 79
     0
 47
0.1224333071633665
 98
        1
 10
415.5038899575036
 20
351.2014500487688
1001
ACAD
1010
0.0
1020
0.0
1030
0.0
  0
LINE
  5
2C82
330
1A
100
AcDbEntity
  8
PACKING
100
AcDbLine
 10
402.5075551134231
 20
294.4999999999824
 30
0.0000000000000408
 11
382.5075551134233
 21
294.4999999999825
 31
0.0000000000000408
  0
LINE
  5
2C85
330
1A
100
AcDbEntity
  8
PACKING
100
AcDbLine
 10
402.5075551134231
 20
293.4999999999824
 30
0.0000000000000408
 11
402.5075551134231
 21
294.4999999999824
 31
0.0000000000000408
  0
LINE
  5
2C86
330
1A
100
AcDbEntity
  8
SEALING
100
AcDbLine
 10
405.0075551134232
 20
292.4999999999823
 30
0.0000000000000408
 11
380.0075551134232
 21
292.4999999999823
 31
0.0000000000000408
  0
LINE
  5
2C87
330
1A
100
AcDbEntity
  8
PACKING
  6
DASHED2
 48
0.5
100
AcDbLine
 10
410.5075551134231
 20
288.0
 30
-0.0000000000016373
 11
430.0075551134232
 21
288.0
 31
-0.0000000000005615
  0
LINE
  5
2C88
330
1A
100
AcDbEntity
  8
PACKING
  6
DASHED2
 48
0.5
100
AcDbLine
 10
430.0075551134232
 20
285.0
 30
-0.0000000000005615
 11
430.0075551134232
 21
276.0000000000002
 31
-0.0000000000005615
  0
LINE
  5
2C89
330
1A
100
AcDbEntity
  8
PACKING
  6
DASHED2
 48
0.5
100
AcDbLine
 10
430.0075551134232
 20
276.0000000000002
 30
-0.0000000000016025
 11
406.2075551134203
 21
276.0000000000003
 31
0.0000000000000408
  0
LINE
  5
2C8A
330
1A
100
AcDbEntity
  8
PACKING
  6
DASHED2
 48
0.5
100
AcDbLine
 10
410.5075551134231
 20
288.0
 30
-0.0000000000016373
 11
410.5075551134231
 21
294.7999999999802
 31
-0.0000000000016381
  0
LINE
  5
2C8B
330
1A
100
AcDbEntity
  8
PACKING
  6
DASHED2
 48
0.5
100
AcDbLine
 10
405.5075551134232
 20
294.79999999998
 30
-0.0000000000016381
 11
405.5075551134203
 21
276.7000000000004
 31
0.0000000000000408
  0
HATCH
  5
2CAD
330
1A
100
AcDbEntity
  8
SEALING
  6
DASHED2
 48
0.5
370
     9
100
AcDbHatch
 10
0.0
 20
0.0
 30
-0.0000000000022572
210
0.0
220
0.0
230
1.0
  2
ANSI37
 70
     0
 71
     0
 91
        1
 92
        1
 93
        4
 72
     1
 10
430.0075551134232
 20
288.0000000000001
 11
430.0075551134232
 21
275.4999999999999
 72
     1
 10
430.0075551134232
 20
275.4999999999999
 11
440.0075551134231
 21
275.4999999999999
 72
     1
 10
440.0075551134231
 20
275.4999999999999
 11
440.0075551134228
 21
287.9999999999999
 72
     1
 10
440.0075551134228
 20
287.9999999999999
 11
430.0075551134232
 21
288.0000000000001
 97
        0
 75
     0
 76
     1
 52
0.0
 41
1.0
 77
     0
 78
     2
 53
45.0
 43
-36.7000000002123
 44
-6.464523344648227
 45
-2.245064030267287
 46
2.245064030267287
 79
     0
 53
135.0
 43
-36.7000000002123
 44
-6.464523344648227
 45
-2.245064030267287
 46
-2.245064030267287
 79
     0
 98
        2
 10
433.1901757077338
 20
283.1148268738746
 10
434.0104957851503
 20
278.6049939257343
1001
ACAD
1010
0.0
1020
0.0
1030
0.0
  0
HATCH
  5
2CB3
330
1A
100
AcDbEntity
  8
SEALING
370
     9
100
AcDbHatch
 10
0.0
 20
0.0
 30
-0.00000000000164
210
0.0
220
0.0
230
1.0
  2
ANSI37
 70
     0
 71
     0
 91
        1
 92
        1
 93
        5
 72
     1
 10
405.0075551134232
 20
292.4999999999823
 11
380.0075551134256
 21
292.4999999999823
 72
     1
 10
380.0075551134256
 20
292.4999999999823
 11
380.0075551134252
 21
275.5000000000006
 72
     2
 10
393.1075551133649
 20
191.4534188246964
 40
85.06137670679576
 50
261.1408222820292
 51
278.6136345837523
 73
     0
 72
     2
 10
406.2075551134202
 20
276.7000000000003
 40
1.200000000000003
 50
107.4728122962887
 51
179.9999999999972
 73
     0
 72
     1
 10
405.0075551134203
 20
276.7000000000003
 11
405.0075551134232
 21
292.4999999999823
 97
        0
 75
     0
 76
     1
 52
0.0
 41
1.0
 77
     0
 78
     2
 53
45.0
 43
0.0
 44
0.0
 45
-2.245064030267287
 46
2.245064030267287
 79
     0
 53
135.0
 43
0.0
 44
0.0
 45
-2.245064030267287
 46
-2.245064030267287
 79
     0
 98
        1
 10
397.3449220653087
 20
284.9369284787822
1001
ACAD
1010
0.0
1020
0.0
1030
0.0
  0
LINE
  5
2CB6
330
1A
100
AcDbEntity
  8
PACKING
  6
DASHED2
 48
0.5
100
AcDbLine
 10
378.8075551134261
 20
325.5000000000028
 30
0.0000000000000393
 11
367.5075551134228
 21
325.5000000000024
 31
-0.000000000001639
  0
LINE
  5
2CB8
330
1A
100
AcDbEntity
  8
PACKING
  6
DASHED2
 48
0.5
100
AcDbLine
 10
367.5075551134228
 20
325.5000000000023
 30
-0.000000000001639
 11
367.5075551134237
 21
285.5000000000019
 31
-0.0000000000147391
  0
LINE
  5
2CB9
330
1A
100
AcDbEntity
  8
PACKING
  6
DASHED2
 48
0.5
100
AcDbLine
 10
370.5075551134237
 20
285.5000000000019
 30
-0.0000000000147391
 11
379.5075551134255
 21
285.5000000000019
 31
-0.0000000000003312
  0
LINE
  5
2CBA
330
1A
100
AcDbEntity
  8
PACKING
  6
DASHED2
 48
0.5
100
AcDbLine
 10
379.5075551134255
 20
285.5000000000019
 30
-0.0000000000003312
 11
379.5075551134261
 21
324.8000000000029
 31
0.0000000000000393
  0
HATCH
  5
2CC8
330
1A
100
AcDbEntity
  8
PACKING
  6
DASHED2
 48
0.5
370
     9
100
AcDbHatch
 10
0.0
 20
0.0
 30
-0.0000000000016415
210
0.0
220
0.0
230
1.0
  2
ANSI31
 70
     0
 71
     0
 91
        1
 92
        1
 93
        5
 72
     1
 10
367.5075551134228
 20
325.5000000000025
 11
367.5075551134237
 21
285.5000000000019
 72
     1
 10
367.5075551134237
 20
285.5000000000019
 11
379.5075551134255
 21
285.5000000000019
 72
     1
 10
379.5075551134255
 20
285.5000000000019
 11
379.5075551134232
 21
324.8000000000029
 72
     2
 10
378.8075551134282
 20
324.8000000000078
 40
0.6999999999950433
 50
359.9999999995952
 51
450.0000000001675
 73
     1
 72
     1
 10
378.8075551134261
 20
325.5000000000028
 11
367.5075551134228
 21
325.5000000000025
 97
        0
 75
     0
 76
     1
 52
0.0
 41
1.0
 77
     0
 78
     1
 53
45.0
 43
0.0
 44
0.0
 45
-2.245064030267287
 46
2.245064030267287
 79
     0
 98
        3
 10
374.8792901604164
 20
302.8642436755995
 10
373.4882681782226
 20
296.6073258613199
 10
376.8393648561397
 20
296.3545202722644
1001
ACAD
1010
0.0
1020
0.0
1030
0.0
  0
HATCH
  5
2CD2
330
1A
100
AcDbEntity
  8
SEALING
  6
DASHED2
 48
0.5
370
     9
100
AcDbHatch
 10
0.0
 20
0.0
 30
-0.0000000000016108
210
0.0
220
0.0
230
1.0
  2
ANSI37
 70
     0
 71
     0
 91
        1
 92
        1
 93
        4
 72
     1
 10
380.0075551134255
 20
285.500000000002
 11
367.5075551134237
 21
285.5106245653066
 72
     1
 10
367.5075551134237
 20
285.5106245653066
 11
367.5075551134237
 21
275.5106245653067
 72
     1
 10
367.5075551134237
 20
275.5106245653067
 11
380.0075551134255
 21
275.5000000000019
 72
     1
 10
380.0075551134255
 20
275.5000000000019
 11
380.0075551134255
 21
285.500000000002
 97
        0
 75
     0
 76
     1
 52
0.0
 41
1.0
 77
     0
 78
     2
 53
45.0
 43
0.0
 44
0.0
 45
-2.245064030267287
 46
2.245064030267287
 79
     0
 53
135.0
 43
0.0
 44
0.0
 45
-2.245064030267287
 46
-2.245064030267287
 79
     0
 98
        2
 10
373.614725547645
 20
283.7047974490906
 10
377.092277778694
 20
283.1991874777352
1001
ACAD
1010
0.0
1020
0.0
1030
0.0
  0
HATCH
  5
2CD8
330
1A
100
AcDbEntity
  8
YAKUMONO
 62
     7
370
     9
100
AcDbHatch
 10
0.0
 20
0.0
 30
-0.00000000000164
210
0.0
220
0.0
230
1.0
  2
ANSI31
 70
     0
 71
     0
 91
        1
 92
        7
 72
     0
 73
     1
 93
        4
 10
303.0075551134232
 20
238.0000000000014
 10
303.0075551134232
 20
228.0000000000014
 10
305.0075551134232
 20
228.0000000000014
 10
305.0075551134232
 20
238.0000000000014
 97
        0
 75
     0
 76
     1
 52
0.0
 41
0.5
 77
     0
 78
     1
 53
45.0
 43
-31.2000000002123
 44
-6.464523344648227
 45
-1.122532015133643
 46
1.122532015133643
 79
     0
 47
0.0679910891342631
 98
        1
 10
303.4249716783942
 20
239.2799086857715
1001
ACAD
1010
0.0
1020
0.0
1030
0.0
  0
DIMENSION
  5
2CEF
330
1A
100
AcDbEntity
  8
SUNPOU
100
AcDbDimension
280
     0
  2
*D5
 10
640.5075551134232
 20
453.0000000000011
 30
-0.00000000000164
 11
640.5075551134232
 21
403.0000000000013
 31
-0.00000000000164
 70
   160
 71
     5
 42
99.99999999999994
 73
     0
 74
     0
 75
     0
  3
STANDARD
100
AcDbAlignedDimension
 13
610.507555113423
 23
353.0000000000014
 33
-0.00000000000164
 14
610.507555113423
 24
453.0000000000013
 34
-0.00000000000164
 50
90.0
100
AcDbRotatedDimension
  0
LINE
  5
2E6E
330
1A
100
AcDbEntity
  8
SEIHIN
 62
     7
100
AcDbLine
 10
387.0075551134232
 20
299.9999999999825
 30
0.0000000000021946
 11
387.0075551134232
 21
295.9999999999825
 31
0.0000000000000408
  0
LINE
  5
2E6F
330
1A
100
AcDbEntity
  8
SEIHIN
 62
     7
100
AcDbLine
 10
387.0075551134232
 20
295.9999999999825
 30
0.0000000000000408
 11
404.2673956776881
 21
295.9999999999825
 31
0.0000000000000408
  0
LINE
  5
2E70
330
1A
100
AcDbEntity
  8
SEIHIN
 62
     7
100
AcDbLine
 10
404.2673956776881
 20
295.9999999999825
 30
0.0000000000000408
 11
404.2673956776881
 21
299.9999999999825
 31
0.0000000000021946
  0
HATCH
  5
2E77
330
1A
100
AcDbEntity
  8
SEIHIN
 62
     7
370
     9
100
AcDbHatch
 10
0.0
 20
0.0
 30
0.0000000000000408
210
0.0
220
0.0
230
1.0
  2
ANSI31
 70
     0
 71
     0
 91
        1
 92
        1
 93
        4
 72
     1
 10
387.0075551134232
 20
299.9999999999825
 11
387.0075551134232
 21
295.9999999999825
 72
     1
 10
387.0075551134232
 20
295.9999999999825
 11
404.2673956776881
 21
295.9999999999825
 72
     1
 10
404.2673956776881
 20
295.9999999999825
 11
404.2673956776881
 21
299.9999999999825
 72
     1
 10
404.2673956776881
 20
299.9999999999825
 11
387.0075551134232
 21
299.9999999999825
 97
        0
 75
     0
 76
     1
 52
0.0
 41
0.5
 77
     0
 78
     1
 53
45.0
 43
0.0
 44
0.0
 45
-1.122532015133643
 46
1.122532015133643
 79
     0
 98
        1
 10
394.4113689183153
 20
298.306418115121
  0
HATCH
  5
2EA3
330
1A
100
AcDbEntity
  8
PACKING
370
     9
100
AcDbHatch
 10
0.0
 20
0.0
 30
0.0000000000000408
210
0.0
220
0.0
230
1.0
  2
ANSI31
 70
     0
 71
     0
 91
        1
 92
        1
 93
        4
 72
     1
 10
382.5075551134233
 20
294.4999999999825
 11
382.5075551134233
 21
293.4999999999824
 72
     1
 10
382.5075551134233
 20
293.4999999999824
 11
402.5075551134231
 21
293.4999999999824
 72
     1
 10
402.5075551134231
 20
293.4999999999824
 11
402.5075551134231
 21
294.4999999999824
 72
     1
 10
402.5075551134231
 20
294.4999999999824
 11
382.5075551134233
 21
294.4999999999825
 97
        0
 75
     0
 76
     1
 52
0.0
 41
0.5
 77
     0
 78
     1
 53
45.0
 43
-33.00000000021157
 44
-6.764523344645737
 45
-1.122532015133643
 46
1.122532015133643
 79
     0
 98
        1
 10
393.3975083357069
 20
293.9100108872406
  0
HATCH
  5
2FB0
330
1A
100
AcDbEntity
  8
SEIHIN
370
     9
100
AcDbHatch
 10
0.0
 20
0.0
 30
0.0
210
0.0
220
0.0
230
1.0
  2
ANSI35
 70
     0
 71
     0
 91
        1
 92
        1
 93
        4
 72
     1
 10
610.5075551134232
 20
276.0000000000013
 11
610.5075551134232
 21
349.9999999999996
 72
     1
 10
610.5075551134232
 20
349.9999999999996
 11
410.5075551134231
 21
349.9999999999996
 72
     1
 10
410.5075551134231
 20
349.9999999999996
 11
410.5075551134231
 21
276.0000000000013
 72
     1
 10
410.5075551134231
 20
276.0000000000013
 11
610.5075551134232
 21
276.0000000000013
 97
        0
 75
     0
 76
     1
 52
0.0
 41
5.0
 77
     0
 78
     2
 53
45.0
 43
-5.0
 44
0.0
 45
-22.45064030267288
 46
22.45064030267288
 79
     0
 53
45.0
 43
17.45065
 44
0.0
 45
-22.45064030267288
 46
22.45064030267288
 79
     4
 49
39.6875
 49
-7.9375
 49
0.0
 49
-7.9375
 98
        3
 10
470.1002369703346
 20
307.2450577912227
 10
474.7215321723563
 20
281.8350713486773
 10
475.4917488748374
 20
278.7550715316515
  0
HATCH
  5
2FC3
330
1A
100
AcDbEntity
  8
SEIHIN
370
     9
100
AcDbHatch
 10
0.0
 20
0.0
 30
0.0
210
0.0
220
0.0
230
1.0
  2
ANSI35
 70
     0
 71
     0
 91
        1
 92
        1
 93
        4
 72
     1
 10
305.5075551134232
 20
120.5000000000004
 11
379.5075551134228
 21
120.5000000000022
 72
     1
 10
379.5075551134228
 20
120.5000000000022
 11
379.5075551134232
 21
320.5000000000023
 72
     1
 10
379.5075551134232
 20
320.5000000000023
 11
305.5075551134232
 21
320.5000000000004
 72
     1
 10
305.5075551134232
 20
320.5000000000004
 11
305.5075551134232
 21
120.5000000000004
 97
        0
 75
     0
 76
     1
 52
0.0
 41
5.0
 77
     0
 78
     2
 53
45.0
 43
0.0
 44
0.0
 45
-22.45064030267288
 46
22.45064030267288
 79
     0
 53
45.0
 43
22.45065
 44
0.0
 45
-22.45064030267288
 46
22.45064030267288
 79
     4
 49
39.6875
 49
-7.9375
 49
0.0
 49
-7.9375
 98
        3
 10
331.4550049271748
 20
270.6700757040626
 10
372.2764400300254
 20
259.8900817854671
 10
376.5126243743738
 20
259.8900817854671
  0
ARC
  5
3009
330
1A
100
AcDbEntity
  8
PACKING
  6
DASHED2
 48
0.5
100
AcDbCircle
 10
406.2075551134203
 20
276.7
 30
0.0000000000000408
 40
0.7
100
AcDbArc
 50
180.0
 51
270.0
  0
ARC
  5
301F
330
1A
100
AcDbEntity
  8
PACKING
  6
DASHED2
 48
0.5
100
AcDbCircle
 10
378.8075551134261
 20
324.8000000000029
 30
0.0000000000000393
 40
0.7
100
AcDbArc
 50
0.0
 51
90.0
  0
HATCH
  5
3035
330
1A
100
AcDbEntity
  8
PACKING
  6
DASHED2
 48
0.5
370
     9
100
AcDbHatch
 10
0.0
 20
0.0
 30
0.0
210
0.0
220
0.0
230
1.0
  2
ANSI31
 70
     0
 71
     0
 91
        1
 92
        1
 93
        7
 72
     2
 10
406.2075551134202
 20
276.6999999999999
 40
0.699999999999875
 50
179.9999999999814
 51
270.0000000000093
 73
     1
 72
     1
 10
406.2075551134203
 20
276.0
 11
430.0075551134232
 21
276.0000000000013
 72
     1
 10
430.0075551134232
 20
276.0000000000013
 11
430.0075551134232
 21
288.0
 72
     1
 10
430.0075551134232
 20
288.0
 11
410.5075551134231
 21
288.0
 72
     1
 10
410.5075551134231
 20
288.0
 11
410.5075551134231
 21
294.7999999999802
 72
     1
 10
410.5075551134231
 20
294.7999999999802
 11
405.5075551134232
 21
294.79999999998
 72
     1
 10
405.5075551134232
 20
294.79999999998
 11
405.5075551134203
 21
276.7000000000001
 97
        0
 75
     1
 76
     1
 52
0.0
 41
1.0
 77
     0
 78
     1
 53
45.0
 43
-5.0
 44
0.0
 45
-2.245064030267287
 46
2.245064030267287
 79
     0
 98
        3
 10
407.5970419149929
 20
284.4346663005345
 10
415.4690323079043
 20
281.6607866646945
 10
415.3176461569419
 20
276.9704084727536
1001
GradientColor1ACI
1070
     5
1001
GradientColor2ACI
1070
     2
1001
ACAD
1010
0.0
1020
0.0
1030
0.0
  0
LINE
  5
31AC
330
1A
100
AcDbEntity
  8
SEIHIN
100
AcDbLine
 10
358.0075551134203
 20
326.700000000003
 30
0.0000000000000393
 11
358.0075551134203
 21
347.0000000000005
 31
0.0000000000000393
  0
LINE
  5
3510
330
1A
100
AcDbEntity
  8
SEALING
  6
DASHED2
 48
0.5
100
AcDbLine
 10
430.0075551134232
 20
288.0
 30
-0.0000000000005615
 11
440.0075551134231
 21
288.0
 31
-0.0000000000005615
  0
LINE
  5
3511
330
1A
100
AcDbEntity
  8
SEALING
  6
DASHED2
 48
0.5
100
AcDbLine
 10
440.0075551134231
 20
288.0
 30
-0.000000000000454
 11
440.0075551134231
 21
275.4999999999999
 31
-0.0000000000009019
  0
LINE
  5
3512
330
1A
100
AcDbEntity
  8
SEALING
  6
DASHED2
 48
0.5
100
AcDbLine
 10
440.0075551134231
 20
275.4999999999999
 30
-0.0000000000003096
 11
430.0075551134232
 21
275.4999999999999
 31
-0.000000000000807
  0
LINE
  5
3513
330
1A
100
AcDbEntity
  8
SEALING
  6
DASHED2
 48
0.5
100
AcDbLine
 10
430.0075551134232
 20
275.4999999999999
 30
-0.000000000000807
 11
430.0075551134232
 21
288.0
 31
-0.0000000000005615
  0
LINE
  5
356E
330
1A
100
AcDbEntity
  8
SEIHIN
  6
DASHED2
100
AcDbLine
 10
610.5075551134232
 20
346.5000000000014
 30
-0.00000000000164
 11
410.5075551134231
 21
346.5000000000014
 31
-0.00000000000164
  0
LINE
  5
356F
330
1A
100
AcDbEntity
  8
SEIHIN
  6
DASHED2
100
AcDbLine
 10
309.0075551134232
 20
120.5000000000005
 30
-0.00000000000164
 11
309.0075551134232
 21
320.5000000000005
 31
-0.00000000000164
  0
LINE
  5
35DD
330
1A
100
AcDbEntity
  8
SEALING
  6
DASHED2
 48
0.5
100
AcDbLine
 10
417.5075551134232
 20
350.5000000000014
 30
-0.00000000000164
 11
427.5075551134231
 21
350.5000000000014
 31
-0.00000000000164
  0
LINE
  5
35EC
330
1A
100
AcDbEntity
  8
SEALING
  6
DASHED2
 48
0.5
100
AcDbLine
 10
305.0075551134232
 20
238.0000000000014
 30
-0.00000000000164
 11
305.0075551134232
 21
228.0000000000014
 31
-0.00000000000164
  0
LINE
  5
3644
330
1A
100
AcDbEntity
  8
PACKING
100
AcDbLine
 10
402.5075551134231
 20
293.4999999999824
 30
0.0000000000000408
 11
382.5075551134233
 21
293.4999999999824
 31
0.0000000000000408
  0
LINE
  5
364C
330
1A
100
AcDbEntity
  8
SEALING
  6
DASHED2
 48
0.5
100
AcDbLine
 10
380.0075551134255
 20
275.5000000000019
 30
-0.0000000000003431
 11
380.0075551134255
 21
285.5000000000019
 31
-0.0000000000003431
  0
LINE
  5
364D
330
1A
100
AcDbEntity
  8
SEALING
  6
DASHED2
 48
0.5
100
AcDbLine
 10
380.0075551134255
 20
285.5000000000019
 30
-0.0000000000003431
 11
367.5075551134237
 21
285.5000000000019
 31
-0.0000000000000471
  0
LINE
  5
364E
330
1A
100
AcDbEntity
  8
SEALING
  6
DASHED2
 48
0.5
100
AcDbLine
 10
367.5075551134237
 20
285.5000000000019
 30
-0.0000000000000471
 11
367.5075551134237
 21
275.5212491306115
 31
-0.0000000000000063
  0
LINE
  5
36AD
330
1A
100
AcDbEntity
  8
PACKING
100
AcDbLine
 10
382.5075551134233
 20
293.4999999999824
 30
0.0000000000000408
 11
382.5075551134233
 21
294.4999999999824
 31
0.0000000000000408
  0
LINE
  5
38B8
330
1A
100
AcDbEntity
  8
SEALING
  6
DASHED2
 48
0.5
100
AcDbLine
 10
380.0075551134255
 20
275.5000000000019
 30
-0.0000000000003431
 11
367.5075551134237
 21
275.5212491306115
 31
-0.0000000000000063
  0
LINE
  5
3A41
330
1A
100
AcDbEntity
  8
SITAJI
370
     9
100
AcDbLine
 10
202.5075551134232
 20
222.2501191634014
 30
-0.00000000000164
 11
204.8075551134225
 21
224.5501191634016
 31
-0.00000000000164
  0
LINE
  5
3A42
330
1A
100
AcDbEntity
  8
SITAJI
370
     9
100
AcDbLine
 10
202.5075551134232
 20
219.4216920386557
 30
-0.00000000000164
 11
204.8075551134225
 21
221.7216920386559
 31
-0.00000000000164
  0
LINE
  5
3A43
330
1A
100
AcDbEntity
  8
SITAJI
370
     9
100
AcDbLine
 10
202.5075551134232
 20
261.8480989098484
 30
-0.00000000000164
 11
204.8075551134225
 21
264.1480989098486
 31
-0.00000000000164
  0
LINE
  5
3A44
330
1A
100
AcDbEntity
  8
SITAJI
370
     9
100
AcDbLine
 10
202.5075551134232
 20
264.6765260345942
 30
-0.00000000000164
 11
204.8075551134225
 21
266.9765260345944
 31
-0.00000000000164
  0
LINE
  5
3A45
330
1A
100
AcDbEntity
  8
SITAJI
370
     9
100
AcDbLine
 10
248.1102496924086
 20
183.0000000000045
 30
-0.00000000000164
 11
250.4102496924079
 21
185.3000000000043
 31
-0.00000000000164
  0
LINE
  5
3A46
330
1A
100
AcDbEntity
  8
SITAJI
370
     9
100
AcDbLine
 10
250.9386768171589
 20
183.0000000000045
 30
-0.00000000000164
 11
253.2386768171619
 21
185.3000000000047
 31
-0.00000000000164
  0
LINE
  5
3A47
330
1A
100
AcDbEntity
  8
SITAJI
370
     9
100
AcDbLine
 10
260.9574359500275
 20
280.7000000000048
 30
-0.00000000000164
 11
263.2574359500268
 21
283.0000000000046
 31
-0.00000000000164
  0
LINE
  5
3A48
330
1A
100
AcDbEntity
  8
SITAJI
370
     9
100
AcDbLine
 10
263.7858630747705
 20
280.7000000000048
 30
-0.00000000000164
 11
266.0858630747735
 21
283.0000000000046
 31
-0.00000000000164
  0
LINE
  5
3A49
330
1A
100
AcDbEntity
  8
SITAJI
370
     9
100
AcDbLine
 10
205.9369335282045
 20
183.2530907069972
 30
-0.00000000000164
 11
207.9838428212115
 21
185.3000000000043
 31
-0.00000000000164
  0
LINE
  5
3A4A
330
1A
100
AcDbEntity
  8
SITAJI
370
     9
100
AcDbLine
 10
208.5122699459771
 20
183.0000000000045
 30
-0.00000000000164
 11
210.8122699459764
 21
185.3000000000043
 31
-0.00000000000164
  0
LINE
  5
3A4B
330
1A
100
AcDbEntity
  8
SITAJI
370
     9
100
AcDbLine
 10
293.3650836883517
 20
183.000000000005
 30
-0.00000000000164
 11
295.6650836883509
 21
185.3000000000043
 31
-0.00000000000164
  0
LINE
  5
3A4C
330
1A
100
AcDbEntity
  8
SITAJI
370
     9
100
AcDbLine
 10
290.536656563605
 20
183.0000000000045
 30
-0.00000000000164
 11
292.8366565636043
 21
185.3000000000043
 31
-0.00000000000164
  0
LINE
  5
3A4D
330
1A
100
AcDbEntity
  8
SITAJI
370
     9
100
AcDbLine
 10
300.207555113424
 20
192.670898549823
 30
-0.00000000000164
 11
302.5075551134232
 21
194.9708985498232
 31
-0.00000000000164
  0
LINE
  5
3A4E
330
1A
100
AcDbEntity
  8
SITAJI
370
     9
100
AcDbLine
 10
300.207555113424
 20
189.8424714250773
 30
-0.00000000000164
 11
302.5075551134232
 21
192.1424714250774
 31
-0.00000000000164
  0
LINE
  5
3A4F
330
1A
100
AcDbEntity
  8
SITAJI
370
     9
100
AcDbLine
 10
300.207555113424
 20
277.523712292209
 30
-0.00000000000164
 11
302.254464406431
 21
279.5706215852183
 31
-0.00000000000164
  0
LINE
  5
3A50
330
1A
100
AcDbEntity
  8
SITAJI
370
     9
100
AcDbLine
 10
300.207555113424
 20
274.6952851674628
 30
-0.00000000000164
 11
302.5075551134232
 21
276.995285167463
 31
-0.00000000000164
  0
LINE
  5
3A51
330
1A
100
AcDbEntity
  8
SITAJI
370
     9
100
AcDbLine
 10
300.207555113424
 20
235.0973054210163
 30
-0.00000000000164
 11
302.5075551134232
 21
237.397305421016
 31
-0.00000000000164
  0
LINE
  5
3A52
330
1A
100
AcDbEntity
  8
SITAJI
370
     9
100
AcDbLine
 10
300.207555113424
 20
232.2688782962701
 30
-0.00000000000164
 11
302.5075551134232
 21
234.5688782962702
 31
-0.00000000000164
  0
LINE
  5
3A53
330
1A
100
AcDbEntity
  8
SITAJI
370
     9
100
AcDbLine
 10
221.3594562035778
 20
280.7000000000048
 30
-0.00000000000164
 11
223.6594562035807
 21
283.0000000000046
 31
-0.00000000000164
  0
LINE
  5
3A54
330
1A
100
AcDbEntity
  8
SITAJI
370
     9
100
AcDbLine
 10
218.5310290788311
 20
280.7000000000048
 30
-0.00000000000164
 11
220.831029078834
 21
283.0000000000046
 31
-0.00000000000164
  0
LINE
  5
3E0B
330
1A
100
AcDbEntity
  8
SUNPOU
  6
CENTER2
100
AcDbLine
 10
147.5075551134232
 20
233.0000000000043
 30
-0.00000000000164
 11
405.0075551134276
 21
233.0000000000043
 31
-0.00000000000164
  0
MTEXT
  5
3E0C
330
1A
100
AcDbEntity
  8
SUNPOU
100
AcDbMText
 10
128.989541644975
 20
235.7641411186268
 30
-0.0000000000033147
 40
5.0
 41
44.47311893580399
 46
0.0
 71
     1
 72
     5
  1
胴縁芯
 73
     1
 44
1.0
1001
ACAD
1000
ACAD_MTEXT_COLUMN_INFO_BEGIN
1070
    75
1070
     2
1070
    79
1070
     0
1070
    76
1070
     1
1070
    78
1070
     0
1070
    48
1040
44.47311893580399
1070
    49
1040
25.0
1070
    50
1070
     1
1040
0.0
1000
ACAD_MTEXT_COLUMN_INFO_END
  0
LINE
  5
3E0D
330
1A
100
AcDbEntity
  8
SUNPOU
  6
CENTER2
100
AcDbLine
 10
252.5075551134233
 20
508.0000000000013
 30
-0.00000000000164
 11
252.4263720617378
 21
120.5000000000004
 31
-0.00000000000164
  0
DIMENSION
  5
3E0F
330
1A
100
AcDbEntity
  8
SUNPOU
100
AcDbDimension
280
     0
  2
*D6
 10
182.8307496065072
 20
403.0000000000013
 30
-0.0000000000033147
 11
179.7057496065073
 21
318.0000000000027
 31
-0.0000000000033147
 70
    32
 71
     5
 42
169.9999999999969
 73
     0
 74
     0
 75
     0
  3
STANDARD
100
AcDbAlignedDimension
 13
202.5075551134232
 23
233.0000000000043
 33
-0.00000000000164
 14
197.7259952395766
 24
403.0000000000011
 34
-0.00000000000164
 50
90.0
100
AcDbRotatedDimension
  0
LINE
  5
3E2E
330
1A
100
AcDbEntity
  8
SUNPOU
  6
CENTER2
100
AcDbLine
 10
422.5075551134193
 20
508.0000000000013
 30
-0.00000000000164
 11
422.5075551134192
 21
250.4999999999999
 31
-0.0000000000001189
  0
MTEXT
  5
3E2F
330
1A
100
AcDbEntity
  8
SUNPOU
100
AcDbMText
 10
414.6506765196591
 20
514.6097007378328
 30
-0.0000000000033147
 40
5.0
 41
44.47311893580399
 46
0.0
 71
     1
 72
     5
  1
胴縁芯
 73
     1
 44
1.0
1001
ACAD
1000
ACAD_MTEXT_COLUMN_INFO_BEGIN
1070
    75
1070
     2
1070
    79
1070
     0
1070
    76
1070
     1
1070
    78
1070
     0
1070
    48
1040
44.47311893580399
1070
    49
1040
25.0
1070
    50
1070
     1
1040
0.0
1000
ACAD_MTEXT_COLUMN_INFO_END
  0
LINE
  5
3E30
330
1A
100
AcDbEntity
  8
SUNPOU
  6
CENTER2
100
AcDbLine
 10
147.5075551134232
 20
403.0000000000011
 30
-0.00000000000164
 11
610.5075551134232
 21
403.0000000000013
 31
-0.00000000000164
  0
DIMENSION
  5
3E32
330
1A
100
AcDbEntity
  8
SUNPOU
100
AcDbDimension
280
     0
  2
*D7
 10
252.5075551134233
 20
464.5775140327437
 30
-0.0000000000033147
 11
337.5075551134214
 21
467.7025140327437
 31
-0.0000000000033147
 70
    32
 71
     5
 42
169.999999999996
 73
     0
 74
     0
 75
     0
  3
STANDARD
100
AcDbAlignedDimension
 13
422.5075551134193
 23
453.0000000000013
 33
-0.0000000000013151
 14
252.5075551134233
 24
460.7456355245581
 34
-0.0000000000033147
100
AcDbRotatedDimension
  0
DIMENSION
  5
3E97
330
1A
100
AcDbEntity
  8
SUNPOU
100
AcDbDimension
280
     0
  2
*D8
 10
277.4629616517568
 20
326.0000000000026
 30
-0.0000000000033147
 11
277.4629616517568
 21
297.389227527074
 31
-0.0000000000033147
 70
   160
  1
95
 71
     5
 42
92.99999999999817
 73
     0
 74
     0
 75
     0
  3
STANDARD
100
AcDbAlignedDimension
 13
300.207555113424
 23
233.0000000000043
 33
-0.00000000000164
 14
359.2075551134211
 24
326.0000000000025
 34
0.0000000000008793
 50
90.0
100
AcDbRotatedDimension
  0
DIMENSION
  5
3EB8
330
1A
100
AcDbEntity
  8
SUNPOU
100
AcDbDimension
280
     0
  2
*D9
 10
405.0075551134086
 20
388.0000000000013
 30
0.0000000000000348
 11
413.757555113414
 21
391.1250000000013
 31
0.0000000000000348
 70
    32
  1
20
 71
     5
 42
17.50000000001068
 73
     0
 74
     0
 75
     0
  3
STANDARD
100
AcDbAlignedDimension
 13
422.5075551134193
 23
355.3000000000011
 33
-0.000000000000738
 14
405.0075551134086
 24
294.79999999998
 34
0.0000000000000696
100
AcDbRotatedDimension
  0
MULTILEADER
  5
441D
102
{ACAD_XDICTIONARY
360
522A
102
}
330
1A
100
AcDbEntity
  8
HIKIDASI
160
               576
310
40020000150000000C00000016000000000000C00C00000033000000000000000C00000013000000993A0000E80000002600000086B619AF80BD7C40E102671FB8947D40000000000000000000000000000000000000000000000000000000000000F03F000000000000F03F00000000000000000000000000000000A12531
310
0030003000D700310030003000D70032002E003300E54E0A4E000000320E000000010000000000000000001440000000000000F03F0000000000000000000000000000F03F000000000000000000000000000000000000000000000000000000000100000000000000000000007400780074002E0073006800780000006500
310
7800740066006F006E0074002E0073006800780000000C00000033000000000000000C00000010000000090000000C00000016000000000000C00C00000012000000FF7F00000C00000013000000010000000C00000013000000891300003C0000000600000002000000195CD0A3FFCB7B401700000000507C400000000000
310
00000096C72AC0919E7C40E202671FB8BC7D4000000000000000000C00000013000000112700003C000000060000000200000096C72AC0919E7C40E202671FB8BC7D4000000000000000003061C4592BA87C40E202671FB8BC7D4000000000000000000C00000016000000000000C00C00000012000000FF7F00000C000000
310
17000000000000000C000000130000009A3A00000C00000016000000000000C00C00000012000000FF7F00000C00000017000000FFFFFFFF0C0000003300000000000000
100
AcDbMLeader
270
     2
300
CONTEXT_DATA{
 40
1.0
 10
458.5105836554602
 20
475.7949518226507
 30
0.0
 41
5.0
140
0.0
145
2.0
174
     1
175
     3
176
     0
177
     0
290
     1
304
□100×100×2.3以上
 11
0.0
 21
0.0
 31
1.0
340
10
 12
460.5105836554604
 22
478.2949518226506
 32
0.0
 13
1.0
 23
0.0
 33
0.0
 42
0.0
 43
0.0
 44
0.0
 45
1.0
170
     1
 90
-1073741824
171
     1
172
     5
 91
-1073741824
141
0.0
 92
        0
291
     0
292
     0
173
     0
293
     0
142
0.0
143
0.0
294
     0
295
     0
296
     0
110
444.7499120844891
120
453.0000000000013
130
0.0
111
1.0
121
0.0
131
0.0
112
0.0
122
1.0
132
0.0
297
     0
302
LEADER{
290
     1
291
     1
 10
457.9105836554602
 20
475.7949518226507
 30
0.0
 11
1.0
 21
0.0
 31
0.0
 90
        0
 40
0.6
304
LEADER_LINE{
 10
444.7499120844891
 20
453.0000000000013
 30
0.0
 91
        0
305
}
271
     0
303
}
272
     9
273
     9
301
}
340
2FEE
 90
   279552
170
     1
 91
-1056964608
341
14
171
    -2
290
     1
291
     1
 41
0.6
342
B0
 42
0.0
172
     2
343
10
173
     1
 95
        3
174
     1
175
     0
 92
-1056964608
292
     0
 93
-1056964608
 10
1.0
 20
1.0
 30
1.0
 43
0.0
176
     0
293
     0
294
     0
178
     0
179
     1
 45
1.0
271
     0
272
     9
273
     9
  0
MULTILEADER
  5
441F
102
{ACAD_XDICTIONARY
360
522C
102
}
330
1A
100
AcDbEntity
  8
HIKIDASI
160
               568
310
38020000150000000C00000016000000000000C00C00000033000000000000000C00000013000000993A0000E000000026000000FD3F1352BD8D8240697B7A5C40AE6E40EE82F59D975570BD00000000000000000000000000000000000000000000F03F000000000000F03F0000000000000000000000000000000010806B
310
70F430A130F330C93032FF3AFF17FF15FF000000500A000000010000000000000000001440000000000000F03F0000000000000000000000000000F03F000000000000000000000000000000000000000000000000000000000100000000000000000000007400780074002E00730068007800000065007800740066006F00
310
6E0074002E0073006800780000000C00000033000000000000000C00000010000000090000000C00000016000000000000C00C00000012000000FF7F00000C00000013000000010000000C00000013000000891300003C000000060000000200000059DED78AABF98140FFFFFFFFFF377140EE82F59D975570BD31734685F0
310
7882406D7B7A5C40FE6E40EE82F59D975570BD0C00000013000000112700003C000000060000000200000031734685F07882406D7B7A5C40FE6E40EE82F59D975570BDFE3F1352BD7D82406D7B7A5C40FE6E40EE82F59D975570BD0C00000016000000000000C00C00000012000000FF7F00000C0000001700000000000000
310
0C000000130000009A3A00000C00000016000000000000C00C00000012000000FF7F00000C00000017000000FFFFFFFF0C0000003300000000000000
100
AcDbMLeader
270
     2
300
CONTEXT_DATA{
 40
1.0
 10
591.7174417022612
 20
247.9453565971593
 30
-0.0000000000009285
 41
5.0
140
0.0
145
2.0
174
     1
175
     3
176
     0
177
     0
290
     1
304
耐火ヴァンドＲＺ７５
 11
0.0
 21
0.0
 31
1.0
340
10
 12
593.7174417022612
 22
250.4453565971592
 32
-0.0000000000009285
 13
1.0
 23
0.0
 33
0.0
 42
0.0
 43
0.0
 44
0.0
 45
1.0
170
     1
 90
-1073741824
171
     1
172
     5
 91
-1073741824
141
0.0
 92
        0
291
     0
292
     0
173
     0
293
     0
142
0.0
143
0.0
294
     0
295
     0
296
     0
110
575.2087609162073
120
275.4999999999999
130
-0.0000000000009285
111
1.0
121
0.0
131
0.0
112
0.0
122
1.0
132
0.0
297
     0
302
LEADER{
290
     1
291
     1
 10
591.1174417022613
 20
247.9453565971593
 30
-0.0000000000009285
 11
1.0
 21
0.0
 31
0.0
 90
        0
 40
0.6
304
LEADER_LINE{
 10
575.2087609162073
 20
275.4999999999999
 30
-0.0000000000009285
 91
        0
305
}
271
     0
303
}
272
     9
273
     9
301
}
340
2FEE
 90
   279552
170
     1
 91
-1056964608
341
14
171
    -2
290
     1
291
     1
 41
0.6
342
B0
 42
0.0
172
     2
343
10
173
     1
 95
        3
174
     1
175
     0
 92
-1056964608
292
     0
 93
-1056964608
 10
1.0
 20
1.0
 30
1.0
 43
0.0
176
     0
293
     0
294
     0
178
     0
179
     1
 45
1.0
271
     0
272
     9
273
     9
  0
MULTILEADER
  5
4420
102
{ACAD_XDICTIONARY
360
522E
102
}
330
1A
100
AcDbEntity
  8
HIKIDASI
160
               568
310
38020000150000000C00000016000000000000C00C00000033000000000000000C00000013000000993A0000E000000026000000B03B0D5857F27B4031B83098948B6640000000000000000000000000000000000000000000000000000000000000F03F000000000000F03F00000000000000000000000000000000B730FC
310
30EA30F330B03008FF25521490E55D8B4E09FF00000B000000010000000000000000001440000000000000F03F0000000000000000000000000000F03F000000000000000000000000000000000000000000000000000000000100000000000000000000007400780074002E00730068007800000065007800740066006F00
310
6E0074002E0073006800780000000C00000033000000000000000C00000010000000090000000C00000016000000000000C00C00000012000000FF7F00000C00000013000000010000000C00000013000000891300003C00000006000000020000000047F062142D78401DE78C1B18C071400000000000000000C34C1E6968
310
D37B402DB8309894DB664000000000000000000C00000013000000112700003C0000000600000002000000C34C1E6968D37B402DB8309894DB664000000000000000005DE6B70202DD7B402DB8309894DB664000000000000000000C00000016000000000000C00C00000012000000FF7F00000C0000001700000000000000
310
0C000000130000009A3A00000C00000016000000000000C00C00000012000000FF7F00000C00000017000000FFFFFFFF0C0000003300000000000000
100
AcDbMLeader
270
     2
300
CONTEXT_DATA{
 40
1.0
 10
445.812990873679
 20
182.861888976245
 30
0.0
 41
5.0
140
0.0
145
2.0
174
     1
175
     3
176
     0
177
     0
290
     1
304
シーリング（別途工事）
 11
0.0
 21
0.0
 31
1.0
340
10
 12
447.8129908736788
 22
185.3618889762452
 32
0.0
 13
1.0
 23
0.0
 33
0.0
 42
0.0
 43
0.0
 44
0.0
 45
1.0
170
     1
 90
-1073741824
171
     1
172
     5
 91
-1073741824
141
0.0
 92
        0
291
     0
292
     0
173
     0
293
     0
142
0.0
143
0.0
294
     0
295
     0
296
     0
110
386.8174771676859
120
284.0058856491103
130
0.0
111
1.0
121
0.0
131
0.0
112
0.0
122
1.0
132
0.0
297
     0
302
LEADER{
290
     1
291
     1
 10
445.212990873679
 20
182.861888976245
 30
0.0
 11
1.0
 21
0.0
 31
0.0
 90
        0
 40
0.6
304
LEADER_LINE{
 10
386.8174771676859
 20
284.0058856491103
 30
0.0
 91
        0
305
}
271
     0
303
}
272
     9
273
     9
301
}
340
2FEE
 90
   279552
170
     1
 91
-1056964608
341
14
171
    -2
290
     1
291
     1
 41
0.6
342
B0
 42
0.0
172
     2
343
10
173
     1
 95
        3
174
     1
175
     0
 92
-1056964608
292
     0
 93
-1056964608
 10
1.0
 20
1.0
 30
1.0
 43
0.0
176
     0
293
     0
294
     0
178
     0
179
     1
 45
1.0
271
     0
272
     9
273
     9
  0
MULTILEADER
  5
4421
102
{ACAD_XDICTIONARY
360
5230
102
}
330
1A
100
AcDbEntity
  8
HIKIDASI
160
               576
310
40020000150000000C00000016000000000000C00C00000033000000000000000C00000013000000993A0000E8000000260000000B165AA0FC4B7C40E467E93854D36740000000000000000000000000000000000000000000000000000000000000F03F000000000000F03F00000000000000000000000000000000DC30F3
310
30C930D630EC30FC30AB30FC3008FF25521490E55D8B4E09FF00005A000E000000010000000000000000001440000000000000F03F0000000000000000000000000000F03F000000000000000000000000000000000000000000000000000000000100000000000000000000007400780074002E0073006800780000006500
310
7800740066006F006E0074002E0073006800780000000C00000033000000000000000C00000010000000090000000C00000016000000000000C00C00000012000000FF7F00000C00000013000000010000000C00000013000000891300003C000000060000000200000008A3115B838778406045F5969A6272400000000000
310
0000001F276BB10D2D7C40E467E9385423684000000000000000000C00000013000000112700003C00000006000000020000001F276BB10D2D7C40E467E938542368400000000000000000B9C0044BA7367C40E467E9385423684000000000000000000C00000016000000000000C00C00000012000000FF7F00000C000000
310
17000000000000000C000000130000009A3A00000C00000016000000000000C00C00000012000000FF7F00000C00000017000000FFFFFFFF0C0000003300000000000000
100
AcDbMLeader
270
     2
300
CONTEXT_DATA{
 40
1.0
 10
451.4158430276543
 20
193.1040310438831
 30
0.0
 41
5.0
140
0.0
145
2.0
174
     1
175
     3
176
     0
177
     0
290
     1
304
ボンドブレーカー（別途工事）
 11
0.0
 21
0.0
 31
1.0
340
10
 12
453.4158430276542
 22
195.6040310438831
 32
0.0
 13
1.0
 23
0.0
 33
0.0
 42
0.0
 43
0.0
 44
0.0
 45
1.0
170
     1
 90
-1073741824
171
     1
172
     5
 91
-1073741824
141
0.0
 92
        0
291
     0
292
     0
173
     0
293
     0
142
0.0
143
0.0
294
     0
295
     0
296
     0
110
392.4695692719402
120
294.1627416211031
130
0.0
111
1.0
121
0.0
131
0.0
112
0.0
122
1.0
132
0.0
297
     0
302
LEADER{
290
     1
291
     1
 10
450.8158430276544
 20
193.1040310438831
 30
0.0
 11
1.0
 21
0.0
 31
0.0
 90
        0
 40
0.6
304
LEADER_LINE{
 10
392.4695692719402
 20
294.1627416211031
 30
0.0
 91
        0
305
}
271
     0
303
}
272
     9
273
     9
301
}
340
2FEE
 90
   279552
170
     1
 91
-1056964608
341
14
171
    -2
290
     1
291
     1
 41
0.6
342
B0
 42
0.0
172
     2
343
10
173
     1
 95
        3
174
     1
175
     0
 92
-1056964608
292
     0
 93
-1056964608
 10
1.0
 20
1.0
 30
1.0
 43
0.0
176
     0
293
     0
294
     0
178
     0
179
     1
 45
1.0
271
     0
272
     9
273
     9
  0
MULTILEADER
  5
4422
102
{ACAD_XDICTIONARY
360
5232
102
}
330
1A
100
AcDbEntity
  8
HIKIDASI
160
               564
310
34020000150000000C00000016000000000000C00C00000033000000000000000C00000013000000993A0000DC0000002600000073D7E864E6977C40CC5C6478117D6B40000000000000000000000000000000000000000000000000000000000000F03F000000000000F03F000000000000000000000000000000004B3093
310
300854E890D130C330AD30F33033FF000009000000010000000000000000001440000000000000F03F0000000000000000000000000000F03F000000000000000000000000000000000000000000000000000000000100000000000000000000007400780074002E00730068007800000065007800740066006F006E007400
310
2E0073006800780000000C00000033000000000000000C00000010000000090000000C00000016000000000000C00C00000012000000FF7F00000C00000013000000010000000C00000013000000891300003C0000000600000002000000477B40EC2D5A7A40B8FB5EAB318071400000000000000000DB3D4FCB4C6E7C40CC
310
5C647811CD6B4000000000000000000C00000013000000112700003C0000000600000002000000DB3D4FCB4C6E7C40CC5C647811CD6B40000000000000000075D7E864E6777C40CC5C647811CD6B4000000000000000000C00000016000000000000C00C00000012000000FF7F00000C00000017000000000000000C000000
310
130000009A3A00000C00000016000000000000C00C00000012000000FF7F00000C00000017000000FFFFFFFF0C0000003300000000000000
100
AcDbMLeader
270
     2
300
CONTEXT_DATA{
 40
1.0
 10
455.4937485785843
 20
222.4083826027112
 30
0.0
 41
5.0
140
0.0
145
2.0
174
     1
175
     3
176
     0
177
     0
290
     1
304
かん合部パッキンＳ
 11
0.0
 21
0.0
 31
1.0
340
10
 12
457.4937485785842
 22
224.9083826027112
 32
0.0
 13
1.0
 23
0.0
 33
0.0
 42
0.0
 43
0.0
 44
0.0
 45
1.0
170
     1
 90
-1073741824
171
     1
172
     5
 91
-1073741824
141
0.0
 92
        0
291
     0
292
     0
173
     0
293
     0
142
0.0
143
0.0
294
     0
295
     0
296
     0
110
421.6362116354761
120
280.0121263227734
130
0.0
111
1.0
121
0.0
131
0.0
112
0.0
122
1.0
132
0.0
297
     0
302
LEADER{
290
     1
291
     1
 10
454.8937485785843
 20
222.4083826027112
 30
0.0
 11
1.0
 21
0.0
 31
0.0
 90
        0
 40
0.6
304
LEADER_LINE{
 10
421.6362116354761
 20
280.0121263227734
 30
0.0
 91
        0
305
}
271
     0
303
}
272
     9
273
     9
301
}
340
2FEE
 90
   279552
170
     1
 91
-1056964608
341
14
171
    -2
290
     1
291
     1
 41
0.6
342
B0
 42
0.0
172
     2
343
10
173
     1
 95
        3
174
     1
175
     0
 92
-1056964608
292
     0
 93
-1056964608
 10
1.0
 20
1.0
 30
1.0
 43
0.0
176
     0
293
     0
294
     0
178
     0
179
     1
 45
1.0
271
     0
272
     9
273
     9
  0
MULTILEADER
  5
4423
102
{ACAD_XDICTIONARY
360
5234
102
}
330
1A
100
AcDbEntity
  8
HIKIDASI
160
               572
310
3C020000150000000C00000016000000000000C00C00000033000000000000000C00000013000000993A0000E40000002600000032A1910C7C327D405E48E2B087AE6C40000000000000000000000000000000000000000000000000000000000000F03F000000000000F03F000000000000000000000000000000002A6A70
310
8D8A303296626BB730FC30EA30F330B0303B2011FF00005C000C000000010000000000000000001440000000000000F03F0000000000000000000000000000F03F000000000000000000000000000000000000000000000000000000000100000000000000000000007400780074002E007300680078000000650078007400
310
66006F006E0074002E0073006800780000000C00000033000000000000000C00000010000000090000000C00000016000000000000C00C00000012000000FF7F00000C00000013000000010000000C00000013000000891300003C0000000600000002000000AF3C949F0A397B40E07E4B2FAAA27140000000000000000097
310
07F872E2087D405E48E2B087FE6C4000000000000000000C00000013000000112700003C00000006000000020000009707F872E2087D405E48E2B087FE6C40000000000000000031A1910C7C127D405E48E2B087FE6C4000000000000000000C00000016000000000000C00C00000012000000FF7F00000C00000017000000
310
000000000C000000130000009A3A00000C00000016000000000000C00C00000012000000FF7F00000C00000017000000FFFFFFFF0C0000003300000000000000
100
AcDbMLeader
270
     2
300
CONTEXT_DATA{
 40
1.0
 10
465.1552854241045
 20
231.9540638370117
 30
0.0
 41
5.0
140
0.0
145
2.0
174
     1
175
     3
176
     0
177
     0
290
     1
304
横走り防止シーリング※１
 11
0.0
 21
0.0
 31
1.0
340
10
 12
467.1552854241046
 22
234.4540638370117
 32
0.0
 13
1.0
 23
0.0
 33
0.0
 42
0.0
 43
0.0
 44
0.0
 45
1.0
170
     1
 90
-1073741824
171
     1
172
     5
 91
-1073741824
141
0.0
 92
        0
291
     0
292
     0
173
     0
293
     0
142
0.0
143
0.0
294
     0
295
     0
296
     0
110
435.5650935926923
120
282.1665490101859
130
0.0
111
1.0
121
0.0
131
0.0
112
0.0
122
1.0
132
0.0
297
     0
302
LEADER{
290
     1
291
     1
 10
464.5552854241045
 20
231.9540638370117
 30
0.0
 11
1.0
 21
0.0
 31
0.0
 90
        0
 40
0.6
304
LEADER_LINE{
 10
435.5650935926923
 20
282.1665490101859
 30
0.0
 91
        0
305
}
271
     0
303
}
272
     9
273
     9
301
}
340
2FEE
 90
   279552
170
     1
 91
-1056964608
341
14
171
    -2
290
     1
291
     1
 41
0.6
342
B0
 42
0.0
172
     2
343
10
173
     1
 95
        3
174
     1
175
     0
 92
-1056964608
292
     0
 93
-1056964608
 10
1.0
 20
1.0
 30
1.0
 43
0.0
176
     0
293
     0
294
     0
178
     0
179
     1
 45
1.0
271
     0
272
     9
273
     9
  0
MULTILEADER
  5
4424
102
{ACAD_XDICTIONARY
360
5236
102
}
330
1A
100
AcDbEntity
  8
HIKIDASI
160
               572
310
3C020000150000000C00000016000000000000C00C00000033000000000000000C00000013000000993A0000E400000026000000138ED3ADB4C07D403C5F78AC77926E40000000000000000000000000000000000000000000000000000000000000F03F000000000000F03F00000000000000000000000000000000025C28
310
75D330B930003034FF37FF2CFF16FF19FF10FF2EFF000000730C000000010000000000000000001440000000000000F03F0000000000000000000000000000F03F000000000000000000000000000000000000000000000000000000000100000000000000000000007400780074002E007300680078000000650078007400
310
66006F006E0074002E0073006800780000000C00000033000000000000000C00000010000000090000000C00000016000000000000C00C00000012000000FF7F00000C00000013000000010000000C00000013000000891300003C0000000600000002000000DE574532E2447C40A074B4400DBB714000000000000000007A
310
F439141B977D403C5F78AC77E26E4000000000000000000C00000013000000112700003C00000006000000020000007AF439141B977D403C5F78AC77E26E400000000000000000148ED3ADB4A07D403C5F78AC77E26E4000000000000000000C00000016000000000000C00C00000012000000FF7F00000C00000017000000
310
000000000C000000130000009A3A00000C00000016000000000000C00C00000012000000FF7F00000C00000017000000FFFFFFFF0C0000003300000000000000
100
AcDbMLeader
270
     2
300
CONTEXT_DATA{
 40
1.0
 10
474.0441110862605
 20
247.0771086073891
 30
0.0
 41
5.0
140
0.0
145
2.0
174
     1
175
     3
176
     0
177
     0
290
     1
304
専用ビス　ＴＷＬ６９０Ｎ
 11
0.0
 21
0.0
 31
1.0
340
10
 12
476.0441110862605
 22
249.5771086073891
 32
0.0
 13
1.0
 23
0.0
 33
0.0
 42
0.0
 43
0.0
 44
0.0
 45
1.0
170
     1
 90
-1073741824
171
     1
172
     5
 91
-1073741824
141
0.0
 92
        0
291
     0
292
     0
173
     0
293
     0
142
0.0
143
0.0
294
     0
295
     0
296
     0
110
438.2477541731645
120
308.0389870221996
130
0.0
111
1.0
121
0.0
131
0.0
112
0.0
122
1.0
132
0.0
297
     0
302
LEADER{
290
     1
291
     1
 10
473.4441110862604
 20
247.0771086073891
 30
0.0
 11
1.0
 21
0.0
 31
0.0
 90
        0
 40
0.6
304
LEADER_LINE{
 10
452.3052237232895
 20
283.6907355355306
 30
0.0
 91
        0
305
}
271
     0
303
}
272
     9
273
     9
301
}
340
2FEE
 90
   279552
170
     1
 91
-1056964608
341
14
171
    -2
290
     1
291
     1
 41
0.6
342
B0
 42
0.0
172
     2
343
10
173
     1
 95
        3
174
     1
175
     0
 92
-1056964608
292
     0
 93
-1056964608
 10
1.0
 20
1.0
 30
1.0
 43
0.0
176
     0
293
     0
294
     0
178
     0
179
     1
 45
1.0
271
     0
272
     9
273
     9
  0
MULTILEADER
  5
4426
102
{ACAD_XDICTIONARY
360
5238
102
}
330
1A
100
AcDbEntity
  8
HIKIDASI
160
               560
310
30020000150000000C00000016000000000000C00C00000033000000000000000C00000013000000993A0000D800000026000000CE305A75B2A0714022209A37B2467740000000000000000000000000000000000000000000000000000000000000F03F000000000000F03F00000000000000000000000000000000655185
310
9668637F6717FF15FF0000000006000000010000000000000000001440000000000000F03F0000000000000000000000000000F03F000000000000000000000000000000000000000000000000000000000100000000000000000000007400780074002E00730068007800000065007800740066006F006E0074002E007300
310
6800780000000C00000033000000000000000C00000010000000090000000C00000016000000000000C00C00000012000000FF7F00000C00000013000000010000000C00000013000000891300003C00000006000000020000008EDDBCCE2DB27440A989FEC8400B7640000000000000000012759EB9F6E4734022209A37B2
310
6E774000000000000000000C00000013000000112700003C000000060000000200000012759EB9F6E4734022209A37B26E7740000000000000000078DB04205DDB734022209A37B26E774000000000000000000C00000016000000000000C00C00000012000000FF7F00000C00000017000000000000000C00000013000000
310
9A3A00000C00000016000000000000C00C00000012000000FF7F00000C00000017000000FFFFFFFF0C0000003300000000000000
100
AcDbMLeader
270
     2
300
CONTEXT_DATA{
 40
1.0
 10
280.0435689471314
 20
374.9185100574997
 30
0.0
 41
5.0
140
0.0
145
2.0
174
     1
175
     3
176
     2
177
     0
290
     1
304
入隅捨板７５
 11
0.0
 21
0.0
 31
1.0
340
10
 12
315.710235613798
 22
377.4185100574997
 32
0.0
 13
1.0
 23
0.0
 33
0.0
 42
0.0
 43
0.0
 44
0.0
 45
1.0
170
     1
 90
-1073741824
171
     3
172
     5
 91
-1073741824
141
0.0
 92
        0
291
     0
292
     0
173
     0
293
     0
142
0.0
143
0.0
294
     0
295
     0
296
     0
110
331.1361834886128
120
352.7033166830902
130
0.0
111
1.0
121
0.0
131
0.0
112
0.0
122
1.0
132
0.0
297
     0
302
LEADER{
290
     1
291
     1
 10
318.310235613798
 20
374.9185100574997
 30
0.0
 11
-1.0
 21
0.0
 31
0.0
 90
        0
 40
0.6
304
LEADER_LINE{
 10
331.1361834886128
 20
352.7033166830902
 30
0.0
 91
        0
305
}
271
     0
303
}
272
     9
273
     9
301
}
340
2FEE
 90
   279552
170
     1
 91
-1056964608
341
14
171
    -2
290
     1
291
     1
 41
0.6
342
B0
 42
0.0
172
     2
343
10
173
     1
 95
        3
174
     1
175
     2
 92
-1056964608
292
     0
 93
-1056964608
 10
1.0
 20
1.0
 30
1.0
 43
0.0
176
     0
293
     0
294
     0
178
     0
179
     3
 45
1.0
271
     0
272
     9
273
     9
  0
MTEXT
  5
443B
330
1A
100
AcDbEntity
  8
SUNPOU
100
AcDbMText
 10
128.989541644975
 20
405.7641411186237
 30
-0.0000000000033147
 40
5.0
 41
44.47311893580399
 46
0.0
 71
     1
 72
     5
  1
胴縁芯
 73
     1
 44
1.0
1001
ACAD
1000
ACAD_MTEXT_COLUMN_INFO_BEGIN
1070
    75
1070
     2
1070
    79
1070
     0
1070
    76
1070
     1
1070
    78
1070
     0
1070
    48
1040
44.47311893580399
1070
    49
1040
25.0
1070
    50
1070
     1
1040
0.0
1000
ACAD_MTEXT_COLUMN_INFO_END
  0
MTEXT
  5
443C
330
1A
100
AcDbEntity
  8
SUNPOU
100
AcDbMText
 10
244.6506837618756
 20
514.6442690034848
 30
-0.0000000000033147
 40
5.0
 41
44.47311893580399
 46
0.0
 71
     1
 72
     5
  1
胴縁芯
 73
     1
 44
1.0
1001
ACAD
1000
ACAD_MTEXT_COLUMN_INFO_BEGIN
1070
    75
1070
     2
1070
    79
1070
     0
1070
    76
1070
     1
1070
    78
1070
     0
1070
    48
1040
44.47311893580399
1070
    49
1040
25.0
1070
    50
1070
     1
1040
0.0
1000
ACAD_MTEXT_COLUMN_INFO_END
  0
HATCH
  5
45B5
330
1A
100
AcDbEntity
  8
PACKING
  6
DASHED2
 48
0.5
370
     9
100
AcDbHatch
 10
0.0
 20
0.0
 30
-0.00000000000164
210
0.0
220
0.0
230
1.0
  2
ANSI31
 70
     0
 71
     0
 91
        1
 92
        1
 93
        4
 72
     1
 10
410.5075667752461
 20
346.5000000000014
 11
433.5075551134231
 21
346.5000000000014
 72
     1
 10
433.5075551134231
 20
346.5000000000014
 11
433.5075551134231
 21
350.5000000000014
 72
     1
 10
433.5075551134231
 20
350.5000000000014
 11
410.5075667752463
 21
350.5000000000014
 72
     1
 10
410.5075667752463
 20
350.5000000000014
 11
410.5075667752461
 21
346.5000000000014
 97
        0
 75
     0
 76
     1
 52
0.0
 41
0.5
 77
     0
 78
     1
 53
45.0
 43
0.0
 44
0.0
 45
-1.122532015133643
 46
1.122532015133643
 79
     0
 98
        1
 10
420.735912167589
 20
350.233423046345
1001
ACAD
1010
0.0
1020
0.0
1030
0.0
  0
LINE
  5
45B6
330
1A
100
AcDbEntity
  8
PACKING
  6
DASHED2
 48
0.5
100
AcDbLine
 10
410.5075551134231
 20
346.5000000000014
 30
-0.00000000000164
 11
410.5075551134231
 21
350.5000000000014
 31
-0.00000000000164
  0
LINE
  5
45B7
330
1A
100
AcDbEntity
  8
PACKING
  6
DASHED2
 48
0.5
100
AcDbLine
 10
433.5075551134231
 20
346.5000000000014
 30
-0.00000000000164
 11
433.5075551134231
 21
350.5000000000014
 31
-0.00000000000164
  0
LINE
  5
45B8
330
1A
100
AcDbEntity
  8
PACKING
  6
DASHED2
 48
0.5
100
AcDbLine
 10
410.5075551134231
 20
346.5000000000014
 30
-0.00000000000164
 11
433.5075551134231
 21
346.5000000000014
 31
-0.00000000000164
  0
LINE
  5
45B9
330
1A
100
AcDbEntity
  8
PACKING
  6
DASHED2
 48
0.5
100
AcDbLine
 10
410.5075551134231
 20
350.5000000000014
 30
-0.00000000000164
 11
433.5075551134231
 21
350.5000000000014
 31
-0.00000000000164
  0
LINE
  5
45BA
102
{ACAD_REACTORS
330
45BB
102
}
330
1A
100
AcDbEntity
  8
SEALING
  6
DASHED2
 48
0.5
100
AcDbLine
 10
417.5075551134193
 20
350.5000000000014
 30
-0.00000000000164
 11
424.507555113424
 21
350.4999999999962
 31
-0.00000000000164
  0
HATCH
  5
45BB
330
1A
100
AcDbEntity
  8
SEALING
  6
DASHED2
 48
0.5
370
     9
100
AcDbHatch
 10
0.0
 20
0.0
 30
-0.00000000000164
210
0.0
220
0.0
230
1.0
  2
ANSI37
 70
     0
 71
     0
 91
        1
 92
        1
 93
        6
 72
     1
 10
417.5075551134193
 20
350.5000000000013
 11
417.5075551134193
 21
352.5000999450651
 72
     1
 10
417.5075551134193
 20
352.5000999450651
 11
414.5075551134224
 21
352.5002498626609
 72
     1
 10
414.5075551134224
 20
352.5002498626609
 11
414.5075551134207
 21
338.5002228116669
 72
     1
 10
414.5075551134207
 20
338.5002228116669
 11
424.5075551134172
 21
338.4997771883295
 72
     1
 10
424.5075551134172
 20
338.4997771883295
 11
424.5075551134203
 21
350.4999999999961
 72
     1
 10
424.5075551134203
 20
350.4999999999961
 11
417.5075551134193
 21
350.5000000000013
 97
        0
 75
     0
 76
     1
 52
0.0
 41
1.0
 77
     0
 78
     2
 53
45.0
 43
-17.24486267973736
 44
-21.41748724399224
 45
-2.245064030267287
 46
2.245064030267287
 79
     0
 53
135.0
 43
-17.24486267973736
 44
-21.41748724399224
 45
-2.245064030267287
 46
-2.245064030267287
 79
     0
 98
        2
 10
416.3222768876753
 20
349.5916978343831
 10
417.2896901020922
 20
343.9508684535586
1001
ACAD
1010
0.0
1020
0.0
1030
0.0
  0
LINE
  5
45BC
330
1A
100
AcDbEntity
  8
SEALING
  6
DASHED2
 48
0.5
100
AcDbLine
 10
424.5075551134172
 20
338.4999999999962
 30
-0.00000000000164
 11
424.5075551134219
 21
350.4999999999962
 31
-0.00000000000164
  0
LINE
  5
45BD
330
1A
100
AcDbEntity
  8
SEALING
  6
DASHED2
 48
0.5
100
AcDbLine
 10
414.5075551134272
 20
338.5000000000003
 30
-0.00000000000164
 11
414.5075551134224
 21
352.5000000000014
 31
-0.00000000000164
  0
LINE
  5
45BE
330
1A
100
AcDbEntity
  8
SEALING
  6
DASHED2
 48
0.5
100
AcDbLine
 10
417.5075551134193
 20
350.5000000000014
 30
-0.00000000000164
 11
417.5075551134193
 21
352.5000000000014
 31
-0.0000000000007215
  0
LINE
  5
45BF
330
1A
100
AcDbEntity
  8
SEALING
  6
DASHED2
 48
0.5
100
AcDbLine
 10
414.5075551134347
 20
338.5000000000003
 30
-0.00000000000164
 11
424.5075551134281
 21
338.4999999999962
 31
-0.00000000000164
  0
LINE
  5
45C6
330
1A
100
AcDbEntity
  8
SEALING
  6
DASHED2
 48
0.5
100
AcDbLine
 10
414.5075551134224
 20
352.5000000000014
 30
-0.00000000000164
 11
417.5075551134232
 21
352.4999999999967
 31
-0.00000000000164
  0
MULTILEADER
  5
45CD
102
{ACAD_XDICTIONARY
360
523A
102
}
330
1A
100
AcDbEntity
  8
HIKIDASI
160
               572
310
3C020000150000000C00000016000000000000C00C00000033000000000000000C00000013000000993A0000E400000026000000C237399881177E403B677D6255C07B40000000000000000000000000000000000000000000000000000000000000F03F000000000000F03F000000000000000000000000000000002A6A70
310
8D8A303296626BB730FC30EA30F330B0303B2012FF000000730C000000010000000000000000001440000000000000F03F0000000000000000000000000000F03F000000000000000000000000000000000000000000000000000000000100000000000000000000007400780074002E007300680078000000650078007400
310
66006F006E0074002E0073006800780000000C00000033000000000000000C00000010000000090000000C00000016000000000000C00C00000012000000FF7F00000C00000013000000010000000C00000013000000891300003C00000006000000020000000F0635D946487A40B86B6D663D977540000000000000000024
310
9E9FFEE7ED7D403D677D6255E87B4000000000000000000C00000013000000112700003C0000000600000002000000249E9FFEE7ED7D403D677D6255E87B400000000000000000BE37399881F77D403D677D6255E87B4000000000000000000C00000016000000000000C00C00000012000000FF7F00000C00000017000000
310
000000000C000000130000009A3A00000C00000016000000000000C00C00000012000000FF7F00000C00000017000000FFFFFFFF0C0000003300000000000000
100
AcDbMLeader
270
     2
300
CONTEXT_DATA{
 40
1.0
 10
479.4691393122739
 20
446.5208458803716
 30
0.0
 41
5.0
140
0.0
145
2.0
174
     1
175
     3
176
     0
177
     0
290
     1
304
横走り防止シーリング※２
 11
0.0
 21
0.0
 31
1.0
340
10
 12
481.469139312274
 22
449.0208458803714
 32
0.0
 13
1.0
 23
0.0
 33
0.0
 42
0.0
 43
0.0
 44
0.0
 45
1.0
170
     1
 90
-1073741824
171
     1
172
     5
 91
-1073741824
141
0.0
 92
        0
291
     0
292
     0
173
     0
293
     0
142
0.0
143
0.0
294
     0
295
     0
296
     0
110
420.5172969886052
120
345.4524902605294
130
0.0
111
1.0
121
0.0
131
0.0
112
0.0
122
1.0
132
0.0
297
     0
302
LEADER{
290
     1
291
     1
 10
478.8691393122737
 20
446.5208458803716
 30
0.0
 11
1.0
 21
0.0
 31
0.0
 90
        0
 40
0.6
304
LEADER_LINE{
 10
420.5172969886052
 20
345.4524902605294
 30
0.0
 91
        0
305
}
271
     0
303
}
272
     9
273
     9
301
}
340
2FEE
 90
   279552
170
     1
 91
-1056964608
341
14
171
    -2
290
     1
291
     1
 41
0.6
342
B0
 42
0.0
172
     2
343
10
173
     1
 95
        3
174
     1
175
     0
 92
-1056964608
292
     0
 93
-1056964608
 10
1.0
 20
1.0
 30
1.0
 43
0.0
176
     0
293
     0
294
     0
178
     0
179
     1
 45
1.0
271
     0
272
     9
273
     9
  0
MULTILEADER
  5
45CF
102
{ACAD_XDICTIONARY
360
523C
102
}
330
1A
100
AcDbEntity
  8
HIKIDASI
160
               568
310
38020000150000000C00000016000000000000C00C00000033000000000000000C00000013000000993A0000E0000000260000006CF619B59F4B7E4037FDDB44B1167B40000000000000000000000000000000000000000000000000000000000000F03F000000000000F03F00000000000000000000000000000000CF8862
310
972A6A708D8A303296626BD130C330AD30F33000000B000000010000000000000000001440000000000000F03F0000000000000000000000000000F03F000000000000000000000000000000000000000000000000000000000100000000000000000000007400780074002E00730068007800000065007800740066006F00
310
6E0074002E0073006800780000000C00000033000000000000000C00000010000000090000000C00000016000000000000C00C00000012000000FF7F00000C00000013000000010000000C00000013000000891300003C00000006000000020000007205C646CAF77A4013B14F9553C375400000000000000000D25C801B06
310
227E4038FDDB44B13E7B4000000000000000000C00000013000000112700003C0000000600000002000000D25C801B06227E4038FDDB44B13E7B4000000000000000006CF619B59F2B7E4038FDDB44B13E7B4000000000000000000C00000016000000000000C00C00000012000000FF7F00000C0000001700000000000000
310
0C000000130000009A3A00000C00000016000000000000C00C00000012000000FF7F00000C00000017000000FFFFFFFF0C0000003300000000000000
100
AcDbMLeader
270
     2
300
CONTEXT_DATA{
 40
1.0
 10
482.7264910711444
 20
435.9182785600019
 30
0.0
 41
5.0
140
0.0
145
2.0
174
     1
175
     3
176
     0
177
     0
290
     1
304
裏面横走り防止パッキン
 11
0.0
 21
0.0
 31
1.0
340
10
 12
484.7264910711444
 22
438.4182785600018
 32
0.0
 13
1.0
 23
0.0
 33
0.0
 42
0.0
 43
0.0
 44
0.0
 45
1.0
170
     1
 90
-1073741824
171
     1
172
     5
 91
-1073741824
141
0.0
 92
        0
291
     0
292
     0
173
     0
293
     0
142
0.0
143
0.0
294
     0
295
     0
296
     0
110
431.4868839011388
120
348.2079060662229
130
0.0
111
1.0
121
0.0
131
0.0
112
0.0
122
1.0
132
0.0
297
     0
302
LEADER{
290
     1
291
     1
 10
482.1264910711444
 20
435.9182785600019
 30
0.0
 11
1.0
 21
0.0
 31
0.0
 90
        0
 40
0.6
304
LEADER_LINE{
 10
431.4868839011388
 20
348.2079060662229
 30
0.0
 91
        0
305
}
271
     0
303
}
272
     9
273
     9
301
}
340
2FEE
 90
   279552
170
     1
 91
-1056964608
341
14
171
    -2
290
     1
291
     1
 41
0.6
342
B0
 42
0.0
172
     2
343
10
173
     1
 95
        3
174
     1
175
     0
 92
-1056964608
292
     0
 93
-1056964608
 10
1.0
 20
1.0
 30
1.0
 43
0.0
176
     0
293
     0
294
     0
178
     0
179
     1
 45
1.0
271
     0
272
     9
273
     9
  0
LINE
  5
45D0
330
1A
100
AcDbEntity
  8
SEALING
  6
DASHED2
 48
0.5
100
AcDbLine
 10
305.0075551134232
 20
238.0000000000014
 30
-0.00000000000164
 11
305.0075551134232
 21
228.0000000000014
 31
-0.00000000000164
  0
LINE
  5
45D1
330
1A
100
AcDbEntity
  8
YAKUMONO
  6
CENTER2
 62
     7
100
AcDbLine
 10
305.0075551134232
 20
228.0000000000014
 30
-0.00000000000164
 11
305.0075551134232
 21
238.0000000000013
 31
-0.00000000000164
  0
LINE
  5
45D2
330
1A
100
AcDbEntity
  8
YAKUMONO
 62
     7
100
AcDbLine
 10
303.0075551134232
 20
238.0000000000014
 30
-0.00000000000164
 11
305.0075551134232
 21
238.0000000000013
 31
-0.00000000000164
  0
LINE
  5
45D3
330
1A
100
AcDbEntity
  8
YAKUMONO
 62
     7
100
AcDbLine
 10
305.0075551134232
 20
228.0000000000014
 30
-0.00000000000164
 11
303.0075551134232
 21
228.0000000000014
 31
-0.00000000000164
  0
HATCH
  5
45D4
330
1A
100
AcDbEntity
  8
PACKING
  6
DASHED2
 48
0.5
370
     9
100
AcDbHatch
 10
0.0
 20
0.0
 30
-0.00000000000164
210
0.0
220
0.0
230
1.0
  2
ANSI31
 70
     0
 71
     0
 91
        1
 92
        1
 93
        4
 72
     1
 10
309.0075551134232
 20
244.9999883381784
 11
309.0075551134232
 21
222.0000000000014
 72
     1
 10
309.0075551134232
 20
222.0000000000014
 11
305.0075551134232
 21
222.0000000000014
 72
     1
 10
305.0075551134232
 20
222.0000000000014
 11
305.0075551134232
 21
244.9999883381782
 72
     1
 10
305.0075551134232
 20
244.9999883381782
 11
309.0075551134232
 21
244.9999883381784
 97
        0
 75
     0
 76
     1
 52
0.0
 41
0.5
 77
     0
 78
     1
 53
45.0
 43
0.0
 44
0.0
 45
-1.122532015133643
 46
1.122532015133643
 79
     0
 98
        1
 10
305.2741320670796
 20
234.7716429458354
1001
ACAD
1010
0.0
1020
0.0
1030
0.0
  0
LINE
  5
45D5
330
1A
100
AcDbEntity
  8
PACKING
  6
DASHED2
 48
0.5
100
AcDbLine
 10
309.0075551134232
 20
245.0000000000014
 30
-0.00000000000164
 11
305.0075551134232
 21
245.0000000000014
 31
-0.00000000000164
  0
LINE
  5
45D6
330
1A
100
AcDbEntity
  8
PACKING
  6
DASHED2
 48
0.5
100
AcDbLine
 10
309.0075551134232
 20
222.0000000000014
 30
-0.00000000000164
 11
305.0075551134232
 21
222.0000000000014
 31
-0.00000000000164
  0
LINE
  5
45D7
330
1A
100
AcDbEntity
  8
PACKING
  6
DASHED2
 48
0.5
100
AcDbLine
 10
309.0075551134232
 20
245.0000000000014
 30
-0.00000000000164
 11
309.0075551134232
 21
222.0000000000014
 31
-0.00000000000164
  0
LINE
  5
45D8
330
1A
100
AcDbEntity
  8
PACKING
  6
DASHED2
 48
0.5
100
AcDbLine
 10
305.0075551134232
 20
245.0000000000014
 30
-0.00000000000164
 11
305.0075551134232
 21
222.0000000000014
 31
-0.00000000000164
  0
HATCH
  5
45D9
330
1A
100
AcDbEntity
  8
SEALING
  6
DASHED2
 48
0.5
370
     9
100
AcDbHatch
 10
0.0
 20
0.0
 30
-0.00000000000164
210
0.0
220
0.0
230
1.0
  2
ANSI37
 70
     0
 71
     0
 91
        1
 92
        1
 93
        6
 72
     1
 10
305.0075551134233
 20
238.0000000000052
 11
303.0074551683594
 21
238.0000000000052
 72
     1
 10
303.0074551683594
 20
238.0000000000052
 11
303.0073052507636
 21
241.0000000000019
 72
     1
 10
303.0073052507636
 20
241.0000000000019
 11
317.0073323017577
 21
241.0000000000037
 72
     1
 10
317.0073323017577
 20
241.0000000000037
 11
317.0077779250951
 21
231.0000000000071
 72
     1
 10
317.0077779250951
 20
231.0000000000071
 11
305.0075551134284
 21
231.0000000000042
 72
     1
 10
305.0075551134284
 20
231.0000000000042
 11
305.0075551134233
 21
238.0000000000052
 97
        0
 75
     0
 76
     1
 52
0.0
 41
1.0
 77
     0
 78
     2
 53
45.0
 43
-17.24486267973736
 44
-21.41748724399224
 45
-2.245064030267287
 46
2.245064030267287
 79
     0
 53
135.0
 43
-17.24486267973736
 44
-21.41748724399224
 45
-2.245064030267287
 46
-2.245064030267287
 79
     0
 98
        2
 10
305.9158572790415
 20
239.1852782257493
 10
311.5566866598659
 20
238.2178650113323
1001
ACAD
1010
0.0
1020
0.0
1030
0.0
  0
LINE
  5
45DA
330
1A
100
AcDbEntity
  8
SEALING
  6
DASHED2
 48
0.5
100
AcDbLine
 10
317.0075551134284
 20
231.0000000000071
 30
-0.00000000000164
 11
305.0075551134284
 21
231.0000000000024
 31
-0.00000000000164
  0
LINE
  5
45DB
330
1A
100
AcDbEntity
  8
SEALING
  6
DASHED2
 48
0.5
100
AcDbLine
 10
317.0075551134242
 20
240.9999999999972
 30
-0.00000000000164
 11
303.0075551134232
 21
241.0000000000019
 31
-0.00000000000164
  0
LINE
  5
45DC
330
1A
100
AcDbEntity
  8
SEALING
  6
DASHED2
 48
0.5
100
AcDbLine
 10
305.0075551134232
 20
238.0000000000052
 30
-0.00000000000164
 11
303.0075551134232
 21
238.0000000000052
 31
-0.0000000000007215
  0
LINE
  5
45DD
330
1A
100
AcDbEntity
  8
SEALING
  6
DASHED2
 48
0.5
100
AcDbLine
 10
317.0075551134242
 20
240.9999999999899
 30
-0.00000000000164
 11
317.0075551134284
 21
230.9999999999965
 31
-0.00000000000164
  0
LINE
  5
45DE
330
1A
100
AcDbEntity
  8
SEALING
  6
DASHED2
 48
0.5
100
AcDbLine
 10
303.0075551134232
 20
241.0000000000019
 30
-0.00000000000164
 11
303.007555113428
 21
238.0000000000014
 31
-0.00000000000164
  0
MTEXT
  5
4E5B
102
{ACAD_XDICTIONARY
360
4E5C
102
}
330
1A
100
AcDbEntity
  8
WAKU
100
AcDbMText
 10
124.3245405690059
 20
23.21985646788335
 30
0.0
 40
5.0
 41
130.7517663064795
 46
0.0
 71
     1
 72
     5
  1
\pi17.11446;アイジーヴァンド参考ディテール
  7
WAKU
 73
     1
 44
1.0
  0
MTEXT
  5
4E5D
102
{ACAD_XDICTIONARY
360
4E5E
102
}
330
1A
100
AcDbEntity
  8
WAKU
100
AcDbMText
 10
34.05004475349506
 20
23.21985646788335
 30
0.0
 40
5.0
 41
71.82723587241572
 46
0.0
 71
     1
 72
     5
  1
\pi3.9593;アイジー工業株式会社
  7
WAKU
 73
     1
 44
1.0
  0
LINE
  5
4E97
330
1A
100
AcDbEntity
  8
TEKUSU
  6
CENTER2
370
     5
100
AcDbLine
 10
450.5075551134238
 20
277.0963504999916
 30
-0.0000000000016376
 11
450.5075551134238
 21
377.1843953070027
 31
-0.0000000000016376
  0
LINE
  5
4E98
330
1A
100
AcDbEntity
  8
TEKUSU
  6
Continuous
100
AcDbLine
 10
443.0075551134238
 20
284.4999999999917
 30
-0.0000000000016376
 11
443.0075551134238
 21
284.9999999999962
 31
-0.0000000000016376
  0
LINE
  5
4E99
330
1A
100
AcDbEntity
  8
TEKUSU
  6
Continuous
100
AcDbLine
 10
458.0075551134201
 20
284.4999999999917
 30
-0.0000000000016376
 11
458.0075551134201
 21
284.9999999999907
 31
-0.0000000000016376
  0
LINE
  5
4E9A
330
1A
100
AcDbEntity
  8
TEKUSU
  6
DASHED2
 48
0.5
100
AcDbLine
 10
447.9375551134241
 20
286.3871661963265
 30
-0.0000000000016376
 11
447.9375551134196
 21
317.139567428754
 31
-0.0000000000016376
  0
LINE
  5
4E9B
330
1A
100
AcDbEntity
  8
TEKUSU
  6
DASHED2
 48
0.5
100
AcDbLine
 10
458.0075551134238
 20
282.7499999999917
 30
-0.0000000000016376
 11
443.0075551134238
 21
282.7499999999917
 31
-0.0000000000016376
  0
LINE
  5
4E9C
330
1A
100
AcDbEntity
  8
TEKUSU
  6
DASHED2
 48
0.5
100
AcDbLine
 10
458.5075551134238
 20
283.9999999999916
 30
-0.0000000000016376
 11
458.5075551134238
 21
283.2499999999916
 31
-0.0000000000016376
  0
LINE
  5
4E9D
330
1A
100
AcDbEntity
  8
TEKUSU
  6
DASHED2
 48
0.5
100
AcDbLine
 10
442.5075551134238
 20
283.9999999999916
 30
-0.0000000000016376
 11
442.5075551134238
 21
283.2499999999916
 31
-0.0000000000016376
  0
LINE
  5
4E9E
330
1A
100
AcDbEntity
  8
TEKUSU
  6
DASHED2
 48
0.5
100
AcDbLine
 10
458.0075551134238
 20
284.4999999999917
 30
-0.0000000000016376
 11
443.0075551134238
 21
284.4999999999917
 31
-0.0000000000016376
  0
ARC
  5
4E9F
330
1A
100
AcDbEntity
  8
TEKUSU
  6
DASHED2
 48
0.5
100
AcDbCircle
 10
450.5075551134201
 20
294.4387931034388
 30
-0.0000000000016376
 40
13.13879310344826
100
AcDbArc
 50
242.828017584235
 51
297.1719824157636
  0
ARC
  5
4EA0
330
1A
100
AcDbEntity
  8
TEKUSU
  6
DASHED2
 48
0.5
100
AcDbCircle
 10
443.0075551134192
 20
283.9999999999916
 30
-0.0000000000016376
 40
0.5
100
AcDbArc
 50
90.0
 51
180.0
1001
GENIUS_GENOBJ-N-FIL_13
1002
{
1000
OWNER
1000
GEN
1002
}
1001
GENIUS_GENODEF_13
1002
{
1000
HIER
1070
     0
1002
}
1002
{
1000
MANEDIT
1070
     0
1002
}
1002
{
1000
NOSEL
1070
     0
1002
}
1002
{
1000
BEHIND
1070
     0
1002
}
1002
{
1000
OTHER
1070
     0
1002
}
1002
{
1000
REACTOR
1002
}
  0
ARC
  5
4EA1
330
1A
100
AcDbEntity
  8
TEKUSU
  6
DASHED2
 48
0.5
100
AcDbCircle
 10
458.0075551134201
 20
283.9999999999916
 30
-0.0000000000016376
 40
0.5
100
AcDbArc
 50
0.0
 51
90.0
1001
GENIUS_GENOBJ-N-FIL_13
1002
{
1000
OWNER
1000
GEN
1002
}
1001
GENIUS_GENODEF_13
1002
{
1000
HIER
1070
     0
1002
}
1002
{
1000
MANEDIT
1070
     0
1002
}
1002
{
1000
NOSEL
1070
     0
1002
}
1002
{
1000
BEHIND
1070
     0
1002
}
1002
{
1000
OTHER
1070
     0
1002
}
1002
{
1000
REACTOR
1002
}
  0
ARC
  5
4EA2
330
1A
100
AcDbEntity
  8
TEKUSU
  6
DASHED2
 48
0.5
100
AcDbCircle
 10
458.0075551134201
 20
283.2499999999916
 30
-0.0000000000016376
 40
0.5
100
AcDbArc
 50
270.0
 51
0.0
1001
GENIUS_GENODEF_13
1002
{
1000
HIER
1070
     0
1002
}
1002
{
1000
MANEDIT
1070
     0
1002
}
1002
{
1000
NOSEL
1070
     0
1002
}
1002
{
1000
BEHIND
1070
     0
1002
}
1002
{
1000
OTHER
1070
     0
1002
}
1002
{
1000
REACTOR
1002
}
1001
GENIUS_GENOBJ-N-FIL_13
1002
{
1000
OWNER
1000
GEN
1002
}
  0
ARC
  5
4EA3
330
1A
100
AcDbEntity
  8
TEKUSU
  6
DASHED2
 48
0.5
100
AcDbCircle
 10
443.0075551134192
 20
283.2499999999916
 30
-0.0000000000016376
 40
0.5
100
AcDbArc
 50
180.0
 51
270.0
1001
GENIUS_GENOBJ-N-FIL_13
1002
{
1000
OWNER
1000
GEN
1002
}
1001
GENIUS_GENODEF_13
1002
{
1000
HIER
1070
     0
1002
}
1002
{
1000
MANEDIT
1070
     0
1002
}
1002
{
1000
NOSEL
1070
     0
1002
}
1002
{
1000
BEHIND
1070
     0
1002
}
1002
{
1000
OTHER
1070
     0
1002
}
1002
{
1000
REACTOR
1002
}
  0
LINE
  5
4EA4
330
1A
100
AcDbEntity
  8
TEKUSU
  6
DASHED2
 48
0.5
100
AcDbLine
 10
453.0775551134226
 20
286.3871661963265
 30
-0.0000000000016376
 11
453.077555113419
 21
317.139567428754
 31
-0.0000000000016376
  0
LINE
  5
4EA5
330
1A
100
AcDbEntity
  8
TEKUSU
  6
DASHED2
 48
0.5
100
AcDbLine
 10
453.9575551134245
 20
284.5000001062788
 30
-0.0000000000016376
 11
453.0775551134226
 21
286.3871661963265
 31
-0.0000000000016376
  0
LINE
  5
4EA6
330
1A
100
AcDbEntity
  8
TEKUSU
  6
DASHED2
 48
0.5
100
AcDbLine
 10
447.0575551134228
 20
284.5000001062788
 30
-0.0000000000016376
 11
447.9375551134241
 21
286.3871661963265
 31
-0.0000000000016376
  0
LINE
  5
4EA7
330
1A
100
AcDbEntity
  8
TEKUSU
  6
DASHED2
 48
0.5
100
AcDbLine
 10
447.9375551134241
 20
286.3871661963265
 30
-0.0000000000016376
 11
453.0775551134226
 21
286.3871661963265
 31
-0.0000000000016376
  0
LINE
  5
4EA8
330
1A
100
AcDbEntity
  8
TEKUSU
100
AcDbLine
 10
453.7575551134238
 20
367.9999999999917
 30
-0.0000000000016376
 11
447.2575551134238
 21
367.9999999999917
 31
-0.0000000000016376
  0
LINE
  5
4EA9
330
1A
100
AcDbEntity
  8
TEKUSU
  6
DASHED2
 48
0.5
100
AcDbLine
 10
453.7575551134238
 20
317.139567428754
 30
-0.0000000000016376
 11
447.2575551134238
 21
317.139567428754
 31
-0.0000000000016376
  0
LINE
  5
4EAA
330
1A
100
AcDbEntity
  8
TEKUSU
100
AcDbLine
 10
447.8575551134251
 20
372.3998671062789
 30
-0.0000000000016376
 11
447.8575551134251
 21
367.9999999999925
 31
-0.0000000000016376
  0
LINE
  5
4EAB
330
1A
100
AcDbEntity
  8
TEKUSU
100
AcDbLine
 10
450.5075551134238
 20
374.6234810246486
 30
-0.0000000000016376
 11
447.8575551134251
 21
372.3998671062789
 31
-0.0000000000016376
  0
LINE
  5
4EAC
330
1A
100
AcDbEntity
  8
TEKUSU
100
AcDbLine
 10
453.1575551134253
 20
372.3998671062789
 30
-0.0000000000016376
 11
453.1575551134253
 21
367.9999999999925
 31
-0.0000000000016376
  0
LINE
  5
4EAD
330
1A
100
AcDbEntity
  8
TEKUSU
100
AcDbLine
 10
453.1575551134253
 20
372.3998671062789
 30
-0.0000000000016376
 11
450.5075551134238
 21
374.6234810246486
 31
-0.0000000000016376
  0
LINE
  5
4EAE
330
1A
100
AcDbEntity
  8
TEKUSU
  6
DASHED2
 48
0.5
100
AcDbLine
 10
447.2575551134238
 20
355.3000033305778
 30
-0.0000000000016376
 11
447.2575551134238
 21
317.139567428754
 31
-0.0000000000016376
  0
LINE
  5
4EAF
330
1A
100
AcDbEntity
  8
TEKUSU
  6
DASHED2
 48
0.5
100
AcDbLine
 10
453.7575551134238
 20
355.3000033305778
 30
-0.0000000000016376
 11
453.7575551134238
 21
317.139567428754
 31
-0.0000000000016376
  0
LINE
  5
4EB0
330
1A
100
AcDbEntity
  8
TEKUSU
100
AcDbLine
 10
449.0948651513831
 20
367.9999999999917
 30
-0.0000000000016376
 11
450.5075551134238
 21
374.6234810246467
 31
-0.0000000000016376
  0
LINE
  5
4EB1
330
1A
100
AcDbEntity
  8
TEKUSU
100
AcDbLine
 10
458.0075551134201
 20
284.9999999999962
 30
-0.0000000000016376
 11
443.0075551134238
 21
284.9999999999962
 31
-0.0000000000016376
  0
LINE
  5
4EB2
330
1A
100
AcDbEntity
  8
TEKUSU
100
AcDbLine
 10
447.2575551134238
 20
355.3000033305778
 30
-0.0000000000016376
 11
447.2575551134238
 21
367.9999999999917
 31
-0.0000000000016376
  0
LINE
  5
4EB3
330
1A
100
AcDbEntity
  8
TEKUSU
100
AcDbLine
 10
453.7575551134238
 20
355.3000033305778
 30
-0.0000000000016376
 11
453.7575551134243
 21
367.9999999999917
 31
-0.0000000000016376
  0
LINE
  5
4EBB
330
1A
100
AcDbEntity
  8
TEKUSU
  6
CENTER2
370
     5
100
AcDbLine
 10
378.4112046134279
 20
204.7500000000014
 30
-0.000000000001647
 11
278.3231598064168
 21
204.7500000000014
 31
-0.000000000001647
  0
LINE
  5
4EBC
330
1A
100
AcDbEntity
  8
TEKUSU
  6
Continuous
100
AcDbLine
 10
371.0075551134279
 20
197.2500000000014
 30
-0.000000000001647
 11
370.5075551134233
 21
197.2500000000014
 31
-0.000000000001647
  0
LINE
  5
4EBD
330
1A
100
AcDbEntity
  8
TEKUSU
  6
Continuous
100
AcDbLine
 10
371.0075551134279
 20
212.2499999999978
 30
-0.000000000001647
 11
370.5075551134288
 21
212.2499999999978
 31
-0.000000000001647
  0
LINE
  5
4EBE
330
1A
100
AcDbEntity
  8
TEKUSU
  6
DASHED2
 48
0.5
100
AcDbLine
 10
369.120388917093
 20
202.1800000000017
 30
-0.000000000001647
 11
338.3679876846656
 21
202.1799999999971
 31
-0.000000000001647
  0
LINE
  5
4EBF
330
1A
100
AcDbEntity
  8
TEKUSU
  6
DASHED2
 48
0.5
100
AcDbLine
 10
372.7575551134279
 20
212.2500000000014
 30
-0.000000000001647
 11
372.7575551134279
 21
197.2500000000014
 31
-0.000000000001647
  0
LINE
  5
4EC0
330
1A
100
AcDbEntity
  8
TEKUSU
  6
DASHED2
 48
0.5
100
AcDbLine
 10
371.5075551134279
 20
212.7500000000014
 30
-0.000000000001647
 11
372.2575551134279
 21
212.7500000000014
 31
-0.000000000001647
  0
LINE
  5
4EC1
330
1A
100
AcDbEntity
  8
TEKUSU
  6
DASHED2
 48
0.5
100
AcDbLine
 10
371.5075551134279
 20
196.7500000000014
 30
-0.000000000001647
 11
372.2575551134279
 21
196.7500000000014
 31
-0.000000000001647
  0
LINE
  5
4EC2
330
1A
100
AcDbEntity
  8
TEKUSU
  6
DASHED2
 48
0.5
100
AcDbLine
 10
371.0075551134279
 20
212.2500000000014
 30
-0.000000000001647
 11
371.0075551134279
 21
197.2500000000014
 31
-0.000000000001647
  0
ARC
  5
4EC3
330
1A
100
AcDbEntity
  8
TEKUSU
  6
DASHED2
 48
0.5
100
AcDbCircle
 10
361.0687620099808
 20
204.7499999999978
 30
-0.000000000001647
 40
13.13879310344826
100
AcDbArc
 50
332.8280175842385
 51
27.17198241576149
  0
ARC
  5
4EC4
330
1A
100
AcDbEntity
  8
TEKUSU
  6
DASHED2
 48
0.5
100
AcDbCircle
 10
371.5075551134279
 20
197.2499999999969
 30
-0.000000000001647
 40
0.5
100
AcDbArc
 50
180.0
 51
270.0
1001
GENIUS_GENOBJ-N-FIL_13
1002
{
1000
OWNER
1000
GEN
1002
}
1001
GENIUS_GENODEF_13
1002
{
1000
HIER
1070
     0
1002
}
1002
{
1000
MANEDIT
1070
     0
1002
}
1002
{
1000
NOSEL
1070
     0
1002
}
1002
{
1000
BEHIND
1070
     0
1002
}
1002
{
1000
OTHER
1070
     0
1002
}
1002
{
1000
REACTOR
1002
}
  0
ARC
  5
4EC5
330
1A
100
AcDbEntity
  8
TEKUSU
  6
DASHED2
 48
0.5
100
AcDbCircle
 10
371.5075551134279
 20
212.2499999999978
 30
-0.000000000001647
 40
0.5
100
AcDbArc
 50
90.0
 51
180.0
1001
GENIUS_GENOBJ-N-FIL_13
1002
{
1000
OWNER
1000
GEN
1002
}
1001
GENIUS_GENODEF_13
1002
{
1000
HIER
1070
     0
1002
}
1002
{
1000
MANEDIT
1070
     0
1002
}
1002
{
1000
NOSEL
1070
     0
1002
}
1002
{
1000
BEHIND
1070
     0
1002
}
1002
{
1000
OTHER
1070
     0
1002
}
1002
{
1000
REACTOR
1002
}
  0
ARC
  5
4EC6
330
1A
100
AcDbEntity
  8
TEKUSU
  6
DASHED2
 48
0.5
100
AcDbCircle
 10
372.2575551134279
 20
212.2499999999978
 30
-0.000000000001647
 40
0.5
100
AcDbArc
 50
0.0
 51
90.0
1001
GENIUS_GENODEF_13
1002
{
1000
HIER
1070
     0
1002
}
1002
{
1000
MANEDIT
1070
     0
1002
}
1002
{
1000
NOSEL
1070
     0
1002
}
1002
{
1000
BEHIND
1070
     0
1002
}
1002
{
1000
OTHER
1070
     0
1002
}
1002
{
1000
REACTOR
1002
}
1001
GENIUS_GENOBJ-N-FIL_13
1002
{
1000
OWNER
1000
GEN
1002
}
  0
ARC
  5
4EC7
330
1A
100
AcDbEntity
  8
TEKUSU
  6
DASHED2
 48
0.5
100
AcDbCircle
 10
372.2575551134279
 20
197.2499999999969
 30
-0.000000000001647
 40
0.5
100
AcDbArc
 50
270.0
 51
0.0
1001
GENIUS_GENOBJ-N-FIL_13
1002
{
1000
OWNER
1000
GEN
1002
}
1001
GENIUS_GENODEF_13
1002
{
1000
HIER
1070
     0
1002
}
1002
{
1000
MANEDIT
1070
     0
1002
}
1002
{
1000
NOSEL
1070
     0
1002
}
1002
{
1000
BEHIND
1070
     0
1002
}
1002
{
1000
OTHER
1070
     0
1002
}
1002
{
1000
REACTOR
1002
}
  0
LINE
  5
4EC8
330
1A
100
AcDbEntity
  8
TEKUSU
  6
DASHED2
 48
0.5
100
AcDbLine
 10
369.120388917093
 20
207.3200000000002
 30
-0.000000000001647
 11
338.3679876846656
 21
207.3199999999967
 31
-0.000000000001647
  0
LINE
  5
4EC9
330
1A
100
AcDbEntity
  8
TEKUSU
  6
DASHED2
 48
0.5
100
AcDbLine
 10
371.0075550071406
 20
208.2000000000021
 30
-0.000000000001647
 11
369.120388917093
 21
207.3200000000002
 31
-0.000000000001647
  0
LINE
  5
4ECA
330
1A
100
AcDbEntity
  8
TEKUSU
  6
DASHED2
 48
0.5
100
AcDbLine
 10
371.0075550071406
 20
201.3000000000007
 30
-0.000000000001647
 11
369.120388917093
 21
202.1800000000017
 31
-0.000000000001647
  0
LINE
  5
4ECB
330
1A
100
AcDbEntity
  8
TEKUSU
  6
DASHED2
 48
0.5
100
AcDbLine
 10
369.120388917093
 20
202.1800000000017
 30
-0.000000000001647
 11
369.120388917093
 21
207.3200000000002
 31
-0.000000000001647
  0
LINE
  5
4ECC
330
1A
100
AcDbEntity
  8
TEKUSU
100
AcDbLine
 10
287.5075551134279
 20
208.0000000000014
 30
-0.000000000001647
 11
287.5075551134279
 21
201.5000000000014
 31
-0.000000000001647
  0
LINE
  5
4ECD
330
1A
100
AcDbEntity
  8
TEKUSU
  6
DASHED2
 48
0.5
100
AcDbLine
 10
338.3679876846656
 20
208.0000000000014
 30
-0.000000000001647
 11
338.3679876846656
 21
201.5000000000014
 31
-0.000000000001647
  0
LINE
  5
4ECE
330
1A
100
AcDbEntity
  8
TEKUSU
100
AcDbLine
 10
283.1076880071406
 20
202.1000000000027
 30
-0.000000000001647
 11
287.5075551134269
 21
202.1000000000027
 31
-0.000000000001647
  0
LINE
  5
4ECF
330
1A
100
AcDbEntity
  8
TEKUSU
100
AcDbLine
 10
280.8840740887709
 20
204.7500000000014
 30
-0.000000000001647
 11
283.1076880071406
 21
202.1000000000027
 31
-0.000000000001647
  0
LINE
  5
4ED0
330
1A
100
AcDbEntity
  8
TEKUSU
100
AcDbLine
 10
283.1076880071406
 20
207.4000000000029
 30
-0.000000000001647
 11
287.5075551134269
 21
207.4000000000029
 31
-0.000000000001647
  0
LINE
  5
4ED1
330
1A
100
AcDbEntity
  8
TEKUSU
100
AcDbLine
 10
283.1076880071406
 20
207.4000000000029
 30
-0.000000000001647
 11
280.8840740887709
 21
204.7500000000014
 31
-0.000000000001647
  0
LINE
  5
4ED2
330
1A
100
AcDbEntity
  8
TEKUSU
  6
DASHED2
 48
0.5
100
AcDbLine
 10
300.2075517828417
 20
201.5000000000014
 30
-0.000000000001647
 11
338.3679876846656
 21
201.5000000000014
 31
-0.000000000001647
  0
LINE
  5
4ED3
330
1A
100
AcDbEntity
  8
TEKUSU
  6
DASHED2
 48
0.5
100
AcDbLine
 10
300.2075517828417
 20
208.0000000000014
 30
-0.000000000001647
 11
338.3679876846656
 21
208.0000000000014
 31
-0.000000000001647
  0
LINE
  5
4ED4
330
1A
100
AcDbEntity
  8
TEKUSU
100
AcDbLine
 10
287.5075551134279
 20
203.3373100379609
 30
-0.000000000001647
 11
280.8840740887728
 21
204.7500000000014
 31
-0.000000000001647
  0
LINE
  5
4ED5
330
1A
100
AcDbEntity
  8
TEKUSU
100
AcDbLine
 10
370.5075551134233
 20
212.2499999999978
 30
-0.000000000001647
 11
370.5075551134233
 21
197.2500000000014
 31
-0.000000000001647
  0
LINE
  5
4ED6
330
1A
100
AcDbEntity
  8
TEKUSU
100
AcDbLine
 10
300.2075517828417
 20
201.5000000000014
 30
-0.000000000001647
 11
287.5075551134279
 21
201.5000000000014
 31
-0.000000000001647
  0
LINE
  5
4ED7
330
1A
100
AcDbEntity
  8
TEKUSU
100
AcDbLine
 10
300.2075517828417
 20
208.0000000000014
 30
-0.000000000001647
 11
287.5075551134279
 21
208.0000000000019
 31
-0.000000000001647
  0
DIMENSION
  5
4F06
330
1A
100
AcDbEntity
  8
SUNPOU
100
AcDbDimension
280
     0
  2
*D10
 10
277.4629616517569
 20
353.0000000000015
 30
0.0
 11
274.3379616517569
 21
339.5000000000018
 31
0.0
 70
    32
  1
25
 71
     5
 42
26.99999999999903
 73
     0
 74
     0
 75
     0
  3
STANDARD
100
AcDbAlignedDimension
 13
359.2075551134211
 23
326.0000000000023
 33
0.0
 14
304.0075551134232
 24
353.0000000000014
 34
-0.00000000000164
 50
90.0
100
AcDbRotatedDimension
  0
MTEXT
  5
4FBC
330
1A
100
AcDbEntity
  8
0
100
AcDbMText
 10
537.2445576140619
 20
47.24672006489654
 30
0.0
 40
5.0
 41
0.0
 46
0.0
 71
     4
 72
     1
  1
※1,2　パネルがかん合した時に、隙間が生じない様に充てんしてください。 \P※2　　裏面側の横走り防止シーリングは、捨板の防水パッキン,裏面横走り防止パッキン\P　　　 に接するように施してください。
 73
     1
 44
1.0
  0
VIEWPORT
  5
22
330
17
100
AcDbEntity
 67
     1
  8
0
348
23EF
100
AcDbViewport
 10
261.5176991150442
 20
154.7242978687078
 30
0.0
 40
523.0353982300885
 41
309.4485957374157
 68
     1
 69
     1
 12
261.5176991150442
 22
154.7242978687078
 13
0.0
 23
0.0
 14
1.0
 24
1.0
 15
10.0
 25
10.0
 16
0.0
 26
0.0
 36
1.0
 17
0.0
 27
0.0
 37
0.0
 42
50.0
 43
0.0
 44
0.0
 45
309.4485957374157
 50
0.0
 51
0.0
 72
   100
 90
    32768
  1

281
     0
 71
     1
 74
     0
110
0.0
120
0.0
130
0.0
111
1.0
121
0.0
131
0.0
112
0.0
122
1.0
132
0.0
 79
     0
146
0.0
170
     0
 61
     5
292
     1
282
     1
141
0.0
142
0.0
 63
   250
421
  3355443
  0
ENDSEC
  0
SECTION
  2
OBJECTS
  0
DICTIONARY
  5
C
330
0
100
AcDbDictionary
281
     1
  3
ACAD_CIP_PREVIOUS_PRODUCT_INFO
350
2FF8
  3
ACAD_COLOR
350
3B0
  3
ACAD_DETAILVIEWSTYLE
350
3447
  3
ACAD_GROUP
350
D
  3
ACAD_LAYOUT
350
3B1
  3
ACAD_MATERIAL
350
3AF
  3
ACAD_MLEADERSTYLE
350
2FED
  3
ACAD_MLINESTYLE
350
E
  3
ACAD_PLOTSETTINGS
350
3B2
  3
ACAD_PLOTSTYLENAME
350
3AD
  3
ACAD_SCALELIST
350
2FDB
  3
ACAD_SECTIONVIEWSTYLE
350
3445
  3
ACAD_TABLESTYLE
350
14DD
  3
ACAD_VISUALSTYLE
350
23E9
  3
AcadDim
350
D85
  3
ACDB_RECOMPOSE_DATA
350
51E9
  3
AcDbVariableDictionary
350
1904
  3
AcDsDecomposeData
350
51EF
  0
DICTIONARY
  5
2421
330
8
100
AcDbDictionary
280
     1
281
     1
  0
DICTIONARY
  5
181F
330
2
100
AcDbDictionary
280
     1
281
     1
  3
ACAD_LAYERFILTERS
360
1823
  3
ACAD_LAYERSTATES
360
2489
  3
ACLYDICTIONARY
360
1822
  0
DICTIONARY
  5
3036
330
F
100
AcDbDictionary
280
     1
281
     1
  3
ADSK_XREC_LAYER_RECONCILED
360
3037
  0
DICTIONARY
  5
3038
330
87
100
AcDbDictionary
280
     1
281
     1
  3
ADSK_XREC_LAYER_RECONCILED
360
3039
  0
DICTIONARY
  5
303A
330
1548
100
AcDbDictionary
280
     1
281
     1
  3
ADSK_XREC_LAYER_RECONCILED
360
303B
  0
DICTIONARY
  5
303C
330
1549
100
AcDbDictionary
280
     1
281
     1
  3
ADSK_XREC_LAYER_RECONCILED
360
303D
  0
DICTIONARY
  5
303E
330
154A
100
AcDbDictionary
280
     1
281
     1
  3
ADSK_XREC_LAYER_RECONCILED
360
303F
  0
DICTIONARY
  5
3040
330
154B
100
AcDbDictionary
280
     1
281
     1
  3
ADSK_XREC_LAYER_RECONCILED
360
3041
  0
DICTIONARY
  5
3042
330
154C
100
AcDbDictionary
280
     1
281
     1
  3
ADSK_XREC_LAYER_RECONCILED
360
3043
  0
DICTIONARY
  5
3044
330
154D
100
AcDbDictionary
280
     1
281
     1
  3
ADSK_XREC_LAYER_RECONCILED
360
3045
  0
DICTIONARY
  5
3046
330
154E
100
AcDbDictionary
280
     1
281
     1
  3
ADSK_XREC_LAYER_RECONCILED
360
3047
  0
DICTIONARY
  5
3048
330
181D
100
AcDbDictionary
280
     1
281
     1
  3
ADSK_XREC_LAYER_RECONCILED
360
3049
  0
DICTIONARY
  5
1FFD
330
1A
100
AcDbDictionary
280
     1
281
     1
  3
ACAD_SORTENTS
360
1FFE
  0
DICTIONARY
  5
5053
330
E6E
100
AcDbDictionary
280
     1
281
     1
  3
ACAD_MTEXT_2008_RT
360
51E5
  0
DICTIONARY
  5
2B3F
330
2B3E
100
AcDbDictionary
280
     1
281
     1
  3
ACAD_DIMASSOC
360
2B40
  0
DICTIONARY
  5
522A
330
441D
100
AcDbDictionary
280
     1
281
     1
  3
ACAD_XREC_ROUNDTRIP
360
522B
  0
DICTIONARY
  5
522C
330
441F
100
AcDbDictionary
280
     1
281
     1
  3
ACAD_XREC_ROUNDTRIP
360
522D
  0
DICTIONARY
  5
522E
330
4420
100
AcDbDictionary
280
     1
281
     1
  3
ACAD_XREC_ROUNDTRIP
360
522F
  0
DICTIONARY
  5
5230
330
4421
100
AcDbDictionary
280
     1
281
     1
  3
ACAD_XREC_ROUNDTRIP
360
5231
  0
DICTIONARY
  5
5232
330
4422
100
AcDbDictionary
280
     1
281
     1
  3
ACAD_XREC_ROUNDTRIP
360
5233
  0
DICTIONARY
  5
5234
330
4423
100
AcDbDictionary
280
     1
281
     1
  3
ACAD_XREC_ROUNDTRIP
360
5235
  0
DICTIONARY
  5
5236
330
4424
100
AcDbDictionary
280
     1
281
     1
  3
ACAD_XREC_ROUNDTRIP
360
5237
  0
DICTIONARY
  5
5238
330
4426
100
AcDbDictionary
280
     1
281
     1
  3
ACAD_XREC_ROUNDTRIP
360
5239
  0
DICTIONARY
  5
523A
330
45CD
100
AcDbDictionary
280
     1
281
     1
  3
ACAD_XREC_ROUNDTRIP
360
523B
  0
DICTIONARY
  5
523C
330
45CF
100
AcDbDictionary
280
     1
281
     1
  3
ACAD_XREC_ROUNDTRIP
360
523D
  0
DICTIONARY
  5
4E5C
330
4E5B
100
AcDbDictionary
280
     1
281
     1
  3
ACAD_MTEXT_2008_RT
360
51E7
  0
DICTIONARY
  5
4E5E
330
4E5D
100
AcDbDictionary
280
     1
281
     1
  3
ACAD_MTEXT_2008_RT
360
51E8
  0
XRECORD
  5
2FF8
102
{ACAD_REACTORS
330
C
102
}
330
C
100
AcDbXrecord
280
     1
300
ACDLT
300
2017
300
86604ACDLT_2017_0F
  0
DICTIONARY
  5
3B0
102
{ACAD_REACTORS
330
C
102
}
330
C
100
AcDbDictionary
281
     1
  0
DICTIONARY
  5
3447
102
{ACAD_REACTORS
330
C
102
}
330
C
100
AcDbDictionary
281
     1
  3
Metric50
350
3448
  0
DICTIONARY
  5
D
102
{ACAD_REACTORS
330
C
102
}
330
C
100
AcDbDictionary
281
     1
  0
DICTIONARY
  5
3B1
102
{ACAD_REACTORS
330
C
102
}
330
C
100
AcDbDictionary
281
     1
  3
Model
350
3B3
  3
レイアウト1
350
3B4
  0
DICTIONARY
  5
3AF
102
{ACAD_REACTORS
330
C
102
}
330
C
100
AcDbDictionary
281
     1
  3
ByBlock
350
23E7
  3
ByLayer
350
23E6
  3
Global
350
23E8
  0
DICTIONARY
  5
2FED
102
{ACAD_REACTORS
330
C
102
}
330
C
100
AcDbDictionary
281
     1
  3
Standard
350
2FEE
  0
DICTIONARY
  5
E
102
{ACAD_REACTORS
330
C
102
}
330
C
100
AcDbDictionary
281
     1
  3
STANDARD
350
13
  0
DICTIONARY
  5
3B2
102
{ACAD_REACTORS
330
C
102
}
330
C
100
AcDbDictionary
281
     1
  0
ACDBDICTIONARYWDFLT
  5
3AD
102
{ACAD_REACTORS
330
C
102
}
330
C
100
AcDbDictionary
281
     1
  3
Normal
350
3AE
100
AcDbDictionaryWithDefault
340
3AE
  0
DICTIONARY
  5
2FDB
102
{ACAD_REACTORS
330
C
102
}
330
C
100
AcDbDictionary
281
     1
  3
A0
350
2FDC
  3
A1
350
2FDD
  3
A2
350
2FDE
  3
A3
350
2FDF
  3
A4
350
2FE0
  3
A5
350
2FE1
  3
A6
350
2FE2
  3
A7
350
2FE3
  3
A8
350
2FE4
  3
A9
350
2FE5
  3
B0
350
2FE6
  3
B1
350
2FE7
  3
B2
350
2FE8
  3
B3
350
2FE9
  3
B4
350
2FEA
  3
B5
350
2FEB
  3
B6
350
2FEC
  0
DICTIONARY
  5
3445
102
{ACAD_REACTORS
330
C
102
}
330
C
100
AcDbDictionary
281
     1
  3
Metric50
350
3446
  0
DICTIONARY
  5
14DD
102
{ACAD_REACTORS
330
C
102
}
330
C
100
AcDbDictionary
281
     1
  3
Standard
350
14DE
  0
DICTIONARY
  5
23E9
102
{ACAD_REACTORS
330
C
102
}
330
C
100
AcDbDictionary
281
     1
  3
2dWireframe
350
23EF
  3
3D Hidden
350
23F1
  3
3dWireframe
350
23F0
  3
Basic
350
23EE
  3
Brighten
350
23F5
  3
ColorChange
350
23F9
  3
Conceptual
350
23F2
  3
Dim
350
23F4
  3
EdgeColorOff
350
2FDA
  3
Facepattern
350
23F8
  3
Flat
350
23EA
  3
FlatWithEdges
350
23EB
  3
Gouraud
350
23EC
  3
GouraudWithEdges
350
23ED
  3
Hidden
350
2FD2
  3
JitterOff
350
2FD8
  3
Linepattern
350
23F7
  3
OverhangOff
350
2FD9
  3
Realistic
350
23F3
  3
Shaded
350
2FD7
  3
Shaded with edges
350
2FD6
  3
Shades of Gray
350
2FD3
  3
Sketchy
350
2FD4
  3
Thicken
350
23F6
  3
Wireframe
350
2FD1
  3
X-Ray
350
2FD5
  0
XRECORD
  5
D85
102
{ACAD_REACTORS
330
C
102
}
330
C
100
AcDbXrecord
280
     1
 90
   990106
  3
NONE
 60
     0
 61
     0
 62
     1
 63
     3
 64
     0
 65
     0
 66
     0
 67
     3
 68
     1
 69
     0
 70
     4
 71
     4
 72
     0
 40
0.0
170
     1
340
0
  0
XRECORD
  5
51E9
102
{ACAD_REACTORS
330
C
102
}
330
C
100
AcDbXrecord
280
     1
 90
        1
330
E6E
330
14DE
330
3E0C
330
3E2F
330
443B
330
443C
330
4E5B
330
4E5D
  0
DICTIONARY
  5
1904
102
{ACAD_REACTORS
330
C
102
}
330
C
100
AcDbDictionary
281
     1
  3
CANNOSCALE
350
3063
  3
CMLEADERSTYLE
350
3062
  3
CTABLESTYLE
350
1905
  3
CVIEWDETAILSTYLE
350
349B
  3
CVIEWSECTIONSTYLE
350
349C
  3
DIMASSOC
350
22C6
  3
INDEXCTL
350
3065
  3
LAYEREVAL
350
3A96
  3
LAYERNOTIFY
350
3A97
  3
LIGHTINGUNITS
350
3A95
  3
MSLTSCALE
350
3A94
  3
PROJECTNAME
350
22C7
  3
SORTENTS
350
3064
  3
XCLIPFRAME
350
4532
  0
DICTIONARY
  5
51EF
102
{ACAD_REACTORS
330
C
102
}
330
C
100
AcDbDictionary
281
     1
  3
AcDsRecords
350
51F1
  3
AcDsSchemas
350
51F0
1001
ACAD
1070
     2
  0
DICTIONARY
  5
1823
102
{ACAD_REACTORS
330
181F
102
}
330
181F
100
AcDbDictionary
281
     1
  0
DICTIONARY
  5
2489
102
{ACAD_REACTORS
330
181F
102
}
330
181F
100
AcDbDictionary
281
     1
  0
DICTIONARY
  5
1822
102
{ACAD_REACTORS
330
181F
102
}
330
181F
100
AcDbDictionary
281
     1
1001
ACAD
1000
<All
  0
XRECORD
  5
3037
102
{ACAD_REACTORS
330
3036
102
}
330
3036
100
AcDbXrecord
280
     1
290
     1
  0
XRECORD
  5
3039
102
{ACAD_REACTORS
330
3038
102
}
330
3038
100
AcDbXrecord
280
     1
290
     1
  0
XRECORD
  5
303B
102
{ACAD_REACTORS
330
303A
102
}
330
303A
100
AcDbXrecord
280
     1
290
     1
  0
XRECORD
  5
303D
102
{ACAD_REACTORS
330
303C
102
}
330
303C
100
AcDbXrecord
280
     1
290
     1
  0
XRECORD
  5
303F
102
{ACAD_REACTORS
330
303E
102
}
330
303E
100
AcDbXrecord
280
     1
290
     1
  0
XRECORD
  5
3041
102
{ACAD_REACTORS
330
3040
102
}
330
3040
100
AcDbXrecord
280
     1
290
     1
  0
XRECORD
  5
3043
102
{ACAD_REACTORS
330
3042
102
}
330
3042
100
AcDbXrecord
280
     1
290
     1
  0
XRECORD
  5
3045
102
{ACAD_REACTORS
330
3044
102
}
330
3044
100
AcDbXrecord
280
     1
290
     1
  0
XRECORD
  5
3047
102
{ACAD_REACTORS
330
3046
102
}
330
3046
100
AcDbXrecord
280
     1
290
     1
  0
XRECORD
  5
3049
102
{ACAD_REACTORS
330
3048
102
}
330
3048
100
AcDbXrecord
280
     1
290
     1
  0
SORTENTSTABLE
  5
1FFE
102
{ACAD_REACTORS
330
1FFD
102
}
330
1FFD
100
AcDbSortentsTable
330
1A
331
E7B
  5
2AC8
331
E8B
  5
2AC9
331
2B18
  5
2B26
331
2ADF
  5
2AED
331
2B1C
  5
2B2A
331
2AE7
  5
2AF5
331
2CB8
  5
2CBB
331
2B24
  5
356F
331
45D3
  5
45CF
331
45D7
  5
45D3
331
45DB
  5
45D7
331
3E97
  5
3E0C
331
4420
  5
3E30
331
2E6F
  5
2E6D
331
4424
  5
441F
331
443C
  5
4422
331
E16
  5
E5A
331
2B2B
  5
2B37
331
2AEA
  5
2AF8
331
3513
  5
2F8F
331
2B2F
  5
3023
331
2AEE
  5
2AFC
331
2B33
  5
2B3B
331
2B37
  5
3024
331
2AF6
  5
2B04
331
45B7
  5
4425
331
3E0B
  5
3A4F
331
3E0F
  5
3A52
331
E51
  5
E71
331
E59
  5
E74
331
E1D
  5
E5E
331
2AC3
  5
2AD1
331
2AC7
  5
2AD5
331
356F
  5
45DC
331
2B3B
  5
31AC
331
2AFA
  5
2B08
331
2C72
  5
E50
331
2B02
  5
2B10
331
2C82
  5
2C85
331
2B06
  5
2B14
331
2C86
  5
2C86
331
45BB
  5
45B4
331
45BF
  5
45B8
331
3A42
  5
35ED
331
3A46
  5
364F
331
3A4A
  5
3A43
331
3A4E
  5
3A47
331
E6D
  5
E8C
331
E71
  5
2AC0
331
2B0B
  5
2B19
331
2ACA
  5
2AD8
331
2ACE
  5
2ADC
331
2B0F
  5
2B1D
331
2C8B
  5
2CB6
331
2B13
  5
2B21
331
2AD6
  5
2AE4
331
2BA2
  5
45BC
331
2B17
  5
2B25
331
45C6
  5
45B9
331
3E2E
  5
3A53
331
3E32
  5
3E0B
331
3A53
  5
3A4C
331
441F
  5
3E2F
331
E7A
  5
2AC7
331
E8E
  5
2ACC
331
2B1B
  5
2B29
331
2B1F
  5
33A7
331
2ADE
  5
2AEC
331
2CB3
  5
2B2D
331
2B23
  5
2B31
331
2B27
  5
2B32
331
2AE6
  5
2AF4
331
45D2
  5
45CD
331
45D6
  5
45D2
331
45DA
  5
45D6
331
4423
  5
441D
331
45DE
  5
45DA
331
443B
  5
4421
331
2E6E
  5
2E58
331
364E
  5
35E0
331
E15
  5
E59
331
2AE9
  5
2AF7
331
3512
  5
2EA5
331
2B2A
  5
2B35
331
2AED
  5
2AFB
331
2B2E
  5
45DB
331
2B32
  5
35DD
331
2AF1
  5
2AFF
331
2B36
  5
2B42
331
2AF5
  5
2B03
331
2CD2
  5
2B2F
331
36AD
  5
2C8A
331
45B6
  5
4424
331
E50
  5
E6F
331
E18
  5
E5C
331
E5C
  5
E7A
331
2AC2
  5
2AD0
331
2AC6
  5
2AD4
331
356E
  5
45BD
331
2AF9
  5
2B07
331
2B3A
  5
E58
331
2B3E
  5
2B4B
331
2B05
  5
2B13
331
2C85
  5
2C89
331
45BA
  5
45B3
331
45BE
  5
45B7
331
3A41
  5
35EC
331
3A45
  5
364E
331
3A49
  5
3A42
331
3A4D
  5
3A46
331
E6C
  5
E8B
331
E74
  5
2AC3
331
3009
  5
E52
331
2B0A
  5
2B18
331
2AC9
  5
2AD7
331
2B41
  5
2B51
331
2C8A
  5
2CB5
331
2ACD
  5
2ADB
331
2B0E
  5
2B1C
331
2B45
  5
2B5C
331
2AD1
  5
2ADF
331
2B12
  5
2B20
331
2B16
  5
2B24
331
45CD
  5
45BA
331
3A52
  5
3A4B
331
35DD
  5
E1D
331
E79
  5
2AC6
331
E8D
  5
2ACB
331
3035
  5
2B48
331
2AD9
  5
2AE7
331
2B1A
  5
2B28
331
2B1E
  5
31AD
331
2CB6
  5
2B5B
331
2B22
  5
2B30
331
2AE5
  5
2AF3
331
2CBA
  5
2CD3
331
45D1
  5
45C6
331
45D5
  5
45D1
331
45D9
  5
45D5
331
4422
  5
3EB8
331
45DD
  5
45D9
331
4426
  5
4420
331
364D
  5
35DF
331
2AE8
  5
2AF6
331
3511
  5
2EA4
331
2B29
  5
2B34
331
2AEC
  5
2AFA
331
2B2D
  5
2B39
331
2AF0
  5
2AFE
331
2B31
  5
2B3A
331
2AF4
  5
2B02
331
2B35
  5
2B3E
331
2E70
  5
2E6E
331
3EB8
  5
3E0D
331
45B5
  5
4423
331
38B8
  5
35EB
331
3E0D
  5
3A51
331
E5B
  5
E79
331
2AC1
  5
2ACF
331
2AC5
  5
2AD3
331
2AF8
  5
2B06
331
2B39
  5
2B43
331
2B04
  5
2B12
331
2FB0
  5
2FC3
331
45B9
  5
45B2
331
45BD
  5
45B6
331
3A44
  5
364D
331
3A48
  5
3A41
331
3A4C
  5
3A45
331
E6F
  5
E8E
331
E73
  5
2AC2
331
2B09
  5
2B17
331
2AC8
  5
2AD6
331
2C89
  5
2CB4
331
2ACC
  5
2ADA
331
2B0D
  5
2B1B
331
2AD0
  5
2ADE
331
2B11
  5
2B1F
331
2B15
  5
2B23
331
2CAD
  5
2B44
331
3A51
  5
3A4A
331
3E30
  5
3DC2
331
441D
  5
3E2E
331
35EC
  5
E17
331
E78
  5
2AC4
331
E8C
  5
2ACA
331
2AD8
  5
2AE6
331
2B19
  5
2B27
331
2B1D
  5
2B2C
331
2B21
  5
356E
331
2AE4
  5
2AF2
331
2CB9
  5
2CC9
331
2B25
  5
35DC
331
45D0
  5
45BF
331
45D4
  5
45D0
331
45D8
  5
45D4
331
4421
  5
3E32
331
45DC
  5
45D8
331
3644
  5
35DE
331
364C
  5
E16
331
E4F
  5
E6E
331
E17
  5
E5B
331
2AEB
  5
2AF9
331
2B28
  5
2B33
331
3510
  5
2EA3
331
2AEF
  5
2AFD
331
2CC8
  5
2B2E
331
2B2C
  5
2B38
331
2B30
  5
45BE
331
2AF7
  5
2B05
331
2B34
  5
2B3D
331
2E77
  5
2E9C
331
2EA3
  5
2E9D
331
3E0C
  5
3A50
331
E52
  5
E72
331
E5A
  5
E78
331
E5E
  5
E7B
331
E1E
  5
E6C
331
2AC0
  5
2ACD
331
2AFB
  5
2B09
331
2B38
  5
45DD
331
2CD8
  5
2ACE
331
2B03
  5
2B11
331
2C77
  5
2AD2
331
2B3C
  5
45DE
331
2B07
  5
2B15
331
2C87
  5
2C8B
331
45B8
  5
4426
331
2FC3
  5
3009
331
45BC
  5
45B5
331
3A43
  5
364C
331
3A47
  5
38B8
331
3A4B
  5
3A44
331
3A4F
  5
3A48
331
E6E
  5
E8D
331
E72
  5
2AC1
331
2ACB
  5
2AD9
331
2B08
  5
2B16
331
2ACF
  5
2ADD
331
301F
  5
E51
331
2C88
  5
2CA5
331
2B0C
  5
2B1A
331
31AC
  5
3021
331
2AD7
  5
2AE5
331
2BA3
  5
2C83
331
2B10
  5
2B1E
331
2B14
  5
2B22
331
2CEF
  5
2CEF
331
3E2F
  5
3A54
331
45CF
  5
45BB
331
3A50
  5
3A49
331
3A54
  5
3A4D
  0
XRECORD
  5
51E5
102
{ACAD_REACTORS
330
5053
102
}
330
5053
100
AcDbXrecord
280
     1
 40
11939522.0
  1
\pxqc;耐火ヴァンドＲＺ７５　入隅部・シーリング
  0
DIMASSOC
  5
2B40
102
{ACAD_REACTORS
330
2B3F
102
}
330
2B3F
100
AcDbDimAssoc
330
2B3E
 90
        3
 70
     0
 71
     0
  1
AcDbOsnapPointRef
 72
    13
331
2B39
 73
     2
 91
        0
 40
3.141592653589792
 10
0.0
 20
0.0
 30
2.000000000000000E+50
 75
     0
  1
AcDbOsnapPointRef
 72
    13
331
2B23
 73
     2
 91
        0
 40
0.0
 10
0.0
 20
0.0
 30
2.000000000000000E+50
 75
     0
  0
XRECORD
  5
522B
102
{ACAD_REACTORS
330
522A
102
}
330
522A
100
AcDbXrecord
280
     1
102
ACAD_ROUNDTRIP_2012_MLEADER
295
     1
  0
XRECORD
  5
522D
102
{ACAD_REACTORS
330
522C
102
}
330
522C
100
AcDbXrecord
280
     1
102
ACAD_ROUNDTRIP_2012_MLEADER
295
     1
  0
XRECORD
  5
522F
102
{ACAD_REACTORS
330
522E
102
}
330
522E
100
AcDbXrecord
280
     1
102
ACAD_ROUNDTRIP_2012_MLEADER
295
     1
  0
XRECORD
  5
5231
102
{ACAD_REACTORS
330
5230
102
}
330
5230
100
AcDbXrecord
280
     1
102
ACAD_ROUNDTRIP_2012_MLEADER
295
     1
  0
XRECORD
  5
5233
102
{ACAD_REACTORS
330
5232
102
}
330
5232
100
AcDbXrecord
280
     1
102
ACAD_ROUNDTRIP_2012_MLEADER
295
     1
  0
XRECORD
  5
5235
102
{ACAD_REACTORS
330
5234
102
}
330
5234
100
AcDbXrecord
280
     1
102
ACAD_ROUNDTRIP_2012_MLEADER
295
     1
  0
XRECORD
  5
5237
102
{ACAD_REACTORS
330
5236
102
}
330
5236
100
AcDbXrecord
280
     1
102
ACAD_ROUNDTRIP_2012_MLEADER
295
     1
  0
XRECORD
  5
5239
102
{ACAD_REACTORS
330
5238
102
}
330
5238
100
AcDbXrecord
280
     1
102
ACAD_ROUNDTRIP_2012_MLEADER
295
     1
  0
XRECORD
  5
523B
102
{ACAD_REACTORS
330
523A
102
}
330
523A
100
AcDbXrecord
280
     1
102
ACAD_ROUNDTRIP_2012_MLEADER
295
     1
  0
XRECORD
  5
523D
102
{ACAD_REACTORS
330
523C
102
}
330
523C
100
AcDbXrecord
280
     1
102
ACAD_ROUNDTRIP_2012_MLEADER
295
     1
  0
XRECORD
  5
51E7
102
{ACAD_REACTORS
330
4E5C
102
}
330
4E5C
100
AcDbXrecord
280
     1
 40
4386876.0
  1
\pxqc;アイジーヴァンド参考ディテール
  0
XRECORD
  5
51E8
102
{ACAD_REACTORS
330
4E5E
102
}
330
4E5E
100
AcDbXrecord
280
     1
 40
3316594.0
  1
\pxqc;アイジー工業株式会社
  0
ACDBDETAILVIEWSTYLE
  5
3448
102
{ACAD_XDICTIONARY
360
5199
102
}
102
{ACAD_REACTORS
330
3447
102
}
330
3447
100
AcDbModelDocViewStyle
 70
     0
  3
Metric50
290
     0
100
AcDbDetailViewStyle
 70
     0
 71
     0
 90
        3
 71
     1
340
10
 62
   256
 40
5.0
340
0
 62
   256
 40
5.0
300

 40
0.0
280
     1
 71
     2
340
16
 90
       25
 62
   256
 71
     3
340
10
 62
   256
 40
5.0
 90
        0
 40
15.0
 90
        1
300
%<\AcVar ViewDetailId>% (%<\AcVar ViewScale \f "%sn">%)
 71
     4
340
16
 90
       25
 62
   256
340
16
 90
       25
 62
   256
280
     0
1001
ACAD
1000
AcRTDxfName
1000
ACDBDETAILVIEWSTYLE
1000
AcRTDxfName
1000
ACDBDETAILVIEWSTYLE
1000
AcRTDxfName
1000
ACDBDETAILVIEWSTYLE
1000
AcRTDxfName
1000
ACDBDETAILVIEWSTYLE
1000
AcRTDxfName
1000
ACDBDETAILVIEWSTYLE
1000
AcRTDxfName
1000
ACDBDETAILVIEWSTYLE
1000
AcRTDxfName
1000
ACDBDETAILVIEWSTYLE
1000
AcRTDxfName
1000
ACDBDETAILVIEWSTYLE
  0
LAYOUT
  5
3B3
102
{ACAD_REACTORS
330
3B1
102
}
330
3B1
100
AcDbPlotSettings
  1

  2
none_device
  4
ISO_A3_(420.00_x_297.00_MM)
  6

 40
7.5
 41
20.0
 42
7.5
 43
20.0
 44
420.0
 45
297.0
 46
0.0
 47
0.0
 48
0.0
 49
0.0
140
0.0
141
0.0
142
1.0
143
2.0
 70
 11904
 72
     1
 73
     0
 74
     2
  7

 75
     0
147
0.4326599326599327
 76
     0
 77
     2
 78
   300
148
0.0
149
0.0
100
AcDbLayout
  1
Model
 70
     1
 71
     0
 10
0.0
 20
0.0
 11
12.0
 21
9.0
 12
0.0
 22
0.0
 32
0.0
 14
0.0
 24
0.0
 34
0.0
 15
0.0
 25
0.0
 35
0.0
146
0.0
 13
0.0
 23
0.0
 33
0.0
 16
1.0
 26
0.0
 36
0.0
 17
0.0
 27
1.0
 37
0.0
 76
     0
330
1A
331
2FCF
1001
ACAD_PSEXT
1000
なし
1000
なし
1000
適切ではありません
1000
新しいプロッタ環境設定名を選択しない限り、レイアウトは印刷されません。
1070
     0
  0
LAYOUT
  5
3B4
102
{ACAD_REACTORS
330
3B1
102
}
330
3B1
100
AcDbPlotSettings
  1

  2
DocuCentre Color 400 (FAX)
  4

  6

 40
0.0
 41
0.0
 42
0.0
 43
0.0
 44
0.0
 45
0.0
 46
0.0
 47
0.0
 48
0.0
 49
0.0
140
0.0
141
0.0
142
1.0
143
1.0
 70
   688
 72
     0
 73
     0
 74
     5
  7
monochrome.ctb
 75
    16
147
1.0
 76
     0
 77
     2
 78
   300
148
0.0
149
0.0
100
AcDbLayout
  1
レイアウト1
 70
     1
 71
     1
 10
0.0
 20
0.0
 11
420.0
 21
297.0
 12
0.0
 22
0.0
 32
0.0
 14
1.000000000000000E+20
 24
1.000000000000000E+20
 34
1.000000000000000E+20
 15
-1.000000000000000E+20
 25
-1.000000000000000E+20
 35
-1.000000000000000E+20
146
0.0
 13
0.0
 23
0.0
 33
0.0
 16
1.0
 26
0.0
 36
0.0
 17
0.0
 27
1.0
 37
0.0
 76
     0
330
17
331
22
  0
MATERIAL
  5
23E7
102
{ACAD_XDICTIONARY
360
43D0
102
}
102
{ACAD_REACTORS
330
3AF
102
}
330
3AF
100
AcDbMaterial
  1
ByBlock
 73
     1
 78
     1
172
     1
176
     1
270
     1
274
     1
  0
MATERIAL
  5
23E6
102
{ACAD_XDICTIONARY
360
43CE
102
}
102
{ACAD_REACTORS
330
3AF
102
}
330
3AF
100
AcDbMaterial
  1
ByLayer
 73
     1
 78
     1
172
     1
176
     1
270
     1
274
     1
  0
MATERIAL
  5
23E8
102
{ACAD_XDICTIONARY
360
43D2
102
}
102
{ACAD_REACTORS
330
3AF
102
}
330
3AF
100
AcDbMaterial
  1
Global
 73
     1
 78
     1
172
     1
176
     1
270
     1
274
     1
  0
MLEADERSTYLE
  5
2FEE
102
{ACAD_XDICTIONARY
360
5226
102
}
102
{ACAD_REACTORS
330
2FED
330
441D
330
441F
330
4420
330
4421
330
4422
330
4423
330
4424
330
4426
330
45CD
330
45CF
102
}
330
2FED
100
AcDbMLeaderStyle
179
     2
170
     2
171
     1
172
     0
 90
        2
 40
0.5235987755982988
 41
0.0
173
     1
 91
-1056964608
340
14
 92
       -2
290
     1
 42
2.0
291
     1
 43
0.6
  3
Standard
341
B0
 44
0.0
300

342
10
174
     1
178
     3
175
     1
176
     0
 93
-1056964608
 45
5.0
292
     0
297
     0
 46
4.0
 94
-1056964608
 47
1.0
 49
1.0
140
1.0
293
     1
141
0.0
294
     1
177
     0
142
1.0
295
     0
296
     0
143
0.2
271
     0
272
     9
273
     9
1001
ACAD_MLEADERVER
1070
     2
  0
MLINESTYLE
  5
13
102
{ACAD_REACTORS
330
E
102
}
330
E
100
AcDbMlineStyle
  2
STANDARD
 70
     0
  3

 62
     0
 51
90.0
 52
90.0
 71
     2
 49
0.5
 62
   256
  6
BYLAYER
 49
-0.5
 62
   256
  6
BYLAYER
  0
ACDBPLACEHOLDER
  5
3AE
102
{ACAD_REACTORS
330
3AD
102
}
330
3AD
  0
SCALE
  5
2FDC
102
{ACAD_REACTORS
330
2FDB
102
}
330
2FDB
100
AcDbScale
 70
     0
300
1:1
140
1.0
141
1.0
290
     1
  0
SCALE
  5
2FDD
102
{ACAD_REACTORS
330
2FDB
102
}
330
2FDB
100
AcDbScale
 70
     0
300
1:2
140
1.0
141
2.0
290
     0
  0
SCALE
  5
2FDE
102
{ACAD_REACTORS
330
2FDB
102
}
330
2FDB
100
AcDbScale
 70
     0
300
1:4
140
1.0
141
4.0
290
     0
  0
SCALE
  5
2FDF
102
{ACAD_REACTORS
330
2FDB
102
}
330
2FDB
100
AcDbScale
 70
     0
300
1:5
140
1.0
141
5.0
290
     0
  0
SCALE
  5
2FE0
102
{ACAD_REACTORS
330
2FDB
102
}
330
2FDB
100
AcDbScale
 70
     0
300
1:8
140
1.0
141
8.0
290
     0
  0
SCALE
  5
2FE1
102
{ACAD_REACTORS
330
2FDB
102
}
330
2FDB
100
AcDbScale
 70
     0
300
1:10
140
1.0
141
10.0
290
     0
  0
SCALE
  5
2FE2
102
{ACAD_REACTORS
330
2FDB
102
}
330
2FDB
100
AcDbScale
 70
     0
300
1:16
140
1.0
141
16.0
290
     0
  0
SCALE
  5
2FE3
102
{ACAD_REACTORS
330
2FDB
102
}
330
2FDB
100
AcDbScale
 70
     0
300
1:20
140
1.0
141
20.0
290
     0
  0
SCALE
  5
2FE4
102
{ACAD_REACTORS
330
2FDB
102
}
330
2FDB
100
AcDbScale
 70
     0
300
1:30
140
1.0
141
30.0
290
     0
  0
SCALE
  5
2FE5
102
{ACAD_REACTORS
330
2FDB
102
}
330
2FDB
100
AcDbScale
 70
     0
300
1:40
140
1.0
141
40.0
290
     0
  0
SCALE
  5
2FE6
102
{ACAD_REACTORS
330
2FDB
102
}
330
2FDB
100
AcDbScale
 70
     0
300
1:50
140
1.0
141
50.0
290
     0
  0
SCALE
  5
2FE7
102
{ACAD_REACTORS
330
2FDB
102
}
330
2FDB
100
AcDbScale
 70
     0
300
1:100
140
1.0
141
100.0
290
     0
  0
SCALE
  5
2FE8
102
{ACAD_REACTORS
330
2FDB
102
}
330
2FDB
100
AcDbScale
 70
     0
300
2:1
140
2.0
141
1.0
290
     0
  0
SCALE
  5
2FE9
102
{ACAD_REACTORS
330
2FDB
102
}
330
2FDB
100
AcDbScale
 70
     0
300
4:1
140
4.0
141
1.0
290
     0
  0
SCALE
  5
2FEA
102
{ACAD_REACTORS
330
2FDB
102
}
330
2FDB
100
AcDbScale
 70
     0
300
8:1
140
8.0
141
1.0
290
     0
  0
SCALE
  5
2FEB
102
{ACAD_REACTORS
330
2FDB
102
}
330
2FDB
100
AcDbScale
 70
     0
300
10:1
140
10.0
141
1.0
290
     0
  0
SCALE
  5
2FEC
102
{ACAD_REACTORS
330
2FDB
102
}
330
2FDB
100
AcDbScale
 70
     0
300
100:1
140
100.0
141
1.0
290
     0
  0
ACDBSECTIONVIEWSTYLE
  5
3446
102
{ACAD_XDICTIONARY
360
5197
102
}
102
{ACAD_REACTORS
330
3445
102
}
330
3445
100
AcDbModelDocViewStyle
 70
     0
  3
Metric50
290
     0
100
AcDbSectionViewStyle
 70
     0
 71
     0
 90
      102
 71
     1
340
10
 62
   256
 40
5.0
340
0
340
0
 62
   256
 40
5.0
300
I, O, Q, S, X, Z
 40
10.0
 90
        0
 40
2.5
 90
        0
 71
     2
340
16
 90
       25
 62
   256
340
16
 90
       50
 62
   256
 40
5.0
 40
2.5
 40
5.0
 71
     3
340
10
 62
   256
 40
5.0
 90
        0
 40
15.0
 90
        1
300
%<\AcVar ViewSectionStartId>%-%<\AcVar ViewSectionEndId>% (%<\AcVar ViewScale \f "%sn">%)
 71
     4
 62
   256
 62
   257
300
ANSI31
 40
1.0
 90
        0
290
     0
290
     0
 90
        6
 40
0.0
 40
1.570796326794896
 40
0.2617993877991494
 40
1.308996938995747
 40
-0.2617993877991494
 40
1.832595714594044
1001
ACAD
1000
AcRTDxfName
1000
ACDBSECTIONVIEWSTYLE
1000
AcRTDxfName
1000
ACDBSECTIONVIEWSTYLE
1000
AcRTDxfName
1000
ACDBSECTIONVIEWSTYLE
1000
AcRTDxfName
1000
ACDBSECTIONVIEWSTYLE
1000
AcRTDxfName
1000
ACDBSECTIONVIEWSTYLE
1000
AcRTDxfName
1000
ACDBSECTIONVIEWSTYLE
1000
AcRTDxfName
1000
ACDBSECTIONVIEWSTYLE
1000
AcRTDxfName
1000
ACDBSECTIONVIEWSTYLE
  0
TABLESTYLE
  5
14DE
102
{ACAD_XDICTIONARY
360
30AF
102
}
102
{ACAD_REACTORS
330
14DD
102
}
330
14DD
100
AcDbTableStyle
280
     0
  3
Standard
 70
     0
 71
     0
 40
1.5
 41
1.5
280
     0
281
     0
  7
STANDARD
140
4.5
170
     2
 62
     0
 63
     7
283
     0
 90
        4
 91
        0
  1

274
    -2
284
     1
 64
     0
275
    -2
285
     1
 65
     0
276
    -2
286
     1
 66
     0
277
    -2
287
     1
 67
     0
278
    -2
288
     1
 68
     0
279
    -2
289
     1
 69
     0
  7
STANDARD
140
6.0
170
     5
 62
     0
 63
     7
283
     0
 90
        4
 91
        0
  1

274
    -2
284
     1
 64
     0
275
    -2
285
     1
 65
     0
276
    -2
286
     1
 66
     0
277
    -2
287
     1
 67
     0
278
    -2
288
     1
 68
     0
279
    -2
289
     1
 69
     0
  7
STANDARD
140
4.5
170
     5
 62
     0
 63
     7
283
     0
 90
        4
 91
        0
  1

274
    -2
284
     1
 64
     0
275
    -2
285
     1
 65
     0
276
    -2
286
     1
 66
     0
277
    -2
287
     1
 67
     0
278
    -2
288
     1
 68
     0
279
    -2
289
     1
 69
     0
1001
ACAD
1000
AcRTDxfName
1000
TABLESTYLE
1000
AcRTDxfName
1000
TABLESTYLE
1000
AcRTDxfName
1000
TABLESTYLE
1000
AcRTDxfName
1000
TABLESTYLE
1000
AcRTDxfName
1000
TABLESTYLE
  0
VISUALSTYLE
  5
23EF
102
{ACAD_XDICTIONARY
360
51FC
102
}
102
{ACAD_REACTORS
330
23E9
102
}
330
23E9
100
AcDbVisualStyle
  2

 70
     4
177
     2
291
     0
 71
     0
176
     1
 72
     2
176
     1
 73
     0
176
     1
 90
        0
176
     1
 40
0.6
176
     1
 41
30.0
176
     1
 63
     7
176
     1
 74
     1
176
     1
 91
        4
176
     1
 64
     7
176
     1
 65
   257
176
     1
 75
     1
176
     1
175
     1
176
     1
 42
1.0
176
     1
 92
        0
176
     1
 66
   257
176
     1
 43
1.0
176
     1
 76
     1
176
     1
 77
     6
176
     1
 78
     2
176
     1
 67
     7
176
     1
 79
     5
176
     1
170
     0
176
     1
171
     0
176
     1
290
     0
176
     1
 93
        1
176
     1
 44
0.0
176
     1
173
     0
176
     1
1001
ACAD
1000
AcRTDxfName
1000
VISUALSTYLE
1000
AcDbSavedByObjectVersion
1070
     0
  0
VISUALSTYLE
  5
23F1
102
{ACAD_XDICTIONARY
360
5200
102
}
102
{ACAD_REACTORS
330
23E9
102
}
330
23E9
100
AcDbVisualStyle
  2

 70
     6
177
     2
291
     0
 71
     1
176
     1
 72
     2
176
     1
 73
     2
176
     1
 90
        0
176
     1
 40
0.6
176
     1
 41
30.0
176
     1
 63
     7
176
     1
 74
     2
176
     1
 91
        2
176
     1
 64
     7
176
     1
 65
   257
176
     1
 75
     2
176
     1
175
     1
176
     1
 42
40.0
176
     1
 92
        0
176
     1
 66
   257
176
     1
 43
1.0
176
     1
 76
     1
176
     1
 77
     6
176
     1
 78
     2
176
     1
 67
     7
176
     1
 79
     3
176
     1
170
     0
176
     1
171
     0
176
     1
290
     0
176
     1
 93
        1
176
     1
 44
0.0
176
     1
173
     0
176
     1
1001
ACAD
1000
AcRTDxfName
1000
VISUALSTYLE
1000
AcDbSavedByObjectVersion
1070
     0
  0
VISUALSTYLE
  5
23F0
102
{ACAD_XDICTIONARY
360
51FE
102
}
102
{ACAD_REACTORS
330
23E9
102
}
330
23E9
100
AcDbVisualStyle
  2

 70
     5
177
     2
291
     0
 71
     0
176
     1
 72
     2
176
     1
 73
     0
176
     1
 90
        0
176
     1
 40
0.6
176
     1
 41
30.0
176
     1
 63
     7
176
     1
 74
     1
176
     1
 91
        4
176
     1
 64
     7
176
     1
 65
   257
176
     1
 75
     1
176
     1
175
     1
176
     1
 42
1.0
176
     1
 92
        0
176
     1
 66
   257
176
     1
 43
1.0
176
     1
 76
     1
176
     1
 77
     6
176
     1
 78
     2
176
     1
 67
     7
176
     1
 79
     5
176
     1
170
     0
176
     1
171
     0
176
     1
290
     0
176
     1
 93
        1
176
     1
 44
0.0
176
     1
173
     0
176
     1
1001
ACAD
1000
AcRTDxfName
1000
VISUALSTYLE
1000
AcDbSavedByObjectVersion
1070
     0
  0
VISUALSTYLE
  5
23EE
102
{ACAD_XDICTIONARY
360
51FA
102
}
102
{ACAD_REACTORS
330
23E9
102
}
330
23E9
100
AcDbVisualStyle
  2

 70
     7
177
     2
291
     1
 71
     1
176
     1
 72
     0
176
     1
 73
     1
176
     1
 90
        0
176
     1
 40
0.6
176
     1
 41
30.0
176
     1
 63
     7
176
     1
 74
     0
176
     1
 91
        4
176
     1
 64
     7
176
     1
 65
   257
176
     1
 75
     1
176
     1
175
     1
176
     1
 42
1.0
176
     1
 92
        8
176
     1
 66
     7
176
     1
 43
1.0
176
     1
 76
     1
176
     1
 77
     6
176
     1
 78
     2
176
     1
 67
     7
176
     1
 79
     5
176
     1
170
     0
176
     1
171
     0
176
     1
290
     0
176
     1
 93
        1
176
     1
 44
0.0
176
     1
173
     0
176
     1
1001
ACAD
1000
AcRTDxfName
1000
VISUALSTYLE
1000
AcDbSavedByObjectVersion
1070
     0
  0
VISUALSTYLE
  5
23F5
102
{ACAD_XDICTIONARY
360
5208
102
}
102
{ACAD_REACTORS
330
23E9
102
}
330
23E9
100
AcDbVisualStyle
  2

 70
    12
177
     2
291
     1
 71
     2
176
     1
 72
     2
176
     1
 73
     0
176
     1
 90
        0
176
     1
 40
0.6
176
     1
 41
30.0
176
     1
 63
     7
176
     1
 74
     1
176
     1
 91
        4
176
     1
 64
     7
176
     1
 65
   257
176
     1
 75
     1
176
     1
175
     1
176
     1
 42
1.0
176
     1
 92
        8
176
     1
 66
     7
176
     1
 43
1.0
176
     1
 76
     1
176
     1
 77
     6
176
     1
 78
     2
176
     1
 67
     7
176
     1
 79
     5
176
     1
170
     0
176
     1
171
     0
176
     1
290
     0
176
     1
 93
        1
176
     1
 44
50.0
176
     1
173
     0
176
     1
1001
ACAD
1000
AcRTDxfName
1000
VISUALSTYLE
1000
AcDbSavedByObjectVersion
1070
     0
  0
VISUALSTYLE
  5
23F9
102
{ACAD_XDICTIONARY
360
5210
102
}
102
{ACAD_REACTORS
330
23E9
102
}
330
23E9
100
AcDbVisualStyle
  2

 70
    16
177
     2
291
     1
 71
     2
176
     1
 72
     2
176
     1
 73
     3
176
     1
 90
        0
176
     1
 40
0.6
176
     1
 41
30.0
176
     1
 63
     8
176
     1
 74
     1
176
     1
 91
        4
176
     1
 64
     7
176
     1
 65
   257
176
     1
 75
     1
176
     1
175
     1
176
     1
 42
1.0
176
     1
 92
        8
176
     1
 66
     8
176
     1
 43
1.0
176
     1
 76
     1
176
     1
 77
     6
176
     1
 78
     2
176
     1
 67
     7
176
     1
 79
     5
176
     1
170
     0
176
     1
171
     0
176
     1
290
     0
176
     1
 93
        1
176
     1
 44
0.0
176
     1
173
     0
176
     1
1001
ACAD
1000
AcRTDxfName
1000
VISUALSTYLE
1000
AcDbSavedByObjectVersion
1070
     0
  0
VISUALSTYLE
  5
23F2
102
{ACAD_XDICTIONARY
360
5202
102
}
102
{ACAD_REACTORS
330
23E9
102
}
330
23E9
100
AcDbVisualStyle
  2

 70
     9
177
     2
291
     0
 71
     3
176
     1
 72
     2
176
     1
 73
     0
176
     1
 90
        0
176
     1
 40
0.6
176
     1
 41
30.0
176
     1
 63
     7
176
     1
 74
     2
176
     1
 91
        2
176
     1
 64
     7
176
     1
 65
   257
176
     1
 75
     1
176
     1
175
     1
176
     1
 42
40.0
176
     1
 92
        8
176
     1
 66
     7
176
     1
 43
1.0
176
     1
 76
     1
176
     1
 77
     6
176
     1
 78
     2
176
     1
 67
     7
176
     1
 79
     3
176
     1
170
     0
176
     1
171
     0
176
     1
290
     0
176
     1
 93
        1
176
     1
 44
0.0
176
     1
173
     0
176
     1
1001
ACAD
1000
AcRTDxfName
1000
VISUALSTYLE
1000
AcDbSavedByObjectVersion
1070
     0
  0
VISUALSTYLE
  5
23F4
102
{ACAD_XDICTIONARY
360
5206
102
}
102
{ACAD_REACTORS
330
23E9
102
}
330
23E9
100
AcDbVisualStyle
  2

 70
    11
177
     2
291
     1
 71
     2
176
     1
 72
     2
176
     1
 73
     0
176
     1
 90
        0
176
     1
 40
0.6
176
     1
 41
30.0
176
     1
 63
     7
176
     1
 74
     1
176
     1
 91
        4
176
     1
 64
     7
176
     1
 65
   257
176
     1
 75
     1
176
     1
175
     1
176
     1
 42
1.0
176
     1
 92
        8
176
     1
 66
     7
176
     1
 43
1.0
176
     1
 76
     1
176
     1
 77
     6
176
     1
 78
     2
176
     1
 67
     7
176
     1
 79
     5
176
     1
170
     0
176
     1
171
     0
176
     1
290
     0
176
     1
 93
        1
176
     1
 44
-50.0
176
     1
173
     0
176
     1
1001
ACAD
1000
AcRTDxfName
1000
VISUALSTYLE
1000
AcDbSavedByObjectVersion
1070
     0
  0
VISUALSTYLE
  5
2FDA
102
{ACAD_XDICTIONARY
360
5224
102
}
102
{ACAD_REACTORS
330
23E9
102
}
330
23E9
100
AcDbVisualStyle
  2

 70
    22
177
     2
291
     1
 71
     2
176
     0
 72
     2
176
     0
 73
     0
176
     0
 90
        0
176
     0
 40
0.6
176
     0
 41
30.0
176
     0
 63
     7
176
     0
 74
     1
176
     0
 91
        4
176
     0
 64
     7
176
     0
 65
   257
176
     0
 75
     1
176
     0
175
     1
176
     0
 42
1.0
176
     0
 92
        8
176
     2
 66
     7
176
     0
 43
1.0
176
     0
 76
     1
176
     0
 77
     6
176
     0
 78
     2
176
     0
 67
     7
176
     0
 79
     5
176
     0
170
     0
176
     0
171
     0
176
     0
290
     0
176
     0
 93
        1
176
     0
 44
0.0
176
     0
173
     0
176
     0
1001
ACAD
1000
AcDbSavedByObjectVersion
1070
     0
  0
VISUALSTYLE
  5
23F8
102
{ACAD_XDICTIONARY
360
520E
102
}
102
{ACAD_REACTORS
330
23E9
102
}
330
23E9
100
AcDbVisualStyle
  2

 70
    15
177
     2
291
     1
 71
     2
176
     1
 72
     2
176
     1
 73
     0
176
     1
 90
        0
176
     1
 40
0.6
176
     1
 41
30.0
176
     1
 63
     7
176
     1
 74
     1
176
     1
 91
        4
176
     1
 64
     7
176
     1
 65
   257
176
     1
 75
     1
176
     1
175
     1
176
     1
 42
1.0
176
     1
 92
        8
176
     1
 66
     7
176
     1
 43
1.0
176
     1
 76
     1
176
     1
 77
     6
176
     1
 78
     2
176
     1
 67
     7
176
     1
 79
     5
176
     1
170
     0
176
     1
171
     0
176
     1
290
     0
176
     1
 93
        1
176
     1
 44
0.0
176
     1
173
     0
176
     1
1001
ACAD
1000
AcRTDxfName
1000
VISUALSTYLE
1000
AcDbSavedByObjectVersion
1070
     0
  0
VISUALSTYLE
  5
23EA
102
{ACAD_XDICTIONARY
360
51F2
102
}
102
{ACAD_REACTORS
330
23E9
102
}
330
23E9
100
AcDbVisualStyle
  2

 70
     0
177
     2
291
     1
 71
     2
176
     1
 72
     1
176
     1
 73
     1
176
     1
 90
        2
176
     1
 40
0.6
176
     1
 41
30.0
176
     1
 63
     7
176
     1
 74
     0
176
     1
 91
        4
176
     1
 64
     7
176
     1
 65
   257
176
     1
 75
     1
176
     1
175
     1
176
     1
 42
1.0
176
     1
 92
        8
176
     1
 66
     7
176
     1
 43
1.0
176
     1
 76
     1
176
     1
 77
     6
176
     1
 78
     2
176
     1
 67
     7
176
     1
 79
     5
176
     1
170
     0
176
     1
171
     0
176
     1
290
     0
176
     1
 93
       13
176
     1
 44
0.0
176
     1
173
     0
176
     1
1001
ACAD
1000
AcRTDxfName
1000
VISUALSTYLE
1000
AcDbSavedByObjectVersion
1070
     0
  0
VISUALSTYLE
  5
23EB
102
{ACAD_XDICTIONARY
360
51F4
102
}
102
{ACAD_REACTORS
330
23E9
102
}
330
23E9
100
AcDbVisualStyle
  2

 70
     1
177
     2
291
     1
 71
     2
176
     1
 72
     1
176
     1
 73
     1
176
     1
 90
        2
176
     1
 40
0.6
176
     1
 41
30.0
176
     1
 63
     7
176
     1
 74
     1
176
     1
 91
        4
176
     1
 64
     7
176
     1
 65
   257
176
     1
 75
     1
176
     1
175
     1
176
     1
 42
1.0
176
     1
 92
        0
176
     1
 66
   257
176
     1
 43
1.0
176
     1
 76
     1
176
     1
 77
     6
176
     1
 78
     2
176
     1
 67
     7
176
     1
 79
     5
176
     1
170
     0
176
     1
171
     0
176
     1
290
     0
176
     1
 93
       13
176
     1
 44
0.0
176
     1
173
     0
176
     1
1001
ACAD
1000
AcRTDxfName
1000
VISUALSTYLE
1000
AcDbSavedByObjectVersion
1070
     0
  0
VISUALSTYLE
  5
23EC
102
{ACAD_XDICTIONARY
360
51F6
102
}
102
{ACAD_REACTORS
330
23E9
102
}
330
23E9
100
AcDbVisualStyle
  2

 70
     2
177
     2
291
     1
 71
     2
176
     1
 72
     2
176
     1
 73
     1
176
     1
 90
        2
176
     1
 40
0.6
176
     1
 41
30.0
176
     1
 63
     7
176
     1
 74
     0
176
     1
 91
        4
176
     1
 64
     7
176
     1
 65
   257
176
     1
 75
     1
176
     1
175
     1
176
     1
 42
1.0
176
     1
 92
        0
176
     1
 66
     7
176
     1
 43
1.0
176
     1
 76
     1
176
     1
 77
     6
176
     1
 78
     2
176
     1
 67
     7
176
     1
 79
     5
176
     1
170
     0
176
     1
171
     0
176
     1
290
     0
176
     1
 93
       13
176
     1
 44
0.0
176
     1
173
     0
176
     1
1001
ACAD
1000
AcRTDxfName
1000
VISUALSTYLE
1000
AcDbSavedByObjectVersion
1070
     0
  0
VISUALSTYLE
  5
23ED
102
{ACAD_XDICTIONARY
360
51F8
102
}
102
{ACAD_REACTORS
330
23E9
102
}
330
23E9
100
AcDbVisualStyle
  2

 70
     3
177
     2
291
     1
 71
     2
176
     1
 72
     2
176
     1
 73
     1
176
     1
 90
        2
176
     1
 40
0.6
176
     1
 41
30.0
176
     1
 63
     7
176
     1
 74
     1
176
     1
 91
        4
176
     1
 64
     7
176
     1
 65
   257
176
     1
 75
     1
176
     1
175
     1
176
     1
 42
1.0
176
     1
 92
        0
176
     1
 66
   257
176
     1
 43
1.0
176
     1
 76
     1
176
     1
 77
     6
176
     1
 78
     2
176
     1
 67
     7
176
     1
 79
     5
176
     1
170
     0
176
     1
171
     0
176
     1
290
     0
176
     1
 93
       13
176
     1
 44
0.0
176
     1
173
     0
176
     1
1001
ACAD
1000
AcRTDxfName
1000
VISUALSTYLE
1000
AcDbSavedByObjectVersion
1070
     0
  0
VISUALSTYLE
  5
2FD2
102
{ACAD_XDICTIONARY
360
5214
102
}
102
{ACAD_REACTORS
330
23E9
102
}
330
23E9
100
AcDbVisualStyle
  2

 70
     6
177
     2
291
     0
 71
     1
176
     1
 72
     2
176
     1
 73
     2
176
     1
 90
        0
176
     1
 40
0.6
176
     1
 41
30.0
176
     1
 63
     7
176
     1
 74
     2
176
     1
 91
        2
176
     1
 64
     7
176
     1
 65
   257
176
     1
 75
     2
176
     1
175
     1
176
     1
 42
40.0
176
     1
 92
        0
176
     1
 66
   257
176
     1
 43
1.0
176
     1
 76
     1
176
     1
 77
     6
176
     1
 78
     2
176
     1
 67
     7
176
     1
 79
     3
176
     1
170
     0
176
     1
171
     0
176
     1
290
     0
176
     1
 93
        1
176
     1
 44
0.0
176
     1
173
     0
176
     1
1001
ACAD
1000
AcDbSavedByObjectVersion
1070
     0
  0
VISUALSTYLE
  5
2FD8
102
{ACAD_XDICTIONARY
360
5220
102
}
102
{ACAD_REACTORS
330
23E9
102
}
330
23E9
100
AcDbVisualStyle
  2

 70
    20
177
     2
291
     1
 71
     2
176
     0
 72
     2
176
     0
 73
     0
176
     0
 90
        0
176
     0
 40
0.6
176
     0
 41
30.0
176
     0
 63
     7
176
     0
 74
     1
176
     0
 91
        4
176
     0
 64
     7
176
     0
 65
   257
176
     0
 75
     1
176
     0
175
     1
176
     0
 42
1.0
176
     0
 92
       10
176
     2
 66
     7
176
     0
 43
1.0
176
     0
 76
     1
176
     0
 77
     6
176
     0
 78
     2
176
     0
 67
     7
176
     0
 79
     5
176
     0
170
     0
176
     0
171
     0
176
     0
290
     0
176
     0
 93
        1
176
     0
 44
0.0
176
     0
173
     0
176
     0
1001
ACAD
1000
AcDbSavedByObjectVersion
1070
     0
  0
VISUALSTYLE
  5
23F7
102
{ACAD_XDICTIONARY
360
520C
102
}
102
{ACAD_REACTORS
330
23E9
102
}
330
23E9
100
AcDbVisualStyle
  2

 70
    14
177
     2
291
     1
 71
     2
176
     1
 72
     2
176
     1
 73
     0
176
     1
 90
        0
176
     1
 40
0.6
176
     1
 41
30.0
176
     1
 63
     7
176
     1
 74
     1
176
     1
 91
        4
176
     1
 64
     7
176
     1
 65
   257
176
     1
 75
     7
176
     1
175
     7
176
     1
 42
1.0
176
     1
 92
        8
176
     1
 66
     7
176
     1
 43
1.0
176
     1
 76
     1
176
     1
 77
     6
176
     1
 78
     2
176
     1
 67
     7
176
     1
 79
     5
176
     1
170
     0
176
     1
171
     0
176
     1
290
     0
176
     1
 93
        1
176
     1
 44
0.0
176
     1
173
     0
176
     1
1001
ACAD
1000
AcRTDxfName
1000
VISUALSTYLE
1000
AcDbSavedByObjectVersion
1070
     0
  0
VISUALSTYLE
  5
2FD9
102
{ACAD_XDICTIONARY
360
5222
102
}
102
{ACAD_REACTORS
330
23E9
102
}
330
23E9
100
AcDbVisualStyle
  2

 70
    21
177
     2
291
     1
 71
     2
176
     0
 72
     2
176
     0
 73
     0
176
     0
 90
        0
176
     0
 40
0.6
176
     0
 41
30.0
176
     0
 63
     7
176
     0
 74
     1
176
     0
 91
        4
176
     0
 64
     7
176
     0
 65
   257
176
     0
 75
     1
176
     0
175
     1
176
     0
 42
1.0
176
     0
 92
        9
176
     2
 66
     7
176
     0
 43
1.0
176
     0
 76
     1
176
     0
 77
     6
176
     0
 78
     2
176
     0
 67
     7
176
     0
 79
     5
176
     0
170
     0
176
     0
171
     0
176
     0
290
     0
176
     0
 93
        1
176
     0
 44
0.0
176
     0
173
     0
176
     0
1001
ACAD
1000
AcDbSavedByObjectVersion
1070
     0
  0
VISUALSTYLE
  5
23F3
102
{ACAD_XDICTIONARY
360
5204
102
}
102
{ACAD_REACTORS
330
23E9
102
}
330
23E9
100
AcDbVisualStyle
  2

 70
     8
177
     2
291
     0
 71
     2
176
     1
 72
     2
176
     1
 73
     0
176
     1
 90
        0
176
     1
 40
0.6
176
     1
 41
30.0
176
     1
 63
     7
176
     1
 74
     1
176
     1
 91
        0
176
     1
 64
     7
176
     1
 65
   257
176
     1
 75
     1
176
     1
175
     1
176
     1
 42
1.0
176
     1
 92
        8
176
     1
 66
     8
176
     1
 43
1.0
176
     1
 76
     1
176
     1
 77
     6
176
     1
 78
     2
176
     1
 67
     7
176
     1
 79
     5
176
     1
170
     0
176
     1
171
     0
176
     1
290
     0
176
     1
 93
       13
176
     1
 44
0.0
176
     1
173
     0
176
     1
1001
ACAD
1000
AcRTDxfName
1000
VISUALSTYLE
1000
AcDbSavedByObjectVersion
1070
     0
  0
VISUALSTYLE
  5
2FD7
102
{ACAD_XDICTIONARY
360
521E
102
}
102
{ACAD_REACTORS
330
23E9
102
}
330
23E9
100
AcDbVisualStyle
  2

 70
    27
177
     2
291
     0
 71
     2
176
     1
 72
     2
176
     1
 73
     1
176
     1
 90
        2
176
     1
 40
0.6
176
     1
 41
30.0
176
     1
 63
     7
176
     1
 74
     0
176
     1
 91
        4
176
     1
 64
     7
176
     1
 65
   257
176
     1
 75
     1
176
     1
175
     1
176
     1
 42
1.0
176
     1
 92
        8
176
     1
 66
   257
176
     1
 43
1.0
176
     1
 76
     1
176
     1
 77
     6
176
     1
 78
     2
176
     1
 67
     8
176
     1
 79
     3
176
     1
170
     0
176
     1
171
     0
176
     1
290
     0
176
     1
 93
        5
176
     1
 44
0.0
176
     1
173
     0
176
     1
1001
ACAD
1000
AcDbSavedByObjectVersion
1070
     0
  0
VISUALSTYLE
  5
2FD6
102
{ACAD_XDICTIONARY
360
521C
102
}
102
{ACAD_REACTORS
330
23E9
102
}
330
23E9
100
AcDbVisualStyle
  2

 70
    26
177
     2
291
     0
 71
     2
176
     1
 72
     2
176
     1
 73
     1
176
     1
 90
        2
176
     1
 40
0.6
176
     1
 41
30.0
176
     1
 63
     7
176
     1
 74
     1
176
     1
 91
        2
176
     1
 64
     7
176
     1
 65
   257
176
     1
 75
     2
176
     1
175
     1
176
     1
 42
1.0
176
     1
 92
        8
176
     1
 66
   257
176
     1
 43
1.0
176
     1
 76
     1
176
     1
 77
     6
176
     1
 78
     2
176
     1
 67
     7
176
     1
 79
     3
176
     1
170
     0
176
     1
171
     0
176
     1
290
     0
176
     1
 93
        5
176
     1
 44
0.0
176
     1
173
     0
176
     1
1001
ACAD
1000
AcDbSavedByObjectVersion
1070
     0
  0
VISUALSTYLE
  5
2FD3
102
{ACAD_XDICTIONARY
360
5216
102
}
102
{ACAD_REACTORS
330
23E9
102
}
330
23E9
100
AcDbVisualStyle
  2

 70
    23
177
     2
291
     0
 71
     2
176
     1
 72
     2
176
     1
 73
     3
176
     1
 90
        0
176
     1
 40
0.6
176
     1
 41
30.0
176
     1
 63
     7
176
     1
 74
     2
176
     1
 91
        2
176
     1
 64
     7
176
     1
 65
     7
176
     1
 75
     1
176
     1
175
     1
176
     1
 42
40.0
176
     1
 92
        8
176
     1
 66
     7
176
     1
 43
1.0
176
     1
 76
     1
176
     1
 77
     6
176
     1
 78
     2
176
     1
 67
     7
176
     1
 79
     3
176
     1
170
     0
176
     1
171
     0
176
     1
290
     0
176
     1
 93
        1
176
     1
 44
0.0
176
     1
173
     0
176
     1
1001
ACAD
1000
AcDbSavedByObjectVersion
1070
     0
  0
VISUALSTYLE
  5
2FD4
102
{ACAD_XDICTIONARY
360
5218
102
}
102
{ACAD_REACTORS
330
23E9
102
}
330
23E9
100
AcDbVisualStyle
  2

 70
    24
177
     2
291
     0
 71
     1
176
     1
 72
     2
176
     1
 73
     2
176
     1
 90
        0
176
     1
 40
0.6
176
     1
 41
30.0
176
     1
 63
     7
176
     1
 74
     2
176
     1
 91
        2
176
     1
 64
     7
176
     1
 65
     7
176
     1
 75
     1
176
     1
175
     1
176
     1
 42
40.0
176
     1
 92
       11
176
     1
 66
     7
176
     1
 43
1.0
176
     1
 76
     1
176
     1
 77
     6
176
     1
 78
     2
176
     1
 67
     7
176
     1
 79
     6
176
     1
170
     0
176
     1
171
     0
176
     1
290
     0
176
     1
 93
        1
176
     1
 44
0.0
176
     1
173
     0
176
     1
1001
ACAD
1000
AcDbSavedByObjectVersion
1070
     0
  0
VISUALSTYLE
  5
23F6
102
{ACAD_XDICTIONARY
360
520A
102
}
102
{ACAD_REACTORS
330
23E9
102
}
330
23E9
100
AcDbVisualStyle
  2

 70
    13
177
     2
291
     1
 71
     2
176
     1
 72
     2
176
     1
 73
     0
176
     1
 90
        0
176
     1
 40
0.6
176
     1
 41
30.0
176
     1
 63
     7
176
     1
 74
     1
176
     1
 91
        4
176
     1
 64
     7
176
     1
 65
   257
176
     1
 75
     1
176
     1
175
     1
176
     1
 42
1.0
176
     1
 92
       12
176
     1
 66
     7
176
     1
 43
1.0
176
     1
 76
     1
176
     1
 77
     6
176
     1
 78
     2
176
     1
 67
     7
176
     1
 79
     5
176
     1
170
     0
176
     1
171
     0
176
     1
290
     0
176
     1
 93
        1
176
     1
 44
0.0
176
     1
173
     0
176
     1
1001
ACAD
1000
AcRTDxfName
1000
VISUALSTYLE
1000
AcDbSavedByObjectVersion
1070
     0
  0
VISUALSTYLE
  5
2FD1
102
{ACAD_XDICTIONARY
360
5212
102
}
102
{ACAD_REACTORS
330
23E9
102
}
330
23E9
100
AcDbVisualStyle
  2

 70
     5
177
     2
291
     0
 71
     0
176
     1
 72
     2
176
     1
 73
     0
176
     1
 90
        0
176
     1
 40
0.6
176
     1
 41
30.0
176
     1
 63
     7
176
     1
 74
     1
176
     1
 91
        4
176
     1
 64
     7
176
     1
 65
   257
176
     1
 75
     1
176
     1
175
     1
176
     1
 42
1.0
176
     1
 92
        0
176
     1
 66
   257
176
     1
 43
1.0
176
     1
 76
     1
176
     1
 77
     6
176
     1
 78
     2
176
     1
 67
     7
176
     1
 79
     3
176
     1
170
     0
176
     1
171
     0
176
     1
290
     0
176
     1
 93
        1
176
     1
 44
0.0
176
     1
173
     0
176
     1
1001
ACAD
1000
AcDbSavedByObjectVersion
1070
     0
  0
VISUALSTYLE
  5
2FD5
102
{ACAD_XDICTIONARY
360
521A
102
}
102
{ACAD_REACTORS
330
23E9
102
}
330
23E9
100
AcDbVisualStyle
  2

 70
    25
177
     2
291
     0
 71
     2
176
     1
 72
     2
176
     1
 73
     1
176
     1
 90
        1
176
     1
 40
0.5
176
     1
 41
30.0
176
     1
 63
     7
176
     1
 74
     1
176
     1
 91
        0
176
     1
 64
     7
176
     1
 65
   257
176
     1
 75
     1
176
     1
175
     1
176
     1
 42
1.0
176
     1
 92
        8
176
     1
 66
     7
176
     1
 43
1.0
176
     1
 76
     1
176
     1
 77
     6
176
     1
 78
     2
176
     1
 67
     7
176
     1
 79
     3
176
     1
170
     0
176
     1
171
     0
176
     1
290
     0
176
     1
 93
       13
176
     1
 44
0.0
176
     1
173
     0
176
     1
1001
ACAD
1000
AcDbSavedByObjectVersion
1070
     0
  0
DICTIONARYVAR
  5
3063
102
{ACAD_REACTORS
330
1904
102
}
330
1904
100
DictionaryVariables
280
     0
  1
1:2
  0
DICTIONARYVAR
  5
3062
102
{ACAD_REACTORS
330
1904
102
}
330
1904
100
DictionaryVariables
280
     0
  1
STANDARD
  0
DICTIONARYVAR
  5
1905
102
{ACAD_REACTORS
330
1904
102
}
330
1904
100
DictionaryVariables
280
     0
  1
STANDARD
  0
DICTIONARYVAR
  5
349B
102
{ACAD_REACTORS
330
1904
102
}
330
1904
100
DictionaryVariables
280
     0
  1
Metric50
  0
DICTIONARYVAR
  5
349C
102
{ACAD_REACTORS
330
1904
102
}
330
1904
100
DictionaryVariables
280
     0
  1
Metric50
  0
DICTIONARYVAR
  5
22C6
102
{ACAD_REACTORS
330
1904
102
}
330
1904
100
DictionaryVariables
280
     0
  1
1
  0
DICTIONARYVAR
  5
3065
102
{ACAD_REACTORS
330
1904
102
}
330
1904
100
DictionaryVariables
280
     0
  1
0
  0
DICTIONARYVAR
  5
3A96
102
{ACAD_REACTORS
330
1904
102
}
330
1904
100
DictionaryVariables
280
     0
  1
1
  0
DICTIONARYVAR
  5
3A97
102
{ACAD_REACTORS
330
1904
102
}
330
1904
100
DictionaryVariables
280
     0
  1
15
  0
DICTIONARYVAR
  5
3A95
102
{ACAD_REACTORS
330
1904
102
}
330
1904
100
DictionaryVariables
280
     0
  1
0
  0
DICTIONARYVAR
  5
3A94
102
{ACAD_REACTORS
330
1904
102
}
330
1904
100
DictionaryVariables
280
     0
  1
0
  0
DICTIONARYVAR
  5
22C7
102
{ACAD_REACTORS
330
1904
102
}
330
1904
100
DictionaryVariables
280
     0
  1

  0
DICTIONARYVAR
  5
3064
102
{ACAD_REACTORS
330
1904
102
}
330
1904
100
DictionaryVariables
280
     0
  1
127
  0
DICTIONARYVAR
  5
4532
102
{ACAD_REACTORS
330
1904
102
}
330
1904
100
DictionaryVariables
280
     0
  1
2
  0
DICTIONARY
  5
51F1
102
{ACAD_REACTORS
330
51EF
102
}
330
51EF
100
AcDbDictionary
281
     1
  0
DICTIONARY
  5
51F0
102
{ACAD_REACTORS
330
51EF
102
}
330
51EF
100
AcDbDictionary
281
     1
  3
2467059389600
350
51EA
  3
2467059389616
350
51EB
  3
2467059389632
350
51EC
  3
2467059389648
350
51ED
  3
2467059389664
350
51EE
  0
DICTIONARY
  5
5199
330
3448
100
AcDbDictionary
280
     1
281
     1
  3
ACAD_XREC_ROUNDTRIP
360
5229
  0
DICTIONARY
  5
43D0
330
23E7
100
AcDbDictionary
280
     1
281
     1
  3
ACAD_XREC_ROUNDTRIP
360
43D1
  0
DICTIONARY
  5
43CE
330
23E6
100
AcDbDictionary
280
     1
281
     1
  3
ACAD_XREC_ROUNDTRIP
360
43CF
  0
DICTIONARY
  5
43D2
330
23E8
100
AcDbDictionary
280
     1
281
     1
  3
ACAD_XREC_ROUNDTRIP
360
43D3
  0
DICTIONARY
  5
5226
330
2FEE
100
AcDbDictionary
280
     1
281
     1
  3
ACAD_XREC_ROUNDTRIP
360
5227
  0
DICTIONARY
  5
5197
330
3446
100
AcDbDictionary
280
     1
281
     1
  3
ACAD_XREC_ROUNDTRIP
360
5228
  0
DICTIONARY
  5
30AF
330
14DE
100
AcDbDictionary
280
     1
281
     1
  3
ACAD_ROUNDTRIP_2008_TABLESTYLE_CELLSTYLEMAP
360
51E6
  0
DICTIONARY
  5
51FC
330
23EF
100
AcDbDictionary
280
     1
281
     1
  3
ACAD_XREC_ROUNDTRIP
360
51FD
  0
DICTIONARY
  5
5200
330
23F1
100
AcDbDictionary
280
     1
281
     1
  3
ACAD_XREC_ROUNDTRIP
360
5201
  0
DICTIONARY
  5
51FE
330
23F0
100
AcDbDictionary
280
     1
281
     1
  3
ACAD_XREC_ROUNDTRIP
360
51FF
  0
DICTIONARY
  5
51FA
330
23EE
100
AcDbDictionary
280
     1
281
     1
  3
ACAD_XREC_ROUNDTRIP
360
51FB
  0
DICTIONARY
  5
5208
330
23F5
100
AcDbDictionary
280
     1
281
     1
  3
ACAD_XREC_ROUNDTRIP
360
5209
  0
DICTIONARY
  5
5210
330
23F9
100
AcDbDictionary
280
     1
281
     1
  3
ACAD_XREC_ROUNDTRIP
360
5211
  0
DICTIONARY
  5
5202
330
23F2
100
AcDbDictionary
280
     1
281
     1
  3
ACAD_XREC_ROUNDTRIP
360
5203
  0
DICTIONARY
  5
5206
330
23F4
100
AcDbDictionary
280
     1
281
     1
  3
ACAD_XREC_ROUNDTRIP
360
5207
  0
DICTIONARY
  5
5224
330
2FDA
100
AcDbDictionary
280
     1
281
     1
  3
ACAD_XREC_ROUNDTRIP
360
5225
  0
DICTIONARY
  5
520E
330
23F8
100
AcDbDictionary
280
     1
281
     1
  3
ACAD_XREC_ROUNDTRIP
360
520F
  0
DICTIONARY
  5
51F2
330
23EA
100
AcDbDictionary
280
     1
281
     1
  3
ACAD_XREC_ROUNDTRIP
360
51F3
  0
DICTIONARY
  5
51F4
330
23EB
100
AcDbDictionary
280
     1
281
     1
  3
ACAD_XREC_ROUNDTRIP
360
51F5
  0
DICTIONARY
  5
51F6
330
23EC
100
AcDbDictionary
280
     1
281
     1
  3
ACAD_XREC_ROUNDTRIP
360
51F7
  0
DICTIONARY
  5
51F8
330
23ED
100
AcDbDictionary
280
     1
281
     1
  3
ACAD_XREC_ROUNDTRIP
360
51F9
  0
DICTIONARY
  5
5214
330
2FD2
100
AcDbDictionary
280
     1
281
     1
  3
ACAD_XREC_ROUNDTRIP
360
5215
  0
DICTIONARY
  5
5220
330
2FD8
100
AcDbDictionary
280
     1
281
     1
  3
ACAD_XREC_ROUNDTRIP
360
5221
  0
DICTIONARY
  5
520C
330
23F7
100
AcDbDictionary
280
     1
281
     1
  3
ACAD_XREC_ROUNDTRIP
360
520D
  0
DICTIONARY
  5
5222
330
2FD9
100
AcDbDictionary
280
     1
281
     1
  3
ACAD_XREC_ROUNDTRIP
360
5223
  0
DICTIONARY
  5
5204
330
23F3
100
AcDbDictionary
280
     1
281
     1
  3
ACAD_XREC_ROUNDTRIP
360
5205
  0
DICTIONARY
  5
521E
330
2FD7
100
AcDbDictionary
280
     1
281
     1
  3
ACAD_XREC_ROUNDTRIP
360
521F
  0
DICTIONARY
  5
521C
330
2FD6
100
AcDbDictionary
280
     1
281
     1
  3
ACAD_XREC_ROUNDTRIP
360
521D
  0
DICTIONARY
  5
5216
330
2FD3
100
AcDbDictionary
280
     1
281
     1
  3
ACAD_XREC_ROUNDTRIP
360
5217
  0
DICTIONARY
  5
5218
330
2FD4
100
AcDbDictionary
280
     1
281
     1
  3
ACAD_XREC_ROUNDTRIP
360
5219
  0
DICTIONARY
  5
520A
330
23F6
100
AcDbDictionary
280
     1
281
     1
  3
ACAD_XREC_ROUNDTRIP
360
520B
  0
DICTIONARY
  5
5212
330
2FD1
100
AcDbDictionary
280
     1
281
     1
  3
ACAD_XREC_ROUNDTRIP
360
5213
  0
DICTIONARY
  5
521A
330
2FD5
100
AcDbDictionary
280
     1
281
     1
  3
ACAD_XREC_ROUNDTRIP
360
521B
  0
XRECORD
  5
51EA
102
{ACAD_REACTORS
330
51F0
102
}
330
51F0
100
AcDbXrecord
280
     1
  1
AcDb_Thumbnail_Schema
102
{ATTRRECORD
341
51EB
  2
AcDbDs::TreatedAsObjectData
280
     1
291
     1
102
ATTRRECORD}
102
{ATTRRECORD
341
51EC
  2
AcDbDs::Legacy
280
     1
291
     1
102
ATTRRECORD}
  2
AcDbDs::ID
280
    10
 91
        8
102
{ATTRRECORD
341
51ED
  2
AcDs:Indexable
280
     1
291
     1
102
ATTRRECORD}
102
{ATTRRECORD
341
51EE
  2
AcDbDs::HandleAttribute
280
     7
282
     1
102
ATTRRECORD}
  2
Thumbnail_Data
280
    15
 91
        0
  0
XRECORD
  5
51EB
102
{ACAD_REACTORS
330
51F0
102
}
330
51F0
100
AcDbXrecord
280
     1
  1
AcDbDs::TreatedAsObjectDataSchema
  2
AcDbDs::TreatedAsObjectData
280
     1
 91
        0
  0
XRECORD
  5
51EC
102
{ACAD_REACTORS
330
51F0
102
}
330
51F0
100
AcDbXrecord
280
     1
  1
AcDbDs::LegacySchema
  2
AcDbDs::Legacy
280
     1
 91
        0
  0
XRECORD
  5
51ED
102
{ACAD_REACTORS
330
51F0
102
}
330
51F0
100
AcDbXrecord
280
     1
  1
AcDbDs::IndexedPropertySchema
  2
AcDs:Indexable
280
     1
 91
        0
  0
XRECORD
  5
51EE
102
{ACAD_REACTORS
330
51F0
102
}
330
51F0
100
AcDbXrecord
280
     1
  1
AcDbDs::HandleAttributeSchema
  2
AcDbDs::HandleAttribute
280
     7
 91
        1
284
     1
  0
XRECORD
  5
5229
102
{ACAD_REACTORS
330
5199
102
}
330
5199
100
AcDbXrecord
280
     1
102
DISPLAYNAME
  1
Metric50
102
FLAGS
 90
        0
  0
XRECORD
  5
43D1
102
{ACAD_REACTORS
330
43D0
102
}
330
43D0
100
AcDbXrecord
280
     1
102
MATERIAL
148
0.0
149
0.0
149
0.0
 93
        0
 94
       63
282
     0
 72
     1
 77
     1
171
     1
175
     1
179
     1
273
     0
  0
XRECORD
  5
43CF
102
{ACAD_REACTORS
330
43CE
102
}
330
43CE
100
AcDbXrecord
280
     1
102
MATERIAL
148
0.0
149
0.0
149
0.0
 93
        0
 94
       63
282
     0
 72
     1
 77
     1
171
     1
175
     1
179
     1
273
     0
  0
XRECORD
  5
43D3
102
{ACAD_REACTORS
330
43D2
102
}
330
43D2
100
AcDbXrecord
280
     1
102
MATERIAL
148
0.0
149
0.0
149
0.0
 93
        0
 94
       63
282
     0
 72
     1
 77
     1
171
     1
175
     1
179
     1
273
     0
  0
XRECORD
  5
5227
102
{ACAD_REACTORS
330
5226
102
}
330
5226
100
AcDbXrecord
280
     1
102
ACAD_ROUNDTRIP_2012_MLEADER_STYLE
298
     1
  0
XRECORD
  5
5228
102
{ACAD_REACTORS
330
5197
102
}
330
5197
100
AcDbXrecord
280
     1
102
DISPLAYNAME
  1
Metric50
102
FLAGS
 90
        0
  0
CELLSTYLEMAP
  5
51E6
102
{ACAD_REACTORS
330
30AF
102
}
330
30AF
100
AcDbCellStyleMap
 90
        3
300
CELLSTYLE
  1
TABLEFORMAT_BEGIN
 90
        5
170
     1
 91
        0
 92
    32768
 62
   257
 93
        1
300
CONTENTFORMAT
  1
CONTENTFORMAT_BEGIN
 90
        0
 91
        0
 92
        4
 93
        0
300

 40
0.0
140
1.0
 94
        5
 62
     0
340
10
144
6.0
309
CONTENTFORMAT_END
171
     1
301
MARGIN
  1
CELLMARGIN_BEGIN
 40
1.5
 40
1.5
 40
1.5
 40
1.5
 40
0.18
 40
0.18
309
CELLMARGIN_END
 94
        6
 95
        1
302
GRIDFORMAT
  1
GRIDFORMAT_BEGIN
 90
        0
 91
        1
 62
     0
 92
       -2
340
0
 93
        0
 40
0.045
309
GRIDFORMAT_END
 95
        2
302
GRIDFORMAT
  1
GRIDFORMAT_BEGIN
 90
        0
 91
        1
 62
     0
 92
       -2
340
0
 93
        0
 40
0.045
309
GRIDFORMAT_END
 95
        4
302
GRIDFORMAT
  1
GRIDFORMAT_BEGIN
 90
        0
 91
        1
 62
     0
 92
       -2
340
0
 93
        0
 40
0.045
309
GRIDFORMAT_END
 95
        8
302
GRIDFORMAT
  1
GRIDFORMAT_BEGIN
 90
        0
 91
        1
 62
     0
 92
       -2
340
0
 93
        0
 40
0.045
309
GRIDFORMAT_END
 95
       16
302
GRIDFORMAT
  1
GRIDFORMAT_BEGIN
 90
        0
 91
        1
 62
     0
 92
       -2
340
0
 93
        0
 40
0.045
309
GRIDFORMAT_END
 95
       32
302
GRIDFORMAT
  1
GRIDFORMAT_BEGIN
 90
        0
 91
        1
 62
     0
 92
       -2
340
0
 93
        0
 40
0.045
309
GRIDFORMAT_END
309
TABLEFORMAT_END
  1
CELLSTYLE_BEGIN
 90
        1
 91
        1
300
_TITLE
309
CELLSTYLE_END
300
CELLSTYLE
  1
TABLEFORMAT_BEGIN
 90
        5
170
     1
 91
        0
 92
        0
 62
   257
 93
        1
300
CONTENTFORMAT
  1
CONTENTFORMAT_BEGIN
 90
        0
 91
        0
 92
        4
 93
        0
300

 40
0.0
140
1.0
 94
        5
 62
     0
340
10
144
4.5
309
CONTENTFORMAT_END
171
     1
301
MARGIN
  1
CELLMARGIN_BEGIN
 40
1.5
 40
1.5
 40
1.5
 40
1.5
 40
0.18
 40
0.18
309
CELLMARGIN_END
 94
        6
 95
        1
302
GRIDFORMAT
  1
GRIDFORMAT_BEGIN
 90
        0
 91
        1
 62
     0
 92
       -2
340
0
 93
        0
 40
0.045
309
GRIDFORMAT_END
 95
        2
302
GRIDFORMAT
  1
GRIDFORMAT_BEGIN
 90
        0
 91
        1
 62
     0
 92
       -2
340
0
 93
        0
 40
0.045
309
GRIDFORMAT_END
 95
        4
302
GRIDFORMAT
  1
GRIDFORMAT_BEGIN
 90
        0
 91
        1
 62
     0
 92
       -2
340
0
 93
        0
 40
0.045
309
GRIDFORMAT_END
 95
        8
302
GRIDFORMAT
  1
GRIDFORMAT_BEGIN
 90
        0
 91
        1
 62
     0
 92
       -2
340
0
 93
        0
 40
0.045
309
GRIDFORMAT_END
 95
       16
302
GRIDFORMAT
  1
GRIDFORMAT_BEGIN
 90
        0
 91
        1
 62
     0
 92
       -2
340
0
 93
        0
 40
0.045
309
GRIDFORMAT_END
 95
       32
302
GRIDFORMAT
  1
GRIDFORMAT_BEGIN
 90
        0
 91
        1
 62
     0
 92
       -2
340
0
 93
        0
 40
0.045
309
GRIDFORMAT_END
309
TABLEFORMAT_END
  1
CELLSTYLE_BEGIN
 90
        2
 91
        1
300
_HEADER
309
CELLSTYLE_END
300
CELLSTYLE
  1
TABLEFORMAT_BEGIN
 90
        5
170
     1
 91
        0
 92
        0
 62
   257
 93
        1
300
CONTENTFORMAT
  1
CONTENTFORMAT_BEGIN
 90
        0
 91
        0
 92
        4
 93
        0
300

 40
0.0
140
1.0
 94
        2
 62
     0
340
10
144
4.5
309
CONTENTFORMAT_END
171
     1
301
MARGIN
  1
CELLMARGIN_BEGIN
 40
1.5
 40
1.5
 40
1.5
 40
1.5
 40
0.18
 40
0.18
309
CELLMARGIN_END
 94
        6
 95
        1
302
GRIDFORMAT
  1
GRIDFORMAT_BEGIN
 90
        0
 91
        1
 62
     0
 92
       -2
340
0
 93
        0
 40
0.045
309
GRIDFORMAT_END
 95
        2
302
GRIDFORMAT
  1
GRIDFORMAT_BEGIN
 90
        0
 91
        1
 62
     0
 92
       -2
340
0
 93
        0
 40
0.045
309
GRIDFORMAT_END
 95
        4
302
GRIDFORMAT
  1
GRIDFORMAT_BEGIN
 90
        0
 91
        1
 62
     0
 92
       -2
340
0
 93
        0
 40
0.045
309
GRIDFORMAT_END
 95
        8
302
GRIDFORMAT
  1
GRIDFORMAT_BEGIN
 90
        0
 91
        1
 62
     0
 92
       -2
340
0
 93
        0
 40
0.045
309
GRIDFORMAT_END
 95
       16
302
GRIDFORMAT
  1
GRIDFORMAT_BEGIN
 90
        0
 91
        1
 62
     0
 92
       -2
340
0
 93
        0
 40
0.045
309
GRIDFORMAT_END
 95
       32
302
GRIDFORMAT
  1
GRIDFORMAT_BEGIN
 90
        0
 91
        1
 62
     0
 92
       -2
340
0
 93
        0
 40
0.045
309
GRIDFORMAT_END
309
TABLEFORMAT_END
  1
CELLSTYLE_BEGIN
 90
        3
 91
        2
300
_DATA
309
CELLSTYLE_END
  0
XRECORD
  5
51FD
102
{ACAD_REACTORS
330
51FC
102
}
330
51FC
100
AcDbXrecord
280
     1
102
RTVSPost2010Prop28
280
     1
102
RTVSPost2010PropOp28
 70
     1
102
RTVSPost2010Prop29
280
     1
102
RTVSPost2010PropOp29
 70
     1
102
RTVSPost2010Prop30
280
     0
102
RTVSPost2010PropOp30
 70
     1
102
RTVSPost2010Prop31
280
     0
102
RTVSPost2010PropOp31
 70
     1
102
RTVSPost2010Prop32
280
     0
102
RTVSPost2010PropOp32
 70
     1
102
RTVSPost2010Prop33
280
     0
102
RTVSPost2010PropOp33
 70
     1
102
RTVSPost2010Prop34
280
     0
102
RTVSPost2010PropOp34
 70
     1
102
RTVSPost2010Prop35
280
     0
102
RTVSPost2010PropOp35
 70
     1
102
RTVSPost2010Prop36
280
     0
102
RTVSPost2010PropOp36
 70
     1
102
RTVSPost2010Prop37
 90
       50
102
RTVSPost2010PropOp37
 70
     1
102
RTVSPost2010Prop38
140
0.0
102
RTVSPost2010PropOp38
 70
     1
102
RTVSPost2010Prop39
140
1.0
102
RTVSPost2010PropOp39
 70
     1
102
RTVSPost2010Prop40
 90
        0
102
RTVSPost2010PropOp40
 70
     1
102
RTVSPost2010Prop41ColorIndex
 90
       18
102
RTVSPost2010Prop41ColorRGB
 90
        0
102
RTVSPost2010PropOp41
 70
     1
102
RTVSPost2010Prop42
 90
       50
102
RTVSPost2010PropOp42
 70
     1
102
RTVSPost2010Prop43
 90
        3
102
RTVSPost2010PropOp43
 70
     1
102
RTVSPost2010Prop44ColorIndex
 90
        5
102
RTVSPost2010Prop44ColorRGB
 90
      255
102
RTVSPost2010PropOp44
 70
     1
102
RTVSPost2010Prop45
280
     0
102
RTVSPost2010PropOp45
 70
     1
102
RTVSPost2010Prop46
 90
       50
102
RTVSPost2010PropOp46
 70
     1
102
RTVSPost2010Prop47
 90
       50
102
RTVSPost2010PropOp47
 70
     1
102
RTVSPost2010Prop48
 90
       50
102
RTVSPost2010PropOp48
 70
     1
102
RTVSPost2010Prop49
280
     0
102
RTVSPost2010PropOp49
 70
     1
102
RTVSPost2010Prop50
 90
       50
102
RTVSPost2010PropOp50
 70
     1
102
RTVSPost2010Prop51ColorIndex
 90
      256
102
RTVSPost2010Prop51ColorRGB
 90
-16777216
102
RTVSPost2010PropOp51
 70
     0
102
RTVSPost2010Prop52
140
1.0
102
RTVSPost2010PropOp52
 70
     0
102
RTVSPost2010Prop53
 90
        2
102
RTVSPost2010PropOp53
 70
     1
102
RTVSPost2010Prop54
  1
strokes_ogs.tif
102
RTVSPost2010PropOp54
 70
     1
102
RTVSPost2010Prop55
280
     0
102
RTVSPost2010PropOp55
 70
     1
102
RTVSPost2010Prop56
140
1.0
102
RTVSPost2010PropOp56
 70
     1
102
RTVSPost2010Prop57
140
1.0
102
RTVSPost2010PropOp57
 70
     1
  0
XRECORD
  5
5201
102
{ACAD_REACTORS
330
5200
102
}
330
5200
100
AcDbXrecord
280
     1
102
RTVSPost2010Prop28
280
     0
102
RTVSPost2010PropOp28
 70
     1
102
RTVSPost2010Prop29
280
     1
102
RTVSPost2010PropOp29
 70
     1
102
RTVSPost2010Prop30
280
     1
102
RTVSPost2010PropOp30
 70
     1
102
RTVSPost2010Prop31
280
     0
102
RTVSPost2010PropOp31
 70
     1
102
RTVSPost2010Prop32
280
     0
102
RTVSPost2010PropOp32
 70
     1
102
RTVSPost2010Prop33
280
     0
102
RTVSPost2010PropOp33
 70
     1
102
RTVSPost2010Prop34
280
     0
102
RTVSPost2010PropOp34
 70
     1
102
RTVSPost2010Prop35
280
     0
102
RTVSPost2010PropOp35
 70
     1
102
RTVSPost2010Prop36
280
     0
102
RTVSPost2010PropOp36
 70
     1
102
RTVSPost2010Prop37
 90
       50
102
RTVSPost2010PropOp37
 70
     1
102
RTVSPost2010Prop38
140
0.0
102
RTVSPost2010PropOp38
 70
     1
102
RTVSPost2010Prop39
140
1.0
102
RTVSPost2010PropOp39
 70
     1
102
RTVSPost2010Prop40
 90
        0
102
RTVSPost2010PropOp40
 70
     1
102
RTVSPost2010Prop41ColorIndex
 90
       18
102
RTVSPost2010Prop41ColorRGB
 90
        0
102
RTVSPost2010PropOp41
 70
     1
102
RTVSPost2010Prop42
 90
       50
102
RTVSPost2010PropOp42
 70
     1
102
RTVSPost2010Prop43
 90
        3
102
RTVSPost2010PropOp43
 70
     1
102
RTVSPost2010Prop44ColorIndex
 90
        5
102
RTVSPost2010Prop44ColorRGB
 90
      255
102
RTVSPost2010PropOp44
 70
     1
102
RTVSPost2010Prop45
280
     0
102
RTVSPost2010PropOp45
 70
     1
102
RTVSPost2010Prop46
 90
       50
102
RTVSPost2010PropOp46
 70
     1
102
RTVSPost2010Prop47
 90
       50
102
RTVSPost2010PropOp47
 70
     1
102
RTVSPost2010Prop48
 90
       50
102
RTVSPost2010PropOp48
 70
     1
102
RTVSPost2010Prop49
280
     0
102
RTVSPost2010PropOp49
 70
     1
102
RTVSPost2010Prop50
 90
       50
102
RTVSPost2010PropOp50
 70
     1
102
RTVSPost2010Prop51ColorIndex
 90
      256
102
RTVSPost2010Prop51ColorRGB
 90
-16777216
102
RTVSPost2010PropOp51
 70
     0
102
RTVSPost2010Prop52
140
1.0
102
RTVSPost2010PropOp52
 70
     0
102
RTVSPost2010Prop53
 90
        2
102
RTVSPost2010PropOp53
 70
     1
102
RTVSPost2010Prop54
  1
strokes_ogs.tif
102
RTVSPost2010PropOp54
 70
     1
102
RTVSPost2010Prop55
280
     0
102
RTVSPost2010PropOp55
 70
     1
102
RTVSPost2010Prop56
140
1.0
102
RTVSPost2010PropOp56
 70
     1
102
RTVSPost2010Prop57
140
1.0
102
RTVSPost2010PropOp57
 70
     1
  0
XRECORD
  5
51FF
102
{ACAD_REACTORS
330
51FE
102
}
330
51FE
100
AcDbXrecord
280
     1
102
RTVSPost2010Prop28
280
     0
102
RTVSPost2010PropOp28
 70
     1
102
RTVSPost2010Prop29
280
     1
102
RTVSPost2010PropOp29
 70
     1
102
RTVSPost2010Prop30
280
     1
102
RTVSPost2010PropOp30
 70
     1
102
RTVSPost2010Prop31
280
     0
102
RTVSPost2010PropOp31
 70
     1
102
RTVSPost2010Prop32
280
     0
102
RTVSPost2010PropOp32
 70
     1
102
RTVSPost2010Prop33
280
     0
102
RTVSPost2010PropOp33
 70
     1
102
RTVSPost2010Prop34
280
     0
102
RTVSPost2010PropOp34
 70
     1
102
RTVSPost2010Prop35
280
     0
102
RTVSPost2010PropOp35
 70
     1
102
RTVSPost2010Prop36
280
     0
102
RTVSPost2010PropOp36
 70
     1
102
RTVSPost2010Prop37
 90
       50
102
RTVSPost2010PropOp37
 70
     1
102
RTVSPost2010Prop38
140
0.0
102
RTVSPost2010PropOp38
 70
     1
102
RTVSPost2010Prop39
140
1.0
102
RTVSPost2010PropOp39
 70
     1
102
RTVSPost2010Prop40
 90
        0
102
RTVSPost2010PropOp40
 70
     1
102
RTVSPost2010Prop41ColorIndex
 90
       18
102
RTVSPost2010Prop41ColorRGB
 90
        0
102
RTVSPost2010PropOp41
 70
     1
102
RTVSPost2010Prop42
 90
       50
102
RTVSPost2010PropOp42
 70
     1
102
RTVSPost2010Prop43
 90
        3
102
RTVSPost2010PropOp43
 70
     1
102
RTVSPost2010Prop44ColorIndex
 90
        5
102
RTVSPost2010Prop44ColorRGB
 90
      255
102
RTVSPost2010PropOp44
 70
     1
102
RTVSPost2010Prop45
280
     0
102
RTVSPost2010PropOp45
 70
     1
102
RTVSPost2010Prop46
 90
       50
102
RTVSPost2010PropOp46
 70
     1
102
RTVSPost2010Prop47
 90
       50
102
RTVSPost2010PropOp47
 70
     1
102
RTVSPost2010Prop48
 90
       50
102
RTVSPost2010PropOp48
 70
     1
102
RTVSPost2010Prop49
280
     0
102
RTVSPost2010PropOp49
 70
     1
102
RTVSPost2010Prop50
 90
       50
102
RTVSPost2010PropOp50
 70
     1
102
RTVSPost2010Prop51ColorIndex
 90
      256
102
RTVSPost2010Prop51ColorRGB
 90
-16777216
102
RTVSPost2010PropOp51
 70
     0
102
RTVSPost2010Prop52
140
1.0
102
RTVSPost2010PropOp52
 70
     0
102
RTVSPost2010Prop53
 90
        2
102
RTVSPost2010PropOp53
 70
     1
102
RTVSPost2010Prop54
  1
strokes_ogs.tif
102
RTVSPost2010PropOp54
 70
     1
102
RTVSPost2010Prop55
280
     0
102
RTVSPost2010PropOp55
 70
     1
102
RTVSPost2010Prop56
140
1.0
102
RTVSPost2010PropOp56
 70
     1
102
RTVSPost2010Prop57
140
1.0
102
RTVSPost2010PropOp57
 70
     1
  0
XRECORD
  5
51FB
102
{ACAD_REACTORS
330
51FA
102
}
330
51FA
100
AcDbXrecord
280
     1
102
RTVSPost2010Prop28
280
     0
102
RTVSPost2010PropOp28
 70
     1
102
RTVSPost2010Prop29
280
     1
102
RTVSPost2010PropOp29
 70
     1
102
RTVSPost2010Prop30
280
     1
102
RTVSPost2010PropOp30
 70
     1
102
RTVSPost2010Prop31
280
     0
102
RTVSPost2010PropOp31
 70
     1
102
RTVSPost2010Prop32
280
     0
102
RTVSPost2010PropOp32
 70
     1
102
RTVSPost2010Prop33
280
     0
102
RTVSPost2010PropOp33
 70
     1
102
RTVSPost2010Prop34
280
     0
102
RTVSPost2010PropOp34
 70
     1
102
RTVSPost2010Prop35
280
     0
102
RTVSPost2010PropOp35
 70
     1
102
RTVSPost2010Prop36
280
     0
102
RTVSPost2010PropOp36
 70
     1
102
RTVSPost2010Prop37
 90
       50
102
RTVSPost2010PropOp37
 70
     1
102
RTVSPost2010Prop38
140
0.0
102
RTVSPost2010PropOp38
 70
     1
102
RTVSPost2010Prop39
140
1.0
102
RTVSPost2010PropOp39
 70
     1
102
RTVSPost2010Prop40
 90
        0
102
RTVSPost2010PropOp40
 70
     1
102
RTVSPost2010Prop41ColorIndex
 90
       18
102
RTVSPost2010Prop41ColorRGB
 90
        0
102
RTVSPost2010PropOp41
 70
     1
102
RTVSPost2010Prop42
 90
       50
102
RTVSPost2010PropOp42
 70
     1
102
RTVSPost2010Prop43
 90
        3
102
RTVSPost2010PropOp43
 70
     1
102
RTVSPost2010Prop44ColorIndex
 90
        5
102
RTVSPost2010Prop44ColorRGB
 90
      255
102
RTVSPost2010PropOp44
 70
     1
102
RTVSPost2010Prop45
280
     0
102
RTVSPost2010PropOp45
 70
     1
102
RTVSPost2010Prop46
 90
       50
102
RTVSPost2010PropOp46
 70
     1
102
RTVSPost2010Prop47
 90
       50
102
RTVSPost2010PropOp47
 70
     1
102
RTVSPost2010Prop48
 90
       50
102
RTVSPost2010PropOp48
 70
     1
102
RTVSPost2010Prop49
280
     0
102
RTVSPost2010PropOp49
 70
     1
102
RTVSPost2010Prop50
 90
       50
102
RTVSPost2010PropOp50
 70
     1
102
RTVSPost2010Prop51ColorIndex
 90
      256
102
RTVSPost2010Prop51ColorRGB
 90
-16777216
102
RTVSPost2010PropOp51
 70
     0
102
RTVSPost2010Prop52
140
1.0
102
RTVSPost2010PropOp52
 70
     0
102
RTVSPost2010Prop53
 90
        2
102
RTVSPost2010PropOp53
 70
     1
102
RTVSPost2010Prop54
  1
strokes_ogs.tif
102
RTVSPost2010PropOp54
 70
     1
102
RTVSPost2010Prop55
280
     0
102
RTVSPost2010PropOp55
 70
     1
102
RTVSPost2010Prop56
140
1.0
102
RTVSPost2010PropOp56
 70
     1
102
RTVSPost2010Prop57
140
1.0
102
RTVSPost2010PropOp57
 70
     1
  0
XRECORD
  5
5209
102
{ACAD_REACTORS
330
5208
102
}
330
5208
100
AcDbXrecord
280
     1
102
RTVSPost2010Prop28
280
     0
102
RTVSPost2010PropOp28
 70
     1
102
RTVSPost2010Prop29
280
     1
102
RTVSPost2010PropOp29
 70
     1
102
RTVSPost2010Prop30
280
     1
102
RTVSPost2010PropOp30
 70
     1
102
RTVSPost2010Prop31
280
     0
102
RTVSPost2010PropOp31
 70
     1
102
RTVSPost2010Prop32
280
     0
102
RTVSPost2010PropOp32
 70
     1
102
RTVSPost2010Prop33
280
     0
102
RTVSPost2010PropOp33
 70
     1
102
RTVSPost2010Prop34
280
     0
102
RTVSPost2010PropOp34
 70
     1
102
RTVSPost2010Prop35
280
     0
102
RTVSPost2010PropOp35
 70
     1
102
RTVSPost2010Prop36
280
     0
102
RTVSPost2010PropOp36
 70
     1
102
RTVSPost2010Prop37
 90
       50
102
RTVSPost2010PropOp37
 70
     1
102
RTVSPost2010Prop38
140
0.0
102
RTVSPost2010PropOp38
 70
     1
102
RTVSPost2010Prop39
140
1.0
102
RTVSPost2010PropOp39
 70
     1
102
RTVSPost2010Prop40
 90
        0
102
RTVSPost2010PropOp40
 70
     1
102
RTVSPost2010Prop41ColorIndex
 90
       18
102
RTVSPost2010Prop41ColorRGB
 90
        0
102
RTVSPost2010PropOp41
 70
     1
102
RTVSPost2010Prop42
 90
       50
102
RTVSPost2010PropOp42
 70
     1
102
RTVSPost2010Prop43
 90
        3
102
RTVSPost2010PropOp43
 70
     1
102
RTVSPost2010Prop44ColorIndex
 90
        5
102
RTVSPost2010Prop44ColorRGB
 90
      255
102
RTVSPost2010PropOp44
 70
     1
102
RTVSPost2010Prop45
280
     0
102
RTVSPost2010PropOp45
 70
     1
102
RTVSPost2010Prop46
 90
       50
102
RTVSPost2010PropOp46
 70
     1
102
RTVSPost2010Prop47
 90
       50
102
RTVSPost2010PropOp47
 70
     1
102
RTVSPost2010Prop48
 90
       50
102
RTVSPost2010PropOp48
 70
     1
102
RTVSPost2010Prop49
280
     0
102
RTVSPost2010PropOp49
 70
     1
102
RTVSPost2010Prop50
 90
       50
102
RTVSPost2010PropOp50
 70
     1
102
RTVSPost2010Prop51ColorIndex
 90
      256
102
RTVSPost2010Prop51ColorRGB
 90
-16777216
102
RTVSPost2010PropOp51
 70
     0
102
RTVSPost2010Prop52
140
1.0
102
RTVSPost2010PropOp52
 70
     0
102
RTVSPost2010Prop53
 90
        2
102
RTVSPost2010PropOp53
 70
     1
102
RTVSPost2010Prop54
  1
strokes_ogs.tif
102
RTVSPost2010PropOp54
 70
     1
102
RTVSPost2010Prop55
280
     0
102
RTVSPost2010PropOp55
 70
     1
102
RTVSPost2010Prop56
140
1.0
102
RTVSPost2010PropOp56
 70
     1
102
RTVSPost2010Prop57
140
1.0
102
RTVSPost2010PropOp57
 70
     1
  0
XRECORD
  5
5211
102
{ACAD_REACTORS
330
5210
102
}
330
5210
100
AcDbXrecord
280
     1
102
RTVSPost2010Prop28
280
     0
102
RTVSPost2010PropOp28
 70
     1
102
RTVSPost2010Prop29
280
     1
102
RTVSPost2010PropOp29
 70
     1
102
RTVSPost2010Prop30
280
     1
102
RTVSPost2010PropOp30
 70
     1
102
RTVSPost2010Prop31
280
     0
102
RTVSPost2010PropOp31
 70
     1
102
RTVSPost2010Prop32
280
     0
102
RTVSPost2010PropOp32
 70
     1
102
RTVSPost2010Prop33
280
     0
102
RTVSPost2010PropOp33
 70
     1
102
RTVSPost2010Prop34
280
     0
102
RTVSPost2010PropOp34
 70
     1
102
RTVSPost2010Prop35
280
     0
102
RTVSPost2010PropOp35
 70
     1
102
RTVSPost2010Prop36
280
     0
102
RTVSPost2010PropOp36
 70
     1
102
RTVSPost2010Prop37
 90
       50
102
RTVSPost2010PropOp37
 70
     1
102
RTVSPost2010Prop38
140
0.0
102
RTVSPost2010PropOp38
 70
     1
102
RTVSPost2010Prop39
140
1.0
102
RTVSPost2010PropOp39
 70
     1
102
RTVSPost2010Prop40
 90
        0
102
RTVSPost2010PropOp40
 70
     1
102
RTVSPost2010Prop41ColorIndex
 90
       18
102
RTVSPost2010Prop41ColorRGB
 90
        0
102
RTVSPost2010PropOp41
 70
     1
102
RTVSPost2010Prop42
 90
       50
102
RTVSPost2010PropOp42
 70
     1
102
RTVSPost2010Prop43
 90
        3
102
RTVSPost2010PropOp43
 70
     1
102
RTVSPost2010Prop44ColorIndex
 90
        5
102
RTVSPost2010Prop44ColorRGB
 90
      255
102
RTVSPost2010PropOp44
 70
     1
102
RTVSPost2010Prop45
280
     0
102
RTVSPost2010PropOp45
 70
     1
102
RTVSPost2010Prop46
 90
       50
102
RTVSPost2010PropOp46
 70
     1
102
RTVSPost2010Prop47
 90
       50
102
RTVSPost2010PropOp47
 70
     1
102
RTVSPost2010Prop48
 90
       50
102
RTVSPost2010PropOp48
 70
     1
102
RTVSPost2010Prop49
280
     0
102
RTVSPost2010PropOp49
 70
     1
102
RTVSPost2010Prop50
 90
       50
102
RTVSPost2010PropOp50
 70
     1
102
RTVSPost2010Prop51ColorIndex
 90
      256
102
RTVSPost2010Prop51ColorRGB
 90
-16777216
102
RTVSPost2010PropOp51
 70
     0
102
RTVSPost2010Prop52
140
1.0
102
RTVSPost2010PropOp52
 70
     0
102
RTVSPost2010Prop53
 90
        2
102
RTVSPost2010PropOp53
 70
     1
102
RTVSPost2010Prop54
  1
strokes_ogs.tif
102
RTVSPost2010PropOp54
 70
     1
102
RTVSPost2010Prop55
280
     0
102
RTVSPost2010PropOp55
 70
     1
102
RTVSPost2010Prop56
140
1.0
102
RTVSPost2010PropOp56
 70
     1
102
RTVSPost2010Prop57
140
1.0
102
RTVSPost2010PropOp57
 70
     1
  0
XRECORD
  5
5203
102
{ACAD_REACTORS
330
5202
102
}
330
5202
100
AcDbXrecord
280
     1
102
RTVSPost2010Prop28
280
     0
102
RTVSPost2010PropOp28
 70
     1
102
RTVSPost2010Prop29
280
     1
102
RTVSPost2010PropOp29
 70
     1
102
RTVSPost2010Prop30
280
     1
102
RTVSPost2010PropOp30
 70
     1
102
RTVSPost2010Prop31
280
     0
102
RTVSPost2010PropOp31
 70
     1
102
RTVSPost2010Prop32
280
     0
102
RTVSPost2010PropOp32
 70
     1
102
RTVSPost2010Prop33
280
     0
102
RTVSPost2010PropOp33
 70
     1
102
RTVSPost2010Prop34
280
     0
102
RTVSPost2010PropOp34
 70
     1
102
RTVSPost2010Prop35
280
     0
102
RTVSPost2010PropOp35
 70
     1
102
RTVSPost2010Prop36
280
     0
102
RTVSPost2010PropOp36
 70
     1
102
RTVSPost2010Prop37
 90
       50
102
RTVSPost2010PropOp37
 70
     1
102
RTVSPost2010Prop38
140
0.0
102
RTVSPost2010PropOp38
 70
     1
102
RTVSPost2010Prop39
140
1.0
102
RTVSPost2010PropOp39
 70
     1
102
RTVSPost2010Prop40
 90
        0
102
RTVSPost2010PropOp40
 70
     1
102
RTVSPost2010Prop41ColorIndex
 90
       18
102
RTVSPost2010Prop41ColorRGB
 90
        0
102
RTVSPost2010PropOp41
 70
     1
102
RTVSPost2010Prop42
 90
       50
102
RTVSPost2010PropOp42
 70
     1
102
RTVSPost2010Prop43
 90
        3
102
RTVSPost2010PropOp43
 70
     1
102
RTVSPost2010Prop44ColorIndex
 90
        5
102
RTVSPost2010Prop44ColorRGB
 90
      255
102
RTVSPost2010PropOp44
 70
     1
102
RTVSPost2010Prop45
280
     0
102
RTVSPost2010PropOp45
 70
     1
102
RTVSPost2010Prop46
 90
       50
102
RTVSPost2010PropOp46
 70
     1
102
RTVSPost2010Prop47
 90
       50
102
RTVSPost2010PropOp47
 70
     1
102
RTVSPost2010Prop48
 90
       50
102
RTVSPost2010PropOp48
 70
     1
102
RTVSPost2010Prop49
280
     0
102
RTVSPost2010PropOp49
 70
     1
102
RTVSPost2010Prop50
 90
       50
102
RTVSPost2010PropOp50
 70
     1
102
RTVSPost2010Prop51ColorIndex
 90
      256
102
RTVSPost2010Prop51ColorRGB
 90
-16777216
102
RTVSPost2010PropOp51
 70
     0
102
RTVSPost2010Prop52
140
1.0
102
RTVSPost2010PropOp52
 70
     0
102
RTVSPost2010Prop53
 90
        2
102
RTVSPost2010PropOp53
 70
     1
102
RTVSPost2010Prop54
  1
strokes_ogs.tif
102
RTVSPost2010PropOp54
 70
     1
102
RTVSPost2010Prop55
280
     0
102
RTVSPost2010PropOp55
 70
     1
102
RTVSPost2010Prop56
140
1.0
102
RTVSPost2010PropOp56
 70
     1
102
RTVSPost2010Prop57
140
1.0
102
RTVSPost2010PropOp57
 70
     1
  0
XRECORD
  5
5207
102
{ACAD_REACTORS
330
5206
102
}
330
5206
100
AcDbXrecord
280
     1
102
RTVSPost2010Prop28
280
     0
102
RTVSPost2010PropOp28
 70
     1
102
RTVSPost2010Prop29
280
     1
102
RTVSPost2010PropOp29
 70
     1
102
RTVSPost2010Prop30
280
     1
102
RTVSPost2010PropOp30
 70
     1
102
RTVSPost2010Prop31
280
     0
102
RTVSPost2010PropOp31
 70
     1
102
RTVSPost2010Prop32
280
     0
102
RTVSPost2010PropOp32
 70
     1
102
RTVSPost2010Prop33
280
     0
102
RTVSPost2010PropOp33
 70
     1
102
RTVSPost2010Prop34
280
     0
102
RTVSPost2010PropOp34
 70
     1
102
RTVSPost2010Prop35
280
     0
102
RTVSPost2010PropOp35
 70
     1
102
RTVSPost2010Prop36
280
     0
102
RTVSPost2010PropOp36
 70
     1
102
RTVSPost2010Prop37
 90
       50
102
RTVSPost2010PropOp37
 70
     1
102
RTVSPost2010Prop38
140
0.0
102
RTVSPost2010PropOp38
 70
     1
102
RTVSPost2010Prop39
140
1.0
102
RTVSPost2010PropOp39
 70
     1
102
RTVSPost2010Prop40
 90
        0
102
RTVSPost2010PropOp40
 70
     1
102
RTVSPost2010Prop41ColorIndex
 90
       18
102
RTVSPost2010Prop41ColorRGB
 90
        0
102
RTVSPost2010PropOp41
 70
     1
102
RTVSPost2010Prop42
 90
       50
102
RTVSPost2010PropOp42
 70
     1
102
RTVSPost2010Prop43
 90
        3
102
RTVSPost2010PropOp43
 70
     1
102
RTVSPost2010Prop44ColorIndex
 90
        5
102
RTVSPost2010Prop44ColorRGB
 90
      255
102
RTVSPost2010PropOp44
 70
     1
102
RTVSPost2010Prop45
280
     0
102
RTVSPost2010PropOp45
 70
     1
102
RTVSPost2010Prop46
 90
       50
102
RTVSPost2010PropOp46
 70
     1
102
RTVSPost2010Prop47
 90
       50
102
RTVSPost2010PropOp47
 70
     1
102
RTVSPost2010Prop48
 90
       50
102
RTVSPost2010PropOp48
 70
     1
102
RTVSPost2010Prop49
280
     0
102
RTVSPost2010PropOp49
 70
     1
102
RTVSPost2010Prop50
 90
       50
102
RTVSPost2010PropOp50
 70
     1
102
RTVSPost2010Prop51ColorIndex
 90
      256
102
RTVSPost2010Prop51ColorRGB
 90
-16777216
102
RTVSPost2010PropOp51
 70
     0
102
RTVSPost2010Prop52
140
1.0
102
RTVSPost2010PropOp52
 70
     0
102
RTVSPost2010Prop53
 90
        2
102
RTVSPost2010PropOp53
 70
     1
102
RTVSPost2010Prop54
  1
strokes_ogs.tif
102
RTVSPost2010PropOp54
 70
     1
102
RTVSPost2010Prop55
280
     0
102
RTVSPost2010PropOp55
 70
     1
102
RTVSPost2010Prop56
140
1.0
102
RTVSPost2010PropOp56
 70
     1
102
RTVSPost2010Prop57
140
1.0
102
RTVSPost2010PropOp57
 70
     1
  0
XRECORD
  5
5225
102
{ACAD_REACTORS
330
5224
102
}
330
5224
100
AcDbXrecord
280
     1
102
RTVSPost2010Prop28
280
     0
102
RTVSPost2010PropOp28
 70
     1
102
RTVSPost2010Prop29
280
     1
102
RTVSPost2010PropOp29
 70
     1
102
RTVSPost2010Prop30
280
     1
102
RTVSPost2010PropOp30
 70
     1
102
RTVSPost2010Prop31
280
     0
102
RTVSPost2010PropOp31
 70
     1
102
RTVSPost2010Prop32
280
     0
102
RTVSPost2010PropOp32
 70
     1
102
RTVSPost2010Prop33
280
     0
102
RTVSPost2010PropOp33
 70
     1
102
RTVSPost2010Prop34
280
     0
102
RTVSPost2010PropOp34
 70
     1
102
RTVSPost2010Prop35
280
     0
102
RTVSPost2010PropOp35
 70
     1
102
RTVSPost2010Prop36
280
     0
102
RTVSPost2010PropOp36
 70
     1
102
RTVSPost2010Prop37
 90
       50
102
RTVSPost2010PropOp37
 70
     1
102
RTVSPost2010Prop38
140
0.0
102
RTVSPost2010PropOp38
 70
     1
102
RTVSPost2010Prop39
140
1.0
102
RTVSPost2010PropOp39
 70
     1
102
RTVSPost2010Prop40
 90
        0
102
RTVSPost2010PropOp40
 70
     1
102
RTVSPost2010Prop41ColorIndex
 90
       18
102
RTVSPost2010Prop41ColorRGB
 90
        0
102
RTVSPost2010PropOp41
 70
     1
102
RTVSPost2010Prop42
 90
       50
102
RTVSPost2010PropOp42
 70
     1
102
RTVSPost2010Prop43
 90
        3
102
RTVSPost2010PropOp43
 70
     1
102
RTVSPost2010Prop44ColorIndex
 90
        5
102
RTVSPost2010Prop44ColorRGB
 90
      255
102
RTVSPost2010PropOp44
 70
     1
102
RTVSPost2010Prop45
280
     0
102
RTVSPost2010PropOp45
 70
     1
102
RTVSPost2010Prop46
 90
       50
102
RTVSPost2010PropOp46
 70
     1
102
RTVSPost2010Prop47
 90
       50
102
RTVSPost2010PropOp47
 70
     1
102
RTVSPost2010Prop48
 90
       50
102
RTVSPost2010PropOp48
 70
     1
102
RTVSPost2010Prop49
280
     0
102
RTVSPost2010PropOp49
 70
     1
102
RTVSPost2010Prop50
 90
       50
102
RTVSPost2010PropOp50
 70
     1
102
RTVSPost2010Prop51ColorIndex
 90
      256
102
RTVSPost2010Prop51ColorRGB
 90
-16777216
102
RTVSPost2010PropOp51
 70
     0
102
RTVSPost2010Prop52
140
1.0
102
RTVSPost2010PropOp52
 70
     0
102
RTVSPost2010Prop53
 90
        2
102
RTVSPost2010PropOp53
 70
     1
102
RTVSPost2010Prop54
  1
strokes_ogs.tif
102
RTVSPost2010PropOp54
 70
     1
102
RTVSPost2010Prop55
280
     0
102
RTVSPost2010PropOp55
 70
     1
102
RTVSPost2010Prop56
140
1.0
102
RTVSPost2010PropOp56
 70
     1
102
RTVSPost2010Prop57
140
1.0
102
RTVSPost2010PropOp57
 70
     1
  0
XRECORD
  5
520F
102
{ACAD_REACTORS
330
520E
102
}
330
520E
100
AcDbXrecord
280
     1
102
RTVSPost2010Prop28
280
     0
102
RTVSPost2010PropOp28
 70
     1
102
RTVSPost2010Prop29
280
     1
102
RTVSPost2010PropOp29
 70
     1
102
RTVSPost2010Prop30
280
     1
102
RTVSPost2010PropOp30
 70
     1
102
RTVSPost2010Prop31
280
     0
102
RTVSPost2010PropOp31
 70
     1
102
RTVSPost2010Prop32
280
     0
102
RTVSPost2010PropOp32
 70
     1
102
RTVSPost2010Prop33
280
     0
102
RTVSPost2010PropOp33
 70
     1
102
RTVSPost2010Prop34
280
     0
102
RTVSPost2010PropOp34
 70
     1
102
RTVSPost2010Prop35
280
     0
102
RTVSPost2010PropOp35
 70
     1
102
RTVSPost2010Prop36
280
     0
102
RTVSPost2010PropOp36
 70
     1
102
RTVSPost2010Prop37
 90
       50
102
RTVSPost2010PropOp37
 70
     1
102
RTVSPost2010Prop38
140
0.0
102
RTVSPost2010PropOp38
 70
     1
102
RTVSPost2010Prop39
140
1.0
102
RTVSPost2010PropOp39
 70
     1
102
RTVSPost2010Prop40
 90
        0
102
RTVSPost2010PropOp40
 70
     1
102
RTVSPost2010Prop41ColorIndex
 90
       18
102
RTVSPost2010Prop41ColorRGB
 90
        0
102
RTVSPost2010PropOp41
 70
     1
102
RTVSPost2010Prop42
 90
       50
102
RTVSPost2010PropOp42
 70
     1
102
RTVSPost2010Prop43
 90
        3
102
RTVSPost2010PropOp43
 70
     1
102
RTVSPost2010Prop44ColorIndex
 90
        5
102
RTVSPost2010Prop44ColorRGB
 90
      255
102
RTVSPost2010PropOp44
 70
     1
102
RTVSPost2010Prop45
280
     0
102
RTVSPost2010PropOp45
 70
     1
102
RTVSPost2010Prop46
 90
       50
102
RTVSPost2010PropOp46
 70
     1
102
RTVSPost2010Prop47
 90
       50
102
RTVSPost2010PropOp47
 70
     1
102
RTVSPost2010Prop48
 90
       50
102
RTVSPost2010PropOp48
 70
     1
102
RTVSPost2010Prop49
280
     0
102
RTVSPost2010PropOp49
 70
     1
102
RTVSPost2010Prop50
 90
       50
102
RTVSPost2010PropOp50
 70
     1
102
RTVSPost2010Prop51ColorIndex
 90
      256
102
RTVSPost2010Prop51ColorRGB
 90
-16777216
102
RTVSPost2010PropOp51
 70
     0
102
RTVSPost2010Prop52
140
1.0
102
RTVSPost2010PropOp52
 70
     0
102
RTVSPost2010Prop53
 90
        2
102
RTVSPost2010PropOp53
 70
     1
102
RTVSPost2010Prop54
  1
strokes_ogs.tif
102
RTVSPost2010PropOp54
 70
     1
102
RTVSPost2010Prop55
280
     0
102
RTVSPost2010PropOp55
 70
     1
102
RTVSPost2010Prop56
140
1.0
102
RTVSPost2010PropOp56
 70
     1
102
RTVSPost2010Prop57
140
1.0
102
RTVSPost2010PropOp57
 70
     1
  0
XRECORD
  5
51F3
102
{ACAD_REACTORS
330
51F2
102
}
330
51F2
100
AcDbXrecord
280
     1
102
RTVSPost2010Prop28
280
     0
102
RTVSPost2010PropOp28
 70
     1
102
RTVSPost2010Prop29
280
     1
102
RTVSPost2010PropOp29
 70
     1
102
RTVSPost2010Prop30
280
     1
102
RTVSPost2010PropOp30
 70
     1
102
RTVSPost2010Prop31
280
     0
102
RTVSPost2010PropOp31
 70
     1
102
RTVSPost2010Prop32
280
     0
102
RTVSPost2010PropOp32
 70
     1
102
RTVSPost2010Prop33
280
     0
102
RTVSPost2010PropOp33
 70
     1
102
RTVSPost2010Prop34
280
     0
102
RTVSPost2010PropOp34
 70
     1
102
RTVSPost2010Prop35
280
     0
102
RTVSPost2010PropOp35
 70
     1
102
RTVSPost2010Prop36
280
     0
102
RTVSPost2010PropOp36
 70
     1
102
RTVSPost2010Prop37
 90
       50
102
RTVSPost2010PropOp37
 70
     1
102
RTVSPost2010Prop38
140
0.0
102
RTVSPost2010PropOp38
 70
     1
102
RTVSPost2010Prop39
140
1.0
102
RTVSPost2010PropOp39
 70
     1
102
RTVSPost2010Prop40
 90
        0
102
RTVSPost2010PropOp40
 70
     1
102
RTVSPost2010Prop41ColorIndex
 90
       18
102
RTVSPost2010Prop41ColorRGB
 90
        0
102
RTVSPost2010PropOp41
 70
     1
102
RTVSPost2010Prop42
 90
       50
102
RTVSPost2010PropOp42
 70
     1
102
RTVSPost2010Prop43
 90
        3
102
RTVSPost2010PropOp43
 70
     1
102
RTVSPost2010Prop44ColorIndex
 90
        5
102
RTVSPost2010Prop44ColorRGB
 90
      255
102
RTVSPost2010PropOp44
 70
     1
102
RTVSPost2010Prop45
280
     0
102
RTVSPost2010PropOp45
 70
     1
102
RTVSPost2010Prop46
 90
       50
102
RTVSPost2010PropOp46
 70
     1
102
RTVSPost2010Prop47
 90
       50
102
RTVSPost2010PropOp47
 70
     1
102
RTVSPost2010Prop48
 90
       50
102
RTVSPost2010PropOp48
 70
     1
102
RTVSPost2010Prop49
280
     0
102
RTVSPost2010PropOp49
 70
     1
102
RTVSPost2010Prop50
 90
       50
102
RTVSPost2010PropOp50
 70
     1
102
RTVSPost2010Prop51ColorIndex
 90
      256
102
RTVSPost2010Prop51ColorRGB
 90
-16777216
102
RTVSPost2010PropOp51
 70
     0
102
RTVSPost2010Prop52
140
1.0
102
RTVSPost2010PropOp52
 70
     0
102
RTVSPost2010Prop53
 90
        2
102
RTVSPost2010PropOp53
 70
     1
102
RTVSPost2010Prop54
  1
strokes_ogs.tif
102
RTVSPost2010PropOp54
 70
     1
102
RTVSPost2010Prop55
280
     0
102
RTVSPost2010PropOp55
 70
     1
102
RTVSPost2010Prop56
140
1.0
102
RTVSPost2010PropOp56
 70
     1
102
RTVSPost2010Prop57
140
1.0
102
RTVSPost2010PropOp57
 70
     1
  0
XRECORD
  5
51F5
102
{ACAD_REACTORS
330
51F4
102
}
330
51F4
100
AcDbXrecord
280
     1
102
RTVSPost2010Prop28
280
     0
102
RTVSPost2010PropOp28
 70
     1
102
RTVSPost2010Prop29
280
     1
102
RTVSPost2010PropOp29
 70
     1
102
RTVSPost2010Prop30
280
     1
102
RTVSPost2010PropOp30
 70
     1
102
RTVSPost2010Prop31
280
     0
102
RTVSPost2010PropOp31
 70
     1
102
RTVSPost2010Prop32
280
     0
102
RTVSPost2010PropOp32
 70
     1
102
RTVSPost2010Prop33
280
     0
102
RTVSPost2010PropOp33
 70
     1
102
RTVSPost2010Prop34
280
     0
102
RTVSPost2010PropOp34
 70
     1
102
RTVSPost2010Prop35
280
     0
102
RTVSPost2010PropOp35
 70
     1
102
RTVSPost2010Prop36
280
     0
102
RTVSPost2010PropOp36
 70
     1
102
RTVSPost2010Prop37
 90
       50
102
RTVSPost2010PropOp37
 70
     1
102
RTVSPost2010Prop38
140
0.0
102
RTVSPost2010PropOp38
 70
     1
102
RTVSPost2010Prop39
140
1.0
102
RTVSPost2010PropOp39
 70
     1
102
RTVSPost2010Prop40
 90
        0
102
RTVSPost2010PropOp40
 70
     1
102
RTVSPost2010Prop41ColorIndex
 90
       18
102
RTVSPost2010Prop41ColorRGB
 90
        0
102
RTVSPost2010PropOp41
 70
     1
102
RTVSPost2010Prop42
 90
       50
102
RTVSPost2010PropOp42
 70
     1
102
RTVSPost2010Prop43
 90
        3
102
RTVSPost2010PropOp43
 70
     1
102
RTVSPost2010Prop44ColorIndex
 90
        5
102
RTVSPost2010Prop44ColorRGB
 90
      255
102
RTVSPost2010PropOp44
 70
     1
102
RTVSPost2010Prop45
280
     0
102
RTVSPost2010PropOp45
 70
     1
102
RTVSPost2010Prop46
 90
       50
102
RTVSPost2010PropOp46
 70
     1
102
RTVSPost2010Prop47
 90
       50
102
RTVSPost2010PropOp47
 70
     1
102
RTVSPost2010Prop48
 90
       50
102
RTVSPost2010PropOp48
 70
     1
102
RTVSPost2010Prop49
280
     0
102
RTVSPost2010PropOp49
 70
     1
102
RTVSPost2010Prop50
 90
       50
102
RTVSPost2010PropOp50
 70
     1
102
RTVSPost2010Prop51ColorIndex
 90
      256
102
RTVSPost2010Prop51ColorRGB
 90
-16777216
102
RTVSPost2010PropOp51
 70
     0
102
RTVSPost2010Prop52
140
1.0
102
RTVSPost2010PropOp52
 70
     0
102
RTVSPost2010Prop53
 90
        2
102
RTVSPost2010PropOp53
 70
     1
102
RTVSPost2010Prop54
  1
strokes_ogs.tif
102
RTVSPost2010PropOp54
 70
     1
102
RTVSPost2010Prop55
280
     0
102
RTVSPost2010PropOp55
 70
     1
102
RTVSPost2010Prop56
140
1.0
102
RTVSPost2010PropOp56
 70
     1
102
RTVSPost2010Prop57
140
1.0
102
RTVSPost2010PropOp57
 70
     1
  0
XRECORD
  5
51F7
102
{ACAD_REACTORS
330
51F6
102
}
330
51F6
100
AcDbXrecord
280
     1
102
RTVSPost2010Prop28
280
     0
102
RTVSPost2010PropOp28
 70
     1
102
RTVSPost2010Prop29
280
     1
102
RTVSPost2010PropOp29
 70
     1
102
RTVSPost2010Prop30
280
     1
102
RTVSPost2010PropOp30
 70
     1
102
RTVSPost2010Prop31
280
     0
102
RTVSPost2010PropOp31
 70
     1
102
RTVSPost2010Prop32
280
     0
102
RTVSPost2010PropOp32
 70
     1
102
RTVSPost2010Prop33
280
     0
102
RTVSPost2010PropOp33
 70
     1
102
RTVSPost2010Prop34
280
     0
102
RTVSPost2010PropOp34
 70
     1
102
RTVSPost2010Prop35
280
     0
102
RTVSPost2010PropOp35
 70
     1
102
RTVSPost2010Prop36
280
     0
102
RTVSPost2010PropOp36
 70
     1
102
RTVSPost2010Prop37
 90
       50
102
RTVSPost2010PropOp37
 70
     1
102
RTVSPost2010Prop38
140
0.0
102
RTVSPost2010PropOp38
 70
     1
102
RTVSPost2010Prop39
140
1.0
102
RTVSPost2010PropOp39
 70
     1
102
RTVSPost2010Prop40
 90
        0
102
RTVSPost2010PropOp40
 70
     1
102
RTVSPost2010Prop41ColorIndex
 90
       18
102
RTVSPost2010Prop41ColorRGB
 90
        0
102
RTVSPost2010PropOp41
 70
     1
102
RTVSPost2010Prop42
 90
       50
102
RTVSPost2010PropOp42
 70
     1
102
RTVSPost2010Prop43
 90
        3
102
RTVSPost2010PropOp43
 70
     1
102
RTVSPost2010Prop44ColorIndex
 90
        5
102
RTVSPost2010Prop44ColorRGB
 90
      255
102
RTVSPost2010PropOp44
 70
     1
102
RTVSPost2010Prop45
280
     0
102
RTVSPost2010PropOp45
 70
     1
102
RTVSPost2010Prop46
 90
       50
102
RTVSPost2010PropOp46
 70
     1
102
RTVSPost2010Prop47
 90
       50
102
RTVSPost2010PropOp47
 70
     1
102
RTVSPost2010Prop48
 90
       50
102
RTVSPost2010PropOp48
 70
     1
102
RTVSPost2010Prop49
280
     0
102
RTVSPost2010PropOp49
 70
     1
102
RTVSPost2010Prop50
 90
       50
102
RTVSPost2010PropOp50
 70
     1
102
RTVSPost2010Prop51ColorIndex
 90
      256
102
RTVSPost2010Prop51ColorRGB
 90
-16777216
102
RTVSPost2010PropOp51
 70
     0
102
RTVSPost2010Prop52
140
1.0
102
RTVSPost2010PropOp52
 70
     0
102
RTVSPost2010Prop53
 90
        2
102
RTVSPost2010PropOp53
 70
     1
102
RTVSPost2010Prop54
  1
strokes_ogs.tif
102
RTVSPost2010PropOp54
 70
     1
102
RTVSPost2010Prop55
280
     0
102
RTVSPost2010PropOp55
 70
     1
102
RTVSPost2010Prop56
140
1.0
102
RTVSPost2010PropOp56
 70
     1
102
RTVSPost2010Prop57
140
1.0
102
RTVSPost2010PropOp57
 70
     1
  0
XRECORD
  5
51F9
102
{ACAD_REACTORS
330
51F8
102
}
330
51F8
100
AcDbXrecord
280
     1
102
RTVSPost2010Prop28
280
     0
102
RTVSPost2010PropOp28
 70
     1
102
RTVSPost2010Prop29
280
     1
102
RTVSPost2010PropOp29
 70
     1
102
RTVSPost2010Prop30
280
     1
102
RTVSPost2010PropOp30
 70
     1
102
RTVSPost2010Prop31
280
     0
102
RTVSPost2010PropOp31
 70
     1
102
RTVSPost2010Prop32
280
     0
102
RTVSPost2010PropOp32
 70
     1
102
RTVSPost2010Prop33
280
     0
102
RTVSPost2010PropOp33
 70
     1
102
RTVSPost2010Prop34
280
     0
102
RTVSPost2010PropOp34
 70
     1
102
RTVSPost2010Prop35
280
     0
102
RTVSPost2010PropOp35
 70
     1
102
RTVSPost2010Prop36
280
     0
102
RTVSPost2010PropOp36
 70
     1
102
RTVSPost2010Prop37
 90
       50
102
RTVSPost2010PropOp37
 70
     1
102
RTVSPost2010Prop38
140
0.0
102
RTVSPost2010PropOp38
 70
     1
102
RTVSPost2010Prop39
140
1.0
102
RTVSPost2010PropOp39
 70
     1
102
RTVSPost2010Prop40
 90
        0
102
RTVSPost2010PropOp40
 70
     1
102
RTVSPost2010Prop41ColorIndex
 90
       18
102
RTVSPost2010Prop41ColorRGB
 90
        0
102
RTVSPost2010PropOp41
 70
     1
102
RTVSPost2010Prop42
 90
       50
102
RTVSPost2010PropOp42
 70
     1
102
RTVSPost2010Prop43
 90
        3
102
RTVSPost2010PropOp43
 70
     1
102
RTVSPost2010Prop44ColorIndex
 90
        5
102
RTVSPost2010Prop44ColorRGB
 90
      255
102
RTVSPost2010PropOp44
 70
     1
102
RTVSPost2010Prop45
280
     0
102
RTVSPost2010PropOp45
 70
     1
102
RTVSPost2010Prop46
 90
       50
102
RTVSPost2010PropOp46
 70
     1
102
RTVSPost2010Prop47
 90
       50
102
RTVSPost2010PropOp47
 70
     1
102
RTVSPost2010Prop48
 90
       50
102
RTVSPost2010PropOp48
 70
     1
102
RTVSPost2010Prop49
280
     0
102
RTVSPost2010PropOp49
 70
     1
102
RTVSPost2010Prop50
 90
       50
102
RTVSPost2010PropOp50
 70
     1
102
RTVSPost2010Prop51ColorIndex
 90
      256
102
RTVSPost2010Prop51ColorRGB
 90
-16777216
102
RTVSPost2010PropOp51
 70
     0
102
RTVSPost2010Prop52
140
1.0
102
RTVSPost2010PropOp52
 70
     0
102
RTVSPost2010Prop53
 90
        2
102
RTVSPost2010PropOp53
 70
     1
102
RTVSPost2010Prop54
  1
strokes_ogs.tif
102
RTVSPost2010PropOp54
 70
     1
102
RTVSPost2010Prop55
280
     0
102
RTVSPost2010PropOp55
 70
     1
102
RTVSPost2010Prop56
140
1.0
102
RTVSPost2010PropOp56
 70
     1
102
RTVSPost2010Prop57
140
1.0
102
RTVSPost2010PropOp57
 70
     1
  0
XRECORD
  5
5215
102
{ACAD_REACTORS
330
5214
102
}
330
5214
100
AcDbXrecord
280
     1
102
RTVSPost2010Prop28
280
     0
102
RTVSPost2010PropOp28
 70
     1
102
RTVSPost2010Prop29
280
     1
102
RTVSPost2010PropOp29
 70
     1
102
RTVSPost2010Prop30
280
     1
102
RTVSPost2010PropOp30
 70
     1
102
RTVSPost2010Prop31
280
     0
102
RTVSPost2010PropOp31
 70
     1
102
RTVSPost2010Prop32
280
     0
102
RTVSPost2010PropOp32
 70
     1
102
RTVSPost2010Prop33
280
     0
102
RTVSPost2010PropOp33
 70
     1
102
RTVSPost2010Prop34
280
     0
102
RTVSPost2010PropOp34
 70
     1
102
RTVSPost2010Prop35
280
     0
102
RTVSPost2010PropOp35
 70
     1
102
RTVSPost2010Prop36
280
     0
102
RTVSPost2010PropOp36
 70
     1
102
RTVSPost2010Prop37
 90
       50
102
RTVSPost2010PropOp37
 70
     1
102
RTVSPost2010Prop38
140
0.0
102
RTVSPost2010PropOp38
 70
     1
102
RTVSPost2010Prop39
140
1.0
102
RTVSPost2010PropOp39
 70
     1
102
RTVSPost2010Prop40
 90
        0
102
RTVSPost2010PropOp40
 70
     1
102
RTVSPost2010Prop41ColorIndex
 90
       18
102
RTVSPost2010Prop41ColorRGB
 90
        0
102
RTVSPost2010PropOp41
 70
     1
102
RTVSPost2010Prop42
 90
       50
102
RTVSPost2010PropOp42
 70
     1
102
RTVSPost2010Prop43
 90
        3
102
RTVSPost2010PropOp43
 70
     1
102
RTVSPost2010Prop44ColorIndex
 90
        5
102
RTVSPost2010Prop44ColorRGB
 90
      255
102
RTVSPost2010PropOp44
 70
     1
102
RTVSPost2010Prop45
280
     0
102
RTVSPost2010PropOp45
 70
     1
102
RTVSPost2010Prop46
 90
       50
102
RTVSPost2010PropOp46
 70
     1
102
RTVSPost2010Prop47
 90
       50
102
RTVSPost2010PropOp47
 70
     1
102
RTVSPost2010Prop48
 90
       50
102
RTVSPost2010PropOp48
 70
     1
102
RTVSPost2010Prop49
280
     0
102
RTVSPost2010PropOp49
 70
     1
102
RTVSPost2010Prop50
 90
       50
102
RTVSPost2010PropOp50
 70
     1
102
RTVSPost2010Prop51ColorIndex
 90
      256
102
RTVSPost2010Prop51ColorRGB
 90
-16777216
102
RTVSPost2010PropOp51
 70
     0
102
RTVSPost2010Prop52
140
1.0
102
RTVSPost2010PropOp52
 70
     0
102
RTVSPost2010Prop53
 90
        2
102
RTVSPost2010PropOp53
 70
     1
102
RTVSPost2010Prop54
  1
strokes_ogs.tif
102
RTVSPost2010PropOp54
 70
     1
102
RTVSPost2010Prop55
280
     0
102
RTVSPost2010PropOp55
 70
     1
102
RTVSPost2010Prop56
140
1.0
102
RTVSPost2010PropOp56
 70
     1
102
RTVSPost2010Prop57
140
1.0
102
RTVSPost2010PropOp57
 70
     1
  0
XRECORD
  5
5221
102
{ACAD_REACTORS
330
5220
102
}
330
5220
100
AcDbXrecord
280
     1
102
RTVSPost2010Prop28
280
     0
102
RTVSPost2010PropOp28
 70
     1
102
RTVSPost2010Prop29
280
     1
102
RTVSPost2010PropOp29
 70
     1
102
RTVSPost2010Prop30
280
     1
102
RTVSPost2010PropOp30
 70
     1
102
RTVSPost2010Prop31
280
     0
102
RTVSPost2010PropOp31
 70
     1
102
RTVSPost2010Prop32
280
     0
102
RTVSPost2010PropOp32
 70
     1
102
RTVSPost2010Prop33
280
     0
102
RTVSPost2010PropOp33
 70
     1
102
RTVSPost2010Prop34
280
     0
102
RTVSPost2010PropOp34
 70
     1
102
RTVSPost2010Prop35
280
     0
102
RTVSPost2010PropOp35
 70
     1
102
RTVSPost2010Prop36
280
     0
102
RTVSPost2010PropOp36
 70
     1
102
RTVSPost2010Prop37
 90
       50
102
RTVSPost2010PropOp37
 70
     1
102
RTVSPost2010Prop38
140
0.0
102
RTVSPost2010PropOp38
 70
     1
102
RTVSPost2010Prop39
140
1.0
102
RTVSPost2010PropOp39
 70
     1
102
RTVSPost2010Prop40
 90
        0
102
RTVSPost2010PropOp40
 70
     1
102
RTVSPost2010Prop41ColorIndex
 90
       18
102
RTVSPost2010Prop41ColorRGB
 90
        0
102
RTVSPost2010PropOp41
 70
     1
102
RTVSPost2010Prop42
 90
       50
102
RTVSPost2010PropOp42
 70
     1
102
RTVSPost2010Prop43
 90
        3
102
RTVSPost2010PropOp43
 70
     1
102
RTVSPost2010Prop44ColorIndex
 90
        5
102
RTVSPost2010Prop44ColorRGB
 90
      255
102
RTVSPost2010PropOp44
 70
     1
102
RTVSPost2010Prop45
280
     0
102
RTVSPost2010PropOp45
 70
     1
102
RTVSPost2010Prop46
 90
       50
102
RTVSPost2010PropOp46
 70
     1
102
RTVSPost2010Prop47
 90
       50
102
RTVSPost2010PropOp47
 70
     1
102
RTVSPost2010Prop48
 90
       50
102
RTVSPost2010PropOp48
 70
     1
102
RTVSPost2010Prop49
280
     0
102
RTVSPost2010PropOp49
 70
     1
102
RTVSPost2010Prop50
 90
       50
102
RTVSPost2010PropOp50
 70
     1
102
RTVSPost2010Prop51ColorIndex
 90
      256
102
RTVSPost2010Prop51ColorRGB
 90
-16777216
102
RTVSPost2010PropOp51
 70
     0
102
RTVSPost2010Prop52
140
1.0
102
RTVSPost2010PropOp52
 70
     0
102
RTVSPost2010Prop53
 90
        2
102
RTVSPost2010PropOp53
 70
     1
102
RTVSPost2010Prop54
  1
strokes_ogs.tif
102
RTVSPost2010PropOp54
 70
     1
102
RTVSPost2010Prop55
280
     0
102
RTVSPost2010PropOp55
 70
     1
102
RTVSPost2010Prop56
140
1.0
102
RTVSPost2010PropOp56
 70
     1
102
RTVSPost2010Prop57
140
1.0
102
RTVSPost2010PropOp57
 70
     1
  0
XRECORD
  5
520D
102
{ACAD_REACTORS
330
520C
102
}
330
520C
100
AcDbXrecord
280
     1
102
RTVSPost2010Prop28
280
     0
102
RTVSPost2010PropOp28
 70
     1
102
RTVSPost2010Prop29
280
     1
102
RTVSPost2010PropOp29
 70
     1
102
RTVSPost2010Prop30
280
     1
102
RTVSPost2010PropOp30
 70
     1
102
RTVSPost2010Prop31
280
     0
102
RTVSPost2010PropOp31
 70
     1
102
RTVSPost2010Prop32
280
     0
102
RTVSPost2010PropOp32
 70
     1
102
RTVSPost2010Prop33
280
     0
102
RTVSPost2010PropOp33
 70
     1
102
RTVSPost2010Prop34
280
     0
102
RTVSPost2010PropOp34
 70
     1
102
RTVSPost2010Prop35
280
     0
102
RTVSPost2010PropOp35
 70
     1
102
RTVSPost2010Prop36
280
     0
102
RTVSPost2010PropOp36
 70
     1
102
RTVSPost2010Prop37
 90
       50
102
RTVSPost2010PropOp37
 70
     1
102
RTVSPost2010Prop38
140
0.0
102
RTVSPost2010PropOp38
 70
     1
102
RTVSPost2010Prop39
140
1.0
102
RTVSPost2010PropOp39
 70
     1
102
RTVSPost2010Prop40
 90
        0
102
RTVSPost2010PropOp40
 70
     1
102
RTVSPost2010Prop41ColorIndex
 90
       18
102
RTVSPost2010Prop41ColorRGB
 90
        0
102
RTVSPost2010PropOp41
 70
     1
102
RTVSPost2010Prop42
 90
       50
102
RTVSPost2010PropOp42
 70
     1
102
RTVSPost2010Prop43
 90
        3
102
RTVSPost2010PropOp43
 70
     1
102
RTVSPost2010Prop44ColorIndex
 90
        5
102
RTVSPost2010Prop44ColorRGB
 90
      255
102
RTVSPost2010PropOp44
 70
     1
102
RTVSPost2010Prop45
280
     0
102
RTVSPost2010PropOp45
 70
     1
102
RTVSPost2010Prop46
 90
       50
102
RTVSPost2010PropOp46
 70
     1
102
RTVSPost2010Prop47
 90
       50
102
RTVSPost2010PropOp47
 70
     1
102
RTVSPost2010Prop48
 90
       50
102
RTVSPost2010PropOp48
 70
     1
102
RTVSPost2010Prop49
280
     0
102
RTVSPost2010PropOp49
 70
     1
102
RTVSPost2010Prop50
 90
       50
102
RTVSPost2010PropOp50
 70
     1
102
RTVSPost2010Prop51ColorIndex
 90
      256
102
RTVSPost2010Prop51ColorRGB
 90
-16777216
102
RTVSPost2010PropOp51
 70
     0
102
RTVSPost2010Prop52
140
1.0
102
RTVSPost2010PropOp52
 70
     0
102
RTVSPost2010Prop53
 90
        2
102
RTVSPost2010PropOp53
 70
     1
102
RTVSPost2010Prop54
  1
strokes_ogs.tif
102
RTVSPost2010PropOp54
 70
     1
102
RTVSPost2010Prop55
280
     0
102
RTVSPost2010PropOp55
 70
     1
102
RTVSPost2010Prop56
140
1.0
102
RTVSPost2010PropOp56
 70
     1
102
RTVSPost2010Prop57
140
1.0
102
RTVSPost2010PropOp57
 70
     1
  0
XRECORD
  5
5223
102
{ACAD_REACTORS
330
5222
102
}
330
5222
100
AcDbXrecord
280
     1
102
RTVSPost2010Prop28
280
     0
102
RTVSPost2010PropOp28
 70
     1
102
RTVSPost2010Prop29
280
     1
102
RTVSPost2010PropOp29
 70
     1
102
RTVSPost2010Prop30
280
     1
102
RTVSPost2010PropOp30
 70
     1
102
RTVSPost2010Prop31
280
     0
102
RTVSPost2010PropOp31
 70
     1
102
RTVSPost2010Prop32
280
     0
102
RTVSPost2010PropOp32
 70
     1
102
RTVSPost2010Prop33
280
     0
102
RTVSPost2010PropOp33
 70
     1
102
RTVSPost2010Prop34
280
     0
102
RTVSPost2010PropOp34
 70
     1
102
RTVSPost2010Prop35
280
     0
102
RTVSPost2010PropOp35
 70
     1
102
RTVSPost2010Prop36
280
     0
102
RTVSPost2010PropOp36
 70
     1
102
RTVSPost2010Prop37
 90
       50
102
RTVSPost2010PropOp37
 70
     1
102
RTVSPost2010Prop38
140
0.0
102
RTVSPost2010PropOp38
 70
     1
102
RTVSPost2010Prop39
140
1.0
102
RTVSPost2010PropOp39
 70
     1
102
RTVSPost2010Prop40
 90
        0
102
RTVSPost2010PropOp40
 70
     1
102
RTVSPost2010Prop41ColorIndex
 90
       18
102
RTVSPost2010Prop41ColorRGB
 90
        0
102
RTVSPost2010PropOp41
 70
     1
102
RTVSPost2010Prop42
 90
       50
102
RTVSPost2010PropOp42
 70
     1
102
RTVSPost2010Prop43
 90
        3
102
RTVSPost2010PropOp43
 70
     1
102
RTVSPost2010Prop44ColorIndex
 90
        5
102
RTVSPost2010Prop44ColorRGB
 90
      255
102
RTVSPost2010PropOp44
 70
     1
102
RTVSPost2010Prop45
280
     0
102
RTVSPost2010PropOp45
 70
     1
102
RTVSPost2010Prop46
 90
       50
102
RTVSPost2010PropOp46
 70
     1
102
RTVSPost2010Prop47
 90
       50
102
RTVSPost2010PropOp47
 70
     1
102
RTVSPost2010Prop48
 90
       50
102
RTVSPost2010PropOp48
 70
     1
102
RTVSPost2010Prop49
280
     0
102
RTVSPost2010PropOp49
 70
     1
102
RTVSPost2010Prop50
 90
       50
102
RTVSPost2010PropOp50
 70
     1
102
RTVSPost2010Prop51ColorIndex
 90
      256
102
RTVSPost2010Prop51ColorRGB
 90
-16777216
102
RTVSPost2010PropOp51
 70
     0
102
RTVSPost2010Prop52
140
1.0
102
RTVSPost2010PropOp52
 70
     0
102
RTVSPost2010Prop53
 90
        2
102
RTVSPost2010PropOp53
 70
     1
102
RTVSPost2010Prop54
  1
strokes_ogs.tif
102
RTVSPost2010PropOp54
 70
     1
102
RTVSPost2010Prop55
280
     0
102
RTVSPost2010PropOp55
 70
     1
102
RTVSPost2010Prop56
140
1.0
102
RTVSPost2010PropOp56
 70
     1
102
RTVSPost2010Prop57
140
1.0
102
RTVSPost2010PropOp57
 70
     1
  0
XRECORD
  5
5205
102
{ACAD_REACTORS
330
5204
102
}
330
5204
100
AcDbXrecord
280
     1
102
RTVSPost2010Prop28
280
     0
102
RTVSPost2010PropOp28
 70
     1
102
RTVSPost2010Prop29
280
     1
102
RTVSPost2010PropOp29
 70
     1
102
RTVSPost2010Prop30
280
     1
102
RTVSPost2010PropOp30
 70
     1
102
RTVSPost2010Prop31
280
     0
102
RTVSPost2010PropOp31
 70
     1
102
RTVSPost2010Prop32
280
     0
102
RTVSPost2010PropOp32
 70
     1
102
RTVSPost2010Prop33
280
     0
102
RTVSPost2010PropOp33
 70
     1
102
RTVSPost2010Prop34
280
     0
102
RTVSPost2010PropOp34
 70
     1
102
RTVSPost2010Prop35
280
     0
102
RTVSPost2010PropOp35
 70
     1
102
RTVSPost2010Prop36
280
     0
102
RTVSPost2010PropOp36
 70
     1
102
RTVSPost2010Prop37
 90
       50
102
RTVSPost2010PropOp37
 70
     1
102
RTVSPost2010Prop38
140
0.0
102
RTVSPost2010PropOp38
 70
     1
102
RTVSPost2010Prop39
140
1.0
102
RTVSPost2010PropOp39
 70
     1
102
RTVSPost2010Prop40
 90
        0
102
RTVSPost2010PropOp40
 70
     1
102
RTVSPost2010Prop41ColorIndex
 90
       18
102
RTVSPost2010Prop41ColorRGB
 90
        0
102
RTVSPost2010PropOp41
 70
     1
102
RTVSPost2010Prop42
 90
       50
102
RTVSPost2010PropOp42
 70
     1
102
RTVSPost2010Prop43
 90
        3
102
RTVSPost2010PropOp43
 70
     1
102
RTVSPost2010Prop44ColorIndex
 90
        5
102
RTVSPost2010Prop44ColorRGB
 90
      255
102
RTVSPost2010PropOp44
 70
     1
102
RTVSPost2010Prop45
280
     0
102
RTVSPost2010PropOp45
 70
     1
102
RTVSPost2010Prop46
 90
       50
102
RTVSPost2010PropOp46
 70
     1
102
RTVSPost2010Prop47
 90
       50
102
RTVSPost2010PropOp47
 70
     1
102
RTVSPost2010Prop48
 90
       50
102
RTVSPost2010PropOp48
 70
     1
102
RTVSPost2010Prop49
280
     0
102
RTVSPost2010PropOp49
 70
     1
102
RTVSPost2010Prop50
 90
       50
102
RTVSPost2010PropOp50
 70
     1
102
RTVSPost2010Prop51ColorIndex
 90
      256
102
RTVSPost2010Prop51ColorRGB
 90
-16777216
102
RTVSPost2010PropOp51
 70
     0
102
RTVSPost2010Prop52
140
1.0
102
RTVSPost2010PropOp52
 70
     0
102
RTVSPost2010Prop53
 90
        2
102
RTVSPost2010PropOp53
 70
     1
102
RTVSPost2010Prop54
  1
strokes_ogs.tif
102
RTVSPost2010PropOp54
 70
     1
102
RTVSPost2010Prop55
280
     0
102
RTVSPost2010PropOp55
 70
     1
102
RTVSPost2010Prop56
140
1.0
102
RTVSPost2010PropOp56
 70
     1
102
RTVSPost2010Prop57
140
1.0
102
RTVSPost2010PropOp57
 70
     1
  0
XRECORD
  5
521F
102
{ACAD_REACTORS
330
521E
102
}
330
521E
100
AcDbXrecord
280
     1
102
RTVSPost2010Prop28
280
     0
102
RTVSPost2010PropOp28
 70
     1
102
RTVSPost2010Prop29
280
     1
102
RTVSPost2010PropOp29
 70
     1
102
RTVSPost2010Prop30
280
     1
102
RTVSPost2010PropOp30
 70
     1
102
RTVSPost2010Prop31
280
     0
102
RTVSPost2010PropOp31
 70
     1
102
RTVSPost2010Prop32
280
     0
102
RTVSPost2010PropOp32
 70
     1
102
RTVSPost2010Prop33
280
     0
102
RTVSPost2010PropOp33
 70
     1
102
RTVSPost2010Prop34
280
     0
102
RTVSPost2010PropOp34
 70
     1
102
RTVSPost2010Prop35
280
     0
102
RTVSPost2010PropOp35
 70
     1
102
RTVSPost2010Prop36
280
     0
102
RTVSPost2010PropOp36
 70
     1
102
RTVSPost2010Prop37
 90
       50
102
RTVSPost2010PropOp37
 70
     1
102
RTVSPost2010Prop38
140
0.0
102
RTVSPost2010PropOp38
 70
     1
102
RTVSPost2010Prop39
140
1.0
102
RTVSPost2010PropOp39
 70
     1
102
RTVSPost2010Prop40
 90
        0
102
RTVSPost2010PropOp40
 70
     1
102
RTVSPost2010Prop41ColorIndex
 90
       18
102
RTVSPost2010Prop41ColorRGB
 90
        0
102
RTVSPost2010PropOp41
 70
     1
102
RTVSPost2010Prop42
 90
       50
102
RTVSPost2010PropOp42
 70
     1
102
RTVSPost2010Prop43
 90
        3
102
RTVSPost2010PropOp43
 70
     1
102
RTVSPost2010Prop44ColorIndex
 90
        5
102
RTVSPost2010Prop44ColorRGB
 90
      255
102
RTVSPost2010PropOp44
 70
     1
102
RTVSPost2010Prop45
280
     0
102
RTVSPost2010PropOp45
 70
     1
102
RTVSPost2010Prop46
 90
       50
102
RTVSPost2010PropOp46
 70
     1
102
RTVSPost2010Prop47
 90
       50
102
RTVSPost2010PropOp47
 70
     1
102
RTVSPost2010Prop48
 90
       50
102
RTVSPost2010PropOp48
 70
     1
102
RTVSPost2010Prop49
280
     0
102
RTVSPost2010PropOp49
 70
     1
102
RTVSPost2010Prop50
 90
       50
102
RTVSPost2010PropOp50
 70
     1
102
RTVSPost2010Prop51ColorIndex
 90
      256
102
RTVSPost2010Prop51ColorRGB
 90
-16777216
102
RTVSPost2010PropOp51
 70
     0
102
RTVSPost2010Prop52
140
1.0
102
RTVSPost2010PropOp52
 70
     0
102
RTVSPost2010Prop53
 90
        2
102
RTVSPost2010PropOp53
 70
     1
102
RTVSPost2010Prop54
  1
strokes_ogs.tif
102
RTVSPost2010PropOp54
 70
     1
102
RTVSPost2010Prop55
280
     0
102
RTVSPost2010PropOp55
 70
     1
102
RTVSPost2010Prop56
140
1.0
102
RTVSPost2010PropOp56
 70
     1
102
RTVSPost2010Prop57
140
1.0
102
RTVSPost2010PropOp57
 70
     1
  0
XRECORD
  5
521D
102
{ACAD_REACTORS
330
521C
102
}
330
521C
100
AcDbXrecord
280
     1
102
RTVSPost2010Prop28
280
     0
102
RTVSPost2010PropOp28
 70
     1
102
RTVSPost2010Prop29
280
     1
102
RTVSPost2010PropOp29
 70
     1
102
RTVSPost2010Prop30
280
     1
102
RTVSPost2010PropOp30
 70
     1
102
RTVSPost2010Prop31
280
     0
102
RTVSPost2010PropOp31
 70
     1
102
RTVSPost2010Prop32
280
     0
102
RTVSPost2010PropOp32
 70
     1
102
RTVSPost2010Prop33
280
     0
102
RTVSPost2010PropOp33
 70
     1
102
RTVSPost2010Prop34
280
     0
102
RTVSPost2010PropOp34
 70
     1
102
RTVSPost2010Prop35
280
     0
102
RTVSPost2010PropOp35
 70
     1
102
RTVSPost2010Prop36
280
     0
102
RTVSPost2010PropOp36
 70
     1
102
RTVSPost2010Prop37
 90
       50
102
RTVSPost2010PropOp37
 70
     1
102
RTVSPost2010Prop38
140
0.0
102
RTVSPost2010PropOp38
 70
     1
102
RTVSPost2010Prop39
140
1.0
102
RTVSPost2010PropOp39
 70
     1
102
RTVSPost2010Prop40
 90
        0
102
RTVSPost2010PropOp40
 70
     1
102
RTVSPost2010Prop41ColorIndex
 90
       18
102
RTVSPost2010Prop41ColorRGB
 90
        0
102
RTVSPost2010PropOp41
 70
     1
102
RTVSPost2010Prop42
 90
       50
102
RTVSPost2010PropOp42
 70
     1
102
RTVSPost2010Prop43
 90
        3
102
RTVSPost2010PropOp43
 70
     1
102
RTVSPost2010Prop44ColorIndex
 90
        5
102
RTVSPost2010Prop44ColorRGB
 90
      255
102
RTVSPost2010PropOp44
 70
     1
102
RTVSPost2010Prop45
280
     0
102
RTVSPost2010PropOp45
 70
     1
102
RTVSPost2010Prop46
 90
       50
102
RTVSPost2010PropOp46
 70
     1
102
RTVSPost2010Prop47
 90
       50
102
RTVSPost2010PropOp47
 70
     1
102
RTVSPost2010Prop48
 90
       50
102
RTVSPost2010PropOp48
 70
     1
102
RTVSPost2010Prop49
280
     0
102
RTVSPost2010PropOp49
 70
     1
102
RTVSPost2010Prop50
 90
       50
102
RTVSPost2010PropOp50
 70
     1
102
RTVSPost2010Prop51ColorIndex
 90
      256
102
RTVSPost2010Prop51ColorRGB
 90
-16777216
102
RTVSPost2010PropOp51
 70
     0
102
RTVSPost2010Prop52
140
1.0
102
RTVSPost2010PropOp52
 70
     0
102
RTVSPost2010Prop53
 90
        2
102
RTVSPost2010PropOp53
 70
     1
102
RTVSPost2010Prop54
  1
strokes_ogs.tif
102
RTVSPost2010PropOp54
 70
     1
102
RTVSPost2010Prop55
280
     0
102
RTVSPost2010PropOp55
 70
     1
102
RTVSPost2010Prop56
140
1.0
102
RTVSPost2010PropOp56
 70
     1
102
RTVSPost2010Prop57
140
1.0
102
RTVSPost2010PropOp57
 70
     1
  0
XRECORD
  5
5217
102
{ACAD_REACTORS
330
5216
102
}
330
5216
100
AcDbXrecord
280
     1
102
RTVSPost2010Prop28
280
     0
102
RTVSPost2010PropOp28
 70
     1
102
RTVSPost2010Prop29
280
     1
102
RTVSPost2010PropOp29
 70
     1
102
RTVSPost2010Prop30
280
     1
102
RTVSPost2010PropOp30
 70
     1
102
RTVSPost2010Prop31
280
     0
102
RTVSPost2010PropOp31
 70
     1
102
RTVSPost2010Prop32
280
     0
102
RTVSPost2010PropOp32
 70
     1
102
RTVSPost2010Prop33
280
     0
102
RTVSPost2010PropOp33
 70
     1
102
RTVSPost2010Prop34
280
     0
102
RTVSPost2010PropOp34
 70
     1
102
RTVSPost2010Prop35
280
     0
102
RTVSPost2010PropOp35
 70
     1
102
RTVSPost2010Prop36
280
     0
102
RTVSPost2010PropOp36
 70
     1
102
RTVSPost2010Prop37
 90
       50
102
RTVSPost2010PropOp37
 70
     1
102
RTVSPost2010Prop38
140
0.0
102
RTVSPost2010PropOp38
 70
     1
102
RTVSPost2010Prop39
140
1.0
102
RTVSPost2010PropOp39
 70
     1
102
RTVSPost2010Prop40
 90
        0
102
RTVSPost2010PropOp40
 70
     1
102
RTVSPost2010Prop41ColorIndex
 90
       18
102
RTVSPost2010Prop41ColorRGB
 90
        0
102
RTVSPost2010PropOp41
 70
     1
102
RTVSPost2010Prop42
 90
       50
102
RTVSPost2010PropOp42
 70
     1
102
RTVSPost2010Prop43
 90
        3
102
RTVSPost2010PropOp43
 70
     1
102
RTVSPost2010Prop44ColorIndex
 90
        5
102
RTVSPost2010Prop44ColorRGB
 90
      255
102
RTVSPost2010PropOp44
 70
     1
102
RTVSPost2010Prop45
280
     0
102
RTVSPost2010PropOp45
 70
     1
102
RTVSPost2010Prop46
 90
       50
102
RTVSPost2010PropOp46
 70
     1
102
RTVSPost2010Prop47
 90
       50
102
RTVSPost2010PropOp47
 70
     1
102
RTVSPost2010Prop48
 90
       50
102
RTVSPost2010PropOp48
 70
     1
102
RTVSPost2010Prop49
280
     0
102
RTVSPost2010PropOp49
 70
     1
102
RTVSPost2010Prop50
 90
       50
102
RTVSPost2010PropOp50
 70
     1
102
RTVSPost2010Prop51ColorIndex
 90
      256
102
RTVSPost2010Prop51ColorRGB
 90
-16777216
102
RTVSPost2010PropOp51
 70
     0
102
RTVSPost2010Prop52
140
1.0
102
RTVSPost2010PropOp52
 70
     0
102
RTVSPost2010Prop53
 90
        2
102
RTVSPost2010PropOp53
 70
     1
102
RTVSPost2010Prop54
  1
strokes_ogs.tif
102
RTVSPost2010PropOp54
 70
     1
102
RTVSPost2010Prop55
280
     0
102
RTVSPost2010PropOp55
 70
     1
102
RTVSPost2010Prop56
140
1.0
102
RTVSPost2010PropOp56
 70
     1
102
RTVSPost2010Prop57
140
1.0
102
RTVSPost2010PropOp57
 70
     1
  0
XRECORD
  5
5219
102
{ACAD_REACTORS
330
5218
102
}
330
5218
100
AcDbXrecord
280
     1
102
RTVSPost2010Prop28
280
     0
102
RTVSPost2010PropOp28
 70
     1
102
RTVSPost2010Prop29
280
     1
102
RTVSPost2010PropOp29
 70
     1
102
RTVSPost2010Prop30
280
     1
102
RTVSPost2010PropOp30
 70
     1
102
RTVSPost2010Prop31
280
     0
102
RTVSPost2010PropOp31
 70
     1
102
RTVSPost2010Prop32
280
     0
102
RTVSPost2010PropOp32
 70
     1
102
RTVSPost2010Prop33
280
     0
102
RTVSPost2010PropOp33
 70
     1
102
RTVSPost2010Prop34
280
     0
102
RTVSPost2010PropOp34
 70
     1
102
RTVSPost2010Prop35
280
     0
102
RTVSPost2010PropOp35
 70
     1
102
RTVSPost2010Prop36
280
     0
102
RTVSPost2010PropOp36
 70
     1
102
RTVSPost2010Prop37
 90
       50
102
RTVSPost2010PropOp37
 70
     1
102
RTVSPost2010Prop38
140
0.0
102
RTVSPost2010PropOp38
 70
     1
102
RTVSPost2010Prop39
140
1.0
102
RTVSPost2010PropOp39
 70
     1
102
RTVSPost2010Prop40
 90
        0
102
RTVSPost2010PropOp40
 70
     1
102
RTVSPost2010Prop41ColorIndex
 90
       18
102
RTVSPost2010Prop41ColorRGB
 90
        0
102
RTVSPost2010PropOp41
 70
     1
102
RTVSPost2010Prop42
 90
       50
102
RTVSPost2010PropOp42
 70
     1
102
RTVSPost2010Prop43
 90
        3
102
RTVSPost2010PropOp43
 70
     1
102
RTVSPost2010Prop44ColorIndex
 90
        5
102
RTVSPost2010Prop44ColorRGB
 90
      255
102
RTVSPost2010PropOp44
 70
     1
102
RTVSPost2010Prop45
280
     0
102
RTVSPost2010PropOp45
 70
     1
102
RTVSPost2010Prop46
 90
       50
102
RTVSPost2010PropOp46
 70
     1
102
RTVSPost2010Prop47
 90
       50
102
RTVSPost2010PropOp47
 70
     1
102
RTVSPost2010Prop48
 90
       50
102
RTVSPost2010PropOp48
 70
     1
102
RTVSPost2010Prop49
280
     0
102
RTVSPost2010PropOp49
 70
     1
102
RTVSPost2010Prop50
 90
       50
102
RTVSPost2010PropOp50
 70
     1
102
RTVSPost2010Prop51ColorIndex
 90
      256
102
RTVSPost2010Prop51ColorRGB
 90
-16777216
102
RTVSPost2010PropOp51
 70
     0
102
RTVSPost2010Prop52
140
1.0
102
RTVSPost2010PropOp52
 70
     0
102
RTVSPost2010Prop53
 90
        2
102
RTVSPost2010PropOp53
 70
     1
102
RTVSPost2010Prop54
  1
strokes_ogs.tif
102
RTVSPost2010PropOp54
 70
     1
102
RTVSPost2010Prop55
280
     0
102
RTVSPost2010PropOp55
 70
     1
102
RTVSPost2010Prop56
140
1.0
102
RTVSPost2010PropOp56
 70
     1
102
RTVSPost2010Prop57
140
1.0
102
RTVSPost2010PropOp57
 70
     1
  0
XRECORD
  5
520B
102
{ACAD_REACTORS
330
520A
102
}
330
520A
100
AcDbXrecord
280
     1
102
RTVSPost2010Prop28
280
     0
102
RTVSPost2010PropOp28
 70
     1
102
RTVSPost2010Prop29
280
     1
102
RTVSPost2010PropOp29
 70
     1
102
RTVSPost2010Prop30
280
     1
102
RTVSPost2010PropOp30
 70
     1
102
RTVSPost2010Prop31
280
     0
102
RTVSPost2010PropOp31
 70
     1
102
RTVSPost2010Prop32
280
     0
102
RTVSPost2010PropOp32
 70
     1
102
RTVSPost2010Prop33
280
     0
102
RTVSPost2010PropOp33
 70
     1
102
RTVSPost2010Prop34
280
     0
102
RTVSPost2010PropOp34
 70
     1
102
RTVSPost2010Prop35
280
     0
102
RTVSPost2010PropOp35
 70
     1
102
RTVSPost2010Prop36
280
     0
102
RTVSPost2010PropOp36
 70
     1
102
RTVSPost2010Prop37
 90
       50
102
RTVSPost2010PropOp37
 70
     1
102
RTVSPost2010Prop38
140
0.0
102
RTVSPost2010PropOp38
 70
     1
102
RTVSPost2010Prop39
140
1.0
102
RTVSPost2010PropOp39
 70
     1
102
RTVSPost2010Prop40
 90
        0
102
RTVSPost2010PropOp40
 70
     1
102
RTVSPost2010Prop41ColorIndex
 90
       18
102
RTVSPost2010Prop41ColorRGB
 90
        0
102
RTVSPost2010PropOp41
 70
     1
102
RTVSPost2010Prop42
 90
       50
102
RTVSPost2010PropOp42
 70
     1
102
RTVSPost2010Prop43
 90
        3
102
RTVSPost2010PropOp43
 70
     1
102
RTVSPost2010Prop44ColorIndex
 90
        5
102
RTVSPost2010Prop44ColorRGB
 90
      255
102
RTVSPost2010PropOp44
 70
     1
102
RTVSPost2010Prop45
280
     0
102
RTVSPost2010PropOp45
 70
     1
102
RTVSPost2010Prop46
 90
       50
102
RTVSPost2010PropOp46
 70
     1
102
RTVSPost2010Prop47
 90
       50
102
RTVSPost2010PropOp47
 70
     1
102
RTVSPost2010Prop48
 90
       50
102
RTVSPost2010PropOp48
 70
     1
102
RTVSPost2010Prop49
280
     0
102
RTVSPost2010PropOp49
 70
     1
102
RTVSPost2010Prop50
 90
       50
102
RTVSPost2010PropOp50
 70
     1
102
RTVSPost2010Prop51ColorIndex
 90
      256
102
RTVSPost2010Prop51ColorRGB
 90
-16777216
102
RTVSPost2010PropOp51
 70
     0
102
RTVSPost2010Prop52
140
1.0
102
RTVSPost2010PropOp52
 70
     0
102
RTVSPost2010Prop53
 90
        2
102
RTVSPost2010PropOp53
 70
     1
102
RTVSPost2010Prop54
  1
strokes_ogs.tif
102
RTVSPost2010PropOp54
 70
     1
102
RTVSPost2010Prop55
280
     0
102
RTVSPost2010PropOp55
 70
     1
102
RTVSPost2010Prop56
140
1.0
102
RTVSPost2010PropOp56
 70
     1
102
RTVSPost2010Prop57
140
1.0
102
RTVSPost2010PropOp57
 70
     1
  0
XRECORD
  5
5213
102
{ACAD_REACTORS
330
5212
102
}
330
5212
100
AcDbXrecord
280
     1
102
RTVSPost2010Prop28
280
     0
102
RTVSPost2010PropOp28
 70
     1
102
RTVSPost2010Prop29
280
     1
102
RTVSPost2010PropOp29
 70
     1
102
RTVSPost2010Prop30
280
     1
102
RTVSPost2010PropOp30
 70
     1
102
RTVSPost2010Prop31
280
     0
102
RTVSPost2010PropOp31
 70
     1
102
RTVSPost2010Prop32
280
     0
102
RTVSPost2010PropOp32
 70
     1
102
RTVSPost2010Prop33
280
     0
102
RTVSPost2010PropOp33
 70
     1
102
RTVSPost2010Prop34
280
     0
102
RTVSPost2010PropOp34
 70
     1
102
RTVSPost2010Prop35
280
     0
102
RTVSPost2010PropOp35
 70
     1
102
RTVSPost2010Prop36
280
     0
102
RTVSPost2010PropOp36
 70
     1
102
RTVSPost2010Prop37
 90
       50
102
RTVSPost2010PropOp37
 70
     1
102
RTVSPost2010Prop38
140
0.0
102
RTVSPost2010PropOp38
 70
     1
102
RTVSPost2010Prop39
140
1.0
102
RTVSPost2010PropOp39
 70
     1
102
RTVSPost2010Prop40
 90
        0
102
RTVSPost2010PropOp40
 70
     1
102
RTVSPost2010Prop41ColorIndex
 90
       18
102
RTVSPost2010Prop41ColorRGB
 90
        0
102
RTVSPost2010PropOp41
 70
     1
102
RTVSPost2010Prop42
 90
       50
102
RTVSPost2010PropOp42
 70
     1
102
RTVSPost2010Prop43
 90
        3
102
RTVSPost2010PropOp43
 70
     1
102
RTVSPost2010Prop44ColorIndex
 90
        5
102
RTVSPost2010Prop44ColorRGB
 90
      255
102
RTVSPost2010PropOp44
 70
     1
102
RTVSPost2010Prop45
280
     0
102
RTVSPost2010PropOp45
 70
     1
102
RTVSPost2010Prop46
 90
       50
102
RTVSPost2010PropOp46
 70
     1
102
RTVSPost2010Prop47
 90
       50
102
RTVSPost2010PropOp47
 70
     1
102
RTVSPost2010Prop48
 90
       50
102
RTVSPost2010PropOp48
 70
     1
102
RTVSPost2010Prop49
280
     0
102
RTVSPost2010PropOp49
 70
     1
102
RTVSPost2010Prop50
 90
       50
102
RTVSPost2010PropOp50
 70
     1
102
RTVSPost2010Prop51ColorIndex
 90
      256
102
RTVSPost2010Prop51ColorRGB
 90
-16777216
102
RTVSPost2010PropOp51
 70
     0
102
RTVSPost2010Prop52
140
1.0
102
RTVSPost2010PropOp52
 70
     0
102
RTVSPost2010Prop53
 90
        2
102
RTVSPost2010PropOp53
 70
     1
102
RTVSPost2010Prop54
  1
strokes_ogs.tif
102
RTVSPost2010PropOp54
 70
     1
102
RTVSPost2010Prop55
280
     0
102
RTVSPost2010PropOp55
 70
     1
102
RTVSPost2010Prop56
140
1.0
102
RTVSPost2010PropOp56
 70
     1
102
RTVSPost2010Prop57
140
1.0
102
RTVSPost2010PropOp57
 70
     1
  0
XRECORD
  5
521B
102
{ACAD_REACTORS
330
521A
102
}
330
521A
100
AcDbXrecord
280
     1
102
RTVSPost2010Prop28
280
     0
102
RTVSPost2010PropOp28
 70
     1
102
RTVSPost2010Prop29
280
     1
102
RTVSPost2010PropOp29
 70
     1
102
RTVSPost2010Prop30
280
     1
102
RTVSPost2010PropOp30
 70
     1
102
RTVSPost2010Prop31
280
     0
102
RTVSPost2010PropOp31
 70
     1
102
RTVSPost2010Prop32
280
     0
102
RTVSPost2010PropOp32
 70
     1
102
RTVSPost2010Prop33
280
     0
102
RTVSPost2010PropOp33
 70
     1
102
RTVSPost2010Prop34
280
     0
102
RTVSPost2010PropOp34
 70
     1
102
RTVSPost2010Prop35
280
     0
102
RTVSPost2010PropOp35
 70
     1
102
RTVSPost2010Prop36
280
     0
102
RTVSPost2010PropOp36
 70
     1
102
RTVSPost2010Prop37
 90
       50
102
RTVSPost2010PropOp37
 70
     1
102
RTVSPost2010Prop38
140
0.0
102
RTVSPost2010PropOp38
 70
     1
102
RTVSPost2010Prop39
140
1.0
102
RTVSPost2010PropOp39
 70
     1
102
RTVSPost2010Prop40
 90
        0
102
RTVSPost2010PropOp40
 70
     1
102
RTVSPost2010Prop41ColorIndex
 90
       18
102
RTVSPost2010Prop41ColorRGB
 90
        0
102
RTVSPost2010PropOp41
 70
     1
102
RTVSPost2010Prop42
 90
       50
102
RTVSPost2010PropOp42
 70
     1
102
RTVSPost2010Prop43
 90
        3
102
RTVSPost2010PropOp43
 70
     1
102
RTVSPost2010Prop44ColorIndex
 90
        5
102
RTVSPost2010Prop44ColorRGB
 90
      255
102
RTVSPost2010PropOp44
 70
     1
102
RTVSPost2010Prop45
280
     0
102
RTVSPost2010PropOp45
 70
     1
102
RTVSPost2010Prop46
 90
       50
102
RTVSPost2010PropOp46
 70
     1
102
RTVSPost2010Prop47
 90
       50
102
RTVSPost2010PropOp47
 70
     1
102
RTVSPost2010Prop48
 90
       50
102
RTVSPost2010PropOp48
 70
     1
102
RTVSPost2010Prop49
280
     0
102
RTVSPost2010PropOp49
 70
     1
102
RTVSPost2010Prop50
 90
       50
102
RTVSPost2010PropOp50
 70
     1
102
RTVSPost2010Prop51ColorIndex
 90
      256
102
RTVSPost2010Prop51ColorRGB
 90
-16777216
102
RTVSPost2010PropOp51
 70
     0
102
RTVSPost2010Prop52
140
1.0
102
RTVSPost2010PropOp52
 70
     0
102
RTVSPost2010Prop53
 90
        2
102
RTVSPost2010PropOp53
 70
     1
102
RTVSPost2010Prop54
  1
strokes_ogs.tif
102
RTVSPost2010PropOp54
 70
     1
102
RTVSPost2010Prop55
280
     0
102
RTVSPost2010PropOp55
 70
     1
102
RTVSPost2010Prop56
140
1.0
102
RTVSPost2010PropOp56
 70
     1
102
RTVSPost2010Prop57
140
1.0
102
RTVSPost2010PropOp57
 70
     1
  0
ENDSEC
  0
EOF
