  0
SECTION
  2
HEADER
  9
$ACADVER
  1
AC1024
  9
$ACADMAINTVER
 70
   225
  9
$DWGCODEPAGE
  3
ANSI_932
  9
$LASTSAVEDBY
  1
takanashi
  9
$INSBASE
 10
0.0
 20
0.0
 30
0.0
  9
$EXTMIN
 10
19.9694844009
 20
9.997285330199247
 30
-0.0000000349181948
  9
$EXTMAX
 10
800.0354022998775
 20
560.0291761481542
 30
0.0000000814935747
  9
$LIMMIN
 10
0.0
 20
0.0
  9
$LIMMAX
 10
840.0
 20
594.0
  9
$ORTHOMODE
 70
     0
  9
$REGENMODE
 70
     1
  9
$FILLMODE
 70
     1
  9
$QTEXTMODE
 70
     0
  9
$MIRRTEXT
 70
     0
  9
$LTSCALE
 40
1.0
  9
$ATTMODE
 70
     1
  9
$TEXTSIZE
 40
5.0
  9
$TRACEWID
 40
1.0
  9
$TEXTSTYLE
  7
STANDARD
  9
$CLAYER
  8
0
  9
$CELTYPE
  6
BYLAYER
  9
$CECOLOR
 62
   256
  9
$CELTSCALE
 40
1.0
  9
$DISPSILH
 70
     0
  9
$DIMSCALE
 40
1.0
  9
$DIMASZ
 40
0.0
  9
$DIMEXO
 40
5.0
  9
$DIMDLI
 40
3.75
  9
$DIMRND
 40
0.0
  9
$DIMDLE
 40
0.0
  9
$DIMEXE
 40
0.0
  9
$DIMTP
 40
0.0
  9
$DIMTM
 40
0.0
  9
$DIMTXT
 40
5.0
  9
$DIMCEN
 40
2.5
  9
$DIMTSZ
 40
0.0
  9
$DIMTOL
 70
     0
  9
$DIMLIM
 70
     0
  9
$DIMTIH
 70
     0
  9
$DIMTOH
 70
     0
  9
$DIMSE1
 70
     0
  9
$DIMSE2
 70
     0
  9
$DIMTAD
 70
     1
  9
$DIMZIN
 70
     8
  9
$DIMBLK
  1
NONE
  9
$DIMASO
 70
     1
  9
$DIMSHO
 70
     1
  9
$DIMPOST
  1

  9
$DIMAPOST
  1

  9
$DIMALT
 70
     0
  9
$DIMALTD
 70
     2
  9
$DIMALTF
 40
25.4
  9
$DIMLFAC
 40
1.0
  9
$DIMTOFL
 70
     1
  9
$DIMTVP
 40
0.0
  9
$DIMTIX
 70
     0
  9
$DIMSOXD
 70
     0
  9
$DIMSAH
 70
     0
  9
$DIMBLK1
  1

  9
$DIMBLK2
  1

  9
$DIMSTYLE
  2
STANDARD
  9
$DIMCLRD
 70
     0
  9
$DIMCLRE
 70
     0
  9
$DIMCLRT
 70
     0
  9
$DIMTFAC
 40
1.0
  9
$DIMGAP
 40
2.0
  9
$DIMJUST
 70
     0
  9
$DIMSD1
 70
     0
  9
$DIMSD2
 70
     0
  9
$DIMTOLJ
 70
     1
  9
$DIMTZIN
 70
     0
  9
$DIMALTZ
 70
     0
  9
$DIMALTTZ
 70
     0
  9
$DIMUPT
 70
     0
  9
$DIMDEC
 70
     4
  9
$DIMTDEC
 70
     4
  9
$DIMALTU
 70
     2
  9
$DIMALTTD
 70
     2
  9
$DIMTXSTY
  7
STANDARD
  9
$DIMAUNIT
 70
     0
  9
$DIMADEC
 70
     0
  9
$DIMALTRND
 40
0.0
  9
$DIMAZIN
 70
     0
  9
$DIMDSEP
 70
    46
  9
$DIMATFIT
 70
     3
  9
$DIMFRAC
 70
     0
  9
$DIMLDRBLK
  1
NONE
  9
$DIMLUNIT
 70
     2
  9
$DIMLWD
 70
    -2
  9
$DIMLWE
 70
    -2
  9
$DIMTMOVE
 70
     0
  9
$DIMFXL
 40
1.0
  9
$DIMFXLON
 70
     0
  9
$DIMJOGANG
 40
0.7853981633974483
  9
$DIMTFILL
 70
     0
  9
$DIMTFILLCLR
 70
     0
  9
$DIMARCSYM
 70
     0
  9
$DIMLTYPE
  6

  9
$DIMLTEX1
  6

  9
$DIMLTEX2
  6

  9
$DIMTXTDIRECTION
 70
     0
  9
$LUNITS
 70
     2
  9
$LUPREC
 70
     4
  9
$SKETCHINC
 40
1.0
  9
$FILLETRAD
 40
1.0
  9
$AUNITS
 70
     0
  9
$AUPREC
 70
     1
  9
$MENU
  1
.
  9
$ELEVATION
 40
0.0
  9
$PELEVATION
 40
0.0
  9
$THICKNESS
 40
0.0
  9
$LIMCHECK
 70
     0
  9
$CHAMFERA
 40
0.0
  9
$CHAMFERB
 40
0.0
  9
$CHAMFERC
 40
20.0
  9
$CHAMFERD
 40
0.0
  9
$SKPOLY
 70
     0
  9
$TDCREATE
 40
2450431.623194444
  9
$TDUCREATE
 40
2450431.248202778
  9
$TDUPDATE
 40
2459537.588240741
  9
$TDUUPDATE
 40
2459537.213240741
  9
$TDINDWG
 40
1.3625536458
  9
$TDUSRTIMER
 40
1.3625535417
  9
$USRTIMER
 70
     1
  9
$ANGBASE
 50
0.0
  9
$ANGDIR
 70
     0
  9
$PDMODE
 70
     0
  9
$PDSIZE
 40
0.0
  9
$PLINEWID
 40
0.0
  9
$SPLFRAME
 70
     0
  9
$SPLINETYPE
 70
     6
  9
$SPLINESEGS
 70
     8
  9
$HANDSEED
  5
47D7
  9
$SURFTAB1
 70
     6
  9
$SURFTAB2
 70
     6
  9
$SURFTYPE
 70
     6
  9
$SURFU
 70
     6
  9
$SURFV
 70
     6
  9
$UCSBASE
  2

  9
$UCSNAME
  2

  9
$UCSORG
 10
0.0
 20
0.0
 30
0.0
  9
$UCSXDIR
 10
1.0
 20
0.0
 30
0.0
  9
$UCSYDIR
 10
0.0
 20
1.0
 30
0.0
  9
$UCSORTHOREF
  2

  9
$UCSORTHOVIEW
 70
     1
  9
$UCSORGTOP
 10
0.0
 20
0.0
 30
0.0
  9
$UCSORGBOTTOM
 10
0.0
 20
0.0
 30
0.0
  9
$UCSORGLEFT
 10
0.0
 20
0.0
 30
0.0
  9
$UCSORGRIGHT
 10
0.0
 20
0.0
 30
0.0
  9
$UCSORGFRONT
 10
0.0
 20
0.0
 30
0.0
  9
$UCSORGBACK
 10
0.0
 20
0.0
 30
0.0
  9
$PUCSBASE
  2

  9
$PUCSNAME
  2

  9
$PUCSORG
 10
0.0
 20
0.0
 30
0.0
  9
$PUCSXDIR
 10
1.0
 20
0.0
 30
0.0
  9
$PUCSYDIR
 10
0.0
 20
1.0
 30
0.0
  9
$PUCSORTHOREF
  2

  9
$PUCSORTHOVIEW
 70
     0
  9
$PUCSORGTOP
 10
0.0
 20
0.0
 30
0.0
  9
$PUCSORGBOTTOM
 10
0.0
 20
0.0
 30
0.0
  9
$PUCSORGLEFT
 10
0.0
 20
0.0
 30
0.0
  9
$PUCSORGRIGHT
 10
0.0
 20
0.0
 30
0.0
  9
$PUCSORGFRONT
 10
0.0
 20
0.0
 30
0.0
  9
$PUCSORGBACK
 10
0.0
 20
0.0
 30
0.0
  9
$USERI1
 70
     0
  9
$USERI2
 70
     0
  9
$USERI3
 70
     0
  9
$USERI4
 70
     0
  9
$USERI5
 70
     0
  9
$USERR1
 40
0.0
  9
$USERR2
 40
0.0
  9
$USERR3
 40
0.0
  9
$USERR4
 40
0.0
  9
$USERR5
 40
0.0
  9
$WORLDVIEW
 70
     1
  9
$SHADEDGE
 70
     3
  9
$SHADEDIF
 70
    70
  9
$TILEMODE
 70
     1
  9
$MAXACTVP
 70
    16
  9
$PINSBASE
 10
0.0
 20
0.0
 30
0.0
  9
$PLIMCHECK
 70
     0
  9
$PEXTMIN
 10
1.000000000000000E+20
 20
1.000000000000000E+20
 30
1.000000000000000E+20
  9
$PEXTMAX
 10
-1.000000000000000E+20
 20
-1.000000000000000E+20
 30
-1.000000000000000E+20
  9
$PLIMMIN
 10
0.0
 20
0.0
  9
$PLIMMAX
 10
420.0
 20
297.0
  9
$UNITMODE
 70
     0
  9
$VISRETAIN
 70
     0
  9
$PLINEGEN
 70
     0
  9
$PSLTSCALE
 70
     1
  9
$TREEDEPTH
 70
  3020
  9
$CMLSTYLE
  2
STANDARD
  9
$CMLJUST
 70
     0
  9
$CMLSCALE
 40
1.0
  9
$PROXYGRAPHICS
 70
     1
  9
$MEASUREMENT
 70
     1
  9
$CELWEIGHT
370
    -1
  9
$ENDCAPS
280
     0
  9
$JOINSTYLE
280
     0
  9
$LWDISPLAY
290
     0
  9
$INSUNITS
 70
     0
  9
$HYPERLINKBASE
  1

  9
$STYLESHEET
  1
MONOCHROME.CTB
  9
$XEDIT
290
     1
  9
$CEPSNTYPE
380
     0
  9
$PSTYLEMODE
290
     1
  9
$FINGERPRINTGUID
  2
{87E49A17-DA8C-4230-82A7-C569D142D783}
  9
$VERSIONGUID
  2
{F3A9ADC2-99BD-2744-86FB-F5B037391016}
  9
$EXTNAMES
290
     1
  9
$PSVPSCALE
 40
0.0
  9
$OLESTARTUP
290
     0
  9
$SORTENTS
280
   127
  9
$INDEXCTL
280
     0
  9
$HIDETEXT
280
     0
  9
$XCLIPFRAME
280
     2
  9
$HALOGAP
280
     0
  9
$OBSCOLOR
 70
   257
  9
$OBSLTYPE
280
     0
  9
$INTERSECTIONDISPLAY
280
     0
  9
$INTERSECTIONCOLOR
 70
   257
  9
$DIMASSOC
280
     1
  9
$PROJECTNAME
  1

  9
$CAMERADISPLAY
290
     0
  9
$LENSLENGTH
 40
50.0
  9
$CAMERAHEIGHT
 40
0.0
  9
$STEPSPERSEC
 40
2.0
  9
$STEPSIZE
 40
6.0
  9
$3DDWFPREC
 40
2.0
  9
$PSOLWIDTH
 40
0.25
  9
$PSOLHEIGHT
 40
4.0
  9
$LOFTANG1
 40
1.570796326794896
  9
$LOFTANG2
 40
1.570796326794896
  9
$LOFTMAG1
 40
0.0
  9
$LOFTMAG2
 40
0.0
  9
$LOFTPARAM
 70
     7
  9
$LOFTNORMALS
280
     1
  9
$LATITUDE
 40
37.795
  9
$LONGITUDE
 40
-122.394
  9
$NORTHDIRECTION
 40
0.0
  9
$TIMEZONE
 70
 -8000
  9
$LIGHTGLYPHDISPLAY
280
     1
  9
$TILEMODELIGHTSYNCH
280
     1
  9
$CMATERIAL
347
19C3
  9
$SOLIDHIST
280
     0
  9
$SHOWHIST
280
     1
  9
$DWFFRAME
280
     2
  9
$DGNFRAME
280
     0
  9
$REALWORLDSCALE
290
     1
  9
$INTERFERECOLOR
 62
     1
  9
$INTERFEREOBJVS
345
19D0
  9
$INTERFEREVPVS
346
2148
  9
$CSHADOW
280
     0
  9
$SHADOWPLANELOCATION
 40
0.0
  0
ENDSEC
  0
SECTION
  2
CLASSES
  0
CLASS
  1
ACDBDICTIONARYWDFLT
  2
AcDbDictionaryWithDefault
  3
ObjectDBX Classes
 90
        0
 91
        1
280
     0
281
     0
  0
CLASS
  1
TABLESTYLE
  2
AcDbTableStyle
  3
ObjectDBX Classes
 90
     4095
 91
        1
280
     0
281
     0
  0
CLASS
  1
SORTENTSTABLE
  2
AcDbSortentsTable
  3
ObjectDBX Classes
 90
        0
 91
        1
280
     0
281
     0
  0
CLASS
  1
DICTIONARYVAR
  2
AcDbDictionaryVar
  3
ObjectDBX Classes
 90
        0
 91
       13
280
     0
281
     0
  0
CLASS
  1
MATERIAL
  2
AcDbMaterial
  3
ObjectDBX Classes
 90
     1153
 91
        3
280
     0
281
     0
  0
CLASS
  1
VISUALSTYLE
  2
AcDbVisualStyle
  3
ObjectDBX Classes
 90
     4095
 91
       26
280
     0
281
     0
  0
CLASS
  1
PLOTSETTINGS
  2
AcDbPlotSettings
  3
ObjectDBX Classes
 90
        0
 91
        1
280
     0
281
     0
  0
CLASS
  1
SCALE
  2
AcDbScale
  3
ObjectDBX Classes
 90
     1153
 91
       33
280
     0
281
     0
  0
CLASS
  1
MLEADERSTYLE
  2
AcDbMLeaderStyle
  3
ACDB_MLEADERSTYLE_CLASS
 90
     4095
 91
        1
280
     0
281
     0
  0
CLASS
  1
CELLSTYLEMAP
  2
AcDbCellStyleMap
  3
ObjectDBX Classes
 90
     1152
 91
        2
280
     0
281
     0
  0
CLASS
  1
MULTILEADER
  2
AcDbMLeader
  3
ACDB_MLEADER_CLASS
 90
     1025
 91
        5
280
     0
281
     1
  0
CLASS
  1
ACDBSECTIONVIEWSTYLE
  2
AcDbSectionViewStyle
  3
ObjectDBX Classes
 90
     1025
 91
        1
280
     0
281
     0
  0
CLASS
  1
ACDBDETAILVIEWSTYLE
  2
AcDbDetailViewStyle
  3
ObjectDBX Classes
 90
     1025
 91
        1
280
     0
281
     0
  0
ENDSEC
  0
SECTION
  2
TABLES
  0
TABLE
  2
VPORT
  5
8
102
{ACAD_XDICTIONARY
360
19DC
102
}
330
0
100
AcDbSymbolTable
 70
     1
  0
VPORT
  5
1FE0
330
8
100
AcDbSymbolTableRecord
100
AcDbViewportTableRecord
  2
*Active
 70
     0
 10
0.0
 20
0.0
 11
1.0
 21
1.0
 12
420.0000000000001
 22
297.0
 13
0.0
 23
0.0
 14
5.0
 24
5.0
 15
10.0
 25
10.0
 16
0.0
 26
0.0
 36
1.0
 17
0.0
 27
0.0
 37
0.0
 40
598.1684210526316
 41
1.879391100702576
 42
50.0
 43
0.0
 44
0.0
 50
0.0
 51
0.0
 71
     0
 72
   100
 73
     1
 74
     0
 75
     0
 76
     0
 77
     0
 78
     0
281
     0
 65
     1
110
0.0
120
0.0
130
0.0
111
1.0
121
0.0
131
0.0
112
0.0
122
1.0
132
0.0
 79
     0
146
0.0
348
19CC
 60
     3
 61
     5
292
     1
282
     1
141
0.0
142
0.0
 63
   250
421
  3355443
1001
ACAD_NAV_VCDISPLAY
1070
     3
  0
ENDTAB
  0
TABLE
  2
LTYPE
  5
5
330
0
100
AcDbSymbolTable
 70
     5
  0
LTYPE
  5
14
330
5
100
AcDbSymbolTableRecord
100
AcDbLinetypeTableRecord
  2
BYBLOCK
 70
     0
  3

 72
    65
 73
     0
 40
0.0
  0
LTYPE
  5
15
330
5
100
AcDbSymbolTableRecord
100
AcDbLinetypeTableRecord
  2
BYLAYER
 70
     0
  3

 72
    65
 73
     0
 40
0.0
  0
LTYPE
  5
16
330
5
100
AcDbSymbolTableRecord
100
AcDbLinetypeTableRecord
  2
CONTINUOUS
 70
     0
  3
Solid line
 72
    65
 73
     0
 40
0.0
  0
LTYPE
  5
E7E
330
5
100
AcDbSymbolTableRecord
100
AcDbLinetypeTableRecord
  2
DASHED2
 70
     0
  3
Dashed (.5x) _ _ _ _ _ _ _ _ _ _ _ _ _ _ _ _ _
 72
    65
 73
     2
 40
9.524999999999996
 49
6.349999999999997
 74
     0
 49
-3.174999999999998
 74
     0
  0
LTYPE
  5
150B
330
5
100
AcDbSymbolTableRecord
100
AcDbLinetypeTableRecord
  2
CENTER2
 70
     0
  3
Center (.5x) ___ _ ___ _ ___ _ ___ _ ___ _ ___
 72
    65
 73
     4
 40
28.575
 49
19.05
 74
     0
 49
-3.174999999999998
 74
     0
 49
3.174999999999998
 74
     0
 49
-3.174999999999998
 74
     0
  0
LTYPE
  5
1A07
330
5
100
AcDbSymbolTableRecord
100
AcDbLinetypeTableRecord
  2
HIDDEN
 70
     0
  3
__ __ __ __ __ __ __ __ __ __ __ __ __ __ __ __
 72
    65
 73
     2
 40
0.375
 49
0.25
 74
     0
 49
-0.125
 74
     0
  0
ENDTAB
  0
TABLE
  2
LAYER
  5
2
102
{ACAD_XDICTIONARY
360
1872
102
}
330
0
100
AcDbSymbolTable
 70
    12
  0
LAYER
  5
F
102
{ACAD_XDICTIONARY
360
1F81
102
}
330
2
100
AcDbSymbolTableRecord
100
AcDbLayerTableRecord
  2
0
 70
     0
 62
     7
  6
CONTINUOUS
370
    -3
390
3AE
347
19C5
  0
LAYER
  5
87
102
{ACAD_XDICTIONARY
360
1F83
102
}
330
2
100
AcDbSymbolTableRecord
100
AcDbLayerTableRecord
  2
WAKU
 70
     0
 62
     7
  6
CONTINUOUS
370
    -3
390
3AE
347
19C5
  0
LAYER
  5
9C
330
2
100
AcDbSymbolTableRecord
100
AcDbLayerTableRecord
  2
DEFPOINTS
 70
     0
 62
     7
  6
CONTINUOUS
290
     0
370
    -3
390
3AE
347
19C5
  0
LAYER
  5
150E
102
{ACAD_XDICTIONARY
360
1F85
102
}
330
2
100
AcDbSymbolTableRecord
100
AcDbLayerTableRecord
  2
TEKUSU
 70
     0
 62
     7
  6
CONTINUOUS
370
    -3
390
3AE
347
19C5
  0
LAYER
  5
21A9
330
2
100
AcDbSymbolTableRecord
100
AcDbLayerTableRecord
  2
HIKIDASI
 70
     0
 62
     7
  6
CONTINUOUS
370
     5
390
3AE
347
19C5
1001
AcAecLayerStandard
1000

1000

1001
AcCmTransparency
1071
        0
  0
LAYER
  5
21BA
330
2
100
AcDbSymbolTableRecord
100
AcDbLayerTableRecord
  2
SEIHIN
 70
     0
 62
     4
  6
CONTINUOUS
370
    -3
390
3AE
347
19C5
1001
AcAecLayerStandard
1000

1000

1001
AcCmTransparency
1071
        0
  0
LAYER
  5
21E7
330
2
100
AcDbSymbolTableRecord
100
AcDbLayerTableRecord
  2
PACKING
 70
     0
 62
     7
  6
CONTINUOUS
370
     9
390
3AE
347
19C5
1001
AcAecLayerStandard
1000

1000

1001
AcCmTransparency
1071
        0
  0
LAYER
  5
21E8
330
2
100
AcDbSymbolTableRecord
100
AcDbLayerTableRecord
  2
SEALING
 70
     0
 62
     7
  6
CONTINUOUS
370
     9
390
3AE
347
19C5
1001
AcAecLayerStandard
1000

1000

1001
AcCmTransparency
1071
        0
  0
LAYER
  5
21E9
330
2
100
AcDbSymbolTableRecord
100
AcDbLayerTableRecord
  2
SUNPOU
 70
     0
 62
     7
  6
CONTINUOUS
370
     5
390
3AE
347
19C5
1001
AcAecLayerStandard
1000

1000

1001
AcCmTransparency
1071
        0
  0
LAYER
  5
21F3
330
2
100
AcDbSymbolTableRecord
100
AcDbLayerTableRecord
  2
SITAJI
 70
     0
 62
     7
  6
CONTINUOUS
370
    -3
390
3AE
347
19C5
1001
AcAecLayerStandard
1000

1000

1001
AcCmTransparency
1071
        0
  0
LAYER
  5
2F93
330
2
100
AcDbSymbolTableRecord
100
AcDbLayerTableRecord
  2
NOKI
 70
     0
 62
     7
  6
CONTINUOUS
370
    -3
390
3AE
347
19C5
1001
AcAecLayerStandard
1000

1000

1001
AcCmTransparency
1071
        0
  0
LAYER
  5
3EBF
102
{ACAD_XDICTIONARY
360
3EC0
102
}
330
2
100
AcDbSymbolTableRecord
100
AcDbLayerTableRecord
  2
YAKUMONO
 70
     0
 62
     1
  6
CONTINUOUS
370
    -3
390
3AE
347
19C5
  0
ENDTAB
  0
TABLE
  2
STYLE
  5
3
330
0
100
AcDbSymbolTable
 70
     3
  0
STYLE
  5
10
330
3
100
AcDbSymbolTableRecord
100
AcDbTextStyleTableRecord
  2
STANDARD
 70
     0
 40
5.0
 41
1.0
 50
0.0
 71
     0
 42
5.0
  3
txt.shx
  4
extfont.shx
  0
STYLE
  5
EA1
330
3
100
AcDbSymbolTableRecord
100
AcDbTextStyleTableRecord
  2
WAKU
 70
     0
 40
5.0
 41
1.0
 50
0.0
 71
     0
 42
5.0
  3

  4

1001
ACAD
1000
MS Gothic
1071
    32817
  0
STYLE
  5
3CB8
330
3
100
AcDbSymbolTableRecord
100
AcDbTextStyleTableRecord
  2

 70
     1
 40
0.0
 41
1.0
 50
0.0
 71
     0
 42
5.0
  3
ltypeshp.shx
  4

  0
ENDTAB
  0
TABLE
  2
VIEW
  5
6
330
0
100
AcDbSymbolTable
 70
     1
  0
ENDTAB
  0
TABLE
  2
UCS
  5
7
330
0
100
AcDbSymbolTable
 70
     0
  0
ENDTAB
  0
TABLE
  2
APPID
  5
9
330
0
100
AcDbSymbolTable
 70
    11
  0
APPID
  5
11
330
9
100
AcDbSymbolTableRecord
100
AcDbRegAppTableRecord
  2
ACAD
 70
     0
  0
APPID
  5
18A2
330
9
100
AcDbSymbolTableRecord
100
AcDbRegAppTableRecord
  2
AcAecLayerStandard
 70
     0
  0
APPID
  5
1A0B
330
9
100
AcDbSymbolTableRecord
100
AcDbRegAppTableRecord
  2
GENIUS_GENODEF_13
 70
     0
  0
APPID
  5
1A0C
330
9
100
AcDbSymbolTableRecord
100
AcDbRegAppTableRecord
  2
GENIUS_GENOBJ-N-FIL_13
 70
     0
  0
APPID
  5
1C2D
330
9
100
AcDbSymbolTableRecord
100
AcDbRegAppTableRecord
  2
ACAD_PSEXT
 70
     0
  0
APPID
  5
1F72
330
9
100
AcDbSymbolTableRecord
100
AcDbRegAppTableRecord
  2
ACAD_MLEADERVER
 70
     0
  0
APPID
  5
2029
330
9
100
AcDbSymbolTableRecord
100
AcDbRegAppTableRecord
  2
ACAD_EXEMPT_FROM_CAD_STANDARDS
 70
     0
  0
APPID
  5
2157
330
9
100
AcDbSymbolTableRecord
100
AcDbRegAppTableRecord
  2
ACAD_NAV_VCDISPLAY
 70
     0
  0
APPID
  5
21AA
330
9
100
AcDbSymbolTableRecord
100
AcDbRegAppTableRecord
  2
AcCmTransparency
 70
     0
  0
APPID
  5
21CB
330
9
100
AcDbSymbolTableRecord
100
AcDbRegAppTableRecord
  2
GradientColor1ACI
 70
     0
  0
APPID
  5
21CC
330
9
100
AcDbSymbolTableRecord
100
AcDbRegAppTableRecord
  2
GradientColor2ACI
 70
     0
  0
ENDTAB
  0
TABLE
  2
DIMSTYLE
  5
A
330
0
100
AcDbSymbolTable
 70
     2
100
AcDbDimStyleTable
 71
     1
340
1D
  0
DIMSTYLE
105
1D
102
{ACAD_REACTORS
330
31C6
330
3338
330
3339
102
}
330
A
100
AcDbSymbolTableRecord
100
AcDbDimStyleTableRecord
  2
STANDARD
 70
     0
 41
0.0
 42
5.0
 43
3.75
 44
0.0
 73
     0
 74
     0
 77
     1
 78
     8
140
5.0
141
2.5
147
2.0
172
     1
340
10
341
B0
342
B0
  0
ENDTAB
  0
TABLE
  2
BLOCK_RECORD
  5
1
330
0
100
AcDbSymbolTable
 70
     7
  0
BLOCK_RECORD
  5
1A
102
{ACAD_XDICTIONARY
360
1A93
102
}
330
1
100
AcDbSymbolTableRecord
100
AcDbBlockTableRecord
  2
*MODEL_SPACE
340
3B3
 70
     0
280
     1
281
     0
  0
BLOCK_RECORD
  5
17
330
1
100
AcDbSymbolTableRecord
100
AcDbBlockTableRecord
  2
*PAPER_SPACE
340
3B4
 70
     0
280
     1
281
     0
  0
BLOCK_RECORD
  5
B0
330
1
100
AcDbSymbolTableRecord
100
AcDbBlockTableRecord
  2
_NONE
340
0
 70
     0
280
     1
281
     0
  0
BLOCK_RECORD
  5
E1F
330
1
100
AcDbSymbolTableRecord
100
AcDbBlockTableRecord
  2
IGロゴ
340
0
 70
     0
280
     1
281
     0
  0
BLOCK_RECORD
  5
14C3
330
1
100
AcDbSymbolTableRecord
100
AcDbBlockTableRecord
  2
_DotBlank
340
0
102
{BLKREFS
331
343D
331
343E
331
3DF8
331
3DF9
102
}
 70
     0
280
     1
281
     0
  0
BLOCK_RECORD
  5
32AE
330
1
100
AcDbSymbolTableRecord
100
AcDbBlockTableRecord
  2
*D3
340
0
 70
     0
280
     1
281
     0
  0
BLOCK_RECORD
  5
3395
330
1
100
AcDbSymbolTableRecord
100
AcDbBlockTableRecord
  2
*D4
340
0
 70
     0
280
     1
281
     0
  0
BLOCK_RECORD
  5
33A1
330
1
100
AcDbSymbolTableRecord
100
AcDbBlockTableRecord
  2
*D5
340
0
 70
     0
280
     1
281
     0
  0
ENDTAB
  0
ENDSEC
  0
SECTION
  2
BLOCKS
  0
BLOCK
  5
1B
330
1A
100
AcDbEntity
  8
0
100
AcDbBlockBegin
  2
*MODEL_SPACE
 70
     0
 10
0.0
 20
0.0
 30
0.0
  3
*MODEL_SPACE
  1

  0
ENDBLK
  5
1C
330
1A
100
AcDbEntity
  8
0
100
AcDbBlockEnd
  0
BLOCK
  5
18
330
17
100
AcDbEntity
 67
     1
  8
0
100
AcDbBlockBegin
  2
*PAPER_SPACE
 70
     0
 10
0.0
 20
0.0
 30
0.0
  3
*PAPER_SPACE
  1

  0
ENDBLK
  5
19
330
17
100
AcDbEntity
 67
     1
  8
0
100
AcDbBlockEnd
  0
BLOCK
  5
B1
330
B0
100
AcDbEntity
  8
0
100
AcDbBlockBegin
  2
_NONE
 70
     0
 10
0.0
 20
0.0
 30
0.0
  3
_NONE
  1

  0
CIRCLE
  5
B2
330
B0
100
AcDbEntity
  8
0
  6
ByBlock
 62
     0
100
AcDbCircle
 10
0.0
 20
0.0
 30
0.0
 40
0.25
  0
ENDBLK
  5
B3
330
B0
100
AcDbEntity
  8
0
100
AcDbBlockEnd
  0
BLOCK
  5
E20
330
E1F
100
AcDbEntity
  8
0
100
AcDbBlockBegin
  2
IGロゴ
 70
     0
 10
0.0
 20
0.0
 30
0.0
  3
IGロゴ
  1

  0
CIRCLE
  5
E21
330
E1F
100
AcDbEntity
  8
WAKU
100
AcDbCircle
 10
-7.133294257549736
 20
40.74217652150603
 30
0.0
 40
0.8702311197916666
  0
POLYLINE
  5
E22
330
E1F
100
AcDbEntity
  8
WAKU
100
AcDb2dPolyline
 66
     1
 10
0.0
 20
0.0
 30
0.0
 70
     1
  0
VERTEX
  5
E23
330
E22
100
AcDbEntity
  8
WAKU
100
AcDbVertex
100
AcDb2dVertex
 10
-6.558996840015013
 20
36.03789863522132
 30
0.0
  0
VERTEX
  5
E24
330
E22
100
AcDbEntity
  8
WAKU
100
AcDbVertex
100
AcDb2dVertex
 10
-7.774082017966402
 20
36.03789863522132
 30
0.0
  0
VERTEX
  5
E25
330
E22
100
AcDbEntity
  8
WAKU
100
AcDbVertex
100
AcDb2dVertex
 10
-7.774082017966402
 20
38.72059449025604
 30
0.0
  0
VERTEX
  5
E26
330
E22
100
AcDbEntity
  8
WAKU
100
AcDbVertex
100
AcDb2dVertex
 10
-6.558996840015013
 20
38.72059449025604
 30
0.0
  0
SEQEND
  5
E27
330
E22
100
AcDbEntity
  8
WAKU
  0
SPLINE
  5
E28
330
E1F
100
AcDbEntity
  8
WAKU
100
AcDbSpline
210
0.0
220
0.0
230
1.0
 70
     9
 71
     3
 72
    56
 73
    52
 74
     0
 42
0.000000001
 43
0.0000000001
 40
0.0
 40
0.0
 40
0.0
 40
0.0
 40
1.0
 40
1.0
 40
1.0
 40
2.0
 40
2.0
 40
2.0
 40
3.0
 40
3.0
 40
3.0
 40
4.0
 40
4.0
 40
4.0
 40
5.0
 40
5.0
 40
5.0
 40
6.0
 40
6.0
 40
6.0
 40
7.0
 40
7.0
 40
7.0
 40
8.0
 40
8.0
 40
8.0
 40
9.0
 40
9.0
 40
9.0
 40
10.0
 40
10.0
 40
10.0
 40
11.0
 40
11.0
 40
11.0
 40
12.0
 40
12.0
 40
12.0
 40
13.0
 40
13.0
 40
13.0
 40
14.0
 40
14.0
 40
14.0
 40
15.0
 40
15.0
 40
15.0
 40
16.0
 40
16.0
 40
16.0
 40
17.0
 40
17.0
 40
17.0
 40
17.0
 10
-3.33025335043168
 20
41.50009752845046
 30
0.0
 10
-3.33025335043168
 20
41.50009752845046
 30
0.0
 10
-3.254805759285846
 20
41.50698771942269
 30
0.0
 10
-3.254805759285846
 20
41.50698771942269
 30
0.0
 10
-3.014682603903903
 20
41.57795668643657
 30
0.0
 10
-2.824513333070568
 20
41.68785523244353
 30
0.0
 10
-2.840016262758068
 20
42.06302613088103
 30
0.0
 10
-2.853107625605291
 20
42.38342001108935
 30
0.0
 10
-3.100120971959456
 20
42.65248196855464
 30
0.0
 10
-3.420170342619181
 20
42.65248196855464
 30
0.0
 10
-3.420170342619181
 20
42.65248196855464
 30
0.0
 10
-7.55359590685529
 20
42.652137459006
 30
0.0
 10
-7.55359590685529
 20
42.652137459006
 30
0.0
 10
-8.404534491924735
 20
42.68383233747825
 30
0.0
 10
-8.989167195917787
 20
42.06509318817269
 30
0.0
 10
-8.989167195917787
 20
41.3305988305338
 30
0.0
 10
-8.989167195917787
 20
40.88411445553381
 30
0.0
 10
-8.740431301820567
 20
40.46932495900603
 30
0.0
 10
-8.381796861716402
 20
40.22816827497825
 30
0.0
 10
-8.381796861716402
 20
40.22816827497825
 30
0.0
 10
-8.354925116924736
 20
40.20715319251297
 30
0.0
 10
-8.354925116924736
 20
40.20715319251297
 30
0.0
 10
-8.607450616056681
 20
40.05798055796435
 30
0.0
 10
-8.748355021438625
 20
39.8075221161241
 30
0.0
 10
-8.771781670744179
 20
39.50090861786021
 30
0.0
 10
-8.794863810501125
 20
39.19601766733936
 30
0.0
 10
-8.621230998001124
 20
38.83669420813798
 30
0.0
 10
-8.330464938973346
 20
38.69854587914492
 30
0.0
 10
-8.330464938973346
 20
38.69854587914492
 30
0.0
 10
-8.350446492792791
 20
38.68407647810325
 30
0.0
 10
-8.350446492792791
 20
38.68407647810325
 30
0.0
 10
-9.024996188973343
 20
38.26515286699215
 30
0.0
 10
-9.494562703730293
 20
37.59198120900604
 30
0.0
 10
-9.243070733244179
 20
36.46681302324215
 30
0.0
 10
-9.13076062039696
 20
35.96176202497826
 30
0.0
 10
-8.617441392966401
 20
35.58314603105465
 30
0.0
 10
-8.290501831334458
 20
35.41468086178382
 30
0.0
 10
-7.829203545744178
 20
35.17765829233937
 30
0.0
 10
-6.996523966751125
 20
35.05983602671437
 30
0.0
 10
-6.482860229771957
 20
35.04467760657548
 30
0.0
 10
-6.482860229771957
 20
35.04467760657548
 30
0.0
 10
-3.647891154251122
 20
34.73668607011715
 30
0.0
 10
-3.247571058765013
 20
36.70865872636714
 30
0.0
 10
-2.847250963278903
 20
38.68028687306853
 30
0.0
 10
-4.534658732376124
 20
39.39479967688798
 30
0.0
 10
-4.775126397306681
 20
39.40513496334631
 30
0.0
 10
-5.015594062237235
 20
39.41478123070742
 30
0.0
 10
-3.57830022543168
 20
39.8912379364366
 30
0.0
 10
-3.738497165535846
 20
41.33438843556853
 30
0.0
 10
-3.738497165535846
 20
41.33438843556853
 30
0.0
 10
-3.640656453730291
 20
41.4573783444227
 30
0.0
 10
-3.33025335043168
 20
41.50009752845046
 30
0.0
  0
ELLIPSE
  5
E29
330
E1F
100
AcDbEntity
  8
WAKU
100
AcDbEllipse
 10
-6.072204847827513
 20
38.96691881751298
 30
0.0
 11
-5.716791449652776
 21
-5.716791449652776
 31
0.0
210
0.0
220
0.0
230
0.9999999999999998
 40
0.7036880800289264
 41
0.0
 42
6.283185307179584
  0
POLYLINE
  5
E2A
330
E1F
100
AcDbEntity
  8
WAKU
100
AcDb2dPolyline
 66
     1
 10
0.0
 20
0.0
 30
0.0
 70
     1
  0
VERTEX
  5
E2B
330
E2A
100
AcDbEntity
  8
WAKU
100
AcDbVertex
100
AcDb2dVertex
 10
38.86320910616554
 20
39.71657159529075
 30
0.0
  0
VERTEX
  5
E2C
330
E2A
100
AcDbEntity
  8
WAKU
100
AcDbVertex
100
AcDb2dVertex
 10
38.86320910616554
 20
38.31097263695742
 30
0.0
  0
VERTEX
  5
E2D
330
E2A
100
AcDbEntity
  8
WAKU
100
AcDbVertex
100
AcDb2dVertex
 10
31.17513401935998
 20
38.31097263695742
 30
0.0
  0
VERTEX
  5
E2E
330
E2A
100
AcDbEntity
  8
WAKU
100
AcDbVertex
100
AcDb2dVertex
 10
31.17513401935998
 20
39.71657159529075
 30
0.0
  0
SEQEND
  5
E2F
330
E2A
100
AcDbEntity
  8
WAKU
  0
SPLINE
  5
E30
330
E1F
100
AcDbEntity
  8
WAKU
100
AcDbSpline
210
0.0
220
0.0
230
1.0
 70
     9
 71
     3
 72
    53
 73
    49
 74
     0
 42
0.000000001
 43
0.0000000001
 40
0.0
 40
0.0
 40
0.0
 40
0.0
 40
1.0
 40
1.0
 40
1.0
 40
2.0
 40
2.0
 40
2.0
 40
3.0
 40
3.0
 40
3.0
 40
4.0
 40
4.0
 40
4.0
 40
5.0
 40
5.0
 40
5.0
 40
6.0
 40
6.0
 40
6.0
 40
7.0
 40
7.0
 40
7.0
 40
8.0
 40
8.0
 40
8.0
 40
9.0
 40
9.0
 40
9.0
 40
10.0
 40
10.0
 40
10.0
 40
11.0
 40
11.0
 40
11.0
 40
12.0
 40
12.0
 40
12.0
 40
13.0
 40
13.0
 40
13.0
 40
14.0
 40
14.0
 40
14.0
 40
15.0
 40
15.0
 40
15.0
 40
16.0
 40
16.0
 40
16.0
 40
16.0
 10
92.00725207491553
 20
42.91637628279075
 30
0.0
 10
92.00725207491553
 20
42.87055651282547
 30
0.0
 10
92.00725207491553
 20
40.82899292775603
 30
0.0
 10
92.00725207491553
 20
40.82899292775603
 30
0.0
 10
92.00725207491553
 20
40.82899292775603
 30
0.0
 10
90.36945368081831
 20
40.82899292775603
 30
0.0
 10
90.32397842040165
 20
40.82899292775603
 30
0.0
 10
90.32397842040165
 20
40.78489570553379
 30
0.0
 10
90.32397842040165
 20
39.62424303626298
 30
0.0
 10
90.32397842040165
 20
39.57980130449215
 30
0.0
 10
90.36945368081831
 20
39.57980130449215
 30
0.0
 10
92.00725207491553
 20
39.57980130449215
 30
0.0
 10
92.00725207491553
 20
39.57980130449215
 30
0.0
 10
92.00725207491553
 20
39.57980130449215
 30
0.0
 10
92.00725207491553
 20
36.45303264129771
 30
0.0
 10
92.00725207491553
 20
36.45303264129771
 30
0.0
 10
92.00725207491553
 20
36.45303264129771
 30
0.0
 10
89.91194500026276
 20
36.45303264129771
 30
0.0
 10
89.86646973984608
 20
36.45303264129771
 30
0.0
 10
89.86646973984608
 20
36.40893541907548
 30
0.0
 10
89.86646973984608
 20
35.26481920813797
 30
0.0
 10
89.86646973984608
 20
35.22037747636714
 30
0.0
 10
89.91228950981136
 20
35.22037747636714
 30
0.0
 10
95.3272905948808
 20
35.22037747636714
 30
0.0
 10
95.3734548743947
 20
35.22037747636714
 30
0.0
 10
95.3734548743947
 20
35.26481920813797
 30
0.0
 10
95.3734548743947
 20
36.40893541907548
 30
0.0
 10
95.3734548743947
 20
36.45303264129771
 30
0.0
 10
95.32763510442942
 20
36.45303264129771
 30
0.0
 10
93.41905220512387
 20
36.45303264129771
 30
0.0
 10
93.41905220512387
 20
36.45303264129771
 30
0.0
 10
93.41905220512387
 20
36.45303264129771
 30
0.0
 10
93.41905220512387
 20
39.57980130449215
 30
0.0
 10
93.41905220512387
 20
39.57980130449215
 30
0.0
 10
93.41905220512387
 20
39.57980130449215
 30
0.0
 10
95.18776422769331
 20
39.57980130449215
 30
0.0
 10
95.23323948810995
 20
39.57980130449215
 30
0.0
 10
95.23323948810995
 20
39.62424303626298
 30
0.0
 10
95.23323948810995
 20
40.78489570553379
 30
0.0
 10
95.23323948810995
 20
40.82899292775603
 30
0.0
 10
95.18776422769331
 20
40.82899292775603
 30
0.0
 10
93.41905220512387
 20
40.82899292775603
 30
0.0
 10
93.41905220512387
 20
40.82899292775603
 30
0.0
 10
93.41905220512387
 20
40.82899292775603
 30
0.0
 10
93.41905220512387
 20
42.87055651282547
 30
0.0
 10
93.41905220512387
 20
42.91637628279075
 30
0.0
 10
93.37461047335304
 20
42.91637628279075
 30
0.0
 10
92.05134929713777
 20
42.91637628279075
 30
0.0
 10
92.00725207491553
 20
42.91637628279075
 30
0.0
  0
SPLINE
  5
E31
330
E1F
100
AcDbEntity
  8
WAKU
100
AcDbSpline
210
0.0
220
0.0
230
1.0
 70
     9
 71
     3
 72
    74
 73
    70
 74
     0
 42
0.000000001
 43
0.0000000001
 40
0.0
 40
0.0
 40
0.0
 40
0.0
 40
1.0
 40
1.0
 40
1.0
 40
2.0
 40
2.0
 40
2.0
 40
3.0
 40
3.0
 40
3.0
 40
4.0
 40
4.0
 40
4.0
 40
5.0
 40
5.0
 40
5.0
 40
6.0
 40
6.0
 40
6.0
 40
7.0
 40
7.0
 40
7.0
 40
8.0
 40
8.0
 40
8.0
 40
9.0
 40
9.0
 40
9.0
 40
10.0
 40
10.0
 40
10.0
 40
11.0
 40
11.0
 40
11.0
 40
12.0
 40
12.0
 40
12.0
 40
13.0
 40
13.0
 40
13.0
 40
14.0
 40
14.0
 40
14.0
 40
15.0
 40
15.0
 40
15.0
 40
16.0
 40
16.0
 40
16.0
 40
17.0
 40
17.0
 40
17.0
 40
18.0
 40
18.0
 40
18.0
 40
19.0
 40
19.0
 40
19.0
 40
20.0
 40
20.0
 40
20.0
 40
21.0
 40
21.0
 40
21.0
 40
22.0
 40
22.0
 40
22.0
 40
23.0
 40
23.0
 40
23.0
 40
23.0
 10
87.80871420599192
 20
42.92464451195741
 30
0.0
 10
87.80871420599192
 20
42.87951376108935
 30
0.0
 10
87.80871420599192
 20
41.76330282358935
 30
0.0
 10
87.80871420599192
 20
41.76330282358935
 30
0.0
 10
87.80871420599192
 20
41.76330282358935
 30
0.0
 10
86.67562230060999
 20
41.76330282358935
 30
0.0
 10
86.63083605929054
 20
41.76330282358935
 30
0.0
 10
86.63083605929054
 20
41.71920560136714
 30
0.0
 10
86.63083605929054
 20
40.67603068817269
 30
0.0
 10
86.63083605929054
 20
40.63193346595046
 30
0.0
 10
86.6763113197072
 20
40.63193346595046
 30
0.0
 10
88.69479276501968
 20
40.63193346595046
 30
0.0
 10
88.69479276501968
 20
40.63193346595046
 30
0.0
 10
88.69479276501968
 20
40.63193346595046
 30
0.0
 10
88.67550023029748
 20
40.59713800154074
 30
0.0
 10
88.67550023029748
 20
40.59713800154074
 30
0.0
 10
88.34959419731138
 20
40.01112725935325
 30
0.0
 10
87.48694228758914
 20
39.1315943817491
 30
0.0
 10
86.4654714759572
 20
38.57727851803382
 30
0.0
 10
86.47305068602666
 20
38.54558363956158
 30
0.0
 10
86.79516711397804
 20
37.19545071855464
 30
0.0
 10
86.8092920054711
 20
37.13585056664492
 30
0.0
 10
87.15896919731136
 20
37.34944648678381
 30
0.0
 10
87.41011665824888
 20
37.51377754147132
 30
0.0
 10
87.77116266519332
 20
37.79076321855465
 30
0.0
 10
87.77116266519332
 20
37.79076321855465
 30
0.0
 10
87.80871420599192
 20
37.81970202063798
 30
0.0
 10
87.80871420599192
 20
37.81970202063798
 30
0.0
 10
87.80871420599192
 20
37.81970202063798
 30
0.0
 10
87.80871420599192
 20
35.03089722463104
 30
0.0
 10
87.80871420599192
 20
34.98507745466576
 30
0.0
 10
87.85315593776275
 20
34.98507745466576
 30
0.0
 10
89.13886557317942
 20
34.98507745466576
 30
0.0
 10
89.18330730495027
 20
34.98507745466576
 30
0.0
 10
89.18330730495027
 20
35.03089722463104
 30
0.0
 10
89.18330730495027
 20
38.15973294511714
 30
0.0
 10
89.18330730495027
 20
38.15973294511714
 30
0.0
 10
89.18330730495027
 20
38.15973294511714
 30
0.0
 10
89.22499296033221
 20
38.10667847463103
 30
0.0
 10
89.22499296033221
 20
38.10667847463103
 30
0.0
 10
89.51128039522803
 20
37.74494344858937
 30
0.0
 10
89.71695259574886
 20
37.5471949676866
 30
0.0
 10
89.98635906276275
 20
37.32050768470048
 30
0.0
 10
90.01323080755442
 20
37.36598294511714
 30
0.0
 10
90.63782661918637
 20
38.43051745032548
 30
0.0
 10
90.6609087589433
 20
38.47013604841576
 30
0.0
 10
90.28470433186001
 20
38.66168335744354
 30
0.0
 10
89.8726709117211
 20
38.9052516083116
 30
0.0
 10
89.40551596380442
 20
39.37171753713104
 30
0.0
 10
89.40551596380442
 20
39.37171753713104
 30
0.0
 10
89.39070205321415
 20
39.38618693817272
 30
0.0
 10
89.39070205321415
 20
39.38618693817272
 30
0.0
 10
89.39070205321415
 20
39.38618693817272
 30
0.0
 10
89.40344890651275
 20
39.40237888695742
 30
0.0
 10
89.40344890651275
 20
39.40237888695742
 30
0.0
 10
89.81479330755439
 20
39.93740221595048
 30
0.0
 10
89.99256023463775
 20
40.29224705101992
 30
0.0
 10
90.13932130234607
 20
40.60988485483934
 30
0.0
 10
90.13932130234607
 20
40.60988485483934
 30
0.0
 10
90.13725424505443
 20
41.71851658226992
 30
0.0
 10
90.13725424505443
 20
41.76330282358935
 30
0.0
 10
90.09281251328358
 20
41.76330282358935
 30
0.0
 10
89.18330730495027
 20
41.76330282358935
 30
0.0
 10
89.18330730495027
 20
41.76330282358935
 30
0.0
 10
89.18330730495027
 20
41.76330282358935
 30
0.0
 10
89.18330730495027
 20
42.87951376108935
 30
0.0
 10
89.18330730495027
 20
42.92464451195741
 30
0.0
 10
89.13886557317942
 20
42.92464451195741
 30
0.0
 10
87.85315593776275
 20
42.92464451195741
 30
0.0
 10
87.80871420599192
 20
42.92464451195741
 30
0.0
  0
SPLINE
  5
E32
330
E1F
100
AcDbEntity
  8
WAKU
100
AcDbSpline
210
0.0
220
0.0
230
1.0
 70
     9
 71
     3
 72
    35
 73
    31
 74
     0
 42
0.000000001
 43
0.0000000001
 40
0.0
 40
0.0
 40
0.0
 40
0.0
 40
1.0
 40
1.0
 40
1.0
 40
2.0
 40
2.0
 40
2.0
 40
3.0
 40
3.0
 40
3.0
 40
4.0
 40
4.0
 40
4.0
 40
5.0
 40
5.0
 40
5.0
 40
6.0
 40
6.0
 40
6.0
 40
7.0
 40
7.0
 40
7.0
 40
8.0
 40
8.0
 40
8.0
 40
9.0
 40
9.0
 40
9.0
 40
10.0
 40
10.0
 40
10.0
 40
10.0
 10
80.33940268255442
 20
36.44579794077686
 30
0.0
 10
80.62155600286692
 20
36.95360501542964
 30
0.0
 10
80.80621312092246
 20
37.32808689476993
 30
0.0
 10
81.06804037786693
 20
37.88343628713104
 30
0.0
 10
81.06804037786693
 20
37.88343628713104
 30
0.0
 10
81.07424154974195
 20
37.89652764997825
 30
0.0
 10
81.07424154974195
 20
37.89652764997825
 30
0.0
 10
81.07424154974195
 20
37.89652764997825
 30
0.0
 10
83.71697429713776
 20
37.89652764997825
 30
0.0
 10
83.71697429713776
 20
37.89652764997825
 30
0.0
 10
83.71697429713776
 20
37.89652764997825
 30
0.0
 10
83.72593154540162
 20
37.85174140865882
 30
0.0
 10
83.72593154540162
 20
37.85174140865882
 30
0.0
 10
83.72593154540162
 20
37.85174140865882
 30
0.0
 10
82.7082503388044
 20
37.41731486786021
 30
0.0
 10
82.65209528238081
 20
37.39354370900603
 30
0.0
 10
82.69309191866554
 20
37.34669041039492
 30
0.0
 10
83.43034235269332
 20
36.50505358313797
 30
0.0
 10
83.43034235269332
 20
36.50505358313797
 30
0.0
 10
83.43034235269332
 20
36.50505358313797
 30
0.0
 10
83.38073297769332
 20
36.50367554494354
 30
0.0
 10
83.38073297769332
 20
36.50367554494354
 30
0.0
 10
83.38073297769332
 20
36.50367554494354
 30
0.0
 10
81.27750218342248
 20
36.41927070553381
 30
0.0
 10
81.27750218342248
 20
36.41927070553381
 30
0.0
 10
81.27750218342248
 20
36.41927070553381
 30
0.0
 10
80.3197656382836
 20
36.41065796681854
 30
0.0
 10
80.3197656382836
 20
36.41065796681854
 30
0.0
 10
80.3197656382836
 20
36.41065796681854
 30
0.0
 10
80.33940268255442
 20
36.44579794077686
 30
0.0
 10
80.33940268255442
 20
36.44579794077686
 30
0.0
  0
SPLINE
  5
E33
330
E1F
100
AcDbEntity
  8
WAKU
100
AcDbSpline
210
0.0
220
0.0
230
1.0
 70
     9
 71
     3
 72
    56
 73
    52
 74
     0
 42
0.000000001
 43
0.0000000001
 40
0.0
 40
0.0
 40
0.0
 40
0.0
 40
1.0
 40
1.0
 40
1.0
 40
2.0
 40
2.0
 40
2.0
 40
3.0
 40
3.0
 40
3.0
 40
4.0
 40
4.0
 40
4.0
 40
5.0
 40
5.0
 40
5.0
 40
6.0
 40
6.0
 40
6.0
 40
7.0
 40
7.0
 40
7.0
 40
8.0
 40
8.0
 40
8.0
 40
9.0
 40
9.0
 40
9.0
 40
10.0
 40
10.0
 40
10.0
 40
11.0
 40
11.0
 40
11.0
 40
12.0
 40
12.0
 40
12.0
 40
13.0
 40
13.0
 40
13.0
 40
14.0
 40
14.0
 40
14.0
 40
15.0
 40
15.0
 40
15.0
 40
16.0
 40
16.0
 40
16.0
 40
17.0
 40
17.0
 40
17.0
 40
17.0
 10
77.46619304713775
 20
39.06165894338104
 30
0.0
 10
77.46619304713775
 20
39.01756172115881
 30
0.0
 10
77.46619304713775
 20
37.94062487220048
 30
0.0
 10
77.46619304713775
 20
37.89652764997825
 30
0.0
 10
77.51166830755443
 20
37.89652764997825
 30
0.0
 10
79.56081110269329
 20
37.89652764997825
 30
0.0
 10
79.56081110269329
 20
37.89652764997825
 30
0.0
 10
79.56081110269329
 20
37.89652764997825
 30
0.0
 10
79.54978679713774
 20
37.86552179060326
 30
0.0
 10
79.54978679713774
 20
37.86552179060326
 30
0.0
 10
79.3306787242211
 20
37.2557398895616
 30
0.0
 10
79.0891775306447
 20
36.76998142601993
 30
0.0
 10
78.9031423743947
 20
36.41513659095048
 30
0.0
 10
78.9031423743947
 20
36.41513659095048
 30
0.0
 10
78.8965966929711
 20
36.40273424720048
 30
0.0
 10
78.8965966929711
 20
36.40273424720048
 30
0.0
 10
78.8965966929711
 20
36.40273424720048
 30
0.0
 10
77.83481826415166
 20
36.39446601803382
 30
0.0
 10
77.83481826415166
 20
36.39446601803382
 30
0.0
 10
77.83481826415166
 20
36.39446601803382
 30
0.0
 10
77.58367080321416
 20
36.40066718990882
 30
0.0
 10
77.53543946640859
 20
36.40170071855465
 30
0.0
 10
77.54474122422109
 20
36.34899075761715
 30
0.0
 10
77.74524578151275
 20
35.18317044511714
 30
0.0
 10
77.75179146293637
 20
35.14527439476992
 30
0.0
 10
79.81230307317942
 20
35.20280748938797
 30
0.0
 10
80.21331218776275
 20
35.23140178192271
 30
0.0
 10
83.93367080321414
 20
35.4980521725477
 30
0.0
 10
83.93367080321414
 20
35.4980521725477
 30
0.0
 10
84.18688532144331
 20
35.51596666907548
 30
0.0
 10
84.18688532144331
 20
35.51596666907548
 30
0.0
 10
84.18688532144331
 20
35.51596666907548
 30
0.0
 10
84.54483074245024
 20
34.9585502194227
 30
0.0
 10
84.56653484401275
 20
34.92409926456159
 30
0.0
 10
84.60236383706831
 20
34.94098023244354
 30
0.0
 10
85.82123862005444
 20
35.52010078365881
 30
0.0
 10
85.86946995685995
 20
35.54283841386715
 30
0.0
 10
85.40300402804053
 20
36.20670831404075
 30
0.0
 10
84.80769152804054
 20
36.99804674720048
 30
0.0
 10
83.92505806449888
 20
37.85656454233937
 30
0.0
 10
83.92505806449888
 20
37.85656454233937
 30
0.0
 10
83.88337240911694
 20
37.89652764997825
 30
0.0
 10
83.88337240911694
 20
37.89652764997825
 30
0.0
 10
83.88337240911694
 20
37.89652764997825
 30
0.0
 10
85.80814725720719
 20
37.89652764997825
 30
0.0
 10
85.85362251762388
 20
37.89652764997825
 30
0.0
 10
85.85362251762388
 20
37.94062487220048
 30
0.0
 10
85.85362251762388
 20
39.01756172115881
 30
0.0
 10
85.85362251762388
 20
39.06165894338104
 30
0.0
 10
85.80711372856137
 20
39.06165894338104
 30
0.0
 10
77.51235732665165
 20
39.06165894338104
 30
0.0
 10
77.46619304713775
 20
39.06165894338104
 30
0.0
  0
SPLINE
  5
E34
330
E1F
100
AcDbEntity
  8
WAKU
100
AcDbSpline
210
0.0
220
0.0
230
1.0
 70
     9
 71
     3
 72
    26
 73
    22
 74
     0
 42
0.000000001
 43
0.0000000001
 40
0.0
 40
0.0
 40
0.0
 40
0.0
 40
1.0
 40
1.0
 40
1.0
 40
2.0
 40
2.0
 40
2.0
 40
3.0
 40
3.0
 40
3.0
 40
4.0
 40
4.0
 40
4.0
 40
5.0
 40
5.0
 40
5.0
 40
6.0
 40
6.0
 40
6.0
 40
7.0
 40
7.0
 40
7.0
 40
7.0
 10
80.22502551241553
 20
40.82141371768659
 30
0.0
 10
81.11627171467246
 20
41.42912856143659
 30
0.0
 10
81.43356500894331
 20
41.75055597029075
 30
0.0
 10
81.66094131102665
 20
42.00445950761714
 30
0.0
 10
81.66094131102665
 20
42.00445950761714
 30
0.0
 10
81.67747776935998
 20
42.02237400414492
 30
0.0
 10
81.67747776935998
 20
42.02237400414492
 30
0.0
 10
81.67747776935998
 20
42.02237400414492
 30
0.0
 10
81.69504775633914
 20
42.00514852671434
 30
0.0
 10
81.69504775633914
 20
42.00514852671434
 30
0.0
 10
81.95584148463778
 20
41.74676636525602
 30
0.0
 10
82.3137869056447
 20
41.39226603973519
 30
0.0
 10
83.14991158012388
 20
40.82141371768659
 30
0.0
 10
83.14991158012388
 20
40.82141371768659
 30
0.0
 10
83.21261231797109
 20
40.77869453365879
 30
0.0
 10
83.21261231797109
 20
40.77869453365879
 30
0.0
 10
83.21261231797109
 20
40.77869453365879
 30
0.0
 10
80.1623247745683
 20
40.77869453365879
 30
0.0
 10
80.1623247745683
 20
40.77869453365879
 30
0.0
 10
80.1623247745683
 20
40.77869453365879
 30
0.0
 10
80.22502551241553
 20
40.82141371768659
 30
0.0
 10
80.22502551241553
 20
40.82141371768659
 30
0.0
  0
SPLINE
  5
E35
330
E1F
100
AcDbEntity
  8
WAKU
100
AcDbSpline
210
0.0
220
0.0
230
1.0
 70
     9
 71
     3
 72
    44
 73
    40
 74
     0
 42
0.000000001
 43
0.0000000001
 40
0.0
 40
0.0
 40
0.0
 40
0.0
 40
1.0
 40
1.0
 40
1.0
 40
2.0
 40
2.0
 40
2.0
 40
3.0
 40
3.0
 40
3.0
 40
4.0
 40
4.0
 40
4.0
 40
5.0
 40
5.0
 40
5.0
 40
6.0
 40
6.0
 40
6.0
 40
7.0
 40
7.0
 40
7.0
 40
8.0
 40
8.0
 40
8.0
 40
9.0
 40
9.0
 40
9.0
 40
10.0
 40
10.0
 40
10.0
 40
11.0
 40
11.0
 40
11.0
 40
12.0
 40
12.0
 40
12.0
 40
13.0
 40
13.0
 40
13.0
 40
13.0
 10
80.86581327283218
 20
42.98355564476993
 30
0.0
 10
80.20504395859608
 20
42.15363214216576
 30
0.0
 10
79.03681207925581
 20
41.47322578365881
 30
0.0
 10
77.08344293863081
 20
40.78110610049907
 30
0.0
 10
77.10859213567943
 20
40.73597534963103
 30
0.0
 10
77.7528249915822
 20
39.57635620900603
 30
0.0
 10
77.7714285072072
 20
39.54328329233937
 30
0.0
 10
77.7776296790822
 20
39.54535034963104
 30
0.0
 10
77.7838308509572
 20
39.54776191647132
 30
0.0
 10
77.7838308509572
 20
39.54776191647132
 30
0.0
 10
78.0573714325544
 20
39.64594713782548
 30
0.0
 10
78.46974936224192
 20
39.79443075327687
 30
0.0
 10
79.17048178411693
 20
40.17476929494352
 30
0.0
 10
79.17048178411693
 20
40.17476929494352
 30
0.0
 10
79.20493273897804
 20
40.19337281056853
 30
0.0
 10
79.20493273897804
 20
40.19337281056853
 30
0.0
 10
79.20493273897804
 20
40.19337281056853
 30
0.0
 10
79.20493273897804
 20
39.73999824459632
 30
0.0
 10
79.20493273897804
 20
39.69762357011715
 30
0.0
 10
79.25075250894329
 20
39.69762357011715
 30
0.0
 10
84.08663304279745
 20
39.69762357011715
 30
0.0
 10
84.13279732231137
 20
39.69762357011715
 30
0.0
 10
84.13279732231137
 20
39.74034275414492
 30
0.0
 10
84.13279732231137
 20
40.22679023678381
 30
0.0
 10
84.13279732231137
 20
40.22679023678381
 30
0.0
 10
84.13279732231137
 20
40.22679023678381
 30
0.0
 10
84.16724827717247
 20
40.20818672115882
 30
0.0
 10
84.16724827717247
 20
40.20818672115882
 30
0.0
 10
84.8438650306447
 20
39.83956150414492
 30
0.0
 10
85.26003256536695
 20
39.67695299720047
 30
0.0
 10
85.53874079019331
 20
39.5687769989366
 30
0.0
 10
85.55803332491553
 20
39.60219442515187
 30
0.0
 10
86.21845812960302
 20
40.75216729841574
 30
0.0
 10
86.2446408552975
 20
40.79798706838103
 30
0.0
 10
84.61338814262388
 20
41.35195842254769
 30
0.0
 10
83.39106826415164
 20
42.06681573591575
 30
0.0
 10
82.51015734835304
 20
42.98355564476993
 30
0.0
 10
82.49155383272805
 20
42.98355564476993
 30
0.0
 10
80.88648384574886
 20
42.98355564476993
 30
0.0
 10
80.86581327283218
 20
42.98355564476993
 30
0.0
  0
SPLINE
  5
E36
330
E1F
100
AcDbEntity
  8
WAKU
100
AcDbSpline
210
0.0
220
0.0
230
1.0
 70
     9
 71
     3
 72
    50
 73
    46
 74
     0
 42
0.000000001
 43
0.0000000001
 40
0.0
 40
0.0
 40
0.0
 40
0.0
 40
1.0
 40
1.0
 40
1.0
 40
2.0
 40
2.0
 40
2.0
 40
3.0
 40
3.0
 40
3.0
 40
4.0
 40
4.0
 40
4.0
 40
5.0
 40
5.0
 40
5.0
 40
6.0
 40
6.0
 40
6.0
 40
7.0
 40
7.0
 40
7.0
 40
8.0
 40
8.0
 40
8.0
 40
9.0
 40
9.0
 40
9.0
 40
10.0
 40
10.0
 40
10.0
 40
11.0
 40
11.0
 40
11.0
 40
12.0
 40
12.0
 40
12.0
 40
13.0
 40
13.0
 40
13.0
 40
14.0
 40
14.0
 40
14.0
 40
15.0
 40
15.0
 40
15.0
 40
15.0
 10
68.10483508272804
 20
39.81096721161021
 30
0.0
 10
68.10483508272804
 20
39.76686998938798
 30
0.0
 10
68.10483508272804
 20
38.68166491126298
 30
0.0
 10
68.10483508272804
 20
38.63756768904075
 30
0.0
 10
68.1499658335961
 20
38.63756768904075
 30
0.0
 10
69.59139378498497
 20
38.63756768904075
 30
0.0
 10
69.59139378498497
 20
38.63756768904075
 30
0.0
 10
69.59139378498497
 20
38.63756768904075
 30
0.0
 10
69.59139378498497
 20
36.56396471595048
 30
0.0
 10
69.59139378498497
 20
36.56396471595048
 30
0.0
 10
69.59139378498497
 20
36.56396471595048
 30
0.0
 10
68.2130110809919
 20
36.46991360917964
 30
0.0
 10
68.2130110809919
 20
36.46991360917964
 30
0.0
 10
68.21370010008914
 20
36.46991360917964
 30
0.0
 10
68.00596084227665
 20
36.46026734181854
 30
0.0
 10
68.00596084227665
 20
36.46026734181854
 30
0.0
 10
68.00596084227665
 20
36.46026734181854
 30
0.0
 10
67.88297093342248
 20
36.45578871768659
 30
0.0
 10
67.84541939262386
 20
36.45441067949214
 30
0.0
 10
67.85127605495026
 20
36.40686836178382
 30
0.0
 10
67.99355849852665
 20
35.22347806230464
 30
0.0
 10
67.99872614175581
 20
35.18041436872825
 30
0.0
 10
71.1575341929711
 20
35.4825492428602
 30
0.0
 10
71.73286513915164
 20
35.54077135657548
 30
0.0
 10
72.7794851478322
 20
35.73851983747825
 30
0.0
 10
72.77914063828359
 20
35.77572686872826
 30
0.0
 10
72.76260417995023
 20
36.83509373070742
 30
0.0
 10
72.76191516085304
 20
36.88642565345047
 30
0.0
 10
72.42085070772803
 20
36.82820353973522
 30
0.0
 10
72.03121040824886
 20
36.76205770640186
 30
0.0
 10
71.00078234835304
 20
36.67179620466575
 30
0.0
 10
71.00078234835304
 20
36.67179620466575
 30
0.0
 10
70.9749441322072
 20
36.6697291473741
 30
0.0
 10
70.9749441322072
 20
36.6697291473741
 30
0.0
 10
70.9749441322072
 20
36.6697291473741
 30
0.0
 10
70.9749441322072
 20
38.63756768904075
 30
0.0
 10
70.9749441322072
 20
38.63756768904075
 30
0.0
 10
70.9749441322072
 20
38.63756768904075
 30
0.0
 10
72.3888113197072
 20
38.63756768904075
 30
0.0
 10
72.43394207057527
 20
38.63756768904075
 30
0.0
 10
72.43394207057527
 20
38.68166491126298
 30
0.0
 10
72.43394207057527
 20
39.76686998938798
 30
0.0
 10
72.43394207057527
 20
39.81096721161021
 30
0.0
 10
72.38812230060998
 20
39.81096721161021
 30
0.0
 10
68.15065485269332
 20
39.81096721161021
 30
0.0
 10
68.10483508272804
 20
39.81096721161021
 30
0.0
  0
SPLINE
  5
E37
330
E1F
100
AcDbEntity
  8
WAKU
100
AcDbSpline
210
0.0
220
0.0
230
1.0
 70
     9
 71
     3
 72
    89
 73
    85
 74
     0
 42
0.000000001
 43
0.0000000001
 40
0.0
 40
0.0
 40
0.0
 40
0.0
 40
1.0
 40
1.0
 40
1.0
 40
2.0
 40
2.0
 40
2.0
 40
3.0
 40
3.0
 40
3.0
 40
4.0
 40
4.0
 40
4.0
 40
5.0
 40
5.0
 40
5.0
 40
6.0
 40
6.0
 40
6.0
 40
7.0
 40
7.0
 40
7.0
 40
8.0
 40
8.0
 40
8.0
 40
9.0
 40
9.0
 40
9.0
 40
10.0
 40
10.0
 40
10.0
 40
11.0
 40
11.0
 40
11.0
 40
12.0
 40
12.0
 40
12.0
 40
13.0
 40
13.0
 40
13.0
 40
14.0
 40
14.0
 40
14.0
 40
15.0
 40
15.0
 40
15.0
 40
16.0
 40
16.0
 40
16.0
 40
17.0
 40
17.0
 40
17.0
 40
18.0
 40
18.0
 40
18.0
 40
19.0
 40
19.0
 40
19.0
 40
20.0
 40
20.0
 40
20.0
 40
21.0
 40
21.0
 40
21.0
 40
22.0
 40
22.0
 40
22.0
 40
23.0
 40
23.0
 40
23.0
 40
24.0
 40
24.0
 40
24.0
 40
25.0
 40
25.0
 40
25.0
 40
26.0
 40
26.0
 40
26.0
 40
27.0
 40
27.0
 40
27.0
 40
28.0
 40
28.0
 40
28.0
 40
28.0
 10
74.36939671467247
 20
42.55980889997824
 30
0.0
 10
74.59573948810998
 20
42.36481649546436
 30
0.0
 10
74.79762208359609
 20
42.10436727671435
 30
0.0
 10
75.02844348116553
 20
41.80085436438797
 30
0.0
 10
75.02844348116553
 20
41.80085436438797
 30
0.0
 10
75.05703777370027
 20
41.76330282358935
 30
0.0
 10
75.05703777370027
 20
41.76330282358935
 30
0.0
 10
75.05703777370027
 20
41.76330282358935
 30
0.0
 10
74.07036242647802
 20
41.76330282358935
 30
0.0
 10
74.07036242647802
 20
41.76330282358935
 30
0.0
 10
74.07036242647802
 20
41.76330282358935
 30
0.0
 10
74.07036242647802
 20
42.88743748070742
 30
0.0
 10
74.07036242647802
 20
42.93325725067268
 30
0.0
 10
74.0259206947072
 20
42.93325725067268
 30
0.0
 10
72.6678640540822
 20
42.93325725067268
 30
0.0
 10
72.62169977456832
 20
42.93325725067268
 30
0.0
 10
72.62307781276277
 20
42.89122708574214
 30
0.0
 10
72.6306570228322
 20
42.66178372636714
 30
0.0
 10
72.6306570228322
 20
42.66178372636714
 30
0.0
 10
72.6303125132836
 20
42.66316176456157
 30
0.0
 10
72.64857151935998
 20
42.2325248287977
 30
0.0
 10
72.64857151935998
 20
42.2325248287977
 30
0.0
 10
72.64857151935998
 20
42.2325248287977
 30
0.0
 10
72.66855307317944
 20
41.76399184268658
 30
0.0
 10
72.66855307317944
 20
41.76399184268658
 30
0.0
 10
72.66855307317944
 20
41.76399184268658
 30
0.0
 10
72.64409289522801
 20
41.76330282358935
 30
0.0
 10
72.64409289522801
 20
41.76330282358935
 30
0.0
 10
72.64409289522801
 20
41.76330282358935
 30
0.0
 10
67.97288792560998
 20
41.76330282358935
 30
0.0
 10
67.92672364609609
 20
41.76330282358935
 30
0.0
 10
67.92672364609609
 20
41.71920560136714
 30
0.0
 10
67.92672364609609
 20
40.63400052324214
 30
0.0
 10
67.92672364609609
 20
40.58990330101992
 30
0.0
 10
67.97288792560998
 20
40.58990330101992
 30
0.0
 10
72.71333931449887
 20
40.58990330101992
 30
0.0
 10
72.71333931449887
 20
40.58990330101992
 30
0.0
 10
72.71333931449887
 20
40.58990330101992
 30
0.0
 10
72.71540637179054
 20
40.54511705970047
 30
0.0
 10
72.71540637179054
 20
40.54511705970047
 30
0.0
 10
72.7698388804711
 20
39.22702352671436
 30
0.0
 10
72.87112468776277
 20
36.77411554060326
 30
0.0
 10
74.21333388915164
 20
35.44086358747826
 30
0.0
 10
74.44415528672109
 20
35.21004218990881
 30
0.0
 10
74.88133790390858
 20
34.97646471595048
 30
0.0
 10
75.33712403672109
 20
34.97646471595048
 30
0.0
 10
76.16050185790166
 20
34.97646471595048
 30
0.0
 10
76.64005914956831
 20
35.85393053626297
 30
0.0
 10
76.85503310790164
 20
36.38344171247825
 30
0.0
 10
76.84676487873497
 20
36.40135620900603
 30
0.0
 10
76.32104330755443
 20
37.58371297983936
 30
0.0
 10
76.28176921901277
 20
37.67259644338103
 30
0.0
 10
76.0533593882836
 20
37.11449097463103
 30
0.0
 10
75.56966798203359
 20
36.56224216820742
 30
0.0
 10
75.2999170054711
 20
36.56224216820742
 30
0.0
 10
75.01294055147804
 20
36.56224216820742
 30
0.0
 10
74.7576589759572
 20
37.16754544511714
 30
0.0
 10
74.6611963023461
 20
37.42765015431853
 30
0.0
 10
74.25088542995027
 20
38.53455933400603
 30
0.0
 10
74.14512099852666
 20
39.68591024546436
 30
0.0
 10
74.09861220946416
 20
40.56509861351992
 30
0.0
 10
74.09861220946416
 20
40.56509861351992
 30
0.0
 10
74.0972341712697
 20
40.58990330101992
 30
0.0
 10
74.0972341712697
 20
40.58990330101992
 30
0.0
 10
74.0972341712697
 20
40.58990330101992
 30
0.0
 10
76.6521169837697
 20
40.58990330101992
 30
0.0
 10
76.69793675373495
 20
40.58990330101992
 30
0.0
 10
76.69793675373495
 20
40.63400052324214
 30
0.0
 10
76.69793675373495
 20
41.71920560136714
 30
0.0
 10
76.69793675373495
 20
41.76330282358935
 30
0.0
 10
76.65349502196416
 20
41.76330282358935
 30
0.0
 10
75.84217503498497
 20
41.76330282358935
 30
0.0
 10
75.84217503498497
 20
41.76330282358935
 30
0.0
 10
75.84217503498497
 20
41.76330282358935
 30
0.0
 10
75.83390680581832
 20
41.80843357445739
 30
0.0
 10
75.83390680581832
 20
41.80843357445739
 30
0.0
 10
75.83390680581832
 20
41.80843357445739
 30
0.0
 10
76.34929309054053
 20
42.01169420813797
 30
0.0
 10
76.40269207057524
 20
42.03270929060325
 30
0.0
 10
75.78636448810998
 20
42.81061185136714
 30
0.0
 10
75.65889595512387
 20
42.89639472897131
 30
0.0
 10
75.52625977890859
 20
42.98424466386713
 30
0.0
 10
75.52591526935998
 20
42.97976603973518
 30
0.0
 10
74.53579482665166
 20
42.6200980709852
 30
0.0
 10
74.36939671467247
 20
42.55980889997824
 30
0.0
  0
SPLINE
  5
E38
330
E1F
100
AcDbEntity
  8
WAKU
100
AcDbSpline
210
0.0
220
0.0
230
1.0
 70
     9
 71
     3
 72
   197
 73
   193
 74
     0
 42
0.000000001
 43
0.0000000001
 40
0.0
 40
0.0
 40
0.0
 40
0.0
 40
1.0
 40
1.0
 40
1.0
 40
2.0
 40
2.0
 40
2.0
 40
3.0
 40
3.0
 40
3.0
 40
4.0
 40
4.0
 40
4.0
 40
5.0
 40
5.0
 40
5.0
 40
6.0
 40
6.0
 40
6.0
 40
7.0
 40
7.0
 40
7.0
 40
8.0
 40
8.0
 40
8.0
 40
9.0
 40
9.0
 40
9.0
 40
10.0
 40
10.0
 40
10.0
 40
11.0
 40
11.0
 40
11.0
 40
12.0
 40
12.0
 40
12.0
 40
13.0
 40
13.0
 40
13.0
 40
14.0
 40
14.0
 40
14.0
 40
15.0
 40
15.0
 40
15.0
 40
16.0
 40
16.0
 40
16.0
 40
17.0
 40
17.0
 40
17.0
 40
18.0
 40
18.0
 40
18.0
 40
19.0
 40
19.0
 40
19.0
 40
20.0
 40
20.0
 40
20.0
 40
21.0
 40
21.0
 40
21.0
 40
22.0
 40
22.0
 40
22.0
 40
23.0
 40
23.0
 40
23.0
 40
24.0
 40
24.0
 40
24.0
 40
25.0
 40
25.0
 40
25.0
 40
26.0
 40
26.0
 40
26.0
 40
27.0
 40
27.0
 40
27.0
 40
28.0
 40
28.0
 40
28.0
 40
29.0
 40
29.0
 40
29.0
 40
30.0
 40
30.0
 40
30.0
 40
31.0
 40
31.0
 40
31.0
 40
32.0
 40
32.0
 40
32.0
 40
33.0
 40
33.0
 40
33.0
 40
34.0
 40
34.0
 40
34.0
 40
35.0
 40
35.0
 40
35.0
 40
36.0
 40
36.0
 40
36.0
 40
37.0
 40
37.0
 40
37.0
 40
38.0
 40
38.0
 40
38.0
 40
39.0
 40
39.0
 40
39.0
 40
40.0
 40
40.0
 40
40.0
 40
41.0
 40
41.0
 40
41.0
 40
42.0
 40
42.0
 40
42.0
 40
43.0
 40
43.0
 40
43.0
 40
44.0
 40
44.0
 40
44.0
 40
45.0
 40
45.0
 40
45.0
 40
46.0
 40
46.0
 40
46.0
 40
47.0
 40
47.0
 40
47.0
 40
48.0
 40
48.0
 40
48.0
 40
49.0
 40
49.0
 40
49.0
 40
50.0
 40
50.0
 40
50.0
 40
51.0
 40
51.0
 40
51.0
 40
52.0
 40
52.0
 40
52.0
 40
53.0
 40
53.0
 40
53.0
 40
54.0
 40
54.0
 40
54.0
 40
55.0
 40
55.0
 40
55.0
 40
56.0
 40
56.0
 40
56.0
 40
57.0
 40
57.0
 40
57.0
 40
58.0
 40
58.0
 40
58.0
 40
59.0
 40
59.0
 40
59.0
 40
60.0
 40
60.0
 40
60.0
 40
61.0
 40
61.0
 40
61.0
 40
62.0
 40
62.0
 40
62.0
 40
63.0
 40
63.0
 40
63.0
 40
64.0
 40
64.0
 40
64.0
 40
64.0
 10
64.0265310462697
 20
42.91637628279075
 30
0.0
 10
64.0265310462697
 20
42.87193455101991
 30
0.0
 10
64.0265310462697
 20
41.85563138261714
 30
0.0
 10
64.0265310462697
 20
41.85563138261714
 30
0.0
 10
64.0265310462697
 20
41.85563138261714
 30
0.0
 10
63.48737360269332
 20
41.85563138261714
 30
0.0
 10
63.48737360269332
 20
41.85563138261714
 30
0.0
 10
63.48737360269332
 20
41.85563138261714
 30
0.0
 10
63.66341798203359
 20
42.60872925588103
 30
0.0
 10
63.67478679713776
 20
42.65730510223519
 30
0.0
 10
63.6237993839433
 20
42.66143921681853
 30
0.0
 10
62.49966472682526
 20
42.75170071855463
 30
0.0
 10
62.4603906382836
 20
42.75480130449214
 30
0.0
 10
62.36013835963776
 20
42.10781237220047
 30
0.0
 10
62.1599783118947
 20
41.52317966820739
 30
0.0
 10
61.86301108099192
 20
41.01778416039493
 30
0.0
 10
61.86301108099192
 20
41.01778416039493
 30
0.0
 10
61.81960287786693
 20
40.94337009789492
 30
0.0
 10
61.81960287786693
 20
40.94337009789492
 30
0.0
 10
61.81960287786693
 20
40.94337009789492
 30
0.0
 10
61.81960287786693
 20
41.48493910831159
 30
0.0
 10
61.81960287786693
 20
41.52765829233937
 30
0.0
 10
61.77516114609609
 20
41.52765829233937
 30
0.0
 10
60.93145726154748
 20
41.52765829233937
 30
0.0
 10
60.93145726154748
 20
41.52765829233937
 30
0.0
 10
60.93145726154748
 20
41.52765829233937
 30
0.0
 10
60.93145726154748
 20
42.8712455319227
 30
0.0
 10
60.93145726154748
 20
42.91637628279075
 30
0.0
 10
60.88736003932526
 20
42.91637628279075
 30
0.0
 10
59.73187501328361
 20
42.91637628279075
 30
0.0
 10
59.68777779106137
 20
42.91637628279075
 30
0.0
 10
59.68777779106137
 20
42.8712455319227
 30
0.0
 10
59.68777779106137
 20
41.52765829233937
 30
0.0
 10
59.68777779106137
 20
41.52765829233937
 30
0.0
 10
59.68777779106137
 20
41.52765829233937
 30
0.0
 10
58.59154840738082
 20
41.52765829233937
 30
0.0
 10
58.54710667560998
 20
41.52765829233937
 30
0.0
 10
58.54710667560998
 20
41.48390557966575
 30
0.0
 10
58.54710667560998
 20
40.45692261525603
 30
0.0
 10
58.54710667560998
 20
40.41282539303379
 30
0.0
 10
58.59154840738082
 20
40.41282539303379
 30
0.0
 10
59.59372668429054
 20
40.41282539303379
 30
0.0
 10
59.59372668429054
 20
40.41282539303379
 30
0.0
 10
59.59372668429054
 20
40.41282539303379
 30
0.0
 10
59.58373590738081
 20
40.38250855275602
 30
0.0
 10
59.58373590738081
 20
40.38250855275602
 30
0.0
 10
59.15378799071415
 20
39.0327201412977
 30
0.0
 10
58.73314183185998
 20
38.4835719208116
 30
0.0
 10
58.37140680581832
 20
38.0777396725477
 30
0.0
 10
58.3776079776933
 20
38.05500204233937
 30
0.0
 10
58.77276042995024
 20
36.56534275414492
 30
0.0
 10
58.7958425697072
 20
36.47818183834632
 30
0.0
 10
58.99462457925581
 20
36.74035360483936
 30
0.0
 10
59.3350000132836
 20
37.21164266733936
 30
0.0
 10
59.64230253064471
 20
38.16662313608937
 30
0.0
 10
59.64230253064471
 20
38.16662313608937
 30
0.0
 10
59.68777779106137
 20
38.15973294511714
 30
0.0
 10
59.68777779106137
 20
38.15973294511714
 30
0.0
 10
59.68777779106137
 20
38.15973294511714
 30
0.0
 10
59.68777779106137
 20
35.0391654537977
 30
0.0
 10
59.68777779106137
 20
34.99334568383242
 30
0.0
 10
59.73187501328361
 20
34.99334568383242
 30
0.0
 10
60.88736003932526
 20
34.99334568383242
 30
0.0
 10
60.93145726154748
 20
34.99334568383242
 30
0.0
 10
60.93145726154748
 20
35.0391654537977
 30
0.0
 10
60.93145726154748
 20
38.47943780622826
 30
0.0
 10
60.93145726154748
 20
38.47943780622826
 30
0.0
 10
60.93145726154748
 20
38.47943780622826
 30
0.0
 10
60.97899957925581
 20
38.47943780622826
 30
0.0
 10
60.97899957925581
 20
38.47943780622826
 30
0.0
 10
61.07063911918636
 20
38.14112942949214
 30
0.0
 10
61.11921496554053
 20
37.96611857879771
 30
0.0
 10
61.49128527804053
 20
37.34152276716576
 30
0.0
 10
61.5305593665822
 20
37.38872057532547
 30
0.0
 10
62.2312917884572
 20
38.22450074025603
 30
0.0
 10
62.2591970618947
 20
38.25791816647131
 30
0.0
 10
62.13689617213774
 20
38.36092652150603
 30
0.0
 10
62.03044272161693
 20
38.45601115692272
 30
0.0
 10
61.84440756536693
 20
38.66581747202687
 30
0.0
 10
61.84440756536693
 20
38.66581747202687
 30
0.0
 10
61.8099566105058
 20
38.70474705101992
 30
0.0
 10
61.8099566105058
 20
38.70474705101992
 30
0.0
 10
61.8099566105058
 20
38.70474705101992
 30
0.0
 10
61.81719131102664
 20
38.70474705101992
 30
0.0
 10
61.82098091606136
 20
38.70474705101992
 30
0.0
 10
61.5832693275197
 20
38.98207723765187
 30
0.0
 10
61.15642199679054
 20
39.51572252845048
 30
0.0
 10
60.93386882838776
 20
40.00974922115879
 30
0.0
 10
60.93386882838776
 20
40.00974922115879
 30
0.0
 10
60.93145726154748
 20
40.01422784529075
 30
0.0
 10
60.93145726154748
 20
40.01422784529075
 30
0.0
 10
60.93145726154748
 20
40.01422784529075
 30
0.0
 10
60.93145726154748
 20
40.41282539303379
 30
0.0
 10
60.93145726154748
 20
40.41282539303379
 30
0.0
 10
60.93145726154748
 20
40.41282539303379
 30
0.0
 10
61.81512425373497
 20
40.41282539303379
 30
0.0
 10
61.81512425373497
 20
40.41282539303379
 30
0.0
 10
61.82856012613082
 20
40.40869127845048
 30
0.0
 10
62.54824057317943
 20
39.90364028018659
 30
0.0
 10
62.54824057317943
 20
39.90364028018659
 30
0.0
 10
62.54824057317943
 20
39.90364028018659
 30
0.0
 10
62.5940603431447
 20
39.87228991126297
 30
0.0
 10
62.6033621009572
 20
39.86574422983937
 30
0.0
 10
62.60818523463774
 20
39.87194540171437
 30
0.0
 10
62.62885580755442
 20
39.89916165605464
 30
0.0
 10
62.62885580755442
 20
39.89916165605464
 30
0.0
 10
62.74323297769331
 20
40.05040134789489
 30
0.0
 10
62.91721029974192
 20
40.31085056664492
 30
0.0
 10
63.09359918863082
 20
40.69394518470047
 30
0.0
 10
63.09359918863082
 20
40.69394518470047
 30
0.0
 10
63.10014487005442
 20
40.70738105709629
 30
0.0
 10
63.10014487005442
 20
40.70738105709629
 30
0.0
 10
63.10014487005442
 20
40.70738105709629
 30
0.0
 10
64.0265310462697
 20
40.70738105709629
 30
0.0
 10
64.0265310462697
 20
40.70738105709629
 30
0.0
 10
64.0265310462697
 20
40.70738105709629
 30
0.0
 10
64.0265310462697
 20
39.86161011525604
 30
0.0
 10
64.0265310462697
 20
39.86161011525604
 30
0.0
 10
64.0265310462697
 20
39.86161011525604
 30
0.0
 10
61.90986437960305
 20
39.86161011525604
 30
0.0
 10
61.86645617647805
 20
39.86161011525604
 30
0.0
 10
61.86645617647805
 20
39.8168238739366
 30
0.0
 10
61.86645617647805
 20
38.70750312740881
 30
0.0
 10
61.86645617647805
 20
38.70474705101992
 30
0.0
 10
61.87506891519332
 20
38.70474705101992
 30
0.0
 10
63.55868707925582
 20
38.70474705101992
 30
0.0
 10
63.55868707925582
 20
38.70474705101992
 30
0.0
 10
63.55868707925582
 20
38.70474705101992
 30
0.0
 10
63.53698297769331
 20
38.66891805796436
 30
0.0
 10
63.53698297769331
 20
38.66891805796436
 30
0.0
 10
63.00816082057526
 20
37.8045436004991
 30
0.0
 10
62.30398330321413
 20
37.1165580319227
 30
0.0
 10
61.44581001762386
 20
36.62184232011714
 30
0.0
 10
61.47130372422109
 20
36.58429077931854
 30
0.0
 10
62.21096572508916
 20
35.51768921681853
 30
0.0
 10
62.23956001762386
 20
35.4763480709852
 30
0.0
 10
62.98749024765861
 20
36.09474271074214
 30
0.0
 10
63.5583425697072
 20
36.7940970944227
 30
0.0
 10
63.98208931449886
 20
37.61471883921436
 30
0.0
 10
63.98208931449886
 20
37.61471883921436
 30
0.0
 10
64.0265310462697
 20
37.60403904320742
 30
0.0
 10
64.0265310462697
 20
37.60403904320742
 30
0.0
 10
64.0265310462697
 20
37.60403904320742
 30
0.0
 10
64.0265310462697
 20
35.0391654537977
 30
0.0
 10
64.0265310462697
 20
34.99334568383242
 30
0.0
 10
64.07062826849193
 20
34.99334568383242
 30
0.0
 10
65.27262208359609
 20
34.99334568383242
 30
0.0
 10
65.31671930581831
 20
34.99334568383242
 30
0.0
 10
65.31671930581831
 20
35.0391654537977
 30
0.0
 10
65.31671930581831
 20
37.41042467688798
 30
0.0
 10
65.31671930581831
 20
37.41042467688798
 30
0.0
 10
65.31671930581831
 20
37.41042467688798
 30
0.0
 10
65.36081652804054
 20
37.42144898244354
 30
0.0
 10
65.36081652804054
 20
37.42144898244354
 30
0.0
 10
65.78800836831831
 20
36.60668389997825
 30
0.0
 10
66.33474502196415
 20
35.96038398678382
 30
0.0
 10
66.9848345401933
 20
35.49632962480465
 30
0.0
 10
67.00688315130442
 20
35.55248468122825
 30
0.0
 10
67.50504395859609
 20
36.83612725935326
 30
0.0
 10
67.51813532144331
 20
36.87092272376297
 30
0.0
 10
67.1488210853322
 20
37.09761000674909
 30
0.0
 10
66.40399144123498
 20
37.56373142601992
 30
0.0
 10
65.7039480384572
 20
38.66891805796436
 30
0.0
 10
65.7039480384572
 20
38.66891805796436
 30
0.0
 10
65.68121040824888
 20
38.70474705101992
 30
0.0
 10
65.68121040824888
 20
38.70474705101992
 30
0.0
 10
65.68121040824888
 20
38.70474705101992
 30
0.0
 10
67.31005155408221
 20
38.70474705101992
 30
0.0
 10
67.35552681449886
 20
38.70474705101992
 30
0.0
 10
67.35552681449886
 20
38.74884427324214
 30
0.0
 10
67.35552681449886
 20
39.81751289303382
 30
0.0
 10
67.35552681449886
 20
39.86161011525604
 30
0.0
 10
67.30970704453359
 20
39.86161011525604
 30
0.0
 10
65.31671930581831
 20
39.86161011525604
 30
0.0
 10
65.31671930581831
 20
39.86161011525604
 30
0.0
 10
65.31671930581831
 20
39.86161011525604
 30
0.0
 10
65.31671930581831
 20
40.70738105709629
 30
0.0
 10
65.31671930581831
 20
40.70738105709629
 30
0.0
 10
65.31671930581831
 20
40.70738105709629
 30
0.0
 10
67.16949165824885
 20
40.70738105709629
 30
0.0
 10
67.21496691866554
 20
40.70738105709629
 30
0.0
 10
67.21496691866554
 20
40.75147827931853
 30
0.0
 10
67.21496691866554
 20
41.81187866994353
 30
0.0
 10
67.21496691866554
 20
41.85563138261714
 30
0.0
 10
67.16949165824885
 20
41.85563138261714
 30
0.0
 10
65.31671930581831
 20
41.85563138261714
 30
0.0
 10
65.31671930581831
 20
41.85563138261714
 30
0.0
 10
65.31671930581831
 20
41.85563138261714
 30
0.0
 10
65.31671930581831
 20
42.87193455101991
 30
0.0
 10
65.31671930581831
 20
42.91637628279075
 30
0.0
 10
65.27262208359609
 20
42.91637628279075
 30
0.0
 10
64.07062826849193
 20
42.91637628279075
 30
0.0
 10
64.0265310462697
 20
42.91637628279075
 30
0.0
  0
SPLINE
  5
E39
330
E1F
100
AcDbEntity
  8
WAKU
100
AcDbSpline
210
0.0
220
0.0
230
1.0
 70
     9
 71
     3
 72
    29
 73
    25
 74
     0
 42
0.000000001
 43
0.0000000001
 40
0.0
 40
0.0
 40
0.0
 40
0.0
 40
1.0
 40
1.0
 40
1.0
 40
2.0
 40
2.0
 40
2.0
 40
3.0
 40
3.0
 40
3.0
 40
4.0
 40
4.0
 40
4.0
 40
5.0
 40
5.0
 40
5.0
 40
6.0
 40
6.0
 40
6.0
 40
7.0
 40
7.0
 40
7.0
 40
8.0
 40
8.0
 40
8.0
 40
8.0
 10
52.86201010442942
 20
40.47552613088103
 30
0.0
 10
52.84340658880442
 20
40.53271471595047
 30
0.0
 10
52.72213922769331
 20
40.83450508053378
 30
0.0
 10
52.68596572508915
 20
40.89996189476992
 30
0.0
 10
52.68596572508915
 20
40.89996189476992
 30
0.0
 10
52.66632868081831
 20
40.93475735917964
 30
0.0
 10
52.66632868081831
 20
40.93475735917964
 30
0.0
 10
52.66632868081831
 20
40.93475735917964
 30
0.0
 10
54.5883474525197
 20
40.93475735917964
 30
0.0
 10
54.5883474525197
 20
40.93475735917964
 30
0.0
 10
54.5883474525197
 20
40.93475735917964
 30
0.0
 10
54.58042373290165
 20
40.9054740475477
 30
0.0
 10
54.58042373290165
 20
40.9054740475477
 30
0.0
 10
54.5015310462697
 20
40.61401896942268
 30
0.0
 10
54.46329048637386
 20
40.53374824459631
 30
0.0
 10
54.42815051241554
 20
40.47104750674907
 30
0.0
 10
54.42815051241554
 20
40.47104750674907
 30
0.0
 10
54.42126032144331
 20
40.45898967254768
 30
0.0
 10
54.42126032144331
 20
40.45898967254768
 30
0.0
 10
54.42126032144331
 20
40.45898967254768
 30
0.0
 10
52.86683323810998
 20
40.45898967254768
 30
0.0
 10
52.86683323810998
 20
40.45898967254768
 30
0.0
 10
52.86683323810998
 20
40.45898967254768
 30
0.0
 10
52.86201010442942
 20
40.47552613088103
 30
0.0
 10
52.86201010442942
 20
40.47552613088103
 30
0.0
  0
SPLINE
  5
E3A
330
E1F
100
AcDbEntity
  8
WAKU
100
AcDbSpline
210
0.0
220
0.0
230
1.0
 70
     9
 71
     3
 72
   203
 73
   199
 74
     0
 42
0.000000001
 43
0.0000000001
 40
0.0
 40
0.0
 40
0.0
 40
0.0
 40
1.0
 40
1.0
 40
1.0
 40
2.0
 40
2.0
 40
2.0
 40
3.0
 40
3.0
 40
3.0
 40
4.0
 40
4.0
 40
4.0
 40
5.0
 40
5.0
 40
5.0
 40
6.0
 40
6.0
 40
6.0
 40
7.0
 40
7.0
 40
7.0
 40
8.0
 40
8.0
 40
8.0
 40
9.0
 40
9.0
 40
9.0
 40
10.0
 40
10.0
 40
10.0
 40
11.0
 40
11.0
 40
11.0
 40
12.0
 40
12.0
 40
12.0
 40
13.0
 40
13.0
 40
13.0
 40
14.0
 40
14.0
 40
14.0
 40
15.0
 40
15.0
 40
15.0
 40
16.0
 40
16.0
 40
16.0
 40
17.0
 40
17.0
 40
17.0
 40
18.0
 40
18.0
 40
18.0
 40
19.0
 40
19.0
 40
19.0
 40
20.0
 40
20.0
 40
20.0
 40
21.0
 40
21.0
 40
21.0
 40
22.0
 40
22.0
 40
22.0
 40
23.0
 40
23.0
 40
23.0
 40
24.0
 40
24.0
 40
24.0
 40
25.0
 40
25.0
 40
25.0
 40
26.0
 40
26.0
 40
26.0
 40
27.0
 40
27.0
 40
27.0
 40
28.0
 40
28.0
 40
28.0
 40
29.0
 40
29.0
 40
29.0
 40
30.0
 40
30.0
 40
30.0
 40
31.0
 40
31.0
 40
31.0
 40
32.0
 40
32.0
 40
32.0
 40
33.0
 40
33.0
 40
33.0
 40
34.0
 40
34.0
 40
34.0
 40
35.0
 40
35.0
 40
35.0
 40
36.0
 40
36.0
 40
36.0
 40
37.0
 40
37.0
 40
37.0
 40
38.0
 40
38.0
 40
38.0
 40
39.0
 40
39.0
 40
39.0
 40
40.0
 40
40.0
 40
40.0
 40
41.0
 40
41.0
 40
41.0
 40
42.0
 40
42.0
 40
42.0
 40
43.0
 40
43.0
 40
43.0
 40
44.0
 40
44.0
 40
44.0
 40
45.0
 40
45.0
 40
45.0
 40
46.0
 40
46.0
 40
46.0
 40
47.0
 40
47.0
 40
47.0
 40
48.0
 40
48.0
 40
48.0
 40
49.0
 40
49.0
 40
49.0
 40
50.0
 40
50.0
 40
50.0
 40
51.0
 40
51.0
 40
51.0
 40
52.0
 40
52.0
 40
52.0
 40
53.0
 40
53.0
 40
53.0
 40
54.0
 40
54.0
 40
54.0
 40
55.0
 40
55.0
 40
55.0
 40
56.0
 40
56.0
 40
56.0
 40
57.0
 40
57.0
 40
57.0
 40
58.0
 40
58.0
 40
58.0
 40
59.0
 40
59.0
 40
59.0
 40
60.0
 40
60.0
 40
60.0
 40
61.0
 40
61.0
 40
61.0
 40
62.0
 40
62.0
 40
62.0
 40
63.0
 40
63.0
 40
63.0
 40
64.0
 40
64.0
 40
64.0
 40
65.0
 40
65.0
 40
65.0
 40
66.0
 40
66.0
 40
66.0
 40
66.0
 10
50.02221789522804
 20
42.70346938174909
 30
0.0
 10
50.17380209661692
 20
42.45611152584632
 30
0.0
 10
50.30471572508915
 20
42.2077201412977
 30
0.0
 10
50.40841309922109
 20
41.96449639997825
 30
0.0
 10
50.40841309922109
 20
41.96449639997825
 30
0.0
 10
50.42253799071414
 20
41.93176799286018
 30
0.0
 10
50.42253799071414
 20
41.93176799286018
 30
0.0
 10
50.42253799071414
 20
41.93176799286018
 30
0.0
 10
49.28669000894331
 20
41.93176799286018
 30
0.0
 10
49.24190376762386
 20
41.93176799286018
 30
0.0
 10
49.24190376762386
 20
41.88801528018657
 30
0.0
 10
49.24190376762386
 20
40.97816556230464
 30
0.0
 10
49.24190376762386
 20
40.93475735917964
 30
0.0
 10
49.28737902804054
 20
40.93475735917964
 30
0.0
 10
51.28829048637386
 20
40.93475735917964
 30
0.0
 10
51.28829048637386
 20
40.93475735917964
 30
0.0
 10
51.28829048637386
 20
40.93475735917964
 30
0.0
 10
51.29518067734609
 20
40.9237330536241
 30
0.0
 10
51.29518067734609
 20
40.9237330536241
 30
0.0
 10
51.38130806449886
 20
40.78661825327685
 30
0.0
 10
51.40921333793636
 20
40.7104816430338
 30
0.0
 10
51.48500543863081
 20
40.4899955319227
 30
0.0
 10
51.48500543863081
 20
40.4899955319227
 30
0.0
 10
51.49568523463774
 20
40.45898967254768
 30
0.0
 10
51.49568523463774
 20
40.45898967254768
 30
0.0
 10
51.49568523463774
 20
40.45898967254768
 30
0.0
 10
49.6518701304711
 20
40.45898967254768
 30
0.0
 10
49.60639487005442
 20
40.45898967254768
 30
0.0
 10
49.60639487005442
 20
40.41558146942271
 30
0.0
 10
49.60639487005442
 20
39.6063285397352
 30
0.0
 10
49.60639487005442
 20
39.56326484615882
 30
0.0
 10
49.65255914956832
 20
39.56326484615882
 30
0.0
 10
52.95399415390861
 20
39.56326484615882
 30
0.0
 10
52.95399415390861
 20
39.56326484615882
 30
0.0
 10
52.95399415390861
 20
39.56326484615882
 30
0.0
 10
52.95399415390861
 20
39.17982571855464
 30
0.0
 10
52.95399415390861
 20
39.17982571855464
 30
0.0
 10
52.95399415390861
 20
39.17982571855464
 30
0.0
 10
49.89578289088774
 20
39.17982571855464
 30
0.0
 10
49.84961861137386
 20
39.17982571855464
 30
0.0
 10
49.84961861137386
 20
39.13676202497825
 30
0.0
 10
49.84961861137386
 20
38.46117880015187
 30
0.0
 10
49.84961861137386
 20
38.4184596161241
 30
0.0
 10
49.89578289088774
 20
38.4184596161241
 30
0.0
 10
52.95399415390861
 20
38.4184596161241
 30
0.0
 10
52.95399415390861
 20
38.4184596161241
 30
0.0
 10
52.95399415390861
 20
38.4184596161241
 30
0.0
 10
52.95399415390861
 20
38.03502048851992
 30
0.0
 10
52.95399415390861
 20
38.03502048851992
 30
0.0
 10
52.95399415390861
 20
38.03502048851992
 30
0.0
 10
49.28806804713776
 20
38.03502048851992
 30
0.0
 10
49.24190376762386
 20
38.03502048851992
 30
0.0
 10
49.24190376762386
 20
37.99161228539492
 30
0.0
 10
49.24190376762386
 20
37.14067370032547
 30
0.0
 10
49.24190376762386
 20
37.09726549720048
 30
0.0
 10
49.28772353758915
 20
37.09726549720048
 30
0.0
 10
51.88325847682524
 20
37.09726549720048
 30
0.0
 10
51.88325847682524
 20
37.09726549720048
 30
0.0
 10
51.88325847682524
 20
37.09726549720048
 30
0.0
 10
51.8935937632836
 20
37.05316827497826
 30
0.0
 10
51.8935937632836
 20
37.05316827497826
 30
0.0
 10
50.77669380668638
 20
36.51573337914492
 30
0.0
 10
49.73799751762386
 20
36.26286337046437
 30
0.0
 10
49.19884007404748
 20
36.15709893904075
 30
0.0
 10
49.22915691432526
 20
36.10438897810325
 30
0.0
 10
49.8103445228322
 20
35.10358873938797
 30
0.0
 10
49.82791450981136
 20
35.0732718991102
 30
0.0
 10
51.74442112873498
 20
35.62276462914493
 30
0.0
 10
52.36109322074886
 20
36.04582235483937
 30
0.0
 10
52.91575359401274
 20
36.50264201629771
 30
0.0
 10
52.91575359401274
 20
36.50264201629771
 30
0.0
 10
52.95399415390861
 20
36.53433689476992
 30
0.0
 10
52.95399415390861
 20
36.53433689476992
 30
0.0
 10
52.95399415390861
 20
36.53433689476992
 30
0.0
 10
52.95399415390861
 20
35.04674466386715
 30
0.0
 10
52.95399415390861
 20
35.00161391299909
 30
0.0
 10
52.99809137613081
 20
35.00161391299909
 30
0.0
 10
54.24659398029748
 20
35.00161391299909
 30
0.0
 10
54.2910357120683
 20
35.00161391299909
 30
0.0
 10
54.2910357120683
 20
35.04674466386715
 30
0.0
 10
54.2910357120683
 20
36.5674098114366
 30
0.0
 10
54.2910357120683
 20
36.5674098114366
 30
0.0
 10
54.2910357120683
 20
36.5674098114366
 30
0.0
 10
54.32927627196415
 20
36.5367484616102
 30
0.0
 10
54.32927627196415
 20
36.5367484616102
 30
0.0
 10
55.1619558509572
 20
35.86116523678381
 30
0.0
 10
55.75451227456831
 20
35.53663724199215
 30
0.0
 10
57.39920085963776
 20
35.0732718991102
 30
0.0
 10
57.41642633706831
 20
35.10255521074215
 30
0.0
 10
58.03998862005443
 20
36.13505032792964
 30
0.0
 10
58.07306153672111
 20
36.18982734615882
 30
0.0
 10
57.60142796467248
 20
36.27113159963104
 30
0.0
 10
56.43422961397804
 20
36.47887085744353
 30
0.0
 10
55.3324880775197
 20
37.05316827497826
 30
0.0
 10
55.3324880775197
 20
37.05316827497826
 30
0.0
 10
55.34316787352665
 20
37.09726549720048
 30
0.0
 10
55.34316787352665
 20
37.09726549720048
 30
0.0
 10
55.34316787352665
 20
37.09726549720048
 30
0.0
 10
57.93870281276276
 20
37.09726549720048
 30
0.0
 10
57.98486709227663
 20
37.09726549720048
 30
0.0
 10
57.98486709227663
 20
37.14067370032547
 30
0.0
 10
57.98486709227663
 20
37.99161228539492
 30
0.0
 10
57.98486709227663
 20
38.03502048851992
 30
0.0
 10
57.93870281276276
 20
38.03502048851992
 30
0.0
 10
54.2910357120683
 20
38.03502048851992
 30
0.0
 10
54.2910357120683
 20
38.03502048851992
 30
0.0
 10
54.2910357120683
 20
38.03502048851992
 30
0.0
 10
54.2910357120683
 20
38.4184596161241
 30
0.0
 10
54.2910357120683
 20
38.4184596161241
 30
0.0
 10
54.2910357120683
 20
38.4184596161241
 30
0.0
 10
57.36819500026276
 20
38.4184596161241
 30
0.0
 10
57.41435927977665
 20
38.4184596161241
 30
0.0
 10
57.41435927977665
 20
38.46117880015187
 30
0.0
 10
57.41435927977665
 20
39.13676202497825
 30
0.0
 10
57.41435927977665
 20
39.17982571855464
 30
0.0
 10
57.36819500026276
 20
39.17982571855464
 30
0.0
 10
54.2910357120683
 20
39.17982571855464
 30
0.0
 10
54.2910357120683
 20
39.17982571855464
 30
0.0
 10
54.2910357120683
 20
39.17982571855464
 30
0.0
 10
54.2910357120683
 20
39.56326484615882
 30
0.0
 10
54.2910357120683
 20
39.56326484615882
 30
0.0
 10
54.2910357120683
 20
39.56326484615882
 30
0.0
 10
57.62037598984609
 20
39.56326484615882
 30
0.0
 10
57.66654026935999
 20
39.56326484615882
 30
0.0
 10
57.66654026935999
 20
39.6063285397352
 30
0.0
 10
57.66654026935999
 20
40.41558146942271
 30
0.0
 10
57.66654026935999
 20
40.45898967254768
 30
0.0
 10
57.62140951849192
 20
40.45898967254768
 30
0.0
 10
55.77759441432526
 20
40.45898967254768
 30
0.0
 10
55.77759441432526
 20
40.45898967254768
 30
0.0
 10
55.77759441432526
 20
40.45898967254768
 30
0.0
 10
55.77759441432526
 20
40.48241632185325
 30
0.0
 10
55.77759441432526
 20
40.48241632185325
 30
0.0
 10
55.77759441432526
 20
40.50033081838103
 30
0.0
 10
55.94605958359609
 20
40.91684286265186
 30
0.0
 10
55.94812664088776
 20
40.92097697723519
 30
0.0
 10
55.94812664088776
 20
40.92097697723519
 30
0.0
 10
55.95432781276276
 20
40.93475735917964
 30
0.0
 10
55.95432781276276
 20
40.93475735917964
 30
0.0
 10
55.95432781276276
 20
40.93475735917964
 30
0.0
 10
57.93904732231136
 20
40.93475735917964
 30
0.0
 10
57.98452258272803
 20
40.93475735917964
 30
0.0
 10
57.98452258272803
 20
40.97816556230464
 30
0.0
 10
57.98452258272803
 20
41.88801528018657
 30
0.0
 10
57.98452258272803
 20
41.93176799286018
 30
0.0
 10
57.9400808509572
 20
41.93176799286018
 30
0.0
 10
56.83489421901274
 20
41.93176799286018
 30
0.0
 10
56.83489421901274
 20
41.93176799286018
 30
0.0
 10
56.83489421901274
 20
41.93176799286018
 30
0.0
 10
56.85659832057526
 20
41.96725247636714
 30
0.0
 10
56.85659832057526
 20
41.96725247636714
 30
0.0
 10
57.00645997422109
 20
42.21254327497825
 30
0.0
 10
57.1370290931447
 20
42.49883070987407
 30
0.0
 10
57.22625706623498
 20
42.70243585310325
 30
0.0
 10
57.17044651935998
 20
42.71208212046436
 30
0.0
 10
55.96707466606137
 20
42.91534275414489
 30
0.0
 10
55.92952312526275
 20
42.92154392601992
 30
0.0
 10
55.85993219644332
 20
42.69141154754769
 30
0.0
 10
55.69697917995025
 20
42.24079305796435
 30
0.0
 10
55.53195910616555
 20
41.94382582706157
 30
0.0
 10
55.53195910616555
 20
41.94382582706157
 30
0.0
 10
55.52506891519332
 20
41.93176799286018
 30
0.0
 10
55.52506891519332
 20
41.93176799286018
 30
0.0
 10
55.52506891519332
 20
41.93176799286018
 30
0.0
 10
55.11372451415165
 20
41.93176799286018
 30
0.0
 10
55.11372451415165
 20
41.93176799286018
 30
0.0
 10
55.11372451415165
 20
41.93176799286018
 30
0.0
 10
55.11372451415165
 20
42.85470907358936
 30
0.0
 10
55.11372451415165
 20
42.89949531490881
 30
0.0
 10
55.06997180147804
 20
42.89949531490881
 30
0.0
 10
53.96168458359611
 20
42.89949531490881
 30
0.0
 10
53.91724285182526
 20
42.89949531490881
 30
0.0
 10
53.91724285182526
 20
42.85470907358936
 30
0.0
 10
53.91724285182526
 20
41.93176799286018
 30
0.0
 10
53.91724285182526
 20
41.93176799286018
 30
0.0
 10
53.91724285182526
 20
41.93176799286018
 30
0.0
 10
53.34639052977665
 20
41.93176799286018
 30
0.0
 10
53.34639052977665
 20
41.93176799286018
 30
0.0
 10
53.34639052977665
 20
41.93176799286018
 30
0.0
 10
53.34639052977665
 20
42.85470907358936
 30
0.0
 10
53.34639052977665
 20
42.89949531490881
 30
0.0
 10
53.30229330755443
 20
42.89949531490881
 30
0.0
 10
52.20330784748497
 20
42.89949531490881
 30
0.0
 10
52.15921062526276
 20
42.89949531490881
 30
0.0
 10
52.15921062526276
 20
42.85470907358936
 30
0.0
 10
52.15921062526276
 20
41.93176799286018
 30
0.0
 10
52.15921062526276
 20
41.93176799286018
 30
0.0
 10
52.15921062526276
 20
41.93176799286018
 30
0.0
 10
51.72616212265859
 20
41.93176799286018
 30
0.0
 10
51.72616212265859
 20
41.93176799286018
 30
0.0
 10
51.72616212265859
 20
41.93176799286018
 30
0.0
 10
51.72099447942943
 20
41.94795994164493
 30
0.0
 10
51.72099447942943
 20
41.94795994164493
 30
0.0
 10
51.57836752630442
 20
42.40064548851992
 30
0.0
 10
51.46467937526274
 20
42.65007040171435
 30
0.0
 10
51.31860732665165
 20
42.92188843556853
 30
0.0
 10
51.28691244817943
 20
42.91672079233936
 30
0.0
 10
50.08422961397805
 20
42.7138046682074
 30
0.0
 10
50.02221789522804
 20
42.70346938174909
 30
0.0
  0
SPLINE
  5
E3B
330
E1F
100
AcDbEntity
  8
WAKU
100
AcDbSpline
210
0.0
220
0.0
230
1.0
 70
     9
 71
     3
 72
    41
 73
    37
 74
     0
 42
0.000000001
 43
0.0000000001
 40
0.0
 40
0.0
 40
0.0
 40
0.0
 40
1.0
 40
1.0
 40
1.0
 40
2.0
 40
2.0
 40
2.0
 40
3.0
 40
3.0
 40
3.0
 40
4.0
 40
4.0
 40
4.0
 40
5.0
 40
5.0
 40
5.0
 40
6.0
 40
6.0
 40
6.0
 40
7.0
 40
7.0
 40
7.0
 40
8.0
 40
8.0
 40
8.0
 40
9.0
 40
9.0
 40
9.0
 40
10.0
 40
10.0
 40
10.0
 40
11.0
 40
11.0
 40
11.0
 40
12.0
 40
12.0
 40
12.0
 40
12.0
 10
40.24538141519331
 20
42.52087932098517
 30
0.0
 10
40.24538141519331
 20
42.47678209876297
 30
0.0
 10
40.24538141519331
 20
41.33232137827685
 30
0.0
 10
40.24538141519331
 20
41.28822415605464
 30
0.0
 10
40.2912011851586
 20
41.28822415605464
 30
0.0
 10
43.54647190998497
 20
41.28822415605464
 30
0.0
 10
43.54647190998497
 20
41.28822415605464
 30
0.0
 10
43.54647190998497
 20
41.28822415605464
 30
0.0
 10
43.54647190998497
 20
36.63011054928381
 30
0.0
 10
43.54647190998497
 20
36.63011054928381
 30
0.0
 10
43.54647190998497
 20
36.63011054928381
 30
0.0
 10
39.91740832491553
 20
36.63011054928381
 30
0.0
 10
39.87124404540166
 20
36.63011054928381
 30
0.0
 10
39.87124404540166
 20
36.58566881751298
 30
0.0
 10
39.87124404540166
 20
35.43293986786022
 30
0.0
 10
39.87124404540166
 20
35.38884264563797
 30
0.0
 10
39.91775283446415
 20
35.38884264563797
 30
0.0
 10
48.60525012179054
 20
35.38884264563797
 30
0.0
 10
48.65141440130443
 20
35.38884264563797
 30
0.0
 10
48.65141440130443
 20
35.43293986786022
 30
0.0
 10
48.65141440130443
 20
36.58566881751298
 30
0.0
 10
48.65141440130443
 20
36.63011054928381
 30
0.0
 10
48.60525012179054
 20
36.63011054928381
 30
0.0
 10
44.9765310462697
 20
36.63011054928381
 30
0.0
 10
44.9765310462697
 20
36.63011054928381
 30
0.0
 10
44.9765310462697
 20
36.63011054928381
 30
0.0
 10
44.9765310462697
 20
41.28822415605464
 30
0.0
 10
44.9765310462697
 20
41.28822415605464
 30
0.0
 10
44.9765310462697
 20
41.28822415605464
 30
0.0
 10
48.24075901935998
 20
41.28822415605464
 30
0.0
 10
48.28692329887386
 20
41.28822415605464
 30
0.0
 10
48.28692329887386
 20
41.33232137827685
 30
0.0
 10
48.28692329887386
 20
42.47678209876297
 30
0.0
 10
48.28692329887386
 20
42.52087932098517
 30
0.0
 10
48.24041450981138
 20
42.52087932098517
 30
0.0
 10
40.29154569470721
 20
42.52087932098517
 30
0.0
 10
40.24538141519331
 20
42.52087932098517
 30
0.0
  0
SPLINE
  5
E3C
330
E1F
100
AcDbEntity
  8
WAKU
100
AcDbSpline
210
0.0
220
0.0
230
1.0
 70
     9
 71
     3
 72
    17
 73
    13
 74
     0
 42
0.000000001
 43
0.0000000001
 40
0.0
 40
0.0
 40
0.0
 40
0.0
 40
1.0
 40
1.0
 40
1.0
 40
2.0
 40
2.0
 40
2.0
 40
3.0
 40
3.0
 40
3.0
 40
4.0
 40
4.0
 40
4.0
 40
4.0
 10
22.23166613741554
 20
36.78789592254771
 30
0.0
 10
25.25198135008916
 20
37.05695788001297
 30
0.0
 10
27.22498753498499
 20
37.56200887827687
 30
0.0
 10
28.49691678845721
 20
41.30717218122825
 30
0.0
 10
28.49691678845721
 20
41.30717218122825
 30
0.0
 10
29.86186362005443
 20
40.66741794945742
 30
0.0
 10
29.86186362005443
 20
40.66741794945742
 30
0.0
 10
28.41251194904748
 20
36.82992608747826
 30
0.0
 10
26.33684191866554
 20
35.7860621551866
 30
0.0
 10
22.65265680581832
 20
35.3488795379991
 30
0.0
 10
22.65265680581832
 20
35.3488795379991
 30
0.0
 10
22.23166613741554
 20
36.78789592254771
 30
0.0
 10
22.23166613741554
 20
36.78789592254771
 30
0.0
  0
SPLINE
  5
E3D
330
E1F
100
AcDbEntity
  8
WAKU
100
AcDbSpline
210
0.0
220
0.0
230
1.0
 70
     9
 71
     3
 72
    17
 73
    13
 74
     0
 42
0.000000001
 43
0.0000000001
 40
0.0
 40
0.0
 40
0.0
 40
0.0
 40
1.0
 40
1.0
 40
1.0
 40
2.0
 40
2.0
 40
2.0
 40
3.0
 40
3.0
 40
3.0
 40
4.0
 40
4.0
 40
4.0
 40
4.0
 10
24.45719782144332
 20
38.40364570553381
 30
0.0
 10
23.34443197942943
 20
38.92523316213104
 30
0.0
 10
22.37188152370026
 20
39.2029078583116
 30
0.0
 10
21.70801162352665
 20
39.3799857662977
 30
0.0
 10
21.70801162352665
 20
39.3799857662977
 30
0.0
 10
22.20341635442943
 20
40.52444648678378
 30
0.0
 10
22.20341635442943
 20
40.52444648678378
 30
0.0
 10
22.75532065130443
 20
40.40662422115882
 30
0.0
 10
24.08306045165165
 20
40.06969388261715
 30
0.0
 10
25.00875760876971
 20
39.63216675588103
 30
0.0
 10
25.00875760876971
 20
39.63216675588103
 30
0.0
 10
24.45719782144332
 20
38.40364570553381
 30
0.0
 10
24.45719782144332
 20
38.40364570553381
 30
0.0
  0
SPLINE
  5
E3E
330
E1F
100
AcDbEntity
  8
WAKU
100
AcDbSpline
210
0.0
220
0.0
230
1.0
 70
     9
 71
     3
 72
    17
 73
    13
 74
     0
 42
0.000000001
 43
0.0000000001
 40
0.0
 40
0.0
 40
0.0
 40
0.0
 40
1.0
 40
1.0
 40
1.0
 40
2.0
 40
2.0
 40
2.0
 40
3.0
 40
3.0
 40
3.0
 40
4.0
 40
4.0
 40
4.0
 40
4.0
 10
29.31960559054054
 20
41.70266914303382
 30
0.0
 10
29.24484701849193
 20
42.03925497202686
 30
0.0
 10
29.09532987439471
 20
42.53569323157547
 30
0.0
 10
28.90826118949887
 20
42.92292196421437
 30
0.0
 10
28.90826118949887
 20
42.92292196421437
 30
0.0
 10
29.72130372422109
 20
43.04074422983936
 30
0.0
 10
29.72130372422109
 20
43.04074422983936
 30
0.0
 10
29.96487197508915
 20
42.56945516733935
 30
0.0
 10
30.13299263481137
 20
41.92970093556853
 30
0.0
 10
30.15159615043637
 20
41.85425334442268
 30
0.0
 10
30.15159615043637
 20
41.85425334442268
 30
0.0
 10
29.31960559054054
 20
41.70266914303382
 30
0.0
 10
29.31960559054054
 20
41.70266914303382
 30
0.0
  0
SPLINE
  5
E3F
330
E1F
100
AcDbEntity
  8
WAKU
100
AcDbSpline
210
0.0
220
0.0
230
1.0
 70
     9
 71
     3
 72
    17
 73
    13
 74
     0
 42
0.000000001
 43
0.0000000001
 40
0.0
 40
0.0
 40
0.0
 40
0.0
 40
1.0
 40
1.0
 40
1.0
 40
2.0
 40
2.0
 40
2.0
 40
3.0
 40
3.0
 40
3.0
 40
4.0
 40
4.0
 40
4.0
 40
4.0
 10
27.95431424939471
 20
41.50905477671435
 30
0.0
 10
27.91710721814471
 20
41.70266914303382
 30
0.0
 10
27.78584908012387
 20
42.36722806230464
 30
0.0
 10
27.58982314696415
 20
42.83851712480464
 30
0.0
 10
27.58982314696415
 20
42.83851712480464
 30
0.0
 10
28.42181370685999
 20
42.94772665171436
 30
0.0
 10
28.42181370685999
 20
42.94772665171436
 30
0.0
 10
28.5058740367211
 20
42.75445679494352
 30
0.0
 10
28.63678766519332
 20
42.48505032792964
 30
0.0
 10
28.83315810790165
 20
41.66890720726992
 30
0.0
 10
28.83315810790165
 20
41.66890720726992
 30
0.0
 10
27.95431424939471
 20
41.50905477671435
 30
0.0
 10
27.95431424939471
 20
41.50905477671435
 30
0.0
  0
SPLINE
  5
E40
330
E1F
100
AcDbEntity
  8
WAKU
100
AcDbSpline
210
0.0
220
0.0
230
1.0
 70
     9
 71
     3
 72
    17
 73
    13
 74
     0
 42
0.000000001
 43
0.0000000001
 40
0.0
 40
0.0
 40
0.0
 40
0.0
 40
1.0
 40
1.0
 40
1.0
 40
2.0
 40
2.0
 40
2.0
 40
3.0
 40
3.0
 40
3.0
 40
4.0
 40
4.0
 40
4.0
 40
4.0
 10
25.27988662352665
 20
40.4403861569227
 30
0.0
 10
24.27012913654749
 20
40.88618151282547
 30
0.0
 10
23.50359539088776
 20
41.11355781490881
 30
0.0
 10
22.45594185356138
 20
41.35747057532547
 30
0.0
 10
22.45594185356138
 20
41.35747057532547
 30
0.0
 10
22.98924263481137
 20
42.49366306664492
 30
0.0
 10
22.98924263481137
 20
42.49366306664492
 30
0.0
 10
24.05481066866554
 20
42.28316773244353
 30
0.0
 10
24.84993870685999
 20
42.06440416907547
 30
0.0
 10
25.86899795165165
 20
41.66890720726992
 30
0.0
 10
25.86899795165165
 20
41.66890720726992
 30
0.0
 10
25.27988662352665
 20
40.4403861569227
 30
0.0
 10
25.27988662352665
 20
40.4403861569227
 30
0.0
  0
SPLINE
  5
E41
330
E1F
100
AcDbEntity
  8
WAKU
100
AcDbSpline
210
0.0
220
0.0
230
1.0
 70
    11
 71
     3
 72
    32
 73
    28
 74
     0
 42
0.000000001
 43
0.0000000001
 40
0.0
 40
0.0
 40
0.0
 40
0.0
 40
1.0
 40
1.0
 40
1.0
 40
2.0
 40
2.0
 40
2.0
 40
3.0
 40
3.0
 40
3.0
 40
4.0
 40
4.0
 40
4.0
 40
5.0
 40
5.0
 40
5.0
 40
6.0
 40
6.0
 40
6.0
 40
7.0
 40
7.0
 40
7.0
 40
8.0
 40
8.0
 40
8.0
 40
9.0
 40
9.0
 40
9.0
 40
9.0
 10
17.82917861571415
 20
35.36541599633242
 30
0.0
 10
17.82917861571415
 20
35.36541599633242
 30
0.0
 10
16.24891331623498
 20
35.36541599633242
 30
0.0
 10
16.24891331623498
 20
35.36541599633242
 30
0.0
 10
16.24891331623498
 20
35.36541599633242
 30
0.0
 10
16.24891331623498
 20
38.79914266733937
 30
0.0
 10
16.24891331623498
 20
38.79914266733937
 30
0.0
 10
14.98663033012387
 20
38.13423923851992
 30
0.0
 10
13.86421822074886
 20
37.77250421247825
 30
0.0
 10
13.12558974852665
 20
37.54512791039493
 30
0.0
 10
13.12558974852665
 20
37.54512791039493
 30
0.0
 10
12.30290094644331
 20
38.68132040171437
 30
0.0
 10
12.30290094644331
 20
38.68132040171437
 30
0.0
 10
13.72400283446415
 20
39.04305542775603
 30
0.0
 10
15.06138890217249
 20
39.64077949459632
 30
0.0
 10
16.2864648570336
 20
40.3811305145616
 30
0.0
 10
17.63280817300582
 20
41.19761814476992
 30
0.0
 10
18.52129829887387
 20
42.06440416907547
 30
0.0
 10
19.20377171467248
 20
42.77133776282545
 30
0.0
 10
19.20377171467248
 20
42.77133776282545
 30
0.0
 10
20.54081327283221
 20
41.93831367428381
 30
0.0
 10
20.54081327283221
 20
41.93831367428381
 30
0.0
 10
19.74602974418637
 20
41.16385620900604
 30
0.0
 10
19.02600478758914
 20
40.5582084225477
 30
0.0
 10
17.82917861571415
 20
39.74998902150603
 30
0.0
 10
17.82917861571415
 20
39.74998902150603
 30
0.0
 10
17.82917861571415
 20
35.36541599633242
 30
0.0
 10
17.82917861571415
 20
35.36541599633242
 30
0.0
  0
SPLINE
  5
E42
330
E1F
100
AcDbEntity
  8
WAKU
100
AcDbSpline
210
0.0
220
0.0
230
1.0
 70
     9
 71
     3
 72
    41
 73
    37
 74
     0
 42
0.000000001
 43
0.0000000001
 40
0.0
 40
0.0
 40
0.0
 40
0.0
 40
1.0
 40
1.0
 40
1.0
 40
2.0
 40
2.0
 40
2.0
 40
3.0
 40
3.0
 40
3.0
 40
4.0
 40
4.0
 40
4.0
 40
5.0
 40
5.0
 40
5.0
 40
6.0
 40
6.0
 40
6.0
 40
7.0
 40
7.0
 40
7.0
 40
8.0
 40
8.0
 40
8.0
 40
9.0
 40
9.0
 40
9.0
 40
10.0
 40
10.0
 40
10.0
 40
11.0
 40
11.0
 40
11.0
 40
12.0
 40
12.0
 40
12.0
 40
12.0
 10
3.74907336397804
 20
36.2914576629991
 30
0.0
 10
4.515951619186371
 20
36.56051962046436
 30
0.0
 10
6.133423949915536
 20
37.12448175154076
 30
0.0
 10
6.526509344880821
 20
38.98448880449215
 30
0.0
 10
6.666724731165542
 20
39.62389852671437
 30
0.0
 10
6.657078463804432
 20
40.14548598331159
 30
0.0
 10
6.648121215540541
 20
40.58335761959629
 30
0.0
 10
6.648121215540541
 20
40.58335761959629
 30
0.0
 10
8.2094384898461
 20
40.57508939042963
 30
0.0
 10
8.2094384898461
 20
40.57508939042963
 30
0.0
 10
8.200136732033596
 20
40.21300985483935
 30
0.0
 10
8.190834974221097
 20
39.94360338782548
 30
0.0
 10
8.134335408248871
 20
39.48919529320742
 30
0.0
 10
8.836101358769711
 20
39.78375095726992
 30
0.0
 10
9.54682455755443
 20
40.21300985483935
 30
0.0
 10
9.9767724742211
 20
41.1473197506727
 30
0.0
 10
9.9767724742211
 20
41.1473197506727
 30
0.0
 10
3.67431479192943
 20
41.1473197506727
 30
0.0
 10
3.67431479192943
 20
41.1473197506727
 30
0.0
 10
3.67431479192943
 20
41.1473197506727
 30
0.0
 10
3.67431479192943
 20
42.43440742428381
 30
0.0
 10
3.67431479192943
 20
42.43440742428381
 30
0.0
 10
3.67431479192943
 20
42.43440742428381
 30
0.0
 10
11.88432184488082
 20
42.43440742428381
 30
0.0
 10
11.88432184488082
 20
42.43440742428381
 30
0.0
 10
11.59458931449887
 20
40.36424954667963
 30
0.0
 10
10.65924589001971
 20
39.27869995900604
 30
0.0
 10
9.097928615714151
 20
38.46255683834632
 30
0.0
 10
9.097928615714151
 20
38.46255683834632
 30
0.0
 10
8.115731892623877
 20
39.3799857662977
 30
0.0
 10
8.115731892623877
 20
39.3799857662977
 30
0.0
 10
7.86355090304054
 20
37.67121840518659
 30
0.0
 10
7.246189791929432
 20
36.34175605709631
 30
0.0
 10
4.721623819707208
 20
35.22244453365882
 30
0.0
 10
4.721623819707208
 20
35.22244453365882
 30
0.0
 10
3.74907336397804
 20
36.2914576629991
 30
0.0
 10
3.74907336397804
 20
36.2914576629991
 30
0.0
  0
ENDBLK
  5
E43
330
E1F
100
AcDbEntity
  8
0
100
AcDbBlockEnd
  0
BLOCK
  5
14C6
330
14C3
100
AcDbEntity
  8
0
100
AcDbBlockBegin
  2
_DotBlank
 70
     0
 10
0.0
 20
0.0
 30
0.0
  3
_DotBlank
  1

  0
CIRCLE
  5
14C4
330
14C3
100
AcDbEntity
  8
0
  6
ByBlock
 62
     0
370
    -2
100
AcDbCircle
 10
0.0
 20
0.0
 30
0.0
 40
0.5
  0
LINE
  5
14C5
330
14C3
100
AcDbEntity
  8
0
  6
ByBlock
 62
     0
370
    -2
100
AcDbLine
 10
-0.5
 20
0.0
 30
0.0
 11
-1.0
 21
0.0
 31
0.0
  0
ENDBLK
  5
14C7
330
14C3
100
AcDbEntity
  8
0
100
AcDbBlockEnd
  0
BLOCK
  5
32AF
330
32AE
100
AcDbEntity
  8
0
100
AcDbBlockBegin
  2
*D3
 70
     1
 10
0.0
 20
0.0
 30
0.0
  3
*D3
  1

  0
LINE
  5
341C
330
32AE
100
AcDbEntity
  8
SUNPOU
 62
     0
440
 16777216
370
    -2
100
AcDbLine
 10
247.4490807569186
 20
274.1181972814588
 30
0.0
 11
212.3663741178628
 21
274.1181972814588
 31
0.0
  0
LINE
  5
341D
330
32AE
100
AcDbEntity
  8
SUNPOU
 62
     0
440
 16777216
370
    -2
100
AcDbLine
 10
280.1673252893354
 20
245.2701400318333
 30
0.0
 11
212.3663741178628
 21
245.2701400318333
 31
0.0
  0
LINE
  5
341E
330
32AE
100
AcDbEntity
  8
SUNPOU
 62
     0
440
 16777216
370
    -2
100
AcDbLine
 10
212.3663741178628
 20
274.1181972814588
 30
0.0
 11
212.3663741178628
 21
245.2701400318333
 31
0.0
  0
MTEXT
  5
341F
330
32AE
100
AcDbEntity
  8
SUNPOU
 62
     0
440
 16777216
100
AcDbMText
 10
207.8663741178627
 20
259.6941686566461
 30
0.0
 40
5.0
 41
0.0
 46
0.0
 71
     5
 72
     1
  1
\A1;ｈ※
 11
0.0000000000000001
 21
1.0
 31
0.0
 73
     1
 44
1.0
  0
POINT
  5
3420
330
32AE
100
AcDbEntity
  8
DEFPOINTS
 62
     0
440
 16777216
100
AcDbPoint
 10
252.4490807569186
 20
274.1181972814588
 30
0.0
  0
POINT
  5
3421
330
32AE
100
AcDbEntity
  8
DEFPOINTS
 62
     0
440
 16777216
100
AcDbPoint
 10
285.1673252893353
 20
245.2701400318333
 30
0.0
  0
POINT
  5
3422
330
32AE
100
AcDbEntity
  8
DEFPOINTS
 62
     0
440
 16777216
100
AcDbPoint
 10
212.3663741178628
 20
245.2701400318333
 30
0.0
  0
ENDBLK
  5
32B0
330
32AE
100
AcDbEntity
  8
0
100
AcDbBlockEnd
  0
BLOCK
  5
3396
330
3395
100
AcDbEntity
  8
0
 62
     2
100
AcDbBlockBegin
  2
*D4
 70
     1
 10
0.0
 20
0.0
 30
0.0
  3
*D4
  1

  0
LINE
  5
3DF5
330
3395
100
AcDbEntity
  8
SUNPOU
 62
     0
440
 16777216
370
    -2
100
AcDbLine
 10
277.8352006910487
 20
65.25929615888424
 30
0.0
 11
277.8352006910487
 21
40.25929615888425
 31
0.0
  0
LINE
  5
3DF6
330
3395
100
AcDbEntity
  8
SUNPOU
 62
     0
440
 16777216
370
    -2
100
AcDbLine
 10
352.8352006910489
 20
65.25929615888424
 30
0.0
 11
352.8352006910489
 21
40.25929615888425
 31
0.0
  0
LINE
  5
3DF7
330
3395
100
AcDbEntity
  8
SUNPOU
 62
     0
440
 16777216
370
    -2
100
AcDbLine
 10
279.3352006910487
 20
40.25929615888425
 30
0.0
 11
351.3352006910488
 21
40.25929615888425
 31
0.0
  0
INSERT
  5
3DF8
330
3395
100
AcDbEntity
  8
SUNPOU
 62
     0
440
 16777216
370
    -2
100
AcDbBlockReference
  2
_DotBlank
 10
277.8352006910487
 20
40.25929615888425
 30
0.0
 41
1.5
 42
1.5
 43
1.5
 50
180.0
  0
INSERT
  5
3DF9
330
3395
100
AcDbEntity
  8
SUNPOU
 62
     0
440
 16777216
370
    -2
100
AcDbBlockReference
  2
_DotBlank
 10
352.8352006910489
 20
40.25929615888425
 30
0.0
 41
1.5
 42
1.5
 43
1.5
  0
MTEXT
  5
3DFA
330
3395
100
AcDbEntity
  8
SUNPOU
 62
     0
440
 16777216
100
AcDbMText
 10
315.3352006910489
 20
44.75929615888424
 30
0.0
 40
5.0
 41
0.0
 46
0.0
 71
     5
 72
     1
  1
\A1;75
 73
     1
 44
1.0
  0
POINT
  5
3DFB
330
3395
100
AcDbEntity
  8
DEFPOINTS
 62
     0
440
 16777216
100
AcDbPoint
 10
277.8352006910487
 20
70.25929615888424
 30
0.0
  0
POINT
  5
3DFC
330
3395
100
AcDbEntity
  8
DEFPOINTS
 62
     0
440
 16777216
100
AcDbPoint
 10
352.8352006910489
 20
70.25929615888424
 30
0.0
  0
POINT
  5
3DFD
330
3395
100
AcDbEntity
  8
DEFPOINTS
 62
     0
440
 16777216
100
AcDbPoint
 10
352.8352006910489
 20
40.25929615888425
 30
0.0
  0
ENDBLK
  5
3397
330
3395
100
AcDbEntity
  8
0
 62
     2
100
AcDbBlockEnd
  0
BLOCK
  5
33A2
330
33A1
100
AcDbEntity
  8
0
 62
     2
100
AcDbBlockBegin
  2
*D5
 70
     1
 10
0.0
 20
0.0
 30
0.0
  3
*D5
  1

  0
LINE
  5
343A
330
33A1
100
AcDbEntity
  8
SUNPOU
 62
     0
440
 16777216
370
    -2
100
AcDbLine
 10
352.9352006910488
 20
65.25929615888424
 30
0.0
 11
352.9352006910488
 21
40.25929615888425
 31
0.0
  0
LINE
  5
343B
330
33A1
100
AcDbEntity
  8
SUNPOU
 62
     0
440
 16777216
370
    -2
100
AcDbLine
 10
452.9352006910486
 20
65.25929615888424
 30
0.0
 11
452.9352006910486
 21
40.25929615888425
 31
0.0
  0
LINE
  5
343C
330
33A1
100
AcDbEntity
  8
SUNPOU
 62
     0
440
 16777216
370
    -2
100
AcDbLine
 10
354.4352006910488
 20
40.25929615888425
 30
0.0
 11
451.4352006910486
 21
40.25929615888425
 31
0.0
  0
INSERT
  5
343D
330
33A1
100
AcDbEntity
  8
SUNPOU
 62
     0
440
 16777216
370
    -2
100
AcDbBlockReference
  2
_DotBlank
 10
352.9352006910488
 20
40.25929615888425
 30
0.0
 41
1.5
 42
1.5
 43
1.5
 50
180.0
  0
INSERT
  5
343E
330
33A1
100
AcDbEntity
  8
SUNPOU
 62
     0
440
 16777216
370
    -2
100
AcDbBlockReference
  2
_DotBlank
 10
452.9352006910486
 20
40.25929615888425
 30
0.0
 41
1.5
 42
1.5
 43
1.5
  0
MTEXT
  5
343F
330
33A1
100
AcDbEntity
  8
SUNPOU
 62
     0
440
 16777216
100
AcDbMText
 10
402.9352006910486
 20
44.75929615888424
 30
0.0
 40
5.0
 41
0.0
 46
0.0
 71
     5
 72
     1
  1
\A1;100
 73
     1
 44
1.0
  0
POINT
  5
3440
330
33A1
100
AcDbEntity
  8
DEFPOINTS
 62
     0
440
 16777216
100
AcDbPoint
 10
352.9352006910488
 20
70.25929615888424
 30
0.0
  0
POINT
  5
3441
330
33A1
100
AcDbEntity
  8
DEFPOINTS
 62
     0
440
 16777216
100
AcDbPoint
 10
452.9352006910486
 20
70.25929615888424
 30
0.0
  0
POINT
  5
3442
330
33A1
100
AcDbEntity
  8
DEFPOINTS
 62
     0
440
 16777216
100
AcDbPoint
 10
452.9352006910486
 20
40.25929615888425
 30
0.0
  0
ENDBLK
  5
33A3
330
33A1
100
AcDbEntity
  8
0
 62
     2
100
AcDbBlockEnd
  0
ENDSEC
  0
SECTION
  2
ENTITIES
  0
MTEXT
  5
1744
330
1A
100
AcDbEntity
  8
0
100
AcDbMText
 10
1008.141078032124
 20
200.9648650421882
 30
0.0
 40
5.0
 41
0.0
 46
0.0
 71
     9
 72
     1
  1

 73
     1
 44
1.0
  0
MTEXT
  5
1746
330
1A
100
AcDbEntity
  8
0
100
AcDbMText
 10
991.9581606814372
 20
242.7597672972983
 30
0.0
 40
5.0
 41
0.0
 46
0.0
 71
     9
 72
     1
  1

 73
     1
 44
1.0
  0
LINE
  5
2180
330
1A
100
AcDbEntity
  8
WAKU
100
AcDbLine
 10
20.0
 20
10.0
 30
0.0
 11
800.0
 21
10.0
 31
0.0
  0
LINE
  5
2181
330
1A
100
AcDbEntity
  8
WAKU
100
AcDbLine
 10
800.0
 20
10.0
 30
0.0
 11
800.0
 21
560.0
 31
0.0
  0
LINE
  5
2182
330
1A
100
AcDbEntity
  8
WAKU
100
AcDbLine
 10
800.0
 20
560.0
 30
0.0
 11
20.0
 21
560.0
 31
0.0
  0
LINE
  5
2183
330
1A
100
AcDbEntity
  8
WAKU
100
AcDbLine
 10
20.0
 20
560.0
 30
0.0
 11
20.0
 21
10.0
 31
0.0
  0
LINE
  5
2184
330
1A
100
AcDbEntity
  8
WAKU
100
AcDbLine
 10
20.0
 20
30.0
 30
0.0
 11
800.0
 21
30.0
 31
0.0
  0
LINE
  5
2185
330
1A
100
AcDbEntity
  8
WAKU
100
AcDbLine
 10
120.0
 20
30.0
 30
0.0
 11
120.0
 21
10.0
 31
0.0
  0
LINE
  5
2187
330
1A
100
AcDbEntity
  8
WAKU
100
AcDbLine
 10
22.0
 20
28.0
 30
0.0
 11
118.0
 21
28.0
 31
0.0
  0
LINE
  5
2188
330
1A
100
AcDbEntity
  8
WAKU
100
AcDbLine
 10
22.0
 20
28.0
 30
0.0
 11
22.0
 21
12.0
 31
0.0
  0
LINE
  5
2189
330
1A
100
AcDbEntity
  8
WAKU
100
AcDbLine
 10
22.0
 20
12.0
 30
0.0
 11
118.0
 21
12.0
 31
0.0
  0
LINE
  5
218A
330
1A
100
AcDbEntity
  8
WAKU
100
AcDbLine
 10
118.0
 20
28.0
 30
0.0
 11
118.0
 21
12.0
 31
0.0
  0
LINE
  5
218C
330
1A
100
AcDbEntity
  8
WAKU
100
AcDbLine
 10
260.0
 20
30.0
 30
0.0
 11
260.0
 21
10.0
 31
0.0
  0
LINE
  5
218D
330
1A
100
AcDbEntity
  8
WAKU
100
AcDbLine
 10
270.0
 20
30.0
 30
0.0
 11
270.0
 21
10.0
 31
0.0
  0
MTEXT
  5
218E
330
1A
100
AcDbEntity
  8
WAKU
100
AcDbMText
 10
261.8186178625299
 20
27.72724847366113
 30
0.0
 40
5.0
 41
10.0
 46
0.0
 71
     1
 72
     5
  1
名称
  7
WAKU
 73
     1
 44
1.0
  0
LINE
  5
218F
330
1A
100
AcDbEntity
  8
WAKU
100
AcDbLine
 10
20.0
 20
30.0
 30
0.0
 11
20.0
 21
10.0
 31
0.0
  0
LINE
  5
2190
330
1A
100
AcDbEntity
  8
WAKU
100
AcDbLine
 10
520.0
 20
30.0
 30
0.0
 11
520.0
 21
10.0
 31
0.0
  0
LINE
  5
2191
330
1A
100
AcDbEntity
  8
WAKU
100
AcDbLine
 10
530.0
 20
30.0
 30
0.0
 11
530.0
 21
10.0
 31
0.0
  0
MTEXT
  5
2192
330
1A
100
AcDbEntity
  8
WAKU
100
AcDbMText
 10
521.8186178625295
 20
27.72724847366113
 30
0.0
 40
5.0
 41
10.0
 46
0.0
 71
     1
 72
     5
  1
縮尺
  7
WAKU
 73
     1
 44
1.0
  0
MTEXT
  5
2193
102
{ACAD_XDICTIONARY
360
46F2
102
}
330
1A
100
AcDbEntity
  8
WAKU
100
AcDbMText
 10
274.3245405690059
 20
23.21985646788335
 30
0.0
 40
5.0
 41
190.5002997985425
 46
0.0
 71
     1
 72
     5
  1
\pi31.20193;耐火ヴァンドＲＺ７５　折板屋根軒先納まり
  7
WAKU
 73
     1
 44
1.0
  0
MTEXT
  5
2194
330
1A
100
AcDbEntity
  8
WAKU
100
AcDbMText
 10
539.3245405690056
 20
23.21985646788335
 30
0.0
 40
5.0
 41
190.5002997985425
 46
0.0
 71
     1
 72
     5
  1
1/2（A3）
  7
WAKU
 73
     1
 44
1.0
  0
MTEXT
  5
2195
330
1A
100
AcDbEntity
  8
WAKU
100
AcDbMText
 10
581.8186178625299
 20
27.72724847366113
 30
0.0
 40
5.0
 41
10.0
 46
0.0
 71
     1
 72
     5
  1
図番
  7
WAKU
 73
     1
 44
1.0
  0
LINE
  5
2196
330
1A
100
AcDbEntity
  8
WAKU
100
AcDbLine
 10
590.0
 20
30.0
 30
0.0
 11
590.0
 21
10.0
 31
0.0
  0
LINE
  5
2197
330
1A
100
AcDbEntity
  8
WAKU
100
AcDbLine
 10
580.0
 20
30.0
 30
0.0
 11
580.0
 21
10.0
 31
0.0
  0
MTEXT
  5
2198
330
1A
100
AcDbEntity
  8
WAKU
100
AcDbMText
 10
604.3245405690059
 20
23.21985646788335
 30
0.0
 40
5.0
 41
190.5002997985425
 46
0.0
 71
     1
 72
     5
  1
IGRZ7506_01
  7
WAKU
 73
     1
 44
1.0
  0
LINE
  5
2199
330
1A
100
AcDbEntity
  8
WAKU
100
AcDbLine
 10
660.0
 20
30.0
 30
0.0
 11
660.0
 21
10.0
 31
0.0
  0
LINE
  5
219A
330
1A
100
AcDbEntity
  8
WAKU
100
AcDbLine
 10
670.0
 20
30.0
 30
0.0
 11
670.0
 21
10.0
 31
0.0
  0
MTEXT
  5
219B
330
1A
100
AcDbEntity
  8
WAKU
100
AcDbMText
 10
661.8186178625299
 20
27.72724847366113
 30
0.0
 40
5.0
 41
10.0
 46
0.0
 71
     1
 72
     5
  1
特記
  7
WAKU
 73
     1
 44
1.0
  0
LINE
  5
219C
330
1A
100
AcDbEntity
  8
WAKU
  6
DASHED2
 48
0.5
100
AcDbLine
 10
670.0
 20
20.0
 30
0.0
 11
800.0
 21
20.0
 31
0.0
  0
LINE
  5
219D
330
1A
100
AcDbEntity
  8
WAKU
100
AcDbLine
 10
470.0
 20
10.0
 30
0.0
 11
470.0
 21
30.0
 31
0.0
  0
MTEXT
  5
219E
330
1A
100
AcDbEntity
  8
WAKU
100
AcDbMText
 10
496.3674469153243
 20
23.21985646788335
 30
0.0
 40
5.0
 41
190.5002997985425
 46
0.0
 71
     1
 72
     5
  1
mm
  7
WAKU
 73
     1
 44
1.0
  0
MTEXT
  5
219F
330
1A
100
AcDbEntity
  8
WAKU
100
AcDbMText
 10
471.8186178625298
 20
27.72724847366113
 30
0.0
 40
5.0
 41
10.0
 46
0.0
 71
     1
 72
     5
  1
単位
  7
WAKU
 73
     1
 44
1.0
  0
LINE
  5
21A0
330
1A
100
AcDbEntity
  8
WAKU
100
AcDbLine
 10
480.0
 20
30.0
 30
0.0
 11
480.0
 21
10.0
 31
0.0
  0
LINE
  5
3124
330
1A
100
AcDbEntity
  8
TEKUSU
 48
0.5
100
AcDbLine
 10
364.1507361504956
 20
186.3777167658646
 30
0.0
 11
364.1507361504956
 21
192.4777167658648
 31
0.0
  0
LINE
  5
3125
330
1A
100
AcDbEntity
  8
TEKUSU
  6
DASHED2
 48
0.5
100
AcDbLine
 10
310.1507361504955
 20
186.3777167658646
 30
0.0
 11
310.1507361504954
 21
192.4777167658648
 31
0.0
  0
LINE
  5
3126
330
1A
100
AcDbEntity
  8
TEKUSU
 48
0.5
100
AcDbLine
 10
372.8851672525296
 20
192.1277167658662
 30
0.0
 11
364.1507361504956
 21
192.1277167658663
 31
0.0
  0
LINE
  5
3127
330
1A
100
AcDbEntity
  8
TEKUSU
 48
0.5
100
AcDbLine
 10
375.1507361504891
 20
189.4277167658575
 30
0.0
 11
372.8851672525296
 21
192.1277167658662
 31
0.0
  0
LINE
  5
3128
330
1A
100
AcDbEntity
  8
TEKUSU
 48
0.5
100
AcDbLine
 10
372.8851672525296
 20
186.7277167658633
 30
0.0
 11
364.1507361504956
 21
186.7277167658633
 31
0.0
  0
LINE
  5
3129
330
1A
100
AcDbEntity
  8
TEKUSU
 48
0.5
100
AcDbLine
 10
372.8851672525294
 20
186.7277167658633
 30
0.0
 11
375.1507361504891
 21
189.4277167658575
 31
0.0
  0
LINE
  5
312A
330
1A
100
AcDbEntity
  8
TEKUSU
 48
0.5
100
AcDbLine
 10
364.1507361504956
 20
191.1309690356364
 30
0.0
 11
375.1507361504889
 21
189.4277167658575
 31
0.0
  0
LINE
  5
312B
330
1A
100
AcDbEntity
  8
TEKUSU
  6
DASHED2
 48
0.5
100
AcDbLine
 10
310.1507361504955
 20
192.4777167658646
 30
0.0
 11
355.2352006910499
 21
192.4777167658646
 31
0.0
  0
LINE
  5
312C
330
1A
100
AcDbEntity
  8
TEKUSU
 48
0.5
100
AcDbLine
 10
355.2352006910499
 20
192.4777167658648
 30
0.0
 11
364.1507361504956
 21
192.4777167658648
 31
0.0
  0
LINE
  5
312D
330
1A
100
AcDbEntity
  8
TEKUSU
  6
DASHED2
 48
0.5
100
AcDbLine
 10
310.1507361504955
 20
186.3777167658646
 30
0.0
 11
355.2352006910499
 21
186.3777167658646
 31
0.0
  0
LINE
  5
312E
330
1A
100
AcDbEntity
  8
TEKUSU
 48
0.5
100
AcDbLine
 10
355.23520069105
 20
186.3777167658646
 30
0.0
 11
364.1507361504955
 21
186.3777167658646
 31
0.0
  0
LINE
  5
312F
330
1A
100
AcDbEntity
  8
TEKUSU
  6
CENTER2
370
     5
100
AcDbLine
 10
251.2235799413374
 20
189.4277167658652
 30
0.0
 11
379.7657327390637
 21
189.4277167658652
 31
0.0
  0
LINE
  5
3130
330
1A
100
AcDbEntity
  8
TEKUSU
 48
0.5
100
AcDbLine
 10
274.1507361504954
 20
186.777716765865
 30
0.0
 11
277.4507361504959
 21
186.777716765865
 31
0.0
  0
LINE
  5
3131
330
1A
100
AcDbEntity
  8
TEKUSU
  6
DASHED2
 48
0.5
100
AcDbLine
 10
277.4507361504959
 20
186.7777167658651
 30
0.0
 11
310.1507361504957
 21
186.7777167658651
 31
0.0
  0
LINE
  5
3132
330
1A
100
AcDbEntity
  8
TEKUSU
 48
0.5
100
AcDbLine
 10
274.1507361504953
 20
192.0777167658649
 30
0.0
 11
277.4507361504959
 21
192.0777167658649
 31
0.0
  0
LINE
  5
3133
330
1A
100
AcDbEntity
  8
TEKUSU
  6
DASHED2
 48
0.5
100
AcDbLine
 10
277.4507361504959
 20
192.0777167658651
 30
0.0
 11
310.1507361504955
 21
192.0777167658651
 31
0.0
  0
LINE
  5
3134
330
1A
100
AcDbEntity
  8
TEKUSU
 48
0.5
100
AcDbLine
 10
268.7362000191167
 20
194.9702793500856
 30
0.0
 11
265.1507359229062
 21
194.9702793500856
 31
0.0
  0
LINE
  5
3135
330
1A
100
AcDbEntity
  8
TEKUSU
 48
0.5
100
AcDbLine
 10
268.9507353593334
 20
192.1989985669129
 30
0.0
 11
265.1507359229062
 21
192.1989980579753
 31
0.0
  0
ARC
  5
3136
330
1A
100
AcDbEntity
  8
TEKUSU
 48
0.5
100
AcDbCircle
 10
265.6632279657263
 20
193.5846387040306
 30
0.0
 40
1.477378791628621
100
AcDbArc
 50
110.2973812672992
 51
249.7026187327
  0
LINE
  5
3137
330
1A
100
AcDbEntity
  8
TEKUSU
 48
0.5
100
AcDbLine
 10
268.9507356699459
 20
186.6564354737547
 30
0.0
 11
265.1507359229062
 21
186.6564354737547
 31
0.0
  0
ARC
  5
3138
330
1A
100
AcDbEntity
  8
TEKUSU
 48
0.5
100
AcDbCircle
 10
281.406980362307
 20
189.427716765865
 30
0.0
 40
12.76080012633567
100
AcDbArc
 50
167.4570480444482
 51
192.5429519555516
  0
ARC
  5
3139
330
1A
100
AcDbEntity
  8
TEKUSU
 48
0.5
100
AcDbCircle
 10
268.6026091743804
 20
189.427716765865
 30
0.0
 40
4.4266724460077
100
AcDbArc
 50
141.2413177993246
 51
218.7586822006754
  0
ARC
  5
313A
330
1A
100
AcDbEntity
  8
TEKUSU
 48
0.5
100
AcDbCircle
 10
274.0104914802225
 20
193.9846378375881
 30
0.0
 40
5.36559778662658
100
AcDbArc
 50
160.5615207847182
 51
199.4384595924057
  0
LINE
  5
313B
330
1A
100
AcDbEntity
  8
TEKUSU
 48
0.5
100
AcDbLine
 10
268.9507361504955
 20
195.7702793500849
 30
0.0
 11
270.1507361504956
 21
195.7702793500849
 31
0.0
  0
LINE
  5
313C
330
1A
100
AcDbEntity
  8
TEKUSU
 48
0.5
100
AcDbLine
 10
268.7361997344456
 20
183.8851541816448
 30
0.0
 11
265.1507354209995
 21
183.8851541816448
 31
0.0
  0
LINE
  5
313D
330
1A
100
AcDbEntity
  8
TEKUSU
 48
0.5
100
AcDbLine
 10
264.1507361504956
 20
184.7988036566811
 30
0.0
 11
264.5072287599012
 21
184.3508409753283
 31
0.0
  0
LINE
  5
313E
330
1A
100
AcDbEntity
  8
TEKUSU
 48
0.5
100
AcDbLine
 10
268.9507361504955
 20
183.0851541816455
 30
0.0
 11
270.1507361504956
 21
183.0851541816455
 31
0.0
  0
ARC
  5
313F
330
1A
100
AcDbEntity
  8
TEKUSU
 48
0.5
100
AcDbCircle
 10
274.0104949818889
 20
184.8707946420959
 30
0.0
 40
5.365601315275026
100
AcDbArc
 50
160.5615459956227
 51
199.4384540043703
  0
ARC
  5
3140
330
1A
100
AcDbEntity
  8
TEKUSU
 48
0.5
100
AcDbCircle
 10
265.6632274638191
 20
185.2707948276997
 30
0.0
 40
1.477378791628313
100
AcDbArc
 50
110.2973812672962
 51
249.7026187327048
  0
LINE
  5
3141
330
1A
100
AcDbEntity
  8
TEKUSU
 48
0.5
100
AcDbLine
 10
268.9507361504955
 20
195.7702793500848
 30
0.0
 11
268.9507361504955
 21
183.0851541816455
 31
0.0
  0
LINE
  5
3142
330
1A
100
AcDbEntity
  8
TEKUSU
 48
0.5
100
AcDbLine
 10
264.1507361504956
 20
194.0566298750491
 30
0.0
 11
264.1507361504956
 21
184.7988036566811
 31
0.0
  0
LINE
  5
3143
330
1A
100
AcDbEntity
  8
TEKUSU
 48
0.5
100
AcDbLine
 10
269.8507361504955
 20
195.7702793500848
 30
0.0
 11
269.8507361504956
 21
183.0851541816455
 31
0.0
  0
LINE
  5
3144
330
1A
100
AcDbEntity
  8
TEKUSU
 48
0.5
100
AcDbLine
 10
270.1507361504955
 20
195.7702793500848
 30
0.0
 11
270.1507361504956
 21
183.0851541816455
 31
0.0
  0
LINE
  5
3145
330
1A
100
AcDbEntity
  8
TEKUSU
 48
0.5
100
AcDbLine
 10
273.6507361504956
 20
198.1777167658652
 30
0.0
 11
273.6507361504955
 21
180.6777167658649
 31
0.0
  0
LINE
  5
3146
330
1A
100
AcDbEntity
  8
TEKUSU
 48
0.5
100
AcDbLine
 10
274.1507361504956
 20
198.1777167658652
 30
0.0
 11
273.6507361504956
 21
198.1777167658653
 31
0.0
  0
LINE
  5
3147
330
1A
100
AcDbEntity
  8
TEKUSU
 48
0.5
100
AcDbLine
 10
274.1507361504956
 20
180.6777167658649
 30
0.0
 11
273.6507361504956
 21
180.6777167658654
 31
0.0
  0
ARC
  5
3148
330
1A
100
AcDbEntity
  8
TEKUSU
 48
0.5
100
AcDbCircle
 10
273.4837226532922
 20
184.5778180521656
 30
0.0
 40
3.404200679359156
100
AcDbArc
 50
191.7401407657914
 51
272.8121172573879
  0
LINE
  5
3149
330
1A
100
AcDbEntity
  8
TEKUSU
 48
0.5
100
AcDbLine
 10
274.1507361504956
 20
198.1777167658652
 30
0.0
 11
274.1507361504956
 21
180.6777167658649
 31
0.0
  0
LINE
  5
314A
330
1A
100
AcDbEntity
  8
TEKUSU
 48
0.5
100
AcDbLine
 10
264.1507361504956
 20
194.0566298750491
 30
0.0
 11
264.5072287599012
 21
194.504592556402
 31
0.0
  0
ARC
  5
314B
330
1A
100
AcDbEntity
  8
TEKUSU
 48
0.5
100
AcDbCircle
 10
273.4837226532922
 20
194.2776154795647
 30
0.0
 40
3.404200679359156
100
AcDbArc
 50
87.18788274261127
 51
168.2598592342085
  0
ARC
  5
314C
330
1A
100
AcDbEntity
  8
NOKI
  6
DASHED2
370
     9
100
AcDbCircle
 10
281.9352006910477
 20
227.6490643372043
 30
0.0
 40
0.899999999999977
100
AcDbArc
 50
180.0
 51
0.0000000000130276
  0
ARC
  5
314D
330
1A
100
AcDbEntity
  8
NOKI
  6
DASHED2
370
     9
100
AcDbCircle
 10
281.9352006910477
 20
227.6490643372043
 30
0.0
 40
0.4999999999999771
100
AcDbArc
 50
180.0
 51
0.0
  0
LINE
  5
3151
330
1A
100
AcDbEntity
  8
SITAJI
370
     9
100
AcDbLine
 10
473.0948592662128
 20
213.0202364783993
 30
0.0
 11
485.3339189466971
 21
225.2592961588837
 31
0.0
  0
LINE
  5
3152
330
1A
100
AcDbEntity
  8
SITAJI
370
     9
100
AcDbLine
 10
473.0948592662126
 20
215.9228645389339
 30
0.0
 11
482.4312908861625
 21
225.2592961588838
 31
0.0
  0
LINE
  5
3153
330
1A
100
AcDbEntity
  8
SITAJI
100
AcDbLine
 10
473.0948592662126
 20
205.2592961588837
 30
0.0
 11
533.0948592662124
 21
205.2592961588837
 31
0.0
  0
LINE
  5
3154
330
1A
100
AcDbEntity
  8
SITAJI
100
AcDbLine
 10
473.0948592662126
 20
225.2592961588837
 30
0.0
 11
623.0948592662124
 21
225.2592961588836
 31
0.0
  0
LINE
  5
3155
330
1A
100
AcDbEntity
  8
SITAJI
100
AcDbLine
 10
473.0948592662128
 20
205.2592961588837
 30
0.0
 11
473.0948592662126
 21
225.2592961588837
 31
0.0
  0
LINE
  5
3156
330
1A
100
AcDbEntity
  8
SITAJI
370
     9
100
AcDbLine
 10
600.0377607627342
 20
205.2592961588837
 30
0.0
 11
620.037760762734
 21
225.2592961588835
 31
0.0
  0
LINE
  5
3157
330
1A
100
AcDbEntity
  8
SITAJI
370
     9
100
AcDbLine
 10
568.6068643389922
 20
205.2592961588837
 30
0.0
 11
588.6068643389921
 21
225.2592961588837
 31
0.0
  0
LINE
  5
3158
330
1A
100
AcDbEntity
  8
SITAJI
370
     9
100
AcDbLine
 10
536.557382237017
 20
204.6407104806506
 30
0.0
 11
557.1759679152501
 21
225.2592961588836
 31
0.0
  0
LINE
  5
3159
330
1A
100
AcDbEntity
  8
SITAJI
370
     9
100
AcDbLine
 10
501.2549434309735
 20
205.2592961588837
 30
0.0
 11
521.2549434309734
 21
225.2592961588837
 31
0.0
  0
LINE
  5
315A
330
1A
100
AcDbEntity
  8
SITAJI
370
     9
100
AcDbLine
 10
597.1351327021996
 20
205.2592961588837
 30
0.0
 11
617.1351327021993
 21
225.2592961588835
 31
0.0
  0
LINE
  5
315B
330
1A
100
AcDbEntity
  8
SITAJI
370
     9
100
AcDbLine
 10
565.7042362784578
 20
205.2592961588837
 30
0.0
 11
585.7042362784575
 21
225.2592961588837
 31
0.0
  0
LINE
  5
315C
330
1A
100
AcDbEntity
  8
SITAJI
370
     9
100
AcDbLine
 10
534.2108706628478
 20
205.196826967016
 30
0.0
 11
554.2733398547153
 21
225.2592961588836
 31
0.0
  0
LINE
  5
315D
330
1A
100
AcDbEntity
  8
SITAJI
370
     9
100
AcDbLine
 10
498.3523153704388
 20
205.2592961588837
 30
0.0
 11
518.3523153704388
 21
225.2592961588837
 31
0.0
  0
LINE
  5
315E
330
1A
100
AcDbEntity
  8
SITAJI
100
AcDbLine
 10
623.0948592662124
 20
205.2592961588835
 30
0.0
 11
623.0948592662124
 21
225.2592961588839
 31
0.0
  0
LINE
  5
315F
330
1A
100
AcDbEntity
  8
SITAJI
100
AcDbLine
 10
553.0948592662126
 20
76.24800845865094
 30
0.0
 11
553.0948592662126
 21
195.2592961588836
 31
0.0
  0
LINE
  5
3160
330
1A
100
AcDbEntity
  8
SITAJI
100
AcDbLine
 10
543.0948592662124
 20
76.24800845865094
 30
0.0
 11
543.0948592662124
 21
195.2592961588836
 31
0.0
  0
LINE
  5
3161
330
1A
100
AcDbEntity
  8
SITAJI
100
AcDbLine
 10
563.0948592662124
 20
205.2592961588837
 30
0.0
 11
623.0948592662124
 21
205.2592961588835
 31
0.0
  0
LINE
  5
3162
330
1A
100
AcDbEntity
  8
SITAJI
370
     9
100
AcDbLine
 10
543.0948592662124
 20
119.7881262991545
 30
0.0
 11
553.0948592662126
 21
129.7881262991545
 31
0.0
  0
LINE
  5
3163
330
1A
100
AcDbEntity
  8
SITAJI
370
     9
100
AcDbLine
 10
543.0948592662124
 20
85.45460181487781
 30
0.0
 11
553.0948592662126
 21
95.45460181487783
 31
0.0
  0
LINE
  5
3164
330
1A
100
AcDbEntity
  8
SITAJI
370
     9
100
AcDbLine
 10
543.0948592662124
 20
116.8854982386201
 30
0.0
 11
553.0948592662126
 21
126.8854982386199
 31
0.0
  0
LINE
  5
3165
330
1A
100
AcDbEntity
  8
SITAJI
370
     9
100
AcDbLine
 10
543.0948592662124
 20
88.35722987541249
 30
0.0
 11
553.0948592662126
 21
98.35722987541249
 31
0.0
  0
LINE
  5
3166
330
1A
100
AcDbEntity
  8
SITAJI
370
     9
100
AcDbLine
 10
543.0948592662129
 20
148.3163946623622
 30
0.0
 11
553.0948592662126
 21
158.316394662362
 31
0.0
  0
LINE
  5
3167
330
1A
100
AcDbEntity
  8
SITAJI
370
     9
100
AcDbLine
 10
543.0948592662129
 20
179.7472910861042
 30
0.0
 11
553.0948592662126
 21
189.7472910861042
 31
0.0
  0
LINE
  5
3168
330
1A
100
AcDbEntity
  8
SITAJI
370
     9
100
AcDbLine
 10
543.0948592662124
 20
151.2190227228966
 30
0.0
 11
553.0948592662126
 21
161.2190227228966
 31
0.0
  0
LINE
  5
3169
330
1A
100
AcDbEntity
  8
SITAJI
370
     9
100
AcDbLine
 10
543.0948592662124
 20
182.6499191466386
 30
0.0
 11
553.0948592662126
 21
192.6499191466387
 31
0.0
  0
ARC
  5
316A
330
1A
100
AcDbEntity
  8
SITAJI
100
AcDbCircle
 10
533.0948592662124
 20
195.2592961588836
 30
0.0
 40
10.0
100
AcDbArc
 50
0.0
 51
90.0
  0
ARC
  5
316B
330
1A
100
AcDbEntity
  8
SITAJI
100
AcDbCircle
 10
563.0948592662124
 20
195.2592961588836
 30
0.0
 40
10.0
100
AcDbArc
 50
90.0
 51
180.0
  0
LINE
  5
316C
330
1A
100
AcDbEntity
  8
NOKI
  6
CENTER2
100
AcDbLine
 10
548.0948592662124
 20
68.05505826141767
 30
0.0
 11
548.0948592662124
 21
325.6998914482881
 31
0.0
  0
LINE
  5
316D
330
1A
100
AcDbEntity
  8
NOKI
100
AcDbLine
 10
533.0948592662124
 20
280.2592961588837
 30
0.0
 11
533.0948592662124
 21
405.2592961588834
 31
0.0
  0
LINE
  5
316E
330
1A
100
AcDbEntity
  8
NOKI
  6
DASHED2
100
AcDbLine
 10
563.0948592662124
 20
280.2592961588837
 30
0.0
 11
563.0948592662122
 21
405.2592961588834
 31
0.0
  0
LINE
  5
316F
330
1A
100
AcDbEntity
  8
NOKI
  6
DASHED2
100
AcDbLine
 10
530.5948592662124
 20
275.2592961588837
 30
0.0
 11
530.5948592662124
 21
277.7592961588837
 31
0.0
  0
LINE
  5
3170
330
1A
100
AcDbEntity
  8
NOKI
  6
DASHED2
100
AcDbLine
 10
565.5948592662127
 20
275.2592961588836
 30
0.0
 11
565.5948592662127
 21
277.7592961588837
 31
0.0
  0
LINE
  5
3171
330
1A
100
AcDbEntity
  8
NOKI
  6
DASHED2
100
AcDbLine
 10
533.0948592662124
 20
280.2592961588837
 30
0.0
 11
563.0948592662128
 21
280.2592961588837
 31
0.0
  0
ARC
  5
3172
330
1A
100
AcDbEntity
  8
NOKI
  6
DASHED2
100
AcDbCircle
 10
533.0948592662124
 20
277.7592961588837
 30
0.0
 40
2.5
100
AcDbArc
 50
90.0
 51
180.0
  0
ARC
  5
3173
330
1A
100
AcDbEntity
  8
NOKI
  6
DASHED2
100
AcDbCircle
 10
563.0948592662128
 20
277.7592961588837
 30
0.0
 40
2.5
100
AcDbArc
 50
0.0
 51
90.0
  0
LINE
  5
3174
330
1A
100
AcDbEntity
  8
NOKI
100
AcDbLine
 10
252.4490807569186
 20
274.1181972814589
 30
0.0
 11
704.8834619282231
 21
298.864332944702
 31
0.0
  0
LINE
  5
3175
330
1A
100
AcDbEntity
  8
NOKI
100
AcDbLine
 10
99.88346192822321
 20
358.9125463110163
 30
0.0
 11
704.8834619282231
 21
392.003338477391
 31
0.0
  0
LINE
  5
3176
330
1A
100
AcDbEntity
  8
NOKI
100
AcDbLine
 10
99.88346192822321
 20
512.1412328325368
 30
0.0
 11
704.8834619282231
 21
545.2320249989119
 31
0.0
  0
LINE
  5
3177
330
1A
100
AcDbEntity
  8
NOKI
100
AcDbLine
 10
243.2739466026659
 20
441.8674652776306
 30
0.0
 11
704.8834619282231
 21
467.1154397134309
 31
0.0
  0
LINE
  5
3178
330
1A
100
AcDbEntity
  8
NOKI
100
AcDbLine
 10
244.9123634159253
 20
411.9122388497428
 30
0.0
 11
704.8834619282231
 21
437.0705992190151
 31
0.0
  0
ARC
  5
3179
330
1A
100
AcDbEntity
  8
NOKI
100
AcDbCircle
 10
548.0948592662124
 20
405.2592961588834
 30
0.0
 40
14.99999999999994
100
AcDbArc
 50
0.0
 51
180.0
  0
LINE
  5
317A
330
1A
100
AcDbEntity
  8
NOKI
100
AcDbLine
 10
533.7839892997099
 20
392.6599099559269
 30
0.0
 11
563.7392157275976
 21
394.2983267691861
 31
0.0
  0
LINE
  5
317B
330
1A
100
AcDbEntity
  8
NOKI
100
AcDbLine
 10
532.1455724864502
 20
422.6151363838144
 30
0.0
 11
533.7839892997099
 21
392.6599099559268
 31
0.0
  0
LINE
  5
317C
330
1A
100
AcDbEntity
  8
NOKI
100
AcDbLine
 10
562.1007989143381
 20
424.2535531970736
 30
0.0
 11
563.7392157275976
 21
394.2983267691862
 31
0.0
  0
LINE
  5
317D
330
1A
100
AcDbEntity
  8
NOKI
  6
CENTER2
 48
0.3
370
     5
100
AcDbLine
 10
538.10978379025
 20
404.7131572211306
 30
0.0
 11
558.0799347421751
 21
405.8054350966366
 31
0.0
  0
LINE
  5
317E
330
1A
100
AcDbEntity
  8
NOKI
  6
CENTER2
 48
0.3
370
     5
100
AcDbLine
 10
547.5487203284597
 20
415.2443716348462
 30
0.0
 11
548.6409982039656
 21
395.274220682921
 31
0.0
  0
CIRCLE
  5
317F
330
1A
100
AcDbEntity
  8
NOKI
 48
0.5
100
AcDbCircle
 10
548.0948592662124
 20
405.2592961588834
 30
0.0
 40
3.0
  0
LINE
  5
3180
330
1A
100
AcDbEntity
  8
NOKI
100
AcDbLine
 10
502.1903460585626
 20
420.9767195705551
 30
0.0
 11
532.1455724864502
 21
422.6151363838146
 31
0.0
  0
LINE
  5
3181
330
1A
100
AcDbEntity
  8
NOKI
100
AcDbLine
 10
500.2788597764263
 20
455.9244837364245
 30
0.0
 11
502.1903460585626
 21
420.9767195705551
 31
0.0
  0
LINE
  5
3182
330
1A
100
AcDbEntity
  8
NOKI
100
AcDbLine
 10
590.1445390600899
 20
460.8397341762024
 30
0.0
 11
592.056025342226
 21
425.8919700103333
 31
0.0
  0
LINE
  5
3183
330
1A
100
AcDbEntity
  8
NOKI
100
AcDbLine
 10
562.1007989143381
 20
424.2535531970736
 30
0.0
 11
592.056025342226
 21
425.8919700103333
 31
0.0
  0
LINE
  5
3184
330
1A
100
AcDbEntity
  8
NOKI
100
AcDbLine
 10
529.6879472665606
 20
467.5479760256462
 30
0.0
 11
527.6126193030989
 21
505.4912628343043
 31
0.0
  0
LINE
  5
3185
330
1A
100
AcDbEntity
  8
NOKI
100
AcDbLine
 10
559.6431736944492
 20
469.1863928389056
 30
0.0
 11
557.5678457309873
 21
507.1296796475636
 31
0.0
  0
LINE
  5
3186
330
1A
100
AcDbEntity
  8
NOKI
100
AcDbLine
 10
499.7327208386733
 20
465.9095592123867
 30
0.0
 11
500.2788597764263
 21
455.9244837364245
 31
0.0
  0
LINE
  5
3187
330
1A
100
AcDbEntity
  8
NOKI
100
AcDbLine
 10
589.5984001223369
 20
470.8248096521652
 30
0.0
 11
590.1445390600899
 21
460.8397341762024
 31
0.0
  0
LINE
  5
3188
330
1A
100
AcDbEntity
  8
NOKI
100
AcDbLine
 10
497.6573928752116
 20
503.852846021045
 30
0.0
 11
587.5230721588747
 21
508.7680964608229
 31
0.0
  0
LINE
  5
3189
330
1A
100
AcDbEntity
  8
NOKI
100
AcDbLine
 10
497.6573928752116
 20
503.852846021045
 30
0.0
 11
496.0189760619522
 21
533.8080724489327
 31
0.0
  0
LINE
  5
318A
330
1A
100
AcDbEntity
  8
NOKI
100
AcDbLine
 10
587.5230721588747
 20
508.7680964608229
 30
0.0
 11
585.8846553456154
 21
538.7233228887107
 31
0.0
  0
LINE
  5
318B
330
1A
100
AcDbEntity
  8
NOKI
100
AcDbLine
 10
499.7327208386733
 20
465.9095592123867
 30
0.0
 11
589.5984001223369
 21
470.8248096521652
 31
0.0
  0
LINE
  5
318C
330
1A
100
AcDbEntity
  8
NOKI
  6
CENTER2
 48
0.3
370
     5
100
AcDbLine
 10
544.6655604805044
 20
468.3671844322758
 30
0.0
 11
542.5902325170432
 21
506.3104712409338
 31
0.0
  0
LINE
  5
318D
330
1A
100
AcDbEntity
  8
NOKI
  6
CENTER2
 48
0.3
370
     5
100
AcDbLine
 10
533.1512959788334
 20
495.779256827218
 30
0.0
 11
553.121446930759
 21
496.8715347027246
 31
0.0
  0
LINE
  5
318E
330
1A
100
AcDbEntity
  8
NOKI
  6
CENTER2
 48
0.3
370
     5
100
AcDbLine
 10
534.134346066789
 20
477.8061209704856
 30
0.0
 11
554.1044970187146
 21
478.8983988459916
 31
0.0
  0
CIRCLE
  5
318F
330
1A
100
AcDbEntity
  8
NOKI
 48
0.5
100
AcDbCircle
 10
543.1363714547963
 20
496.3253957649713
 30
0.0
 40
3.0
  0
CIRCLE
  5
3190
330
1A
100
AcDbEntity
  8
NOKI
 48
0.5
100
AcDbCircle
 10
544.1194215427514
 20
478.3522599082385
 30
0.0
 40
3.0
  0
LINE
  5
3191
330
1A
100
AcDbEntity
  8
NOKI
100
AcDbLine
 10
99.88346192822321
 20
487.1038657538571
 30
0.0
 11
704.8834619282231
 21
520.1946579202322
 31
0.0
  0
LINE
  5
3192
330
1A
100
AcDbEntity
  8
NOKI
  6
CENTER2
 48
0.3
370
     5
100
AcDbLine
 10
220.2047339320693
 20
439.6899800791119
 30
0.0
 11
221.3986185817886
 21
419.7256458942918
 31
0.0
  0
LINE
  5
3193
330
1A
100
AcDbEntity
  8
NOKI
  6
CENTER2
 48
0.3
370
     5
100
AcDbLine
 10
210.8195091645189
 20
429.1108706618423
 30
0.0
 11
230.7838433493387
 21
430.3047553115616
 31
0.0
  0
LINE
  5
3194
330
1A
100
AcDbEntity
  8
NOKI
  6
CENTER2
 48
0.3
370
     5
100
AcDbLine
 10
292.6052635362911
 20
345.5312271682151
 30
0.0
 11
272.6409293514715
 21
344.3373425184959
 31
0.0
  0
LINE
  5
3195
330
1A
100
AcDbEntity
  8
NOKI
  6
CENTER2
 48
0.3
370
     5
100
AcDbLine
 10
283.2200387687409
 20
334.9521177509456
 30
0.0
 11
282.0261541190216
 21
354.9164519357655
 31
0.0
  0
CIRCLE
  5
3196
330
1A
100
AcDbEntity
  8
NOKI
 48
0.5
370
     9
100
AcDbCircle
 10
220.8016762569289
 20
429.707812986702
 30
0.0
 40
2.999999999999998
  0
CIRCLE
  5
3197
330
1A
100
AcDbEntity
  8
NOKI
 48
0.5
370
     9
100
AcDbCircle
 10
282.6230964438813
 20
344.9342848433555
 30
0.0
 40
2.999999999999998
  0
SPLINE
  5
3198
330
1A
100
AcDbEntity
  8
NOKI
 48
0.5
370
     9
100
AcDbSpline
210
0.0
220
0.0
230
1.0
 70
     8
 71
     3
 72
    40
 73
    36
 74
     0
 42
0.000000001
 43
0.0000000001
 40
319.657728704092
 40
319.657728704092
 40
319.657728704092
 40
319.657728704092
 40
319.6577538454442
 40
344.7376262534131
 40
392.7896813603489
 40
417.8695537683177
 40
442.9494261762866
 40
491.0014812832223
 40
516.0813536911915
 40
541.1612260991603
 40
589.2132812060962
 40
614.293153614065
 40
639.373026022034
 40
687.4250811289697
 40
712.5049535369387
 40
737.5848259449075
 40
785.6368810518432
 40
810.7167534598124
 40
835.796625867781
 40
883.8486809747168
 40
908.9285533826856
 40
934.0084257906548
 40
982.0604808975902
 40
1007.140353305559
 40
1032.220225713528
 40
1080.272280820464
 40
1105.352153228433
 40
1130.432025636401
 40
1178.484080743337
 40
1203.563953151306
 40
1228.643825559275
 40
1276.695880666211
 40
1301.77575307418
 40
1326.855625482149
 40
1374.907680589084
 40
1374.907680589085
 40
1374.907680589085
 40
1374.907680589085
 10
311.4800338158897
 20
370.4859317382491
 30
0.0
 10
311.4800384491216
 20
370.4859319916661
 30
0.0
 10
316.1019458467768
 20
370.7387166294333
 30
0.0
 10
331.6430973057916
 20
333.7437451753879
 30
0.0
 10
306.3811778507095
 20
314.9130776100023
 30
0.0
 10
327.251968841805
 20
265.2309984484973
 30
0.0
 10
342.5796895278407
 20
316.8929777434403
 30
0.0
 10
315.414724240432
 20
332.8561017772884
 30
0.0
 10
330.7424455855908
 20
384.518082201389
 30
0.0
 10
351.6132337331498
 20
334.8359981685638
 30
0.0
 10
326.3513312026447
 20
316.005359597014
 30
0.0
 10
347.222119338688
 20
266.3232755444615
 30
0.0
 10
362.5498407335268
 20
317.9852560536695
 30
0.0
 10
335.3848751504263
 20
333.9483795809619
 30
0.0
 10
350.7125965454662
 20
385.6103600905143
 30
0.0
 10
371.5833846806418
 20
335.9282760364749
 30
0.0
 10
346.3214821553025
 20
317.0976374737752
 30
0.0
 10
367.1922702904745
 20
267.4155534197299
 30
0.0
 10
382.5199916855289
 20
319.0775339293078
 30
0.0
 10
355.3550261023423
 20
335.0406574564497
 30
0.0
 10
370.682747497388
 20
386.702637966019
 30
0.0
 10
391.5535356325971
 20
337.0205539120111
 30
0.0
 10
366.2916331070372
 20
318.189915349087
 30
0.0
 10
387.1624212427417
 20
268.5078312955854
 30
0.0
 10
402.4901426356517
 20
320.1698118029715
 30
0.0
 10
375.3251770651753
 20
336.132935343106
 30
0.0
 10
390.6528984297532
 20
387.7949158215306
 30
0.0
 10
411.5236866876863
 20
338.112831892974
 30
0.0
 10
386.2617834346275
 20
319.2821925863818
 30
0.0
 10
407.1325733142201
 20
269.6001103155284
 30
0.0
 10
422.4602876827644
 20
321.2620836424244
 30
0.0
 10
395.2953637523076
 20
337.2252497480742
 30
0.0
 10
410.6229853015403
 20
388.8871281926467
 30
0.0
 10
431.4941756147589
 20
339.2054552554996
 30
0.0
 10
412.6815076998457
 20
325.1816910683272
 30
0.0
 10
415.1537750394856
 20
306.051793544254
 30
0.0
  0
SPLINE
  5
3199
330
1A
100
AcDbEntity
  8
NOKI
 48
0.5
370
     9
100
AcDbSpline
210
0.0
220
0.0
230
1.0
 70
     8
 71
     3
 72
    49
 73
    45
 74
     0
 42
0.000000001
 43
0.0000000001
 40
0.0
 40
0.0
 40
0.0
 40
0.0
 40
25.07987240796893
 40
50.15974481593787
 40
97.23415399969717
 40
123.234153999697
 40
148.3140264076659
 40
196.3660815146016
 40
221.4459539225706
 40
246.5258263305395
 40
294.5778814374753
 40
319.6577538454442
 40
344.7376262534131
 40
392.7896813603489
 40
417.8695537683177
 40
442.9494261762866
 40
491.0014812832223
 40
516.0813536911915
 40
541.1612260991603
 40
589.2132812060962
 40
614.293153614065
 40
639.373026022034
 40
687.4250811289697
 40
712.5049535369387
 40
737.5848259449075
 40
785.6368810518432
 40
810.7167534598124
 40
835.796625867781
 40
883.8486809747168
 40
908.9285533826856
 40
934.0084257906548
 40
982.0604808975902
 40
1007.140353305559
 40
1032.220225713528
 40
1080.272280820464
 40
1105.352153228433
 40
1130.432025636401
 40
1178.484080743337
 40
1203.563953151306
 40
1228.643825559275
 40
1276.695880666211
 40
1301.77575307418
 40
1326.855625482149
 40
1374.907680589084
 40
1374.907680589085
 40
1374.907680589085
 40
1374.907680589085
 10
415.1537750394854
 20
306.0517935442543
 30
0.0
 10
413.8631741651456
 20
297.7920575755902
 30
0.0
 10
428.2680855485199
 20
269.8934474437946
 30
0.0
 10
441.6677983972556
 20
322.3424598221716
 30
0.0
 10
415.6414147783196
 20
337.7447760244263
 30
0.0
 10
430.3110670479771
 20
390.2965792515795
 30
0.0
 10
451.5115869674046
 20
340.3789294590252
 30
0.0
 10
426.1942208876996
 20
321.4532751556709
 30
0.0
 10
447.0743653176175
 20
271.7872195600471
 30
0.0
 10
462.3997638933357
 20
323.4452208006758
 30
0.0
 10
435.2357673219048
 20
339.4100043615267
 30
0.0
 10
450.5633252517846
 20
391.071704835596
 30
0.0
 10
471.434153969268
 20
341.3896903039317
 30
0.0
 10
446.1722345141858
 20
322.5590227385461
 30
0.0
 10
467.0430255052815
 20
272.8769435770412
 30
0.0
 10
482.3707461913172
 20
324.5389228719842
 30
0.0
 10
455.2057809039083
 20
340.5020469058322
 30
0.0
 10
470.5335022490674
 20
392.1640273299329
 30
0.0
 10
491.4042903966262
 20
342.4819432971077
 30
0.0
 10
466.1423878661208
 20
323.6513047255578
 30
0.0
 10
487.0131760021645
 20
273.9692206730053
 30
0.0
 10
502.3408973970033
 20
325.6312011822133
 30
0.0
 10
475.1759318139026
 20
341.5943247095058
 30
0.0
 10
490.5036532089424
 20
393.2563052190583
 30
0.0
 10
511.3744413441183
 20
343.5742211650188
 30
0.0
 10
486.1125388187788
 20
324.7435826023191
 30
0.0
 10
506.9833269539508
 20
275.0614985482738
 30
0.0
 10
522.3110483490053
 20
326.7234790578517
 30
0.0
 10
495.1460827658186
 20
342.6866025849936
 30
0.0
 10
510.4738041608643
 20
394.3485830945629
 30
0.0
 10
531.3445922960734
 20
344.666499040555
 30
0.0
 10
506.0826897705137
 20
325.8358604776308
 30
0.0
 10
526.953477906218
 20
276.1537764241293
 30
0.0
 10
542.281199299128
 20
327.8157569315153
 30
0.0
 10
515.1162337286516
 20
343.7788804716499
 30
0.0
 10
530.4439550932296
 20
395.4408609500745
 30
0.0
 10
551.3147433511626
 20
345.7587770215178
 30
0.0
 10
526.0528400981038
 20
326.9281377149257
 30
0.0
 10
546.9236299776963
 20
277.2460554440722
 30
0.0
 10
562.251344346241
 20
328.9080287709682
 30
0.0
 10
535.0864204157842
 20
344.8711948766181
 30
0.0
 10
550.4140419650171
 20
396.5330733211907
 30
0.0
 10
571.2852322782355
 20
346.8514003840435
 30
0.0
 10
552.4725643633224
 20
332.827636196871
 30
0.0
 10
554.9448317029623
 20
313.6977386727979
 30
0.0
  0
SPLINE
  5
319A
330
1A
100
AcDbEntity
  8
NOKI
 48
0.5
370
     9
100
AcDbSpline
210
0.0
220
0.0
230
1.0
 70
     8
 71
     3
 72
    49
 73
    45
 74
     0
 42
0.000000001
 43
0.0000000001
 40
0.0
 40
0.0
 40
0.0
 40
0.0
 40
25.07987240796893
 40
50.15974481593787
 40
97.23415399969717
 40
123.234153999697
 40
148.3140264076659
 40
196.3660815146016
 40
221.4459539225706
 40
246.5258263305395
 40
294.5778814374753
 40
319.6577538454442
 40
344.7376262534131
 40
392.7896813603489
 40
417.8695537683177
 40
442.9494261762866
 40
491.0014812832223
 40
516.0813536911915
 40
541.1612260991603
 40
589.2132812060962
 40
614.293153614065
 40
639.373026022034
 40
687.4250811289697
 40
712.5049535369387
 40
737.5848259449075
 40
785.6368810518432
 40
810.7167534598124
 40
835.796625867781
 40
883.8486809747168
 40
908.9285533826856
 40
934.0084257906548
 40
982.0604808975902
 40
1007.140353305559
 40
1032.220225713528
 40
1080.272280820464
 40
1105.352153228433
 40
1130.432025636401
 40
1178.484080743337
 40
1203.563953151306
 40
1228.643825559275
 40
1276.695880666211
 40
1301.77575307418
 40
1326.855625482149
 40
1374.907680589084
 40
1374.907680589085
 40
1374.907680589085
 40
1374.907680589085
 10
554.9448317029478
 20
313.6977386730596
 30
0.0
 10
553.6542308286084
 20
305.4380027043956
 30
0.0
 10
568.0591422119824
 20
277.5393925725998
 30
0.0
 10
581.4588550607181
 20
329.9884049509768
 30
0.0
 10
555.4324714417821
 20
345.3907211532317
 30
0.0
 10
570.1021237114396
 20
397.9425243803847
 30
0.0
 10
591.3026436308671
 20
348.0248745878305
 30
0.0
 10
565.9852775511621
 20
329.0992202844762
 30
0.0
 10
586.86542198108
 20
279.4331646888522
 30
0.0
 10
602.1908205567982
 20
331.0911659294811
 30
0.0
 10
575.0268239853673
 20
347.0559494903321
 30
0.0
 10
590.3543819152471
 20
398.7176499644012
 30
0.0
 10
611.2252106327307
 20
349.0356354327371
 30
0.0
 10
585.9632911776486
 20
330.2049678673516
 30
0.0
 10
606.8340821687439
 20
280.5228887058464
 30
0.0
 10
622.1618028547792
 20
332.1848680007895
 30
0.0
 10
594.9968375673709
 20
348.1479920346375
 30
0.0
 10
610.3245589125297
 20
399.8099724587382
 30
0.0
 10
631.195347060089
 20
350.127888425913
 30
0.0
 10
605.9334445295835
 20
331.2972498543631
 30
0.0
 10
626.8042326656272
 20
281.6151658018107
 30
0.0
 10
642.1319540604656
 20
333.2771463110185
 30
0.0
 10
614.9669884773652
 20
349.2402698383112
 30
0.0
 10
630.294709872405
 20
400.9022503478636
 30
0.0
 10
651.1654980075807
 20
351.2201662938242
 30
0.0
 10
625.9035954822413
 20
332.3895277311244
 30
0.0
 10
646.7743836174133
 20
282.707443677079
 30
0.0
 10
662.1021050124681
 20
334.369424186657
 30
0.0
 10
634.9371394292811
 20
350.3325477137988
 30
0.0
 10
650.2648608243267
 20
401.9945282233678
 30
0.0
 10
671.135648959536
 20
352.3124441693602
 30
0.0
 10
645.8737464339763
 20
333.4818056064362
 30
0.0
 10
666.7445345696806
 20
283.7997215529347
 30
0.0
 10
682.0722559625906
 20
335.4617020603207
 30
0.0
 10
654.9072903921143
 20
351.4248256004553
 30
0.0
 10
670.2350117566917
 20
403.0868060788797
 30
0.0
 10
691.1058000146249
 20
353.4047221503231
 30
0.0
 10
665.8438967615664
 20
334.574082843731
 30
0.0
 10
686.7146866411587
 20
284.8920005728773
 30
0.0
 10
702.042401009703
 20
336.5539738997736
 30
0.0
 10
674.8774770792465
 20
352.5171400054235
 30
0.0
 10
690.2050986284792
 20
404.1790184499959
 30
0.0
 10
711.0762889416977
 20
354.4973455128488
 30
0.0
 10
692.2636210267846
 20
340.4735813256763
 30
0.0
 10
694.7358883664247
 20
321.3436838016032
 30
0.0
  0
SPLINE
  5
319B
330
1A
100
AcDbEntity
  8
NOKI
100
AcDbSpline
210
0.0
220
0.0
230
1.0
 70
     8
 71
     3
 72
     8
 73
     4
 74
     0
 42
0.000000001
 43
0.0000000001
 40
0.0
 40
0.0
 40
0.0
 40
0.0
 40
23.39904266478759
 40
23.39904266478759
 40
23.39904266478759
 40
23.39904266478759
 10
694.7358883664247
 20
321.3436838016023
 30
0.0
 10
693.5317823633859
 20
313.6375076621559
 30
0.0
 10
699.7204864465447
 20
300.9788266758203
 30
0.0
 10
704.8834619282231
 20
299.1457479928748
 30
0.0
  0
SPLINE
  5
319C
330
1A
100
AcDbEntity
  8
NOKI
 48
0.5
370
     9
100
AcDbSpline
210
0.0
220
0.0
230
1.0
 70
     8
 71
     3
 72
     9
 73
     5
 74
     0
 42
0.000000001
 43
0.0000000001
 40
83.00488397667439
 40
83.00488397667439
 40
83.00488397667439
 40
83.00488397667439
 40
97.23415399969717
 40
110.4958480446224
 40
110.4958480446224
 40
110.4958480446224
 40
110.4958480446224
 10
704.8834619282231
 20
353.2192555915529
 30
0.0
 10
703.3024518329541
 20
357.4654902799645
 30
0.0
 10
701.1361737048587
 20
366.4560554407042
 30
0.0
 10
703.2579223325666
 20
379.3609574858324
 30
0.0
 10
704.8834619282231
 20
384.2079950511255
 30
0.0
  0
LINE
  5
319E
330
1A
100
AcDbEntity
  8
SITAJI
100
AcDbLine
 10
357.9352006910497
 20
252.9592961588838
 30
0.0
 11
447.9352006910496
 21
252.9592961588841
 31
0.0
  0
LINE
  5
319F
330
1A
100
AcDbEntity
  8
SITAJI
100
AcDbLine
 10
357.9352006910497
 20
255.2592961588833
 30
0.0
 11
447.9352006910496
 21
255.2592961588841
 31
0.0
  0
LINE
  5
31A0
330
1A
100
AcDbEntity
  8
SITAJI
100
AcDbLine
 10
357.9352006910497
 20
252.9592961588838
 30
0.0
 11
447.9352006910496
 21
252.9592961588841
 31
0.0
  0
LINE
  5
31A1
330
1A
100
AcDbEntity
  8
SITAJI
100
AcDbLine
 10
357.9352006910499
 20
155.2592961588844
 30
0.0
 11
447.9352006910499
 21
155.259296158884
 31
0.0
  0
LINE
  5
31A2
330
1A
100
AcDbEntity
  8
SITAJI
100
AcDbLine
 10
352.93520069105
 20
150.2592961588845
 30
0.0
 11
452.9352006910499
 21
150.259296158884
 31
0.0
  0
LINE
  5
31A3
330
1A
100
AcDbEntity
  8
SITAJI
100
AcDbLine
 10
357.9352006910499
 20
157.5592961588839
 30
0.0
 11
447.9352006910499
 21
157.5592961588841
 31
0.0
  0
LINE
  5
31A4
330
1A
100
AcDbEntity
  8
SITAJI
100
AcDbLine
 10
355.2352006910499
 20
160.259296158884
 30
0.0
 11
355.2352006910499
 21
250.2592961588838
 31
0.0
  0
LINE
  5
31A5
330
1A
100
AcDbEntity
  8
SITAJI
100
AcDbLine
 10
352.9352006910499
 20
160.259296158884
 30
0.0
 11
352.9352006910499
 21
250.2592961588838
 31
0.0
  0
ARC
  5
31A6
330
1A
100
AcDbEntity
  8
SITAJI
100
AcDbCircle
 10
357.9352006910499
 20
160.259296158884
 30
0.0
 40
2.7
100
AcDbArc
 50
180.0
 51
270.0
  0
ARC
  5
31A7
330
1A
100
AcDbEntity
  8
SITAJI
100
AcDbCircle
 10
357.9352006910499
 20
160.259296158884
 30
0.0
 40
5.0
100
AcDbArc
 50
180.0
 51
270.0
  0
ARC
  5
31A8
330
1A
100
AcDbEntity
  8
SITAJI
100
AcDbCircle
 10
357.9352006910497
 20
250.2592961588838
 30
0.0
 40
2.7
100
AcDbArc
 50
90.0
 51
180.0
  0
ARC
  5
31A9
330
1A
100
AcDbEntity
  8
SITAJI
100
AcDbCircle
 10
357.9352006910497
 20
250.2592961588838
 30
0.0
 40
5.0
100
AcDbArc
 50
90.0
 51
180.0
  0
LINE
  5
31AA
330
1A
100
AcDbEntity
  8
SITAJI
370
     9
100
AcDbLine
 10
352.9352006910499
 20
229.1102791002592
 30
0.0
 11
355.2352006910499
 21
231.4102791002593
 31
0.0
  0
LINE
  5
31AB
330
1A
100
AcDbEntity
  8
SITAJI
370
     9
100
AcDbLine
 10
376.7842177496723
 20
252.9592961588838
 30
0.0
 11
379.0842177496723
 21
255.2592961588841
 31
0.0
  0
LINE
  5
31AC
330
1A
100
AcDbEntity
  8
SITAJI
370
     9
100
AcDbLine
 10
352.9352006910499
 20
224.6201491002622
 30
0.0
 11
355.2352006910499
 21
226.9201491002618
 31
0.0
  0
LINE
  5
31AD
330
1A
100
AcDbEntity
  8
SITAJI
370
     9
100
AcDbLine
 10
381.2743477496758
 20
252.9592961588839
 30
0.0
 11
383.5743477496763
 21
255.259296158884
 31
0.0
  0
LINE
  5
31AE
330
1A
100
AcDbEntity
  8
SITAJI
370
     9
100
AcDbLine
 10
352.9352006910499
 20
178.8926696126392
 30
0.0
 11
355.2352006910498
 21
181.1926696126393
 31
0.0
  0
LINE
  5
31AF
330
1A
100
AcDbEntity
  8
SITAJI
370
     9
100
AcDbLine
 10
427.0018272372873
 20
252.9592961588839
 30
0.0
 11
429.3018272372872
 21
255.2592961588843
 31
0.0
  0
LINE
  5
31B0
330
1A
100
AcDbEntity
  8
SITAJI
370
     9
100
AcDbLine
 10
352.9352006910499
 20
174.4025396126428
 30
0.0
 11
355.2352006910499
 21
176.7025396126429
 31
0.0
  0
LINE
  5
31B1
330
1A
100
AcDbEntity
  8
SITAJI
370
     9
100
AcDbLine
 10
431.4919572372872
 20
252.9592961588841
 30
0.0
 11
433.7919572372872
 21
255.2592961588842
 31
0.0
  0
LINE
  5
31B2
330
1A
100
AcDbEntity
  8
SITAJI
100
AcDbLine
 10
450.63520069105
 20
160.259296158884
 30
0.0
 11
450.6352006910496
 21
250.259296158884
 31
0.0
  0
LINE
  5
31B3
330
1A
100
AcDbEntity
  8
SITAJI
100
AcDbLine
 10
452.9352006910499
 20
160.2592961588841
 30
0.0
 11
452.9352006910499
 21
250.259296158884
 31
0.0
  0
LINE
  5
31B4
330
1A
100
AcDbEntity
  8
SITAJI
370
     9
100
AcDbLine
 10
445.2189579289195
 20
155.2592961588841
 30
0.0
 11
447.5189579289195
 21
157.5592961588842
 31
0.0
  0
LINE
  5
31B5
330
1A
100
AcDbEntity
  8
SITAJI
370
     9
100
AcDbLine
 10
440.7288279289196
 20
155.2592961588842
 30
0.0
 11
443.0288279289196
 21
157.5592961588842
 31
0.0
  0
ARC
  5
31B6
330
1A
100
AcDbEntity
  8
SITAJI
100
AcDbCircle
 10
447.9352006910499
 20
160.2592961588841
 30
0.0
 40
5.0
100
AcDbArc
 50
270.0
 51
0.0
  0
ARC
  5
31B7
330
1A
100
AcDbEntity
  8
SITAJI
100
AcDbCircle
 10
447.9352006910499
 20
160.2592961588841
 30
0.0
 40
2.7
100
AcDbArc
 50
270.0
 51
0.0
  0
LINE
  5
31B8
330
1A
100
AcDbEntity
  8
SITAJI
370
     9
100
AcDbLine
 10
450.63520069105
 20
165.1656689210144
 30
0.0
 11
452.9352006910499
 21
167.4656689210145
 31
0.0
  0
LINE
  5
31B9
330
1A
100
AcDbEntity
  8
SITAJI
370
     9
100
AcDbLine
 10
450.63520069105
 20
160.6755389210145
 30
0.0
 11
452.9352006910499
 21
162.9755389210145
 31
0.0
  0
LINE
  5
31BA
330
1A
100
AcDbEntity
  8
SITAJI
370
     9
100
AcDbLine
 10
391.3374212025077
 20
155.2592961588842
 30
0.0
 11
393.6374212025074
 21
157.5592961588841
 31
0.0
  0
LINE
  5
31BB
330
1A
100
AcDbEntity
  8
SITAJI
370
     9
100
AcDbLine
 10
450.6352006910498
 20
214.5570756474292
 30
0.0
 11
452.9352006910499
 21
216.8570756474294
 31
0.0
  0
LINE
  5
31BC
330
1A
100
AcDbEntity
  8
SITAJI
370
     9
100
AcDbLine
 10
386.8472912025081
 20
155.2592961588843
 30
0.0
 11
389.1472912025077
 21
157.5592961588839
 31
0.0
  0
LINE
  5
31BD
330
1A
100
AcDbEntity
  8
SITAJI
370
     9
100
AcDbLine
 10
450.6352006910496
 20
219.0472056474291
 30
0.0
 11
452.9352006910499
 21
221.3472056474294
 31
0.0
  0
ARC
  5
31BE
330
1A
100
AcDbEntity
  8
SITAJI
100
AcDbCircle
 10
447.9352006910496
 20
250.259296158884
 30
0.0
 40
2.7
100
AcDbArc
 50
0.0
 51
90.0
  0
ARC
  5
31BF
330
1A
100
AcDbEntity
  8
SITAJI
100
AcDbCircle
 10
447.9352006910496
 20
250.259296158884
 30
0.0
 40
5.0
100
AcDbArc
 50
0.0
 51
90.0
  0
DIMENSION
  5
31C6
330
1A
100
AcDbEntity
  8
SUNPOU
100
AcDbDimension
280
     0
  2
*D3
 10
212.3663741178628
 20
245.2701400318333
 30
0.0
 11
207.8663741178627
 21
259.6941686566461
 31
0.0
 70
    32
  1
ｈ※
 71
     5
 42
28.84805724962553
 73
     0
 74
     0
 75
     0
  3
STANDARD
100
AcDbAlignedDimension
 13
252.4490807569186
 23
274.1181972814588
 33
0.0
 14
285.1673252893353
 24
245.2701400318333
 34
0.0
 50
90.0
100
AcDbRotatedDimension
  0
LINE
  5
31CA
330
1A
100
AcDbEntity
  8
NOKI
370
     9
100
AcDbLine
 10
222.7148427235464
 20
319.6370285800525
 30
0.0
 11
223.1148427235468
 21
319.6370285800525
 31
0.0
  0
ARC
  5
31CB
330
1A
100
AcDbEntity
  8
NOKI
370
     9
100
AcDbCircle
 10
222.2148427235464
 20
310.5370285800526
 30
0.0
 40
0.899999999999977
100
AcDbArc
 50
180.0
 51
0.0000000000130276
  0
LINE
  5
31CC
330
1A
100
AcDbEntity
  8
NOKI
370
     9
100
AcDbLine
 10
223.1148427235468
 20
310.5370285800526
 30
0.0
 11
223.1148427235468
 21
319.6370285800525
 31
0.0
  0
ARC
  5
31CD
330
1A
100
AcDbEntity
  8
NOKI
370
     9
100
AcDbCircle
 10
222.2148427235464
 20
310.5370285800526
 30
0.0
 40
0.4999999999999771
100
AcDbArc
 50
180.0
 51
0.0
  0
LINE
  5
31CE
330
1A
100
AcDbEntity
  8
NOKI
370
     9
100
AcDbLine
 10
222.7148427235464
 20
310.5370285800526
 30
0.0
 11
222.7148427235464
 21
319.6370285800525
 31
0.0
  0
ARC
  5
31CF
330
1A
100
AcDbEntity
  8
NOKI
370
     9
100
AcDbCircle
 10
207.9245157565763
 20
365.4830591368179
 30
0.0
 40
0.2
100
AcDbArc
 50
183.1307000000028
 51
273.1307000103186
  0
LINE
  5
31D0
330
1A
100
AcDbEntity
  8
NOKI
370
     9
100
AcDbLine
 10
207.9354385240165
 20
365.28335762668
 30
0.0
 11
211.9015314053708
 21
365.5002849306312
 31
0.0
  0
ARC
  5
31D1
330
1A
100
AcDbEntity
  8
NOKI
370
     9
100
AcDbCircle
 10
207.9245157565763
 20
365.4830591368179
 30
0.0
 40
0.5999999999999998
100
AcDbArc
 50
183.1307000000028
 51
273.1306999999997
  0
LINE
  5
31D2
330
1A
100
AcDbEntity
  8
NOKI
370
     9
100
AcDbLine
 10
201.9503201725305
 20
473.1818450370645
 30
0.0
 11
204.6908760165252
 21
468.5487652863405
 31
0.0
  0
LINE
  5
31D3
330
1A
100
AcDbEntity
  8
NOKI
370
     9
100
AcDbLine
 10
206.9698255461062
 20
379.5546883504292
 30
0.0
 11
209.2792590892379
 21
384.6591252541949
 31
0.0
  0
LINE
  5
31D4
330
1A
100
AcDbEntity
  8
NOKI
370
     9
100
AcDbLine
 10
209.2792590892379
 20
384.6591252541949
 30
0.0
 11
204.6908760165252
 21
468.5487652863405
 31
0.0
  0
LINE
  5
31D5
330
1A
100
AcDbEntity
  8
NOKI
370
     9
100
AcDbLine
 10
207.9572840588968
 20
364.8839546064038
 30
0.0
 11
221.3148427235463
 21
365.6145525210706
 31
0.0
  0
LINE
  5
31D6
330
1A
100
AcDbEntity
  8
NOKI
370
     9
100
AcDbLine
 10
221.3148427235463
 20
310.5370285800526
 30
0.0
 11
221.3148427235463
 21
365.6145525210706
 31
0.0
  0
LINE
  5
31D7
330
1A
100
AcDbEntity
  8
NOKI
370
     9
100
AcDbLine
 10
211.9015314053708
 20
365.5002849306312
 30
0.0
 11
221.7148427235464
 21
366.0370285800535
 31
0.0
  0
LINE
  5
31D8
330
1A
100
AcDbEntity
  8
NOKI
370
     9
100
AcDbLine
 10
221.7148427235464
 20
310.5370285800526
 30
0.0
 11
221.7148427235464
 21
366.0370285800535
 31
0.0
  0
LINE
  5
31D9
330
1A
100
AcDbEntity
  8
NOKI
370
     9
100
AcDbLine
 10
207.9354385240165
 20
365.28335762668
 30
0.0
 11
238.8971105746508
 21
394.2879107640847
 31
0.0
  0
ARC
  5
31DA
330
1A
100
AcDbEntity
  8
NOKI
370
     9
100
AcDbCircle
 10
234.1114562168796
 20
399.3964832034204
 30
0.0
 40
7.0
100
AcDbArc
 50
313.1306999988607
 51
3.13070000000931
  0
LINE
  5
31DB
330
1A
100
AcDbEntity
  8
NOKI
370
     9
100
AcDbLine
 10
233.5680605828221
 20
492.4128271103156
 30
0.0
 11
200.6173114100316
 21
490.6105704826829
 31
0.0
  0
LINE
  5
31DC
330
1A
100
AcDbEntity
  8
NOKI
370
     9
100
AcDbLine
 10
235.4340024749211
 20
494.9184729063743
 30
0.0
 11
235.4558480098014
 21
494.5190698860981
 31
0.0
  0
LINE
  5
31DD
330
1A
100
AcDbEntity
  8
NOKI
370
     9
100
AcDbLine
 10
235.4558480098014
 20
494.5190698860981
 30
0.0
 11
201.1071882660445
 21
492.6403538863842
 31
0.0
  0
ARC
  5
31DE
330
1A
100
AcDbEntity
  8
NOKI
370
     9
100
AcDbCircle
 10
201.1181110334846
 20
492.4406523762463
 30
0.0
 40
0.2
100
AcDbArc
 50
93.13069999999944
 51
183.1307000000028
  0
LINE
  5
31DF
330
1A
100
AcDbEntity
  8
NOKI
370
     9
100
AcDbLine
 10
201.085342731164
 20
493.0397569066606
 30
0.0
 11
235.4340024749211
 21
494.9184729063743
 31
0.0
  0
ARC
  5
31E0
330
1A
100
AcDbEntity
  8
NOKI
370
     9
100
AcDbCircle
 10
201.1181110334846
 20
492.4406523762463
 30
0.0
 40
0.5999999999999998
100
AcDbArc
 50
93.13069999999944
 51
183.1307000000028
  0
ARC
  5
31E1
330
1A
100
AcDbEntity
  8
NOKI
370
     9
100
AcDbCircle
 10
233.6772882572241
 20
490.4158120089343
 30
0.0
 40
2.0
100
AcDbArc
 50
3.130700000002783
 51
93.13069999999944
  0
LINE
  5
31E2
330
1A
100
AcDbEntity
  8
NOKI
370
     9
100
AcDbLine
 10
200.9184095233458
 20
492.4297296088063
 30
0.0
 11
207.7248142464374
 21
365.4721363693776
 31
0.0
  0
LINE
  5
31E3
330
1A
100
AcDbEntity
  8
NOKI
370
     9
100
AcDbLine
 10
200.5190065030699
 20
492.407884073926
 30
0.0
 11
207.3254112261616
 21
365.4502908344974
 31
0.0
  0
LINE
  5
31E4
330
1A
100
AcDbEntity
  8
NOKI
370
     9
100
AcDbLine
 10
235.6743033586054
 20
490.5250396833364
 30
0.0
 11
241.1010090717141
 21
399.7787800638273
 31
0.0
  0
LINE
  5
31E5
330
1A
100
AcDbEntity
  8
NOKI
  6
DASHED2
370
     9
100
AcDbLine
 10
282.4352006910477
 20
236.7490643372042
 30
0.0
 11
282.8352006910482
 21
236.749064337204
 31
0.0
  0
LINE
  5
31E6
330
1A
100
AcDbEntity
  8
NOKI
  6
DASHED2
370
     9
100
AcDbLine
 10
282.8352006910482
 20
227.6490643372043
 30
0.0
 11
282.8352006910482
 21
236.7490643372042
 31
0.0
  0
LINE
  5
31E7
330
1A
100
AcDbEntity
  8
NOKI
  6
DASHED2
370
     9
100
AcDbLine
 10
282.4352006910477
 20
227.6490643372043
 30
0.0
 11
282.4352006910477
 21
236.7490643372042
 31
0.0
  0
ARC
  5
31E8
330
1A
100
AcDbEntity
  8
NOKI
370
     9
100
AcDbCircle
 10
269.9833171505993
 20
276.7400036624442
 30
0.0
 40
0.2
100
AcDbArc
 50
183.1307000000028
 51
273.1307000103186
  0
LINE
  5
31E9
330
1A
100
AcDbEntity
  8
NOKI
370
     9
100
AcDbLine
 10
269.9942399180396
 20
276.5403021523062
 30
0.0
 11
273.9603327993939
 21
276.7572294562574
 31
0.0
  0
ARC
  5
31EA
330
1A
100
AcDbEntity
  8
NOKI
370
     9
100
AcDbCircle
 10
269.9833171505993
 20
276.7400036624442
 30
0.0
 40
0.5999999999999998
100
AcDbArc
 50
183.1307000000028
 51
273.1306999999997
  0
LINE
  5
31EB
330
1A
100
AcDbEntity
  8
NOKI
  6
DASHED2
100
AcDbLine
 10
263.9606375542715
 20
384.520754794682
 30
0.0
 11
266.7496774105481
 21
379.8057098119666
 31
0.0
  0
LINE
  5
31EC
330
1A
100
AcDbEntity
  8
NOKI
370
     9
100
AcDbLine
 10
269.0234811932662
 20
290.8002594636164
 30
0.0
 11
271.3380604832609
 21
295.9160697798213
 31
0.0
  0
LINE
  5
31ED
330
1A
100
AcDbEntity
  8
NOKI
370
     9
100
AcDbLine
 10
271.3380604832609
 20
295.9160697798213
 30
0.0
 11
266.7496774105481
 21
379.8057098119666
 31
0.0
  0
LINE
  5
31EE
330
1A
100
AcDbEntity
  8
NOKI
370
     9
100
AcDbLine
 10
270.0160854529199
 20
276.1408991320298
 30
0.0
 11
281.0352006910476
 21
276.7435947904628
 31
0.0
  0
LINE
  5
31EF
330
1A
100
AcDbEntity
  8
NOKI
370
     9
100
AcDbLine
 10
281.0352006910476
 20
227.6490643372043
 30
0.0
 11
281.0352006910476
 21
276.7435947904628
 31
0.0
  0
LINE
  5
31F0
330
1A
100
AcDbEntity
  8
NOKI
370
     9
100
AcDbLine
 10
273.9603327993939
 20
276.7572294562574
 30
0.0
 11
281.4352006910477
 21
277.1660708494458
 31
0.0
  0
LINE
  5
31F1
330
1A
100
AcDbEntity
  8
NOKI
370
     9
100
AcDbLine
 10
281.4352006910476
 20
227.6490643372043
 30
0.0
 11
281.4352006910477
 21
277.1660708494458
 31
0.0
  0
LINE
  5
31F2
330
1A
100
AcDbEntity
  8
NOKI
370
     9
100
AcDbLine
 10
269.9942399180395
 20
276.5403021523062
 30
0.0
 11
300.9559119686738
 21
305.544855289711
 31
0.0
  0
ARC
  5
31F3
330
1A
100
AcDbEntity
  8
NOKI
370
     9
100
AcDbCircle
 10
296.1702576109027
 20
310.6534277290464
 30
0.0
 40
7.0
100
AcDbArc
 50
313.1306999988607
 51
3.13070000000931
  0
LINE
  5
31F4
330
1A
100
AcDbEntity
  8
NOKI
370
     9
100
AcDbLine
 10
295.0896138844715
 20
412.6537220191105
 30
0.0
 11
262.138864711681
 21
410.8514653914784
 31
0.0
  0
LINE
  5
31F5
330
1A
100
AcDbEntity
  8
NOKI
370
     9
100
AcDbLine
 10
296.9555557765705
 20
415.1593678151696
 30
0.0
 11
296.9774013114509
 21
414.7599647948933
 31
0.0
  0
LINE
  5
31F6
330
1A
100
AcDbEntity
  8
NOKI
370
     9
100
AcDbLine
 10
296.9774013114509
 20
414.7599647948933
 30
0.0
 11
262.6287415676939
 21
412.8812487951795
 31
0.0
  0
ARC
  5
31F7
330
1A
100
AcDbEntity
  8
NOKI
370
     9
100
AcDbCircle
 10
262.6396643351339
 20
412.6815472850416
 30
0.0
 40
0.2
100
AcDbArc
 50
93.13069999999944
 51
183.1307000000028
  0
LINE
  5
31F8
330
1A
100
AcDbEntity
  8
NOKI
370
     9
100
AcDbLine
 10
262.6068960328134
 20
413.2806518154557
 30
0.0
 11
296.9555557765705
 21
415.1593678151694
 31
0.0
  0
ARC
  5
31F9
330
1A
100
AcDbEntity
  8
NOKI
370
     9
100
AcDbCircle
 10
262.6396643351339
 20
412.6815472850416
 30
0.0
 40
0.5999999999999998
100
AcDbArc
 50
93.13069999999944
 51
183.1307000000028
  0
ARC
  5
31FA
330
1A
100
AcDbEntity
  8
NOKI
370
     9
100
AcDbCircle
 10
295.1988415588735
 20
410.6567069177292
 30
0.0
 40
2.0
100
AcDbArc
 50
3.130700000002783
 51
93.13069999999944
  0
LINE
  5
31FB
330
1A
100
AcDbEntity
  8
NOKI
370
     9
100
AcDbLine
 10
262.4399628249952
 20
412.6706245176015
 30
0.0
 11
269.7836156404605
 21
276.7290808950038
 31
0.0
  0
LINE
  5
31FC
330
1A
100
AcDbEntity
  8
NOKI
370
     9
100
AcDbLine
 10
262.0405598047192
 20
412.6487789827208
 30
0.0
 11
269.3842126201847
 21
276.7072353601234
 31
0.0
  0
LINE
  5
31FD
330
1A
100
AcDbEntity
  8
NOKI
370
     9
100
AcDbLine
 10
297.1958566602548
 20
410.7659345921311
 30
0.0
 11
303.1598104657371
 21
311.0357245894534
 31
0.0
  0
LINE
  5
31FE
330
1A
100
AcDbEntity
  8
NOKI
370
     9
100
AcDbLine
 10
223.9148427235468
 20
365.5032038057338
 30
0.0
 11
223.1148427235468
 21
365.5032038057338
 31
0.0
  0
LINE
  5
31FF
330
1A
100
AcDbEntity
  8
NOKI
370
     9
100
AcDbLine
 10
223.1148427235469
 20
266.3032038057338
 30
0.0
 11
223.1148427235468
 21
365.5032038057338
 31
0.0
  0
ARC
  5
3200
330
1A
100
AcDbEntity
  8
NOKI
370
     9
100
AcDbCircle
 10
223.9148427235468
 20
266.3032038057338
 30
0.0
 40
0.8
100
AcDbArc
 50
180.0
 51
270.0000000000002
  0
LINE
  5
3201
330
1A
100
AcDbEntity
  8
NOKI
370
     9
100
AcDbLine
 10
223.9148427235468
 20
266.3032038057338
 30
0.0
 11
223.9148427235468
 21
365.5032038057338
 31
0.0
  0
LINE
  5
3202
330
1A
100
AcDbEntity
  8
NOKI
370
     9
100
AcDbLine
 10
274.1507361504956
 20
265.5032038057341
 30
0.0
 11
223.9148427235468
 21
265.5032038057338
 31
0.0
  0
LINE
  5
3203
330
1A
100
AcDbEntity
  8
NOKI
370
     9
100
AcDbLine
 10
274.1507361504955
 20
266.303203805734
 30
0.0
 11
223.9148427235468
 21
266.3032038057338
 31
0.0
  0
ARC
  5
3204
330
1A
100
AcDbEntity
  8
NOKI
370
     9
100
AcDbCircle
 10
274.1507361504955
 20
265.5032038057341
 30
0.0
 40
0.8
100
AcDbArc
 50
0.0
 51
90.00000000000019
  0
LINE
  5
3205
330
1A
100
AcDbEntity
  8
NOKI
370
     9
100
AcDbLine
 10
274.1507361504956
 20
180.5032038057344
 30
0.0
 11
274.1507361504956
 21
265.5032038057341
 31
0.0
  0
LINE
  5
3206
330
1A
100
AcDbEntity
  8
NOKI
370
     9
100
AcDbLine
 10
274.9507361504957
 20
180.5824194166078
 30
0.0
 11
274.9507361504955
 21
265.5032038057341
 31
0.0
  0
LINE
  5
3207
330
1A
100
AcDbEntity
  8
NOKI
100
AcDbLine
 10
252.4490807569186
 20
274.1181972814588
 30
0.0
 11
243.2739466026659
 21
441.8674652776306
 31
0.0
  0
LINE
  5
3208
330
1A
100
AcDbEntity
  8
NOKI
370
     9
100
AcDbLine
 10
274.1507361504956
 20
180.5032038057344
 30
0.0
 11
277.0507361504958
 21
165.5032038057338
 31
0.0
  0
LINE
  5
3209
330
1A
100
AcDbEntity
  8
NOKI
370
     9
100
AcDbLine
 10
274.9507361504957
 20
180.5824194166078
 30
0.0
 11
277.8352006910485
 21
165.6600967138444
 31
0.0
  0
LINE
  5
320A
330
1A
100
AcDbEntity
  8
NOKI
370
     9
100
AcDbLine
 10
277.0507361504958
 20
165.5032038057338
 30
0.0
 11
277.8352006910485
 21
165.6600967138444
 31
0.0
  0
LINE
  5
320B
330
1A
100
AcDbEntity
  8
SITAJI
100
AcDbLine
 10
503.0948592662126
 20
275.2592961588831
 30
0.0
 11
593.0948592662124
 21
275.2592961588839
 31
0.0
  0
LINE
  5
320C
330
1A
100
AcDbEntity
  8
SITAJI
100
AcDbLine
 10
503.0948592662126
 20
272.9592961588836
 30
0.0
 11
593.0948592662124
 21
272.9592961588839
 31
0.0
  0
LINE
  5
320D
330
1A
100
AcDbEntity
  8
SITAJI
100
AcDbLine
 10
503.0948592662126
 20
275.2592961588831
 30
0.0
 11
593.0948592662124
 21
275.2592961588839
 31
0.0
  0
LINE
  5
320E
330
1A
100
AcDbEntity
  8
SITAJI
100
AcDbLine
 10
503.0948592662126
 20
272.9592961588836
 30
0.0
 11
593.0948592662124
 21
272.9592961588839
 31
0.0
  0
LINE
  5
320F
330
1A
100
AcDbEntity
  8
SITAJI
100
AcDbLine
 10
503.0948592662126
 20
225.2592961588842
 30
0.0
 11
518.0948592662129
 21
225.2592961588842
 31
0.0
  0
LINE
  5
3210
330
1A
100
AcDbEntity
  8
SITAJI
100
AcDbLine
 10
578.0948592662127
 20
225.2592961588839
 30
0.0
 11
593.0948592662128
 21
225.2592961588838
 31
0.0
  0
LINE
  5
3211
330
1A
100
AcDbEntity
  8
SITAJI
100
AcDbLine
 10
503.0948592662126
 20
227.5592961588837
 30
0.0
 11
518.0948592662129
 21
227.5592961588838
 31
0.0
  0
LINE
  5
3212
330
1A
100
AcDbEntity
  8
SITAJI
100
AcDbLine
 10
578.0948592662127
 20
227.5592961588838
 30
0.0
 11
593.0948592662128
 21
227.5592961588838
 31
0.0
  0
LINE
  5
3213
330
1A
100
AcDbEntity
  8
SITAJI
100
AcDbLine
 10
500.3948592662124
 20
230.2592961588838
 30
0.0
 11
500.3948592662124
 21
270.2592961588836
 31
0.0
  0
LINE
  5
3214
330
1A
100
AcDbEntity
  8
SITAJI
100
AcDbLine
 10
498.0948592662127
 20
230.2592961588838
 30
0.0
 11
498.0948592662127
 21
270.2592961588836
 31
0.0
  0
LINE
  5
3215
330
1A
100
AcDbEntity
  8
SITAJI
100
AcDbLine
 10
518.0948592662129
 20
225.2592961588841
 30
0.0
 11
518.0948592662129
 21
227.5592961588837
 31
0.0
  0
ARC
  5
3216
330
1A
100
AcDbEntity
  8
SITAJI
100
AcDbCircle
 10
503.0948592662126
 20
230.2592961588838
 30
0.0
 40
2.7
100
AcDbArc
 50
180.0
 51
270.0
  0
ARC
  5
3217
330
1A
100
AcDbEntity
  8
SITAJI
100
AcDbCircle
 10
503.0948592662126
 20
230.2592961588838
 30
0.0
 40
5.0
100
AcDbArc
 50
180.0
 51
270.0
  0
ARC
  5
3218
330
1A
100
AcDbEntity
  8
SITAJI
100
AcDbCircle
 10
503.0948592662126
 20
270.2592961588836
 30
0.0
 40
2.7
100
AcDbArc
 50
90.0
 51
180.0
  0
ARC
  5
3219
330
1A
100
AcDbEntity
  8
SITAJI
100
AcDbCircle
 10
503.0948592662126
 20
270.2592961588836
 30
0.0
 40
5.0
100
AcDbArc
 50
90.0
 51
180.0
  0
LINE
  5
321A
330
1A
100
AcDbEntity
  8
SITAJI
370
     9
100
AcDbLine
 10
498.0948592662127
 20
244.6201491002591
 30
0.0
 11
500.3948592662128
 21
246.9201491002591
 31
0.0
  0
LINE
  5
321B
330
1A
100
AcDbEntity
  8
SITAJI
370
     9
100
AcDbLine
 10
498.0948592662128
 20
249.1102791002591
 30
0.0
 11
500.3948592662128
 21
251.4102791002592
 31
0.0
  0
LINE
  5
321C
330
1A
100
AcDbEntity
  8
SITAJI
370
     9
100
AcDbLine
 10
521.9438763248354
 20
272.9592961588839
 30
0.0
 11
524.2438763248351
 21
275.2592961588839
 31
0.0
  0
LINE
  5
321D
330
1A
100
AcDbEntity
  8
SITAJI
370
     9
100
AcDbLine
 10
526.4340063248388
 20
272.9592961588839
 30
0.0
 11
528.7340063248391
 21
275.2592961588838
 31
0.0
  0
LINE
  5
321E
330
1A
100
AcDbEntity
  8
SITAJI
370
     9
100
AcDbLine
 10
572.1614858124502
 20
272.9592961588839
 30
0.0
 11
574.4614858124503
 21
275.2592961588841
 31
0.0
  0
LINE
  5
321F
330
1A
100
AcDbEntity
  8
SITAJI
370
     9
100
AcDbLine
 10
576.6516158124502
 20
272.9592961588839
 30
0.0
 11
578.95161581245
 21
275.259296158884
 31
0.0
  0
LINE
  5
3220
330
1A
100
AcDbEntity
  8
SITAJI
100
AcDbLine
 10
595.7948592662128
 20
230.2592961588839
 30
0.0
 11
595.7948592662126
 21
270.2592961588838
 31
0.0
  0
LINE
  5
3221
330
1A
100
AcDbEntity
  8
SITAJI
100
AcDbLine
 10
598.0948592662127
 20
230.2592961588839
 30
0.0
 11
598.0948592662127
 21
270.2592961588838
 31
0.0
  0
LINE
  5
3222
330
1A
100
AcDbEntity
  8
SITAJI
100
AcDbLine
 10
578.0948592662127
 20
225.2592961588839
 30
0.0
 11
578.0948592662127
 21
227.5592961588838
 31
0.0
  0
ARC
  5
3223
330
1A
100
AcDbEntity
  8
SITAJI
100
AcDbCircle
 10
593.0948592662128
 20
230.2592961588839
 30
0.0
 40
5.0
100
AcDbArc
 50
270.0
 51
0.0
  0
ARC
  5
3224
330
1A
100
AcDbEntity
  8
SITAJI
100
AcDbCircle
 10
593.0948592662128
 20
230.2592961588839
 30
0.0
 40
2.7
100
AcDbArc
 50
270.0
 51
0.0
  0
LINE
  5
3225
330
1A
100
AcDbEntity
  8
SITAJI
370
     9
100
AcDbLine
 10
586.4970797776677
 20
225.2592961588838
 30
0.0
 11
588.7970797776675
 21
227.5592961588838
 31
0.0
  0
LINE
  5
3226
330
1A
100
AcDbEntity
  8
SITAJI
370
     9
100
AcDbLine
 10
595.7948592662128
 20
234.5570756474292
 30
0.0
 11
598.0948592662127
 21
236.8570756474292
 31
0.0
  0
LINE
  5
3227
330
1A
100
AcDbEntity
  8
SITAJI
370
     9
100
AcDbLine
 10
582.0069497776682
 20
225.2592961588839
 30
0.0
 11
584.3069497776682
 21
227.559296158884
 31
0.0
  0
ARC
  5
3228
330
1A
100
AcDbEntity
  8
SITAJI
100
AcDbCircle
 10
593.0948592662124
 20
270.2592961588838
 30
0.0
 40
2.7
100
AcDbArc
 50
0.0
 51
90.0
  0
ARC
  5
3229
330
1A
100
AcDbEntity
  8
SITAJI
100
AcDbCircle
 10
593.0948592662124
 20
270.2592961588838
 30
0.0
 40
5.0
100
AcDbArc
 50
0.0
 51
90.0
  0
LINE
  5
322A
330
1A
100
AcDbEntity
  8
SITAJI
370
     9
100
AcDbLine
 10
595.794859266213
 20
239.0472056474291
 30
0.0
 11
598.094859266213
 21
241.3472056474291
 31
0.0
  0
LINE
  5
326F
330
1A
100
AcDbEntity
  8
SITAJI
100
AcDbLine
 10
352.9352006910498
 20
70.25929615888424
 30
0.0
 11
352.9352006910499
 21
150.2592961588845
 31
0.0
  0
LINE
  5
3270
330
1A
100
AcDbEntity
  8
SITAJI
  6
DASHED2
100
AcDbLine
 10
372.9352006910498
 20
70.25929615888424
 30
0.0
 11
372.9352006910501
 21
150.2592961588843
 31
0.0
  0
LINE
  5
3271
330
1A
100
AcDbEntity
  8
SITAJI
100
AcDbLine
 10
452.9352006910499
 20
70.25929615888424
 30
0.0
 11
452.9352006910499
 21
150.259296158884
 31
0.0
  0
LINE
  5
3272
330
1A
100
AcDbEntity
  8
SITAJI
  6
DASHED2
100
AcDbLine
 10
432.9352006910498
 20
70.25929615888424
 30
0.0
 11
432.9352006910498
 21
150.2592961588841
 31
0.0
  0
LINE
  5
3317
330
1A
100
AcDbEntity
  8
SEIHIN
 62
     7
100
AcDbLine
 10
291.5852006910478
 20
228.270140031836
 30
0.0
 11
291.5852006910478
 21
232.2701400318324
 31
0.0
  0
LINE
  5
3318
330
1A
100
AcDbEntity
  8
SEIHIN
 62
     7
100
AcDbLine
 10
295.8352006910478
 20
228.270140031836
 30
0.0
 11
295.8352006910478
 21
227.270140031836
 31
0.0
  0
LINE
  5
3319
330
1A
100
AcDbEntity
  8
SEIHIN
 62
     7
100
AcDbLine
 10
288.3352006910486
 20
212.2701399737946
 30
0.0
 11
352.3352006910496
 21
212.2701399737884
 31
0.0
  0
LINE
  5
331A
330
1A
100
AcDbEntity
  8
SEIHIN
 62
     7
100
AcDbLine
 10
337.3352006910478
 20
228.270140031836
 30
0.0
 11
337.3352006910478
 21
227.2701400318324
 31
0.0
  0
DIMENSION
  5
3338
330
1A
100
AcDbEntity
  8
SUNPOU
100
AcDbDimension
280
     0
  2
*D4
 10
352.8352006910489
 20
40.25929615888425
 30
0.0
 11
315.3352006910489
 21
40.25929615888425
 31
0.0
 70
   160
 71
     5
 42
75.0000000000001
 73
     0
 74
     0
 75
     0
  3
STANDARD
100
AcDbAlignedDimension
 13
277.8352006910487
 23
70.25929615888424
 33
0.0
 14
352.8352006910489
 24
70.25929615888424
 34
0.0
100
AcDbRotatedDimension
1001
ACAD
1000
DSTYLE
1002
{
1070
    41
1040
1.5
1070
   173
1070
     1
1070
   342
1005
0
1070
   343
1005
14C3
1070
   344
1005
14C3
1002
}
  0
DIMENSION
  5
3339
330
1A
100
AcDbEntity
  8
SUNPOU
100
AcDbDimension
280
     0
  2
*D5
 10
452.9352006910486
 20
40.25929615888425
 30
0.0
 11
402.9352006910486
 21
40.25929615888425
 31
0.0
 70
   160
 71
     5
 42
99.99999999999987
 73
     0
 74
     0
 75
     0
  3
STANDARD
100
AcDbAlignedDimension
 13
352.9352006910488
 23
70.25929615888424
 33
0.0
 14
452.9352006910486
 24
70.25929615888424
 34
0.0
100
AcDbRotatedDimension
1001
ACAD
1000
DSTYLE
1002
{
1070
    41
1040
1.5
1070
   173
1070
     1
1070
   342
1005
0
1070
   343
1005
14C3
1070
   344
1005
14C3
1002
}
  0
LINE
  5
333A
330
1A
100
AcDbEntity
  8
SEIHIN
100
AcDbLine
 10
352.3352006910487
 20
212.2701399737884
 30
0.0
 11
287.8352006910477
 21
212.2701399737946
 31
0.0
  0
HATCH
  5
333B
330
1A
100
AcDbEntity
  8
SEIHIN
 62
     7
370
     9
100
AcDbHatch
 10
0.0
 20
0.0
 30
0.0
210
0.0
220
0.0
230
1.0
  2
ANSI38
 70
     0
 71
     0
 91
        1
 92
        1
 93
        8
 72
     1
 10
341.5852006910469
 20
232.2701400318324
 11
341.5852006910478
 21
228.270140031836
 72
     1
 10
341.5852006910478
 20
228.270140031836
 11
337.3352006910478
 21
228.270140031836
 72
     1
 10
337.3352006910478
 20
228.270140031836
 11
337.3352006910478
 21
227.2701400318338
 72
     1
 10
337.3352006910478
 20
227.2701400318339
 11
295.8352006910478
 21
227.2701400318378
 72
     1
 10
295.8352006910478
 20
227.2701400318378
 11
295.8352006910478
 21
228.2701400318361
 72
     1
 10
295.8352006910478
 20
228.270140031836
 11
291.5852006910478
 21
228.270140031836
 72
     1
 10
291.5852006910478
 20
228.270140031836
 11
291.5852006910478
 21
232.2701400318324
 72
     1
 10
291.5852006910478
 20
232.2701400318324
 11
341.5852006910469
 21
232.2701400318324
 97
        0
 75
     0
 76
     1
 52
90.0
 41
1.0
 77
     0
 78
     2
 53
135.0
 43
437.3160141172536
 44
6.903126567168781
 45
-2.245064030267287
 46
-2.245064030267287
 79
     0
 53
225.0
 43
437.3160141172536
 44
6.903126567168781
 45
-2.245064030267287
 46
-6.735192090801862
 79
     2
 49
7.9375
 49
-4.7625
 98
        1
 10
301.4739607019381
 20
229.9342624890451
1001
ACAD
1010
0.0
1020
0.0
1030
0.0
  0
LINE
  5
333C
330
1A
100
AcDbEntity
  8
SEIHIN
 62
     7
100
AcDbLine
 10
341.5852006910478
 20
228.270140031836
 30
0.0
 11
341.5852006910478
 21
232.2701400318324
 31
0.0
  0
LINE
  5
333D
330
1A
100
AcDbEntity
  8
SEIHIN
 62
     7
100
AcDbLine
 10
291.5852006910478
 20
232.2701400318324
 30
0.0
 11
341.5852006910478
 21
232.2701400318324
 31
0.0
  0
LINE
  5
333E
330
1A
100
AcDbEntity
  8
SEIHIN
 62
     7
100
AcDbLine
 10
316.5935601910484
 20
227.2701400318324
 30
0.0
 11
341.3352006910487
 21
227.2701400318324
 31
0.0
  0
LINE
  5
333F
330
1A
100
AcDbEntity
  8
SEIHIN
100
AcDbLine
 10
341.6352006910488
 20
227.770140031836
 30
0.0
 11
337.3352006910478
 21
227.770140031836
 31
0.0
  0
ARC
  5
3340
330
1A
100
AcDbEntity
  8
SEIHIN
100
AcDbCircle
 10
341.6352006910488
 20
228.9701400318331
 30
0.0
 40
1.199999999999999
100
AcDbArc
 50
270.0
 51
0.0
  0
LINE
  5
3341
330
1A
100
AcDbEntity
  8
SEIHIN
100
AcDbLine
 10
342.8352006910478
 20
244.0701400318389
 30
0.0
 11
342.8352006910478
 21
228.9701400318331
 31
0.0
  0
ARC
  5
3342
330
1A
100
AcDbEntity
  8
SEIHIN
100
AcDbCircle
 10
343.5352006910487
 20
244.0701400318389
 30
0.0
 40
0.7000000000000001
100
AcDbArc
 50
89.99999999994789
 51
180.0
  0
LINE
  5
3343
330
1A
100
AcDbEntity
  8
SEIHIN
100
AcDbLine
 10
343.5352006910487
 20
244.7701400318361
 30
0.0
 11
345.2987649067598
 21
244.7701400318361
 31
0.0
  0
ARC
  5
3344
330
1A
100
AcDbEntity
  8
SEIHIN
100
AcDbCircle
 10
341.6352006910488
 20
228.9701400318331
 30
0.0
 40
0.7000000000000001
100
AcDbArc
 50
270.0
 51
0.0
  0
ARC
  5
3345
330
1A
100
AcDbEntity
  8
SEIHIN
100
AcDbCircle
 10
343.5352006910487
 20
244.0701400318389
 30
0.0
 40
1.199999999999999
100
AcDbArc
 50
89.99999999994789
 51
180.0
  0
LINE
  5
3346
330
1A
100
AcDbEntity
  8
SEIHIN
100
AcDbLine
 10
337.3352006910478
 20
228.270140031836
 30
0.0
 11
337.3352006910478
 21
227.770140031836
 31
0.0
  0
LINE
  5
3347
330
1A
100
AcDbEntity
  8
SEIHIN
100
AcDbLine
 10
341.6352006910488
 20
228.270140031836
 30
0.0
 11
337.3352006910478
 21
228.270140031836
 31
0.0
  0
LINE
  5
3348
330
1A
100
AcDbEntity
  8
SEIHIN
100
AcDbLine
 10
342.3352006910478
 20
244.0701400318389
 30
0.0
 11
342.3352006910478
 21
228.9701400318331
 31
0.0
  0
ARC
  5
3349
330
1A
100
AcDbEntity
  8
SEIHIN
100
AcDbCircle
 10
345.2987649067587
 20
244.0701400318353
 30
0.0
 40
0.7000000000000001
100
AcDbArc
 50
8.365886124001107
 51
89.99999999994789
  0
LINE
  5
334A
330
1A
100
AcDbEntity
  8
SEIHIN
100
AcDbLine
 10
348.2525572694464
 20
228.79554724324
 30
0.0
 11
345.9913163015141
 21
244.1719858251813
 31
0.0
  0
ARC
  5
334B
330
1A
100
AcDbEntity
  8
SEIHIN
100
AcDbCircle
 10
349.4397882318842
 20
228.9701400318331
 30
0.0
 40
1.199999999999999
100
AcDbArc
 50
188.3658861240011
 51
270.0
  0
LINE
  5
334C
330
1A
100
AcDbEntity
  8
SEIHIN
100
AcDbLine
 10
349.4397882318842
 20
227.7701400318324
 30
0.0
 11
351.8352006910486
 21
227.770140031836
 31
0.0
  0
ARC
  5
334D
330
1A
100
AcDbEntity
  8
SEIHIN
100
AcDbCircle
 10
345.2987649067587
 20
244.0701400318353
 30
0.0
 40
1.199999999999999
100
AcDbArc
 50
8.365886124001107
 51
89.99999999994789
  0
ARC
  5
334E
330
1A
100
AcDbEntity
  8
SEIHIN
100
AcDbCircle
 10
349.4397882318842
 20
228.9701400318331
 30
0.0
 40
0.7000000000000001
100
AcDbArc
 50
188.3658861240011
 51
270.0
  0
LINE
  5
334F
330
1A
100
AcDbEntity
  8
SEIHIN
100
AcDbLine
 10
348.7472368371286
 20
228.8682942384871
 30
0.0
 11
346.4859958691965
 21
244.2447328204285
 31
0.0
  0
LINE
  5
3350
330
1A
100
AcDbEntity
  8
SEIHIN
100
AcDbLine
 10
343.5352006910495
 20
245.270140031836
 30
0.0
 11
345.2987649067598
 21
245.270140031836
 31
0.0
  0
ARC
  5
3351
330
1A
100
AcDbEntity
  8
SEIHIN
100
AcDbCircle
 10
351.8352006910478
 20
227.270140031836
 30
0.0
 40
0.5000000000000001
100
AcDbArc
 50
0.0
 51
90.0
  0
ARC
  5
3352
330
1A
100
AcDbEntity
  8
SEIHIN
100
AcDbCircle
 10
351.8352006910478
 20
227.270140031836
 30
0.0
 40
1.0
100
AcDbArc
 50
0.0
 51
90.0
  0
LINE
  5
3353
330
1A
100
AcDbEntity
  8
SEIHIN
100
AcDbLine
 10
349.4397882318842
 20
228.2701400318324
 30
0.0
 11
351.8352006910478
 21
228.270140031836
 31
0.0
  0
POINT
  5
3354
330
1A
100
AcDbEntity
  8
SEIHIN
100
AcDbPoint
 10
345.3352006910478
 20
245.270140031836
 30
0.0
 50
89.99999999999998
  0
POINT
  5
3355
330
1A
100
AcDbEntity
  8
SEIHIN
100
AcDbPoint
 10
287.3352006910478
 20
226.7608999394139
 30
0.0
 50
89.99999999999998
  0
LINE
  5
3356
330
1A
100
AcDbEntity
  8
SEIHIN
100
AcDbLine
 10
278.5895318794242
 20
193.5718725071856
 30
0.0
 11
282.3951741644965
 21
195.0941294212131
 31
0.0
  0
LINE
  5
3357
330
1A
100
AcDbEntity
  8
SEIHIN
100
AcDbLine
 10
282.8352006910478
 20
195.7440631048335
 30
0.0
 11
282.8352006910478
 21
207.6279195216517
 31
0.0
  0
LINE
  5
3358
330
1A
100
AcDbEntity
  8
SEIHIN
100
AcDbLine
 10
283.3695604555773
 20
208.6263798748583
 30
0.0
 11
287.0234908284052
 21
211.0623334567387
 31
0.0
  0
ARC
  5
3359
330
1A
100
AcDbEntity
  8
SEIHIN
100
AcDbCircle
 10
279.0352006910485
 20
192.4577004781237
 30
0.0
 40
1.199999999999999
100
AcDbArc
 50
111.8014094863425
 51
180.0
  0
ARC
  5
335A
330
1A
100
AcDbEntity
  8
SEIHIN
100
AcDbCircle
 10
284.0352006910476
 20
207.6279195216517
 30
0.0
 40
1.199999999999999
100
AcDbArc
 50
123.6900675259139
 51
180.0
  0
ARC
  5
335B
330
1A
100
AcDbEntity
  8
SEIHIN
100
AcDbCircle
 10
282.1352006910488
 20
195.7440631048335
 30
0.0
 40
0.7000000000000001
100
AcDbArc
 50
291.8014094863425
 51
0.0
  0
ARC
  5
335C
330
1A
100
AcDbEntity
  8
SEIHIN
100
AcDbCircle
 10
286.6352006910489
 20
211.6447686627759
 30
0.0
 40
0.7000000000000001
100
AcDbArc
 50
303.6900675259139
 51
0.0
  0
ARC
  5
335D
330
1A
100
AcDbEntity
  8
SEIHIN
100
AcDbCircle
 10
279.0352006910485
 20
192.4577004781237
 30
0.0
 40
0.7000000000000001
100
AcDbArc
 50
111.8014094863425
 51
180.0
  0
LINE
  5
335E
330
1A
100
AcDbEntity
  8
SEIHIN
100
AcDbLine
 10
278.7752272175999
 20
193.1076341617405
 30
0.0
 11
282.5808695026731
 21
194.629891075772
 31
0.0
  0
ARC
  5
335F
330
1A
100
AcDbEntity
  8
SEIHIN
100
AcDbCircle
 10
282.1352006910488
 20
195.7440631048335
 30
0.0
 40
1.199999999999999
100
AcDbArc
 50
291.8014094863425
 51
0.0
  0
LINE
  5
3360
330
1A
100
AcDbEntity
  8
SEIHIN
100
AcDbLine
 10
283.3352006910478
 20
195.7440631048335
 30
0.0
 11
283.3352006910478
 21
207.6279195216517
 31
0.0
  0
ARC
  5
3361
330
1A
100
AcDbEntity
  8
SEIHIN
100
AcDbCircle
 10
284.0352006910476
 20
207.6279195216517
 30
0.0
 40
0.7000000000000001
100
AcDbArc
 50
123.6900675259139
 51
180.0
  0
LINE
  5
3362
330
1A
100
AcDbEntity
  8
SEIHIN
100
AcDbLine
 10
283.6469105536904
 20
208.2103547276889
 30
0.0
 11
287.3008409265182
 21
210.6463083095692
 31
0.0
  0
ARC
  5
3363
330
1A
100
AcDbEntity
  8
SEIHIN
100
AcDbCircle
 10
286.6352006910489
 20
211.6447686627759
 30
0.0
 40
1.199999999999999
100
AcDbArc
 50
303.6900675259139
 51
0.0
  0
LINE
  5
3364
330
1A
100
AcDbEntity
  8
SEIHIN
 62
     7
100
AcDbLine
 10
352.3352006910487
 20
212.270140031836
 30
0.0
 11
352.3352006910487
 21
227.270140031836
 31
0.0
  0
LINE
  5
3365
330
1A
100
AcDbEntity
  8
SEIHIN
 62
     7
100
AcDbLine
 10
352.3352006910487
 20
227.2701400318324
 30
0.0
 11
288.3352006910487
 21
227.2701400318384
 31
0.0
  0
LINE
  5
3366
330
1A
100
AcDbEntity
  8
SEIHIN
 62
     7
100
AcDbLine
 10
288.3352006910487
 20
227.2701400318362
 30
0.0
 11
288.3352006910487
 21
212.2701400318362
 31
0.0
  0
LINE
  5
3367
330
1A
100
AcDbEntity
  8
SEIHIN
100
AcDbLine
 10
287.3008409265182
 20
228.8939717541031
 30
0.0
 11
283.6469105536905
 21
231.3299253359834
 31
0.0
  0
ARC
  5
3368
330
1A
100
AcDbEntity
  8
SEIHIN
100
AcDbCircle
 10
286.6352006910489
 20
227.8955114008965
 30
0.0
 40
1.199999999999999
100
AcDbArc
 50
0.0
 51
56.30993247408611
  0
ARC
  5
3369
330
1A
100
AcDbEntity
  8
SEIHIN
100
AcDbCircle
 10
286.6352006910489
 20
227.8955114008965
 30
0.0
 40
0.7000000000000001
100
AcDbArc
 50
0.0
 51
56.30993247408611
  0
LINE
  5
336A
330
1A
100
AcDbEntity
  8
SEIHIN
100
AcDbLine
 10
287.0234908284062
 20
228.4779466069336
 30
0.0
 11
283.3695604555775
 21
230.9139001888139
 31
0.0
  0
ARC
  5
336B
330
1A
100
AcDbEntity
  8
SEIHIN
100
AcDbCircle
 10
284.0352006910476
 20
231.9123605420206
 30
0.0
 40
0.7000000000000001
100
AcDbArc
 50
180.0
 51
236.3099324740861
  0
ARC
  5
336C
330
1A
100
AcDbEntity
  8
SEIHIN
100
AcDbCircle
 10
284.0352006910476
 20
231.9123605420206
 30
0.0
 40
1.199999999999999
100
AcDbArc
 50
180.0
 51
236.3099324740861
  0
LINE
  5
336D
330
1A
100
AcDbEntity
  8
SEIHIN
100
AcDbLine
 10
283.3352006910478
 20
231.9123605420206
 30
0.0
 11
283.3352006910488
 21
243.0380154335468
 31
0.0
  0
LINE
  5
336E
330
1A
100
AcDbEntity
  8
SEIHIN
100
AcDbLine
 10
282.8352006910478
 20
231.9123605420206
 30
0.0
 11
282.8352006910487
 21
243.0380154335468
 31
0.0
  0
ARC
  5
336F
330
1A
100
AcDbEntity
  8
SEIHIN
100
AcDbCircle
 10
285.0673252893353
 20
243.0380154335468
 30
0.0
 40
1.732124598286544
100
AcDbArc
 50
13.24051991533136
 51
180.0
  0
ARC
  5
3370
330
1A
100
AcDbEntity
  8
SEIHIN
100
AcDbCircle
 10
285.0673252893353
 20
243.0380154335468
 30
0.0
 40
2.232124598286544
100
AcDbArc
 50
13.24051991533136
 51
180.0
  0
LINE
  5
3371
330
1A
100
AcDbEntity
  8
SEIHIN
100
AcDbLine
 10
286.7534051109993
 20
243.434740097469
 30
0.0
 11
290.2215103500827
 21
228.6952928313655
 31
0.0
  0
LINE
  5
3372
330
1A
100
AcDbEntity
  8
SEIHIN
100
AcDbLine
 10
287.2401136951663
 20
243.5492597643312
 30
0.0
 11
290.7082189342497
 21
228.8098124982312
 31
0.0
  0
LINE
  5
3373
330
1A
100
AcDbEntity
  8
SEIHIN
100
AcDbLine
 10
291.3896109520825
 20
227.770140031836
 30
0.0
 11
295.8352006910478
 21
227.770140031836
 31
0.0
  0
ARC
  5
3374
330
1A
100
AcDbEntity
  8
SEIHIN
100
AcDbCircle
 10
291.3896109520825
 20
228.9701400318368
 30
0.0
 40
1.199999999999999
100
AcDbArc
 50
193.2405199151171
 51
270.0
  0
ARC
  5
3375
330
1A
100
AcDbEntity
  8
SEIHIN
100
AcDbCircle
 10
291.3896109520825
 20
228.9701400318368
 30
0.0
 40
0.7000000000000001
100
AcDbArc
 50
193.2405199151171
 51
270.0
  0
LINE
  5
3376
330
1A
100
AcDbEntity
  8
SEIHIN
100
AcDbLine
 10
291.3896109520825
 20
228.270140031836
 30
0.0
 11
295.8352006910478
 21
228.270140031836
 31
0.0
  0
LINE
  5
3377
330
1A
100
AcDbEntity
  8
SEIHIN
100
AcDbLine
 10
295.8352006910478
 20
228.270140031836
 30
0.0
 11
295.8352006910478
 21
227.770140031836
 31
0.0
  0
LINE
  5
3378
330
1A
100
AcDbEntity
  8
SEIHIN
100
AcDbLine
 10
287.3352006910478
 20
211.6447686627759
 30
0.0
 11
287.3352006910478
 21
216.9417130318358
 31
0.0
  0
LINE
  5
3379
330
1A
100
AcDbEntity
  8
SEIHIN
100
AcDbLine
 10
287.8352006910478
 20
216.9417130318358
 30
0.0
 11
287.8352006910478
 21
211.6447686627759
 31
0.0
  0
ARC
  5
337A
330
1A
100
AcDbEntity
  8
SEIHIN
100
AcDbCircle
 10
286.8352006910478
 20
222.5985670318364
 30
0.0
 40
0.5000000000000001
100
AcDbArc
 50
335.2643899999818
 51
0.0
  0
ARC
  5
337B
330
1A
100
AcDbEntity
  8
SEIHIN
100
AcDbCircle
 10
286.8352006910478
 20
222.5985670318364
 30
0.0
 40
1.0
100
AcDbArc
 50
335.2643899999818
 51
0.0
  0
LINE
  5
337C
330
1A
100
AcDbEntity
  8
SEIHIN
100
AcDbLine
 10
286.9269521910478
 20
221.6027850318346
 30
0.0
 11
287.2893246910476
 21
222.3893515318373
 31
0.0
  0
LINE
  5
337D
330
1A
100
AcDbEntity
  8
SEIHIN
100
AcDbLine
 10
287.3810761910477
 20
221.3935695318355
 30
0.0
 11
287.7434486910484
 21
222.1801355318344
 31
0.0
  0
ARC
  5
337E
330
1A
100
AcDbEntity
  8
SEIHIN
100
AcDbCircle
 10
287.8352011502658
 20
221.1843536859494
 30
0.0
 40
1.0000004815698
100
AcDbArc
 50
155.2644213640994
 51
204.7356070104243
  0
ARC
  5
337F
330
1A
100
AcDbEntity
  8
SEIHIN
100
AcDbCircle
 10
287.8352021016085
 20
221.1843540052194
 30
0.0
 40
0.5000014792178416
100
AcDbArc
 50
155.2645052053869
 51
204.7355916340269
  0
LINE
  5
3380
330
1A
100
AcDbEntity
  8
SEIHIN
100
AcDbLine
 10
286.9269521910478
 20
220.7659220318342
 30
0.0
 11
287.2893246910476
 21
219.9793560318353
 31
0.0
  0
LINE
  5
3381
330
1A
100
AcDbEntity
  8
SEIHIN
100
AcDbLine
 10
287.3810761910477
 20
220.9751375318333
 30
0.0
 11
287.7434486910484
 21
220.1885715318344
 31
0.0
  0
LINE
  5
3382
330
1A
100
AcDbEntity
  8
SEIHIN
100
AcDbLine
 10
287.3810761910477
 20
218.1467105318366
 30
0.0
 11
287.7434486910484
 21
217.3601445318377
 31
0.0
  0
LINE
  5
3383
330
1A
100
AcDbEntity
  8
SEIHIN
100
AcDbLine
 10
286.9269521910478
 20
217.9374950318338
 30
0.0
 11
287.2893246910476
 21
217.1509290318387
 31
0.0
  0
ARC
  5
3384
330
1A
100
AcDbEntity
  8
SEIHIN
100
AcDbCircle
 10
287.8352021016139
 20
218.3559270052208
 30
0.0
 40
0.5000014792235528
100
AcDbArc
 50
155.2645052054585
 51
204.7355916339552
  0
ARC
  5
3385
330
1A
100
AcDbEntity
  8
SEIHIN
100
AcDbCircle
 10
287.8352011502712
 20
218.3559266859508
 30
0.0
 40
1.000000481575402
100
AcDbArc
 50
155.2644213641281
 51
204.7356070103814
  0
ARC
  5
3386
330
1A
100
AcDbEntity
  8
SEIHIN
100
AcDbCircle
 10
286.8352006910478
 20
216.9417130318358
 30
0.0
 40
1.0
100
AcDbArc
 50
0.0
 51
24.73561000001819
  0
ARC
  5
3387
330
1A
100
AcDbEntity
  8
SEIHIN
100
AcDbCircle
 10
286.8352006910478
 20
216.9417130318358
 30
0.0
 40
0.5000000000000001
100
AcDbArc
 50
0.0
 51
24.73561000001819
  0
LINE
  5
3388
330
1A
100
AcDbEntity
  8
SEIHIN
100
AcDbLine
 10
287.3810761910477
 20
218.5651425318388
 30
0.0
 11
287.7434486910484
 21
219.351708531834
 31
0.0
  0
LINE
  5
3389
330
1A
100
AcDbEntity
  8
SEIHIN
100
AcDbLine
 10
286.9269521910478
 20
218.7743580318379
 30
0.0
 11
287.2893246910476
 21
219.5609245318369
 31
0.0
  0
ARC
  5
338A
330
1A
100
AcDbEntity
  8
SEIHIN
100
AcDbCircle
 10
286.8352018487866
 20
219.7701396432999
 30
0.0
 40
0.9999987859098931
100
AcDbArc
 50
335.2643824628706
 51
24.73565762744128
  0
ARC
  5
338B
330
1A
100
AcDbEntity
  8
SEIHIN
100
AcDbCircle
 10
286.8352008974507
 20
219.7701399625676
 30
0.0
 40
0.49999978355087
100
AcDbArc
 50
335.2643873125358
 51
24.73565277788193
  0
LINE
  5
338C
330
1A
100
AcDbEntity
  8
SEIHIN
100
AcDbLine
 10
287.8352006910478
 20
227.8955114008965
 30
0.0
 11
287.8352006910478
 21
222.5985670318364
 31
0.0
  0
LINE
  5
338D
330
1A
100
AcDbEntity
  8
SEIHIN
100
AcDbLine
 10
287.3352006910478
 20
222.5985670318364
 30
0.0
 11
287.3352006910478
 21
227.8955114008965
 31
0.0
  0
HATCH
  5
338E
330
1A
100
AcDbEntity
  8
SEIHIN
 62
     7
370
     9
100
AcDbHatch
 10
0.0
 20
0.0
 30
0.0
210
0.0
220
0.0
230
1.0
  2
ANSI32
 70
     0
 71
     0
 91
        1
 92
        7
 72
     0
 73
     1
 93
        4
 10
352.3352006910487
 20
227.2701400318324
 10
352.3352006910487
 20
212.2701399737884
 10
288.3352006910487
 20
212.2701399737946
 10
288.3352006910487
 20
227.2701400318384
 97
        0
 75
     0
 76
     1
 52
90.0
 41
0.5
 77
     0
 78
     2
 53
135.0
 43
-27.47325520023526
 44
3.383225805273355
 45
-3.367596045400933
 46
-3.367596045400931
 79
     0
 53
135.0
 43
-27.47325520023526
 44
5.628290805273309
 45
-3.367596045400933
 46
-3.367596045400931
 79
     0
 47
0.0929124847402595
 98
        1
 10
332.833334558854
 20
220.4719956308782
  0
LINE
  5
3390
330
1A
100
AcDbEntity
  8
SEIHIN
  6
Continuous
100
AcDbLine
 10
278.3352006910487
 20
70.25929615888424
 30
0.0
 11
278.3352006910485
 21
192.4577004781237
 31
0.0
  0
LINE
  5
3391
330
1A
100
AcDbEntity
  8
SEIHIN
  6
Continuous
100
AcDbLine
 10
277.8352006910487
 20
70.25929615888424
 30
0.0
 11
277.8352006910485
 21
192.4577004781237
 31
0.0
  0
LINE
  5
3392
330
1A
100
AcDbEntity
  8
SEIHIN
  6
Continuous
100
AcDbLine
 10
352.8352006910487
 20
227.270140031836
 30
0.0
 11
352.8352006910489
 21
70.25929615888424
 31
0.0
  0
LINE
  5
3393
330
1A
100
AcDbEntity
  8
SEIHIN
  6
Continuous
100
AcDbLine
 10
352.3352006910487
 20
227.270140031836
 30
0.0
 11
352.3352006910487
 21
70.25929615888424
 31
0.0
  0
HATCH
  5
3394
330
1A
100
AcDbEntity
  8
SEIHIN
370
     9
100
AcDbHatch
 10
0.0
 20
0.0
 30
0.0
210
0.0
220
0.0
230
1.0
  2
ANSI35
 70
     0
 71
     0
 91
        1
 92
        1
 93
       12
 72
     1
 10
278.3352006910485
 20
70.25929615888424
 11
352.3352006910487
 21
70.25929615888421
 72
     1
 10
352.3352006910487
 20
70.25929615888424
 11
352.3352006910487
 21
212.2701399737886
 72
     1
 10
352.3352006910487
 20
212.2701399737884
 11
287.8352006910489
 21
212.2701399737946
 72
     1
 10
287.8352006910489
 20
212.2701399737946
 11
287.8352006910489
 21
211.6447686627758
 72
     2
 10
286.6352006910489
 20
211.6447686627759
 40
1.199999999999989
 50
360.0
 51
416.3099324740684
 73
     0
 72
     1
 10
287.3008409265183
 20
210.6463083095698
 11
283.6469105536905
 21
208.2103547276885
 72
     2
 10
284.0352006910476
 20
207.6279195216517
 40
0.7000000000000055
 50
123.6900675259256
 51
180.0000000000047
 73
     1
 72
     1
 10
283.3352006910477
 20
207.6279195216516
 11
283.3352006910488
 21
195.7440631048335
 72
     2
 10
282.135200691049
 20
195.7440631048335
 40
1.199999999999969
 50
360.0
 51
428.1985905136547
 73
     0
 72
     1
 10
282.5808695026736
 20
194.6298910757711
 11
278.7752272176003
 21
193.1076341617432
 72
     2
 10
279.0352006910484
 20
192.4577004781237
 40
0.6999999999999888
 50
111.8014094863777
 51
180.0000000000023
 73
     1
 72
     1
 10
278.3352006910485
 20
192.4577004781237
 11
278.3352006910485
 21
70.25929615888426
 97
        0
 75
     0
 76
     1
 52
0.0
 41
5.0
 77
     0
 78
     2
 53
45.0
 43
437.3160141172536
 44
6.903126567168781
 45
-22.45064030267288
 46
22.45064030267288
 79
     0
 53
45.0
 43
459.7666641172536
 44
6.903126567168781
 45
-22.45064030267288
 46
22.45064030267288
 79
     4
 49
39.6875
 49
-7.9375
 49
0.0
 49
-7.9375
 98
        1
 10
319.7172126988342
 20
114.4315634546997
  0
SPLINE
  5
33DD
330
1A
100
AcDbEntity
  8
NOKI
 48
0.5
370
     9
100
AcDbSpline
210
0.0
220
0.0
230
1.0
 70
     8
 71
     3
 72
     9
 73
     5
 74
     0
 42
0.000000001
 43
0.0000000001
 40
1016.92161124288
 40
1016.92161124288
 40
1016.92161124288
 40
1016.92161124288
 40
1032.220225713528
 40
1050.017286701818
 40
1050.017286701818
 40
1050.017286701818
 40
1050.017286701818
 10
291.5098822978968
 20
281.2336214702698
 30
0.0
 10
293.712879228674
 20
286.0539825765311
 30
0.0
 10
296.9628764375972
 20
301.8541991210166
 30
0.0
 10
293.7327095784236
 20
312.2103153573558
 30
0.0
 10
291.5098822978903
 20
317.371128766152
 30
0.0
  0
SPLINE
  5
33DE
330
1A
100
AcDbEntity
  8
NOKI
 48
0.5
370
     9
100
AcDbSpline
210
0.0
220
0.0
230
1.0
 70
     8
 71
     3
 72
    14
 73
    10
 74
     0
 42
0.000000001
 43
0.0000000001
 40
1105.352153239449
 40
1105.352153239449
 40
1105.352153239449
 40
1105.352153239449
 40
1130.432025636401
 40
1178.484080743337
 40
1203.563953151306
 40
1228.643825559275
 40
1276.695880666211
 40
1301.77575307418
 40
1301.775792861632
 40
1301.775792861632
 40
1301.775792861632
 40
1301.775792861632
 10
291.5098817580382
 20
369.3936538021346
 30
0.0
 10
296.1318009323507
 20
369.6464520943765
 30
0.0
 10
311.6729169135119
 20
332.6514416921768
 30
0.0
 10
286.4110136632867
 20
313.820802387697
 30
0.0
 10
307.2818035428793
 20
264.1387201168435
 30
0.0
 10
322.6095179114237
 20
315.8006934437395
 30
0.0
 10
295.4445939809669
 20
331.7638595493894
 30
0.0
 10
306.8580811468846
 20
370.2331148542898
 30
0.0
 10
311.4800473686961
 20
370.4859324794937
 30
0.0
 10
311.4800547011105
 20
370.4859328805379
 30
0.0
  0
MULTILEADER
  5
3D68
330
1A
100
AcDbEntity
  8
HIKIDASI
160
               564
310
34020000150000000C00000016000000000000C00C00000033000000000000000C00000013000000993A0000DC00000026000000CF77846AE3567040AFD4B9B855E98040000000000000000000000000000000000000000000000000000000000000F03F000000000000F03F000000000000000000000000000000004B5C39
310
6808FF25521490E55D8B4E09FF0000005608000000010000000000000000001440000000000000F03F0000000000000000000000000000F03F000000000000000000000000000000000000000000000000000000000100000000000000000000007400780074002E00730068007800000065007800740066006F006E007400
310
2E0073006800780000000C00000033000000000000000C00000010000000040000000C00000016000000000000C00C00000012000000FF7F00000C00000013000000010000000C00000013000000891300003C0000000600000002000000966317F82115744079A025868F408040000000000000000014BCC8AE273B7340AF
310
D4B9B855FD804000000000000000000C00000013000000112700003C000000060000000200000014BCC8AE273B7340AFD4B9B855FD804000000000000000007A222F158E317340AFD4B9B855FD804000000000000000000C00000016000000000000C00C00000012000000FF7F00000C00000017000000000000000C000000
310
130000009A3A00000C00000016000000000000C00C00000012000000FF7F00000C00000017000000FFFFFFFF0C0000003300000000000000
100
AcDbMLeader
270
     2
300
CONTEXT_DATA{
 40
1.0
 10
259.4305215048343
 20
543.6668562429457
 30
0.0
 41
5.0
140
0.0
145
2.0
174
     1
175
     3
176
     2
177
     0
290
     1
304
屋根（別途工事）
 11
0.0
 21
0.0
 31
1.0
340
10
 12
305.097188171501
 22
546.1668562429458
 32
0.0
 13
1.0
 23
0.0
 33
0.0
 42
0.0
 43
0.0
 44
0.0
 45
1.0
170
     1
 90
-1073741824
171
     3
172
     5
 91
-1073741824
141
0.0
 92
        0
291
     0
292
     0
173
     0
293
     0
142
0.0
143
0.0
294
     0
295
     0
296
     0
110
321.3207932389863
120
520.0700800838086
130
0.0
111
1.0
121
0.0
131
0.0
112
0.0
122
1.0
132
0.0
297
     0
302
LEADER{
290
     1
291
     1
 10
307.697188171501
 20
543.6668562429457
 30
0.0
 11
-1.0
 21
0.0
 31
0.0
 90
        0
 40
0.6
304
LEADER_LINE{
 10
321.3207932389863
 20
520.0700800838086
 30
0.0
 91
        0
305
}
271
     0
303
}
272
     9
273
     9
301
}
340
1F71
 90
   279552
170
     1
 91
-1056964608
341
14
171
    -2
290
     1
291
     1
 41
0.6
342
B0
 42
0.0
172
     2
343
10
173
     1
 95
        3
174
     1
175
     2
 92
-1056964608
292
     0
 93
-1056964608
 10
1.0
 20
1.0
 30
1.0
 43
0.0
176
     0
293
     0
294
     0
178
     0
179
     3
 45
1.0
271
     0
272
     9
273
     9
  0
MULTILEADER
  5
3D6A
330
1A
100
AcDbEntity
  8
HIKIDASI
160
               568
310
38020000150000000C00000016000000000000C00C00000033000000000000000C00000013000000993A0000E0000000260000004C0E1EFF2A7B63403BF54A82ECEC6A40000000000000000000000000000000000000000000000000000000000000F03F000000000000F03F00000000000000000000000000000000D28E48
310
51346C075208FF25521490E55D8B4E09FF000000500A000000010000000000000000001440000000000000F03F0000000000000000000000000000F03F000000000000000000000000000000000000000000000000000000000100000000000000000000007400780074002E00730068007800000065007800740066006F00
310
6E0074002E0073006800780000000C00000033000000000000000C00000010000000040000000C00000016000000000000C00C00000012000000FF7F00000C00000013000000010000000C00000013000000891300003C00000006000000020000002443B0E01B336E40970D6F1F0D9870400000000000000000D596A687B3
310
C36A403BF54A82EC3C6B4000000000000000000C00000013000000112700003C0000000600000002000000D596A687B3C36A403BF54A82EC3C6B400000000000000000A263735480B06A403BF54A82EC3C6B4000000000000000000C00000016000000000000C00C00000012000000FF7F00000C0000001700000000000000
310
0C000000130000009A3A00000C00000016000000000000C00C00000012000000FF7F00000C00000017000000FFFFFFFF0C0000003300000000000000
100
AcDbMLeader
270
     2
300
CONTEXT_DATA{
 40
1.0
 10
153.8489986025837
 20
217.9038707222006
 30
0.0
 41
5.0
140
0.0
145
2.0
174
     1
175
     3
176
     2
177
     0
290
     1
304
軒先水切（別途工事）
 11
0.0
 21
0.0
 31
1.0
340
10
 12
211.5156652692504
 22
220.4038707222006
 32
0.0
 13
1.0
 23
0.0
 33
0.0
 42
0.0
 43
0.0
 44
0.0
 45
1.0
170
     1
 90
-1073741824
171
     3
172
     5
 91
-1073741824
141
0.0
 92
        0
291
     0
292
     0
173
     0
293
     0
142
0.0
143
0.0
294
     0
295
     0
296
     0
110
241.597153038275
120
265.5032038057338
130
0.0
111
1.0
121
0.0
131
0.0
112
0.0
122
1.0
132
0.0
297
     0
302
LEADER{
290
     1
291
     1
 10
214.1156652692504
 20
217.9038707222006
 30
0.0
 11
-1.0
 21
0.0
 31
0.0
 90
        0
 40
0.6
304
LEADER_LINE{
 10
241.597153038275
 20
265.5032038057338
 30
0.0
 91
        0
305
}
271
     0
303
}
272
     9
273
     9
301
}
340
1F71
 90
   279552
170
     1
 91
-1056964608
341
14
171
    -2
290
     1
291
     1
 41
0.6
342
B0
 42
0.0
172
     2
343
10
173
     1
 95
        3
174
     1
175
     2
 92
-1056964608
292
     0
 93
-1056964608
 10
1.0
 20
1.0
 30
1.0
 43
0.0
176
     0
293
     0
294
     0
178
     0
179
     3
 45
1.0
271
     0
272
     9
273
     9
  0
MULTILEADER
  5
3D6B
330
1A
100
AcDbEntity
  8
HIKIDASI
160
               568
310
38020000150000000C00000016000000000000C00C00000033000000000000000C00000013000000993A0000E0000000260000006186C9699A2C6940822233B8F5355940000000000000000000000000000000000000000000000000000000000000F03F000000000000F03F0000000000000000000000000000000010806B
310
70F430A130F330C93032FF3AFF17FF15FF000000500A000000010000000000000000001440000000000000F03F0000000000000000000000000000F03F000000000000000000000000000000000000000000000000000000000100000000000000000000007400780074002E00730068007800000065007800740066006F00
310
6E0074002E0073006800780000000C00000033000000000000000C00000010000000040000000C00000016000000000000C00C00000012000000FF7F00000C00000013000000010000000C00000013000000891300003C0000000600000002000000665A66FB5C5D7140A63477D1786B604000000000000000007707297991
310
5A7040822233B8F5D5594000000000000000000C00000013000000112700003C000000060000000200000077072979915A7040822233B8F5D559400000000000000000DD6D8FDFF7507040822233B8F5D5594000000000000000000C00000016000000000000C00C00000012000000FF7F00000C0000001700000000000000
310
0C000000130000009A3A00000C00000016000000000000C00C00000012000000FF7F00000C00000017000000FFFFFFFF0C0000003300000000000000
100
AcDbMLeader
270
     2
300
CONTEXT_DATA{
 40
1.0
 10
199.393849271396
 20
103.3431225299228
 30
0.0
 41
5.0
140
0.0
145
2.0
174
     1
175
     3
176
     2
177
     0
290
     1
304
耐火ヴァンドＲＺ７５
 11
0.0
 21
0.0
 31
1.0
340
10
 12
259.0605159380627
 22
105.8431225299228
 32
0.0
 13
1.0
 23
0.0
 33
0.0
 42
0.0
 43
0.0
 44
0.0
 45
1.0
170
     1
 90
-1073741824
171
     3
172
     5
 91
-1073741824
141
0.0
 92
        0
291
     0
292
     0
173
     0
293
     0
142
0.0
143
0.0
294
     0
295
     0
296
     0
110
277.8352006910485
120
131.3584983185039
130
0.0
111
1.0
121
0.0
131
0.0
112
0.0
122
1.0
132
0.0
297
     0
302
LEADER{
290
     1
291
     1
 10
261.6605159380628
 20
103.3431225299228
 30
0.0
 11
-1.0
 21
0.0
 31
0.0
 90
        0
 40
0.6
304
LEADER_LINE{
 10
277.8352006910485
 20
131.3584983185039
 30
0.0
 91
        0
305
}
271
     0
303
}
272
     9
273
     9
301
}
340
1F71
 90
   279552
170
     1
 91
-1056964608
341
14
171
    -2
290
     1
291
     1
 41
0.6
342
B0
 42
0.0
172
     2
343
10
173
     1
 95
        3
174
     1
175
     2
 92
-1056964608
292
     0
 93
-1056964608
 10
1.0
 20
1.0
 30
1.0
 43
0.0
176
     0
293
     0
294
     0
178
     0
179
     3
 45
1.0
271
     0
272
     9
273
     9
  0
MULTILEADER
  5
3D6C
330
1A
100
AcDbEntity
  8
HIKIDASI
160
               572
310
3C020000150000000C00000016000000000000C00C00000033000000000000000C00000013000000993A0000E4000000260000006F62EC5601FD76402ECCDC1903866C40000000000000000000000000000000000000000000000000000000000000F03F000000000000F03F00000000000000000000000000000000025C28
310
75D330B930003034FF37FF2CFF16FF19FF10FF2EFF000000730C000000010000000000000000001440000000000000F03F0000000000000000000000000000F03F000000000000000000000000000000000000000000000000000000000100000000000000000000007400780074002E007300680078000000650078007400
310
66006F006E0074002E0073006800780000000C00000033000000000000000C00000010000000040000000C00000016000000000000C00C00000012000000FF7F00000C00000013000000010000000C00000013000000891300003C000000060000000200000014C5A29E777976400EB3CE35759E6B400000000000000000D5
310
C852BD67D376402ECCDC1903D66C4000000000000000000C00000013000000112700003C0000000600000002000000D5C852BD67D376402ECCDC1903D66C4000000000000000006F62EC5601DD76402ECCDC1903D66C4000000000000000000C00000016000000000000C00C00000012000000FF7F00000C00000017000000
310
000000000C000000130000009A3A00000C00000016000000000000C00C00000012000000FF7F00000C00000017000000FFFFFFFF0C0000003300000000000000
100
AcDbMLeader
270
     2
300
CONTEXT_DATA{
 40
1.0
 10
365.8128270372171
 20
230.687878543134
 30
0.0
 41
5.0
140
0.0
145
2.0
174
     1
175
     3
176
     0
177
     0
290
     1
304
専用ビス　ＴＷＬ６９０Ｎ
 11
0.0
 21
0.0
 31
1.0
340
10
 12
367.8128270372171
 22
233.187878543134
 32
0.0
 13
1.0
 23
0.0
 33
0.0
 42
0.0
 43
0.0
 44
0.0
 45
1.0
170
     1
 90
-1073741824
171
     1
172
     5
 91
-1073741824
141
0.0
 92
        0
291
     0
292
     0
173
     0
293
     0
142
0.0
143
0.0
294
     0
295
     0
296
     0
110
359.5917040212819
120
220.9518078839396
130
0.0
111
1.0
121
0.0
131
0.0
112
0.0
122
1.0
132
0.0
297
     0
302
LEADER{
290
     1
291
     1
 10
365.2128270372171
 20
230.687878543134
 30
0.0
 11
1.0
 21
0.0
 31
0.0
 90
        0
 40
0.6
304
LEADER_LINE{
 10
359.5917040212819
 20
220.9518078839396
 30
0.0
 91
        0
305
}
271
     0
303
}
272
     9
273
     9
301
}
340
1F71
 90
   279552
170
     1
 91
-1056964608
341
14
171
    -2
290
     1
291
     1
 41
0.6
342
B0
 42
0.0
172
     2
343
10
173
     1
 95
        3
174
     1
175
     0
 92
-1056964608
292
     0
 93
-1056964608
 10
1.0
 20
1.0
 30
1.0
 43
0.0
176
     0
293
     0
294
     0
178
     0
179
     1
 45
1.0
271
     0
272
     9
273
     9
  0
MULTILEADER
  5
3D6D
330
1A
100
AcDbEntity
  8
HIKIDASI
160
               576
310
40020000150000000C00000016000000000000C00C00000033000000000000000C00000013000000993A0000E800000026000000AA3A29A7EB157D407C6B81CF3E126740000000000000000000000000000000000000000000000000000000000000F03F000000000000F03F00000000000000000000000000000000A12531
310
0030003000D700310030003000D70032002E003300E54E0A4E000000000E000000010000000000000000001440000000000000F03F0000000000000000000000000000F03F000000000000000000000000000000000000000000000000000000000100000000000000000000007400780074002E0073006800780000006500
310
7800740066006F006E0074002E0073006800780000000C00000033000000000000000C00000010000000040000000C00000016000000000000C00C00000012000000FF7F00000C00000013000000010000000C00000013000000891300003C000000060000000200000018F4FF94F64E7C40574C75274CA869400000000000
310
000000BA4B3AB8FCF67C407C6B81CF3E62674000000000000000000C00000013000000112700003C0000000600000002000000BA4B3AB8FCF67C407C6B81CF3E626740000000000000000054E5D35196007D407C6B81CF3E62674000000000000000000C00000016000000000000C00C00000012000000FF7F00000C000000
310
17000000000000000C000000130000009A3A00000C00000016000000000000C00C00000012000000FF7F00000C00000017000000FFFFFFFF0C0000003300000000000000
100
AcDbMLeader
270
     2
300
CONTEXT_DATA{
 40
1.0
 10
464.0366991307431
 20
187.07016730573
 30
0.0
 41
5.0
140
0.0
145
2.0
174
     1
175
     3
176
     0
177
     0
290
     1
304
□100×100×2.3以上
 11
0.0
 21
0.0
 31
1.0
340
10
 12
466.0366991307431
 22
189.57016730573
 32
0.0
 13
1.0
 23
0.0
 33
0.0
 42
0.0
 43
0.0
 44
0.0
 45
1.0
170
     1
 90
-1073741824
171
     1
172
     5
 91
-1073741824
141
0.0
 92
        0
291
     0
292
     0
173
     0
293
     0
142
0.0
143
0.0
294
     0
295
     0
296
     0
110
452.9352006910499
120
205.2592961588841
130
0.0
111
1.0
121
0.0
131
0.0
112
0.0
122
1.0
132
0.0
297
     0
302
LEADER{
290
     1
291
     1
 10
463.4366991307429
 20
187.07016730573
 30
0.0
 11
1.0
 21
0.0
 31
0.0
 90
        0
 40
0.6
304
LEADER_LINE{
 10
452.9352006910499
 20
205.2592961588841
 30
0.0
 91
        0
305
}
271
     0
303
}
272
     9
273
     9
301
}
340
1F71
 90
   279552
170
     1
 91
-1056964608
341
14
171
    -2
290
     1
291
     1
 41
0.6
342
B0
 42
0.0
172
     2
343
10
173
     1
 95
        3
174
     1
175
     0
 92
-1056964608
292
     0
 93
-1056964608
 10
1.0
 20
1.0
 30
1.0
 43
0.0
176
     0
293
     0
294
     0
178
     0
179
     1
 45
1.0
271
     0
272
     9
273
     9
  0
MTEXT
  5
4626
102
{ACAD_XDICTIONARY
360
4627
102
}
330
1A
100
AcDbEntity
  8
WAKU
100
AcDbMText
 10
124.3245405690059
 20
23.21985646788335
 30
0.0
 40
5.0
 41
130.7517663064795
 46
0.0
 71
     1
 72
     5
  1
\pi17.11446;アイジーヴァンド参考ディテール
  7
WAKU
 73
     1
 44
1.0
  0
MTEXT
  5
4628
102
{ACAD_XDICTIONARY
360
4629
102
}
330
1A
100
AcDbEntity
  8
WAKU
100
AcDbMText
 10
34.05004475349506
 20
23.21985646788335
 30
0.0
 40
5.0
 41
71.82723587241572
 46
0.0
 71
     1
 72
     5
  1
\pi3.9593;アイジー工業株式会社
  7
WAKU
 73
     1
 44
1.0
  0
LINE
  5
4663
330
1A
100
AcDbEntity
  8
TEKUSU
  6
CENTER2
370
     5
100
AcDbLine
 10
279.4315511809967
 20
219.7701401374946
 30
0.0
 11
379.5195959880079
 21
219.7701401374946
 31
0.0
  0
LINE
  5
4664
330
1A
100
AcDbEntity
  8
TEKUSU
  6
Continuous
100
AcDbLine
 10
286.8352006809967
 20
227.2701401374945
 30
0.0
 11
287.3352006810013
 21
227.2701401374945
 31
0.0
  0
LINE
  5
4665
330
1A
100
AcDbEntity
  8
TEKUSU
  6
Continuous
100
AcDbLine
 10
286.8352006809967
 20
212.2701401374982
 30
0.0
 11
287.3352006809959
 21
212.2701401374982
 31
0.0
  0
LINE
  5
4666
330
1A
100
AcDbEntity
  8
TEKUSU
  6
DASHED2
 48
0.5
100
AcDbLine
 10
288.7223668773316
 20
222.3401401374943
 30
0.0
 11
319.4747681097592
 21
222.3401401374988
 31
0.0
  0
LINE
  5
4667
330
1A
100
AcDbEntity
  8
TEKUSU
 48
0.5
100
AcDbLine
 10
285.0852006809968
 20
212.2701401374945
 30
0.0
 11
285.0852006809968
 21
227.2701401374945
 31
0.0
  0
LINE
  5
4668
330
1A
100
AcDbEntity
  8
TEKUSU
 48
0.5
100
AcDbLine
 10
286.3352006809968
 20
211.7701401374946
 30
0.0
 11
285.5852006809968
 21
211.7701401374946
 31
0.0
  0
LINE
  5
4669
330
1A
100
AcDbEntity
  8
TEKUSU
 48
0.5
100
AcDbLine
 10
286.3352006809968
 20
227.7701401374945
 30
0.0
 11
285.5852006809968
 21
227.7701401374945
 31
0.0
  0
LINE
  5
466A
330
1A
100
AcDbEntity
  8
TEKUSU
 48
0.5
100
AcDbLine
 10
286.8352006809967
 20
212.2701401374945
 30
0.0
 11
286.8352006809967
 21
227.2701401374945
 31
0.0
  0
ARC
  5
466B
330
1A
100
AcDbEntity
  8
TEKUSU
 48
0.5
100
AcDbCircle
 10
296.7739937844438
 20
219.7701401374982
 30
0.0
 40
13.13879310344826
100
AcDbArc
 50
152.828017584236
 51
207.1719824157639
  0
ARC
  5
466C
330
1A
100
AcDbEntity
  8
TEKUSU
 48
0.5
100
AcDbCircle
 10
286.3352006809968
 20
227.2701401374991
 30
0.0
 40
0.5
100
AcDbArc
 50
0.0
 51
90.0
1001
GENIUS_GENOBJ-N-FIL_13
1002
{
1000
OWNER
1000
GEN
1002
}
1001
GENIUS_GENODEF_13
1002
{
1000
HIER
1070
     0
1002
}
1002
{
1000
MANEDIT
1070
     0
1002
}
1002
{
1000
NOSEL
1070
     0
1002
}
1002
{
1000
BEHIND
1070
     0
1002
}
1002
{
1000
OTHER
1070
     0
1002
}
1002
{
1000
REACTOR
1002
}
  0
ARC
  5
466D
330
1A
100
AcDbEntity
  8
TEKUSU
 48
0.5
100
AcDbCircle
 10
286.3352006809968
 20
212.2701401374982
 30
0.0
 40
0.5
100
AcDbArc
 50
270.0
 51
0.0
1001
GENIUS_GENOBJ-N-FIL_13
1002
{
1000
OWNER
1000
GEN
1002
}
1001
GENIUS_GENODEF_13
1002
{
1000
HIER
1070
     0
1002
}
1002
{
1000
MANEDIT
1070
     0
1002
}
1002
{
1000
NOSEL
1070
     0
1002
}
1002
{
1000
BEHIND
1070
     0
1002
}
1002
{
1000
OTHER
1070
     0
1002
}
1002
{
1000
REACTOR
1002
}
  0
ARC
  5
466E
330
1A
100
AcDbEntity
  8
TEKUSU
 48
0.5
100
AcDbCircle
 10
285.5852006809968
 20
212.2701401374982
 30
0.0
 40
0.5
100
AcDbArc
 50
180.0
 51
270.0
1001
GENIUS_GENODEF_13
1002
{
1000
HIER
1070
     0
1002
}
1002
{
1000
MANEDIT
1070
     0
1002
}
1002
{
1000
NOSEL
1070
     0
1002
}
1002
{
1000
BEHIND
1070
     0
1002
}
1002
{
1000
OTHER
1070
     0
1002
}
1002
{
1000
REACTOR
1002
}
1001
GENIUS_GENOBJ-N-FIL_13
1002
{
1000
OWNER
1000
GEN
1002
}
  0
ARC
  5
466F
330
1A
100
AcDbEntity
  8
TEKUSU
 48
0.5
100
AcDbCircle
 10
285.5852006809968
 20
227.2701401374991
 30
0.0
 40
0.5
100
AcDbArc
 50
90.0
 51
180.0
1001
GENIUS_GENOBJ-N-FIL_13
1002
{
1000
OWNER
1000
GEN
1002
}
1001
GENIUS_GENODEF_13
1002
{
1000
HIER
1070
     0
1002
}
1002
{
1000
MANEDIT
1070
     0
1002
}
1002
{
1000
NOSEL
1070
     0
1002
}
1002
{
1000
BEHIND
1070
     0
1002
}
1002
{
1000
OTHER
1070
     0
1002
}
1002
{
1000
REACTOR
1002
}
  0
LINE
  5
4670
330
1A
100
AcDbEntity
  8
TEKUSU
  6
DASHED2
 48
0.5
100
AcDbLine
 10
288.7223668773316
 20
217.2001401374958
 30
0.0
 11
319.4747681097592
 21
217.2001401374994
 31
0.0
  0
LINE
  5
4671
330
1A
100
AcDbEntity
  8
TEKUSU
  6
DASHED2
 48
0.5
100
AcDbLine
 10
286.8352007872839
 20
216.3201401374938
 30
0.0
 11
288.7223668773316
 21
217.2001401374958
 31
0.0
  0
LINE
  5
4672
330
1A
100
AcDbEntity
  8
TEKUSU
  6
DASHED2
 48
0.5
100
AcDbLine
 10
286.8352007872839
 20
223.2201401374953
 30
0.0
 11
288.7223668773316
 21
222.3401401374943
 31
0.0
  0
LINE
  5
4673
330
1A
100
AcDbEntity
  8
TEKUSU
  6
DASHED2
 48
0.5
100
AcDbLine
 10
288.7223668773316
 20
222.3401401374943
 30
0.0
 11
288.7223668773316
 21
217.2001401374958
 31
0.0
  0
LINE
  5
4674
330
1A
100
AcDbEntity
  8
TEKUSU
100
AcDbLine
 10
370.3352006809968
 20
216.5201401374945
 30
0.0
 11
370.3352006809968
 21
223.0201401374945
 31
0.0
  0
LINE
  5
4675
330
1A
100
AcDbEntity
  8
TEKUSU
  6
DASHED2
 48
0.5
100
AcDbLine
 10
319.4747681097592
 20
216.5201401374945
 30
0.0
 11
319.4747681097592
 21
223.0201401374945
 31
0.0
  0
LINE
  5
4676
330
1A
100
AcDbEntity
  8
TEKUSU
100
AcDbLine
 10
374.735067787284
 20
222.4201401374933
 30
0.0
 11
370.3352006809977
 21
222.4201401374933
 31
0.0
  0
LINE
  5
4677
330
1A
100
AcDbEntity
  8
TEKUSU
100
AcDbLine
 10
376.9586817056537
 20
219.7701401374946
 30
0.0
 11
374.735067787284
 21
222.4201401374933
 31
0.0
  0
LINE
  5
4678
330
1A
100
AcDbEntity
  8
TEKUSU
100
AcDbLine
 10
374.735067787284
 20
217.1201401374931
 30
0.0
 11
370.3352006809977
 21
217.1201401374931
 31
0.0
  0
LINE
  5
4679
330
1A
100
AcDbEntity
  8
TEKUSU
100
AcDbLine
 10
374.735067787284
 20
217.1201401374931
 30
0.0
 11
376.9586817056537
 21
219.7701401374946
 31
0.0
  0
LINE
  5
467A
330
1A
100
AcDbEntity
  8
TEKUSU
  6
DASHED2
 48
0.5
100
AcDbLine
 10
355.2352006910499
 20
223.0201401374945
 30
0.0
 11
319.4747681097592
 21
223.0201401374945
 31
0.0
  0
LINE
  5
467B
330
1A
100
AcDbEntity
  8
TEKUSU
  6
DASHED2
 48
0.5
100
AcDbLine
 10
355.2352006910499
 20
216.5201401374945
 30
0.0
 11
319.4747681097592
 21
216.5201401374945
 31
0.0
  0
LINE
  5
467C
330
1A
100
AcDbEntity
  8
TEKUSU
100
AcDbLine
 10
370.3352006809968
 20
221.182830099535
 30
0.0
 11
376.9586817056518
 21
219.7701401374946
 31
0.0
  0
LINE
  5
467D
330
1A
100
AcDbEntity
  8
TEKUSU
100
AcDbLine
 10
287.3352006810013
 20
212.2701401374982
 30
0.0
 11
287.3352006810013
 21
227.2701401374945
 31
0.0
  0
LINE
  5
467E
330
1A
100
AcDbEntity
  8
TEKUSU
100
AcDbLine
 10
355.2352006910499
 20
223.0201401374945
 30
0.0
 11
370.3352006809968
 21
223.0201401374945
 31
0.0
  0
LINE
  5
467F
330
1A
100
AcDbEntity
  8
TEKUSU
100
AcDbLine
 10
355.2352006910499
 20
216.5201401374946
 30
0.0
 11
370.3352006809968
 21
216.5201401374941
 31
0.0
  0
TEXT
  5
46AF
330
1A
100
AcDbEntity
  8
0
100
AcDbText
 10
643.8286219373885
 20
45.62628883424304
 30
0.0
 40
5.0
  1
※　ｈはパネル上端クリアランス（ｈ≧２０）
100
AcDbText
  0
VIEWPORT
  5
22
330
17
100
AcDbEntity
 67
     1
  8
0
348
19CC
100
AcDbViewport
 10
261.5176991150442
 20
154.7242978687078
 30
0.0
 40
523.0353982300885
 41
309.4485957374157
 68
     1
 69
     1
 12
261.5176991150442
 22
154.7242978687078
 13
0.0
 23
0.0
 14
1.0
 24
1.0
 15
10.0
 25
10.0
 16
0.0
 26
0.0
 36
1.0
 17
0.0
 27
0.0
 37
0.0
 42
50.0
 43
0.0
 44
0.0
 45
309.4485957374157
 50
0.0
 51
0.0
 72
   100
 90
    32768
  1

281
     0
 71
     1
 74
     0
110
0.0
120
0.0
130
0.0
111
1.0
121
0.0
131
0.0
112
0.0
122
1.0
132
0.0
 79
     0
146
0.0
170
     0
 61
     5
292
     1
282
     1
141
0.0
142
0.0
 63
   250
421
  3355443
  0
ENDSEC
  0
SECTION
  2
OBJECTS
  0
DICTIONARY
  5
C
330
0
100
AcDbDictionary
281
     1
  3
ACAD_CIP_PREVIOUS_PRODUCT_INFO
350
2156
  3
ACAD_COLOR
350
3B0
  3
ACAD_DETAILVIEWSTYLE
350
27CC
  3
ACAD_GROUP
350
D
  3
ACAD_LAYOUT
350
3B1
  3
ACAD_MATERIAL
350
3AF
  3
ACAD_MLEADERSTYLE
350
1F70
  3
ACAD_MLINESTYLE
350
E
  3
ACAD_PLOTSETTINGS
350
3B2
  3
ACAD_PLOTSTYLENAME
350
3AD
  3
ACAD_SCALELIST
350
1F4E
  3
ACAD_SECTIONVIEWSTYLE
350
27CA
  3
ACAD_TABLESTYLE
350
14DD
  3
ACAD_VISUALSTYLE
350
19C6
  3
AcadDim
350
D85
  3
ACDB_RECOMPOSE_DATA
350
479E
  3
AcDbVariableDictionary
350
1897
  0
DICTIONARY
  5
19DC
330
8
100
AcDbDictionary
280
     1
281
     1
  0
DICTIONARY
  5
1872
330
2
100
AcDbDictionary
280
     1
281
     1
  3
ACAD_LAYERFILTERS
360
1C08
  3
ACAD_LAYERSTATES
360
1A0D
  3
ACLYDICTIONARY
360
1C07
  0
DICTIONARY
  5
1F81
330
F
100
AcDbDictionary
280
     1
281
     1
  3
ADSK_XREC_LAYER_RECONCILED
360
1F82
  0
DICTIONARY
  5
1F83
330
87
100
AcDbDictionary
280
     1
281
     1
  3
ADSK_XREC_LAYER_RECONCILED
360
1F84
  0
DICTIONARY
  5
1F85
330
150E
100
AcDbDictionary
280
     1
281
     1
  3
ADSK_XREC_LAYER_RECONCILED
360
1F86
  0
DICTIONARY
  5
3EC0
330
3EBF
100
AcDbDictionary
280
     1
281
     1
  0
DICTIONARY
  5
1A93
330
1A
100
AcDbDictionary
280
     1
281
     1
  3
ACAD_SORTENTS
360
1A94
  0
DICTIONARY
  5
46F2
330
2193
100
AcDbDictionary
280
     1
281
     1
  3
ACAD_MTEXT_2008_RT
360
479B
  0
DICTIONARY
  5
4627
330
4626
100
AcDbDictionary
280
     1
281
     1
  3
ACAD_MTEXT_2008_RT
360
479C
  0
DICTIONARY
  5
4629
330
4628
100
AcDbDictionary
280
     1
281
     1
  3
ACAD_MTEXT_2008_RT
360
479D
  0
XRECORD
  5
2156
102
{ACAD_REACTORS
330
C
102
}
330
C
100
AcDbXrecord
280
     1
300
ACDLT
300
2017
300
86604ACDLT_2017_0F
  0
DICTIONARY
  5
3B0
102
{ACAD_REACTORS
330
C
102
}
330
C
100
AcDbDictionary
281
     1
  0
DICTIONARY
  5
27CC
102
{ACAD_REACTORS
330
C
102
}
330
C
100
AcDbDictionary
281
     1
  3
Metric50
350
27CD
  0
DICTIONARY
  5
D
102
{ACAD_REACTORS
330
C
102
}
330
C
100
AcDbDictionary
281
     1
  0
DICTIONARY
  5
3B1
102
{ACAD_REACTORS
330
C
102
}
330
C
100
AcDbDictionary
281
     1
  3
Model
350
3B3
  3
レイアウト1
350
3B4
  0
DICTIONARY
  5
3AF
102
{ACAD_REACTORS
330
C
102
}
330
C
100
AcDbDictionary
281
     1
  3
ByBlock
350
19C4
  3
ByLayer
350
19C3
  3
Global
350
19C5
  0
DICTIONARY
  5
1F70
102
{ACAD_REACTORS
330
C
102
}
330
C
100
AcDbDictionary
281
     1
  3
Standard
350
1F71
  0
DICTIONARY
  5
E
102
{ACAD_REACTORS
330
C
102
}
330
C
100
AcDbDictionary
281
     1
  3
STANDARD
350
13
  0
DICTIONARY
  5
3B2
102
{ACAD_REACTORS
330
C
102
}
330
C
100
AcDbDictionary
281
     1
  3
セットアップ1
350
1F2A
  0
ACDBDICTIONARYWDFLT
  5
3AD
102
{ACAD_REACTORS
330
C
102
}
330
C
100
AcDbDictionary
281
     1
  3
Normal
350
3AE
100
AcDbDictionaryWithDefault
340
3AE
  0
DICTIONARY
  5
1F4E
102
{ACAD_REACTORS
330
C
102
}
330
C
100
AcDbDictionary
281
     1
  3
A0
350
1F4F
  3
A1
350
1F50
  3
A2
350
1F51
  3
A3
350
1F52
  3
A4
350
1F53
  3
A5
350
1F54
  3
A6
350
1F55
  3
A7
350
1F56
  3
A8
350
1F57
  3
A9
350
1F58
  3
B0
350
1F59
  3
B1
350
1F5A
  3
B2
350
1F5B
  3
B3
350
1F5C
  3
B4
350
1F5D
  3
B5
350
1F5E
  3
B6
350
1F5F
  3
B7
350
1F60
  3
B8
350
1F61
  3
B9
350
1F62
  3
C0
350
1F63
  3
C1
350
1F64
  3
C2
350
1F65
  3
C3
350
1F66
  3
C4
350
1F67
  3
C5
350
1F68
  3
C6
350
1F69
  3
C7
350
1F6A
  3
C8
350
1F6B
  3
C9
350
1F6C
  3
D0
350
1F6D
  3
D1
350
1F6E
  3
D2
350
1F6F
  0
DICTIONARY
  5
27CA
102
{ACAD_REACTORS
330
C
102
}
330
C
100
AcDbDictionary
281
     1
  3
Metric50
350
27CB
  0
DICTIONARY
  5
14DD
102
{ACAD_REACTORS
330
C
102
}
330
C
100
AcDbDictionary
281
     1
  3
Standard
350
14DE
  0
DICTIONARY
  5
19C6
102
{ACAD_REACTORS
330
C
102
}
330
C
100
AcDbDictionary
281
     1
  3
2dWireframe
350
19CC
  3
3D Hidden
350
19CE
  3
3dWireframe
350
19CD
  3
Basic
350
19CB
  3
Brighten
350
19D2
  3
ColorChange
350
19D6
  3
Conceptual
350
19CF
  3
Dim
350
19D1
  3
EdgeColorOff
350
2151
  3
Facepattern
350
19D5
  3
Flat
350
19C7
  3
FlatWithEdges
350
19C8
  3
Gouraud
350
19C9
  3
GouraudWithEdges
350
19CA
  3
Hidden
350
2149
  3
JitterOff
350
214F
  3
Linepattern
350
19D4
  3
OverhangOff
350
2150
  3
Realistic
350
19D0
  3
Shaded
350
214E
  3
Shaded with edges
350
214D
  3
Shades of Gray
350
214A
  3
Sketchy
350
214B
  3
Thicken
350
19D3
  3
Wireframe
350
2148
  3
X-Ray
350
214C
  0
XRECORD
  5
D85
102
{ACAD_REACTORS
330
C
102
}
330
C
100
AcDbXrecord
280
     1
 90
   990106
  3
NONE
 60
     0
 61
     0
 62
     1
 63
     3
 64
     0
 65
     0
 66
     0
 67
     3
 68
     1
 69
     0
 70
     4
 71
     4
 72
     0
 40
0.0
170
     1
340
0
  0
XRECORD
  5
479E
102
{ACAD_REACTORS
330
C
102
}
330
C
100
AcDbXrecord
280
     1
 90
        1
330
14DE
330
2193
330
4626
330
4628
  0
DICTIONARY
  5
1897
102
{ACAD_REACTORS
330
C
102
}
330
C
100
AcDbDictionary
281
     1
  3
CANNOSCALE
350
1FA1
  3
CMLEADERSTYLE
350
1FA0
  3
CTABLESTYLE
350
1898
  3
CVIEWDETAILSTYLE
350
2823
  3
CVIEWSECTIONSTYLE
350
2824
  3
DIMASSOC
350
1938
  3
INDEXCTL
350
1EEE
  3
LAYEREVAL
350
2F41
  3
LAYERNOTIFY
350
2F42
  3
LIGHTINGUNITS
350
2F40
  3
MSLTSCALE
350
2F3F
  3
PROJECTNAME
350
1939
  3
SORTENTS
350
1EED
  0
DICTIONARY
  5
1C08
102
{ACAD_REACTORS
330
1872
102
}
330
1872
100
AcDbDictionary
281
     1
  0
DICTIONARY
  5
1A0D
102
{ACAD_REACTORS
330
1872
102
}
330
1872
100
AcDbDictionary
281
     1
  0
DICTIONARY
  5
1C07
102
{ACAD_REACTORS
330
1872
102
}
330
1872
100
AcDbDictionary
281
     1
1001
ACAD
1000
<All
  0
XRECORD
  5
1F82
102
{ACAD_REACTORS
330
1F81
102
}
330
1F81
100
AcDbXrecord
280
     1
290
     1
  0
XRECORD
  5
1F84
102
{ACAD_REACTORS
330
1F83
102
}
330
1F83
100
AcDbXrecord
280
     1
290
     1
  0
XRECORD
  5
1F86
102
{ACAD_REACTORS
330
1F85
102
}
330
1F85
100
AcDbXrecord
280
     1
290
     1
  0
SORTENTSTABLE
  5
1A94
102
{ACAD_REACTORS
330
1A93
102
}
330
1A93
100
AcDbSortentsTable
330
1A
331
3339
  5
3339
331
3353
  5
3353
331
333D
  5
333D
331
3357
  5
3357
331
335B
  5
335B
331
335F
  5
335F
331
316B
  5
316B
331
31A8
  5
31A8
331
316F
  5
316F
331
2183
  5
21BC
331
31AC
  5
31AC
331
3173
  5
3173
331
3130
  5
3130
331
2187
  5
21FC
331
31B0
  5
31B0
331
3177
  5
3177
331
31EB
  5
31EB
331
3134
  5
3134
331
31B4
  5
31B4
331
3228
  5
3228
331
31EF
  5
31EF
331
218F
  5
24F9
331
3138
  5
3138
331
313C
  5
313C
331
31F3
  5
31F3
331
31F7
  5
31F7
331
3363
  5
3363
331
3367
  5
3367
331
336B
  5
336B
331
336F
  5
336F
331
317B
  5
317B
331
31B8
  5
31B8
331
317F
  5
317F
331
2193
  5
2550
331
31BC
  5
31BC
331
3183
  5
3183
331
3140
  5
3140
331
3393
  5
3393
331
2197
  5
2689
331
3187
  5
3187
331
31FB
  5
31FB
331
3144
  5
3144
331
31CC
  5
31CC
331
3270
  5
3270
331
31FF
  5
31FF
331
3148
  5
3148
331
3203
  5
3203
331
314C
  5
314C
331
3207
  5
3207
331
3372
  5
3372
331
3376
  5
3376
331
337A
  5
337A
331
337E
  5
337E
331
31D3
  5
31D3
331
318A
  5
318A
331
31D7
  5
31D7
331
318E
  5
318E
331
3153
  5
3153
331
219A
  5
268D
331
31DB
  5
31DB
331
3192
  5
3192
331
3196
  5
3196
331
3157
  5
3157
331
219E
  5
2830
331
31DF
  5
31DF
331
320A
  5
320A
331
315B
  5
315B
331
320E
  5
320E
331
315F
  5
315F
331
3212
  5
3212
331
3343
  5
3343
331
3347
  5
3347
331
3216
  5
3216
331
3382
  5
3382
331
3386
  5
3386
331
338A
  5
338A
331
338E
  5
338E
331
31E3
  5
31E3
331
319A
  5
319A
331
31E7
  5
31E7
331
319E
  5
319E
331
3163
  5
3163
331
31A2
  5
31A2
331
31A6
  5
31A6
331
3167
  5
3167
331
3126
  5
3126
331
334B
  5
334B
331
321A
  5
321A
331
312A
  5
312A
331
312E
  5
312E
331
334F
  5
334F
331
321E
  5
321E
331
3222
  5
3222
331
3226
  5
3226
331
3338
  5
3338
331
3352
  5
3352
331
333C
  5
333C
331
3356
  5
3356
331
335A
  5
335A
331
335E
  5
335E
331
31AB
  5
31AB
331
316A
  5
316A
331
31AF
  5
31AF
331
316E
  5
316E
331
3133
  5
3133
331
2182
  5
21BB
331
31B3
  5
31B3
331
3172
  5
3172
331
3176
  5
3176
331
3137
  5
3137
331
31B7
  5
31B7
331
31EA
  5
31EA
331
313B
  5
313B
331
218A
  5
24E6
331
218E
  5
24EA
331
31EE
  5
31EE
331
313F
  5
313F
331
31F2
  5
31F2
331
31F6
  5
31F6
331
326F
  5
326F
331
3362
  5
3362
331
3366
  5
3366
331
336A
  5
336A
331
336E
  5
336E
331
317A
  5
317A
331
31BB
  5
31BB
331
31BF
  5
31BF
331
317E
  5
317E
331
3143
  5
3143
331
2192
  5
2546
331
31CB
  5
31CB
331
3182
  5
3182
331
3392
  5
3392
331
3147
  5
3147
331
2196
  5
2598
331
31CF
  5
31CF
331
3186
  5
3186
331
31FA
  5
31FA
331
314B
  5
314B
331
31FE
  5
31FE
331
3202
  5
3202
331
3206
  5
3206
331
3317
  5
3317
331
3371
  5
3371
331
3375
  5
3375
331
3379
  5
3379
331
337D
  5
337D
331
31D2
  5
31D2
331
3189
  5
3189
331
31D6
  5
31D6
331
318D
  5
318D
331
3152
  5
3152
331
2199
  5
268C
331
31DA
  5
31DA
331
3191
  5
3191
331
3195
  5
3195
331
3156
  5
3156
331
219D
  5
282F
331
31DE
  5
31DE
331
331A
  5
331A
331
3209
  5
3209
331
315A
  5
315A
331
315E
  5
315E
331
320D
  5
320D
331
3211
  5
3211
331
3342
  5
3342
331
3346
  5
3346
331
3215
  5
3215
331
3381
  5
3381
331
3385
  5
3385
331
3389
  5
3389
331
31C6
  5
31C6
331
338D
  5
338D
331
31E2
  5
31E2
331
3199
  5
3199
331
31E6
  5
31E6
331
3162
  5
3162
331
31A1
  5
31A1
331
31A5
  5
31A5
331
3166
  5
3166
331
3125
  5
3125
331
334A
  5
334A
331
3129
  5
3129
331
1746
  5
175F
331
3219
  5
3219
331
312D
  5
312D
331
334E
  5
334E
331
321D
  5
321D
331
3221
  5
3221
331
3225
  5
3225
331
333B
  5
333B
331
333F
  5
333F
331
3351
  5
3351
331
3355
  5
3355
331
3359
  5
3359
331
335D
  5
335D
331
31AA
  5
31AA
331
3169
  5
3169
331
31AE
  5
31AE
331
316D
  5
316D
331
3132
  5
3132
331
2181
  5
21B9
331
31B2
  5
31B2
331
3171
  5
3171
331
3175
  5
3175
331
3136
  5
3136
331
2185
  5
21CF
331
31B6
  5
31B6
331
322A
  5
322A
331
31E9
  5
31E9
331
313A
  5
313A
331
2189
  5
21FE
331
218D
  5
24E9
331
31ED
  5
31ED
331
313E
  5
313E
331
31F1
  5
31F1
331
31F5
  5
31F5
331
3361
  5
3361
331
3365
  5
3365
331
3369
  5
3369
331
336D
  5
336D
331
31BA
  5
31BA
331
3179
  5
3179
331
31BE
  5
31BE
331
317D
  5
317D
331
3142
  5
3142
331
2191
  5
2545
331
31CA
  5
31CA
331
3181
  5
3181
331
3391
  5
3391
331
3185
  5
3185
331
3146
  5
3146
331
2195
  5
2569
331
31CE
  5
31CE
331
3272
  5
3272
331
31F9
  5
31F9
331
314A
  5
314A
331
31FD
  5
31FD
331
3201
  5
3201
331
3205
  5
3205
331
3370
  5
3370
331
3374
  5
3374
331
3378
  5
3378
331
337C
  5
337C
331
31D1
  5
31D1
331
3188
  5
3188
331
31D5
  5
31D5
331
318C
  5
318C
331
3190
  5
3190
331
3151
  5
3151
331
2198
  5
268B
331
31D9
  5
31D9
331
3194
  5
3194
331
3155
  5
3155
331
219C
  5
282D
331
31DD
  5
31DD
331
21A0
  5
2832
331
3319
  5
3319
331
3208
  5
3208
331
3159
  5
3159
331
320C
  5
320C
331
315D
  5
315D
331
3210
  5
3210
331
3341
  5
3341
331
3345
  5
3345
331
3214
  5
3214
331
3380
  5
3380
331
3384
  5
3384
331
3388
  5
3388
331
338C
  5
338C
331
31E1
  5
31E1
331
3198
  5
3198
331
31E5
  5
31E5
331
319C
  5
319C
331
3161
  5
3161
331
31A0
  5
31A0
331
31A4
  5
31A4
331
3165
  5
3165
331
3124
  5
3124
331
3128
  5
3128
331
3349
  5
3349
331
3218
  5
3218
331
312C
  5
312C
331
334D
  5
334D
331
321C
  5
321C
331
3220
  5
3220
331
3224
  5
3224
331
333A
  5
333A
331
333E
  5
333E
331
3350
  5
3350
331
3354
  5
3354
331
3358
  5
3358
331
335C
  5
335C
331
31A9
  5
31A9
331
3168
  5
3168
331
31AD
  5
31AD
331
316C
  5
316C
331
3131
  5
3131
331
2180
  5
21B1
331
31B1
  5
31B1
331
3170
  5
3170
331
3174
  5
3174
331
3135
  5
3135
331
2184
  5
21BD
331
31B5
  5
31B5
331
2188
  5
21FD
331
3229
  5
3229
331
31E8
  5
31E8
331
3139
  5
3139
331
218C
  5
24E8
331
31EC
  5
31EC
331
313D
  5
313D
331
31F0
  5
31F0
331
31F4
  5
31F4
331
3360
  5
3360
331
3364
  5
3364
331
3368
  5
3368
331
336C
  5
336C
331
31B9
  5
31B9
331
3178
  5
3178
331
31BD
  5
31BD
331
317C
  5
317C
331
3141
  5
3141
331
2190
  5
2504
331
3180
  5
3180
331
3390
  5
3390
331
3184
  5
3184
331
3145
  5
3145
331
2194
  5
2551
331
31CD
  5
31CD
331
3271
  5
3271
331
31F8
  5
31F8
331
3149
  5
3149
331
3394
  5
3394
331
31FC
  5
31FC
331
314D
  5
314D
331
3200
  5
3200
331
3204
  5
3204
331
3373
  5
3373
331
3377
  5
3377
331
337B
  5
337B
331
337F
  5
337F
331
318B
  5
318B
331
31D0
  5
31D0
331
318F
  5
318F
331
219B
  5
2731
331
31D4
  5
31D4
331
3193
  5
3193
331
219F
  5
2831
331
3197
  5
3197
331
31D8
  5
31D8
331
320B
  5
320B
331
31DC
  5
31DC
331
3154
  5
3154
331
3318
  5
3318
331
320F
  5
320F
331
3158
  5
3158
331
3213
  5
3213
331
315C
  5
315C
331
3340
  5
3340
331
3217
  5
3217
331
3344
  5
3344
331
3383
  5
3383
331
3387
  5
3387
331
338B
  5
338B
331
319B
  5
319B
331
31E0
  5
31E0
331
319F
  5
319F
331
31E4
  5
31E4
331
31A3
  5
31A3
331
3160
  5
3160
331
31A7
  5
31A7
331
3127
  5
3127
331
321B
  5
321B
331
3164
  5
3164
331
312B
  5
312B
331
3348
  5
3348
331
1744
  5
175D
331
312F
  5
312F
331
321F
  5
321F
331
3223
  5
3223
331
334C
  5
334C
331
3227
  5
3227
  0
XRECORD
  5
479B
102
{ACAD_REACTORS
330
46F2
102
}
330
46F2
100
AcDbXrecord
280
     1
 40
13269948.0
  1
\pxqc;耐火ヴァンドＲＺ７５　折板屋根軒先納まり
  0
XRECORD
  5
479C
102
{ACAD_REACTORS
330
4627
102
}
330
4627
100
AcDbXrecord
280
     1
 40
4386876.0
  1
\pxqc;アイジーヴァンド参考ディテール
  0
XRECORD
  5
479D
102
{ACAD_REACTORS
330
4629
102
}
330
4629
100
AcDbXrecord
280
     1
 40
3316594.0
  1
\pxqc;アイジー工業株式会社
  0
ACDBDETAILVIEWSTYLE
  5
27CD
102
{ACAD_XDICTIONARY
360
47D5
102
}
102
{ACAD_REACTORS
330
27CC
102
}
330
27CC
100
AcDbModelDocViewStyle
 70
     0
  3
Metric50
290
     0
100
AcDbDetailViewStyle
 70
     0
 71
     0
 90
        3
 71
     1
340
10
 62
   256
 40
5.0
340
0
 62
   256
 40
5.0
300

 40
0.0
280
     1
 71
     2
340
16
 90
       25
 62
   256
 71
     3
340
10
 62
   256
 40
5.0
 90
        0
 40
15.0
 90
        1
300
%<\AcVar ViewDetailId>% (%<\AcVar ViewScale \f "%sn">%)
 71
     4
340
16
 90
       25
 62
   256
340
16
 90
       25
 62
   256
280
     0
1001
ACAD
1000
AcRTDxfName
1000
ACDBDETAILVIEWSTYLE
1000
AcRTDxfName
1000
ACDBDETAILVIEWSTYLE
1000
AcRTDxfName
1000
ACDBDETAILVIEWSTYLE
1000
AcRTDxfName
1000
ACDBDETAILVIEWSTYLE
1000
AcRTDxfName
1000
ACDBDETAILVIEWSTYLE
1000
AcRTDxfName
1000
ACDBDETAILVIEWSTYLE
1000
AcRTDxfName
1000
ACDBDETAILVIEWSTYLE
1000
AcRTDxfName
1000
ACDBDETAILVIEWSTYLE
  0
LAYOUT
  5
3B3
102
{ACAD_REACTORS
330
3B1
102
}
330
3B1
100
AcDbPlotSettings
  1

  2
none_device
  4
ISO_A3_(420.00_x_297.00_MM)
  6

 40
7.5
 41
20.0
 42
7.5
 43
20.0
 44
420.0
 45
297.0
 46
0.0
 47
0.0
 48
20.0
 49
10.0
140
800.0
141
560.0
142
1.0
143
2.0
 70
 11904
 72
     1
 73
     0
 74
     2
  7

 75
     0
147
0.305952380952381
 76
     0
 77
     2
 78
   300
148
0.0
149
0.0
100
AcDbLayout
  1
Model
 70
     1
 71
     0
 10
0.0
 20
0.0
 11
12.0
 21
9.0
 12
0.0
 22
0.0
 32
0.0
 14
0.0
 24
0.0
 34
0.0
 15
0.0
 25
0.0
 35
0.0
146
0.0
 13
0.0
 23
0.0
 33
0.0
 16
1.0
 26
0.0
 36
0.0
 17
0.0
 27
1.0
 37
0.0
 76
     0
330
1A
331
1FE0
1001
ACAD_PSEXT
1000
なし
1000
なし
1000
適切ではありません
1000
新しいプロッタ環境設定名を選択しない限り、レイアウトは印刷されません。
1070
     0
  0
LAYOUT
  5
3B4
102
{ACAD_REACTORS
330
3B1
102
}
330
3B1
100
AcDbPlotSettings
  1

  2
DocuCentre Color 400 (FAX)
  4

  6

 40
0.0
 41
0.0
 42
0.0
 43
0.0
 44
0.0
 45
0.0
 46
0.0
 47
0.0
 48
0.0
 49
0.0
140
0.0
141
0.0
142
1.0
143
1.0
 70
   688
 72
     0
 73
     0
 74
     5
  7
monochrome.ctb
 75
    16
147
1.0
 76
     0
 77
     2
 78
   300
148
0.0
149
0.0
100
AcDbLayout
  1
レイアウト1
 70
     1
 71
     1
 10
0.0
 20
0.0
 11
420.0
 21
297.0
 12
0.0
 22
0.0
 32
0.0
 14
1.000000000000000E+20
 24
1.000000000000000E+20
 34
1.000000000000000E+20
 15
-1.000000000000000E+20
 25
-1.000000000000000E+20
 35
-1.000000000000000E+20
146
0.0
 13
0.0
 23
0.0
 33
0.0
 16
1.0
 26
0.0
 36
0.0
 17
0.0
 27
1.0
 37
0.0
 76
     0
330
17
331
22
  0
MATERIAL
  5
19C4
102
{ACAD_XDICTIONARY
360
3D1F
102
}
102
{ACAD_REACTORS
330
3AF
102
}
330
3AF
100
AcDbMaterial
  1
ByBlock
 73
     1
 78
     1
172
     1
176
     1
270
     1
274
     1
  0
MATERIAL
  5
19C3
102
{ACAD_XDICTIONARY
360
3D1D
102
}
102
{ACAD_REACTORS
330
3AF
102
}
330
3AF
100
AcDbMaterial
  1
ByLayer
 73
     1
 78
     1
172
     1
176
     1
270
     1
274
     1
  0
MATERIAL
  5
19C5
102
{ACAD_XDICTIONARY
360
3D21
102
}
102
{ACAD_REACTORS
330
3AF
102
}
330
3AF
100
AcDbMaterial
  1
Global
 73
     1
 78
     1
172
     1
176
     1
270
     1
274
     1
  0
MLEADERSTYLE
  5
1F71
102
{ACAD_REACTORS
330
1F70
330
3D68
330
3D6A
330
3D6B
330
3D6C
330
3D6D
102
}
330
1F70
100
AcDbMLeaderStyle
179
     2
170
     2
171
     1
172
     0
 90
        2
 40
0.5235987755982988
 41
0.0
173
     1
 91
-1056964608
340
14
 92
       -2
290
     1
 42
2.0
291
     1
 43
0.6
  3
Standard
341
B0
 44
0.0
300

342
10
174
     1
178
     3
175
     1
176
     0
 93
-1056964608
 45
5.0
292
     0
297
     0
 46
4.0
 94
-1056964608
 47
1.0
 49
1.0
140
1.0
293
     1
141
0.0
294
     1
177
     0
142
1.0
295
     0
296
     0
143
0.2
271
     0
272
     9
273
     9
1001
ACAD_MLEADERVER
1070
     2
  0
MLINESTYLE
  5
13
102
{ACAD_REACTORS
330
E
102
}
330
E
100
AcDbMlineStyle
  2
STANDARD
 70
     0
  3

 62
     0
 51
90.0
 52
90.0
 71
     2
 49
0.5
 62
   256
  6
BYLAYER
 49
-0.5
 62
   256
  6
BYLAYER
  0
PLOTSETTINGS
  5
1F2A
102
{ACAD_REACTORS
330
3B2
102
}
330
3B2
100
AcDbPlotSettings
  1
セットアップ1
  2
DocuCentre-III C4400
  4
A4
  6

 40
4.857749938964841
 41
4.942390441894531
 42
4.942413330078125
 43
4.857757568359375
 44
209.9733276367186
 45
297.0106506347656
 46
0.0000000000000142
 47
50.06111745692236
 48
105.6030920299711
 49
24.71134454573553
140
750.3315936897672
141
627.2953067878952
142
1.0
143
3.220853822721043
 70
 11956
 72
     1
 73
     0
 74
     4
  7
monochrome.ctb
 75
     0
147
0.3104766794896577
 76
     0
 77
     2
 78
   300
148
-105.6030920299711
149
-24.71134454573553
1001
ACAD_PSEXT
1000
DocuCentre-III C4400
1000
FX DocuCentre-III C4400
1000
192.168.4.253
1000

1070
     0
  0
ACDBPLACEHOLDER
  5
3AE
102
{ACAD_REACTORS
330
3AD
102
}
330
3AD
  0
SCALE
  5
1F4F
102
{ACAD_REACTORS
330
1F4E
102
}
330
1F4E
100
AcDbScale
 70
     0
300
1:1
140
1.0
141
1.0
290
     1
  0
SCALE
  5
1F50
102
{ACAD_REACTORS
330
1F4E
102
}
330
1F4E
100
AcDbScale
 70
     0
300
1:2
140
1.0
141
2.0
290
     0
  0
SCALE
  5
1F51
102
{ACAD_REACTORS
330
1F4E
102
}
330
1F4E
100
AcDbScale
 70
     0
300
1:4
140
1.0
141
4.0
290
     0
  0
SCALE
  5
1F52
102
{ACAD_REACTORS
330
1F4E
102
}
330
1F4E
100
AcDbScale
 70
     0
300
1:5
140
1.0
141
5.0
290
     0
  0
SCALE
  5
1F53
102
{ACAD_REACTORS
330
1F4E
102
}
330
1F4E
100
AcDbScale
 70
     0
300
1:8
140
1.0
141
8.0
290
     0
  0
SCALE
  5
1F54
102
{ACAD_REACTORS
330
1F4E
102
}
330
1F4E
100
AcDbScale
 70
     0
300
1:10
140
1.0
141
10.0
290
     0
  0
SCALE
  5
1F55
102
{ACAD_REACTORS
330
1F4E
102
}
330
1F4E
100
AcDbScale
 70
     0
300
1:16
140
1.0
141
16.0
290
     0
  0
SCALE
  5
1F56
102
{ACAD_REACTORS
330
1F4E
102
}
330
1F4E
100
AcDbScale
 70
     0
300
1:20
140
1.0
141
20.0
290
     0
  0
SCALE
  5
1F57
102
{ACAD_REACTORS
330
1F4E
102
}
330
1F4E
100
AcDbScale
 70
     0
300
1:30
140
1.0
141
30.0
290
     0
  0
SCALE
  5
1F58
102
{ACAD_REACTORS
330
1F4E
102
}
330
1F4E
100
AcDbScale
 70
     0
300
1:40
140
1.0
141
40.0
290
     0
  0
SCALE
  5
1F59
102
{ACAD_REACTORS
330
1F4E
102
}
330
1F4E
100
AcDbScale
 70
     0
300
1:50
140
1.0
141
50.0
290
     0
  0
SCALE
  5
1F5A
102
{ACAD_REACTORS
330
1F4E
102
}
330
1F4E
100
AcDbScale
 70
     0
300
1:100
140
1.0
141
100.0
290
     0
  0
SCALE
  5
1F5B
102
{ACAD_REACTORS
330
1F4E
102
}
330
1F4E
100
AcDbScale
 70
     0
300
2:1
140
2.0
141
1.0
290
     0
  0
SCALE
  5
1F5C
102
{ACAD_REACTORS
330
1F4E
102
}
330
1F4E
100
AcDbScale
 70
     0
300
4:1
140
4.0
141
1.0
290
     0
  0
SCALE
  5
1F5D
102
{ACAD_REACTORS
330
1F4E
102
}
330
1F4E
100
AcDbScale
 70
     0
300
8:1
140
8.0
141
1.0
290
     0
  0
SCALE
  5
1F5E
102
{ACAD_REACTORS
330
1F4E
102
}
330
1F4E
100
AcDbScale
 70
     0
300
10:1
140
10.0
141
1.0
290
     0
  0
SCALE
  5
1F5F
102
{ACAD_REACTORS
330
1F4E
102
}
330
1F4E
100
AcDbScale
 70
     0
300
100:1
140
100.0
141
1.0
290
     0
  0
SCALE
  5
1F60
102
{ACAD_REACTORS
330
1F4E
102
}
330
1F4E
100
AcDbScale
 70
     0
300
1/128" = 1'-0"
140
0.0078125
141
12.0
290
     0
  0
SCALE
  5
1F61
102
{ACAD_REACTORS
330
1F4E
102
}
330
1F4E
100
AcDbScale
 70
     0
300
1/64" = 1'-0"
140
0.015625
141
12.0
290
     0
  0
SCALE
  5
1F62
102
{ACAD_REACTORS
330
1F4E
102
}
330
1F4E
100
AcDbScale
 70
     0
300
1/32" = 1'-0"
140
0.03125
141
12.0
290
     0
  0
SCALE
  5
1F63
102
{ACAD_REACTORS
330
1F4E
102
}
330
1F4E
100
AcDbScale
 70
     0
300
1/16" = 1'-0"
140
0.0625
141
12.0
290
     0
  0
SCALE
  5
1F64
102
{ACAD_REACTORS
330
1F4E
102
}
330
1F4E
100
AcDbScale
 70
     0
300
3/32" = 1'-0"
140
0.09375
141
12.0
290
     0
  0
SCALE
  5
1F65
102
{ACAD_REACTORS
330
1F4E
102
}
330
1F4E
100
AcDbScale
 70
     0
300
1/8" = 1'-0"
140
0.125
141
12.0
290
     0
  0
SCALE
  5
1F66
102
{ACAD_REACTORS
330
1F4E
102
}
330
1F4E
100
AcDbScale
 70
     0
300
3/16" = 1'-0"
140
0.1875
141
12.0
290
     0
  0
SCALE
  5
1F67
102
{ACAD_REACTORS
330
1F4E
102
}
330
1F4E
100
AcDbScale
 70
     0
300
1/4" = 1'-0"
140
0.25
141
12.0
290
     0
  0
SCALE
  5
1F68
102
{ACAD_REACTORS
330
1F4E
102
}
330
1F4E
100
AcDbScale
 70
     0
300
3/8" = 1'-0"
140
0.375
141
12.0
290
     0
  0
SCALE
  5
1F69
102
{ACAD_REACTORS
330
1F4E
102
}
330
1F4E
100
AcDbScale
 70
     0
300
1/2" = 1'-0"
140
0.5
141
12.0
290
     0
  0
SCALE
  5
1F6A
102
{ACAD_REACTORS
330
1F4E
102
}
330
1F4E
100
AcDbScale
 70
     0
300
3/4" = 1'-0"
140
0.75
141
12.0
290
     0
  0
SCALE
  5
1F6B
102
{ACAD_REACTORS
330
1F4E
102
}
330
1F4E
100
AcDbScale
 70
     0
300
1" = 1'-0"
140
1.0
141
12.0
290
     0
  0
SCALE
  5
1F6C
102
{ACAD_REACTORS
330
1F4E
102
}
330
1F4E
100
AcDbScale
 70
     0
300
1-1/2" = 1'-0"
140
1.5
141
12.0
290
     0
  0
SCALE
  5
1F6D
102
{ACAD_REACTORS
330
1F4E
102
}
330
1F4E
100
AcDbScale
 70
     0
300
3" = 1'-0"
140
3.0
141
12.0
290
     0
  0
SCALE
  5
1F6E
102
{ACAD_REACTORS
330
1F4E
102
}
330
1F4E
100
AcDbScale
 70
     0
300
6" = 1'-0"
140
6.0
141
12.0
290
     0
  0
SCALE
  5
1F6F
102
{ACAD_REACTORS
330
1F4E
102
}
330
1F4E
100
AcDbScale
 70
     0
300
1'-0" = 1'-0"
140
12.0
141
12.0
290
     0
  0
ACDBSECTIONVIEWSTYLE
  5
27CB
102
{ACAD_XDICTIONARY
360
47D3
102
}
102
{ACAD_REACTORS
330
27CA
102
}
330
27CA
100
AcDbModelDocViewStyle
 70
     0
  3
Metric50
290
     0
100
AcDbSectionViewStyle
 70
     0
 71
     0
 90
      102
 71
     1
340
10
 62
   256
 40
5.0
340
0
340
0
 62
   256
 40
5.0
300
I, O, Q, S, X, Z
 40
10.0
 90
        0
 40
2.5
 90
        0
 71
     2
340
16
 90
       25
 62
   256
340
16
 90
       50
 62
   256
 40
5.0
 40
2.5
 40
5.0
 71
     3
340
10
 62
   256
 40
5.0
 90
        0
 40
15.0
 90
        1
300
%<\AcVar ViewSectionStartId>%-%<\AcVar ViewSectionEndId>% (%<\AcVar ViewScale \f "%sn">%)
 71
     4
 62
   256
 62
   257
300
ANSI31
 40
1.0
 90
        0
290
     0
290
     0
 90
        6
 40
0.0
 40
1.570796326794896
 40
0.2617993877991494
 40
1.308996938995747
 40
-0.2617993877991494
 40
1.832595714594044
1001
ACAD
1000
AcRTDxfName
1000
ACDBSECTIONVIEWSTYLE
1000
AcRTDxfName
1000
ACDBSECTIONVIEWSTYLE
1000
AcRTDxfName
1000
ACDBSECTIONVIEWSTYLE
1000
AcRTDxfName
1000
ACDBSECTIONVIEWSTYLE
1000
AcRTDxfName
1000
ACDBSECTIONVIEWSTYLE
1000
AcRTDxfName
1000
ACDBSECTIONVIEWSTYLE
1000
AcRTDxfName
1000
ACDBSECTIONVIEWSTYLE
1000
AcRTDxfName
1000
ACDBSECTIONVIEWSTYLE
  0
TABLESTYLE
  5
14DE
102
{ACAD_XDICTIONARY
360
1F87
102
}
102
{ACAD_REACTORS
330
14DD
102
}
330
14DD
100
AcDbTableStyle
280
     0
  3
Standard
 70
     0
 71
     0
 40
1.5
 41
1.5
280
     0
281
     0
  7
STANDARD
140
4.5
170
     2
 62
     0
 63
     7
283
     0
 90
        4
 91
        0
  1

274
    -2
284
     1
 64
     0
275
    -2
285
     1
 65
     0
276
    -2
286
     1
 66
     0
277
    -2
287
     1
 67
     0
278
    -2
288
     1
 68
     0
279
    -2
289
     1
 69
     0
  7
STANDARD
140
6.0
170
     5
 62
     0
 63
     7
283
     0
 90
        4
 91
        0
  1

274
    -2
284
     1
 64
     0
275
    -2
285
     1
 65
     0
276
    -2
286
     1
 66
     0
277
    -2
287
     1
 67
     0
278
    -2
288
     1
 68
     0
279
    -2
289
     1
 69
     0
  7
STANDARD
140
4.5
170
     5
 62
     0
 63
     7
283
     0
 90
        4
 91
        0
  1

274
    -2
284
     1
 64
     0
275
    -2
285
     1
 65
     0
276
    -2
286
     1
 66
     0
277
    -2
287
     1
 67
     0
278
    -2
288
     1
 68
     0
279
    -2
289
     1
 69
     0
1001
ACAD
1000
AcRTDxfName
1000
TABLESTYLE
1000
AcRTDxfName
1000
TABLESTYLE
1000
AcRTDxfName
1000
TABLESTYLE
  0
VISUALSTYLE
  5
19CC
102
{ACAD_XDICTIONARY
360
47A9
102
}
102
{ACAD_REACTORS
330
19C6
102
}
330
19C6
100
AcDbVisualStyle
  2

 70
     4
177
     2
291
     0
 71
     0
176
     1
 72
     2
176
     1
 73
     0
176
     1
 90
        0
176
     1
 40
0.6
176
     1
 41
30.0
176
     1
 63
     7
176
     1
 74
     1
176
     1
 91
        4
176
     1
 64
     7
176
     1
 65
   257
176
     1
 75
     1
176
     1
175
     1
176
     1
 42
1.0
176
     1
 92
        0
176
     1
 66
   257
176
     1
 43
1.0
176
     1
 76
     1
176
     1
 77
     6
176
     1
 78
     2
176
     1
 67
     7
176
     1
 79
     5
176
     1
170
     0
176
     1
171
     0
176
     1
290
     0
176
     1
 93
        1
176
     1
 44
0.0
176
     1
173
     0
176
     1
1001
ACAD
1000
AcDbSavedByObjectVersion
1070
     0
  0
VISUALSTYLE
  5
19CE
102
{ACAD_XDICTIONARY
360
47AD
102
}
102
{ACAD_REACTORS
330
19C6
102
}
330
19C6
100
AcDbVisualStyle
  2

 70
     6
177
     2
291
     0
 71
     1
176
     1
 72
     2
176
     1
 73
     2
176
     1
 90
        0
176
     1
 40
0.6
176
     1
 41
30.0
176
     1
 63
     7
176
     1
 74
     2
176
     1
 91
        2
176
     1
 64
     7
176
     1
 65
   257
176
     1
 75
     2
176
     1
175
     1
176
     1
 42
40.0
176
     1
 92
        0
176
     1
 66
   257
176
     1
 43
1.0
176
     1
 76
     1
176
     1
 77
     6
176
     1
 78
     2
176
     1
 67
     7
176
     1
 79
     3
176
     1
170
     0
176
     1
171
     0
176
     1
290
     0
176
     1
 93
        1
176
     1
 44
0.0
176
     1
173
     0
176
     1
1001
ACAD
1000
AcDbSavedByObjectVersion
1070
     0
  0
VISUALSTYLE
  5
19CD
102
{ACAD_XDICTIONARY
360
47AB
102
}
102
{ACAD_REACTORS
330
19C6
102
}
330
19C6
100
AcDbVisualStyle
  2

 70
     5
177
     2
291
     0
 71
     0
176
     1
 72
     2
176
     1
 73
     0
176
     1
 90
        0
176
     1
 40
0.6
176
     1
 41
30.0
176
     1
 63
     7
176
     1
 74
     1
176
     1
 91
        4
176
     1
 64
     7
176
     1
 65
   257
176
     1
 75
     1
176
     1
175
     1
176
     1
 42
1.0
176
     1
 92
        0
176
     1
 66
   257
176
     1
 43
1.0
176
     1
 76
     1
176
     1
 77
     6
176
     1
 78
     2
176
     1
 67
     7
176
     1
 79
     5
176
     1
170
     0
176
     1
171
     0
176
     1
290
     0
176
     1
 93
        1
176
     1
 44
0.0
176
     1
173
     0
176
     1
1001
ACAD
1000
AcDbSavedByObjectVersion
1070
     0
  0
VISUALSTYLE
  5
19CB
102
{ACAD_XDICTIONARY
360
47A7
102
}
102
{ACAD_REACTORS
330
19C6
102
}
330
19C6
100
AcDbVisualStyle
  2

 70
     7
177
     2
291
     1
 71
     1
176
     1
 72
     0
176
     1
 73
     1
176
     1
 90
        0
176
     1
 40
0.6
176
     1
 41
30.0
176
     1
 63
     7
176
     1
 74
     0
176
     1
 91
        4
176
     1
 64
     7
176
     1
 65
   257
176
     1
 75
     1
176
     1
175
     1
176
     1
 42
1.0
176
     1
 92
        8
176
     1
 66
     7
176
     1
 43
1.0
176
     1
 76
     1
176
     1
 77
     6
176
     1
 78
     2
176
     1
 67
     7
176
     1
 79
     5
176
     1
170
     0
176
     1
171
     0
176
     1
290
     0
176
     1
 93
        1
176
     1
 44
0.0
176
     1
173
     0
176
     1
1001
ACAD
1000
AcDbSavedByObjectVersion
1070
     0
  0
VISUALSTYLE
  5
19D2
102
{ACAD_XDICTIONARY
360
47B5
102
}
102
{ACAD_REACTORS
330
19C6
102
}
330
19C6
100
AcDbVisualStyle
  2

 70
    12
177
     2
291
     1
 71
     2
176
     1
 72
     2
176
     1
 73
     0
176
     1
 90
        0
176
     1
 40
0.6
176
     1
 41
30.0
176
     1
 63
     7
176
     1
 74
     1
176
     1
 91
        4
176
     1
 64
     7
176
     1
 65
   257
176
     1
 75
     1
176
     1
175
     1
176
     1
 42
1.0
176
     1
 92
        8
176
     1
 66
     7
176
     1
 43
1.0
176
     1
 76
     1
176
     1
 77
     6
176
     1
 78
     2
176
     1
 67
     7
176
     1
 79
     5
176
     1
170
     0
176
     1
171
     0
176
     1
290
     0
176
     1
 93
        1
176
     1
 44
50.0
176
     1
173
     0
176
     1
1001
ACAD
1000
AcDbSavedByObjectVersion
1070
     0
  0
VISUALSTYLE
  5
19D6
102
{ACAD_XDICTIONARY
360
47BD
102
}
102
{ACAD_REACTORS
330
19C6
102
}
330
19C6
100
AcDbVisualStyle
  2

 70
    16
177
     2
291
     1
 71
     2
176
     1
 72
     2
176
     1
 73
     3
176
     1
 90
        0
176
     1
 40
0.6
176
     1
 41
30.0
176
     1
 63
     8
176
     1
 74
     1
176
     1
 91
        4
176
     1
 64
     7
176
     1
 65
   257
176
     1
 75
     1
176
     1
175
     1
176
     1
 42
1.0
176
     1
 92
        8
176
     1
 66
     8
176
     1
 43
1.0
176
     1
 76
     1
176
     1
 77
     6
176
     1
 78
     2
176
     1
 67
     7
176
     1
 79
     5
176
     1
170
     0
176
     1
171
     0
176
     1
290
     0
176
     1
 93
        1
176
     1
 44
0.0
176
     1
173
     0
176
     1
1001
ACAD
1000
AcDbSavedByObjectVersion
1070
     0
  0
VISUALSTYLE
  5
19CF
102
{ACAD_XDICTIONARY
360
47AF
102
}
102
{ACAD_REACTORS
330
19C6
102
}
330
19C6
100
AcDbVisualStyle
  2

 70
     9
177
     2
291
     0
 71
     3
176
     1
 72
     2
176
     1
 73
     0
176
     1
 90
        0
176
     1
 40
0.6
176
     1
 41
30.0
176
     1
 63
     7
176
     1
 74
     2
176
     1
 91
        2
176
     1
 64
     7
176
     1
 65
   257
176
     1
 75
     1
176
     1
175
     1
176
     1
 42
40.0
176
     1
 92
        8
176
     1
 66
     7
176
     1
 43
1.0
176
     1
 76
     1
176
     1
 77
     6
176
     1
 78
     2
176
     1
 67
     7
176
     1
 79
     3
176
     1
170
     0
176
     1
171
     0
176
     1
290
     0
176
     1
 93
        1
176
     1
 44
0.0
176
     1
173
     0
176
     1
1001
ACAD
1000
AcDbSavedByObjectVersion
1070
     0
  0
VISUALSTYLE
  5
19D1
102
{ACAD_XDICTIONARY
360
47B3
102
}
102
{ACAD_REACTORS
330
19C6
102
}
330
19C6
100
AcDbVisualStyle
  2

 70
    11
177
     2
291
     1
 71
     2
176
     1
 72
     2
176
     1
 73
     0
176
     1
 90
        0
176
     1
 40
0.6
176
     1
 41
30.0
176
     1
 63
     7
176
     1
 74
     1
176
     1
 91
        4
176
     1
 64
     7
176
     1
 65
   257
176
     1
 75
     1
176
     1
175
     1
176
     1
 42
1.0
176
     1
 92
        8
176
     1
 66
     7
176
     1
 43
1.0
176
     1
 76
     1
176
     1
 77
     6
176
     1
 78
     2
176
     1
 67
     7
176
     1
 79
     5
176
     1
170
     0
176
     1
171
     0
176
     1
290
     0
176
     1
 93
        1
176
     1
 44
-50.0
176
     1
173
     0
176
     1
1001
ACAD
1000
AcDbSavedByObjectVersion
1070
     0
  0
VISUALSTYLE
  5
2151
102
{ACAD_XDICTIONARY
360
47D1
102
}
102
{ACAD_REACTORS
330
19C6
102
}
330
19C6
100
AcDbVisualStyle
  2

 70
    22
177
     2
291
     1
 71
     2
176
     0
 72
     2
176
     0
 73
     0
176
     0
 90
        0
176
     0
 40
0.6
176
     0
 41
30.0
176
     0
 63
     7
176
     0
 74
     1
176
     0
 91
        4
176
     0
 64
     7
176
     0
 65
   257
176
     0
 75
     1
176
     0
175
     1
176
     0
 42
1.0
176
     0
 92
        8
176
     2
 66
     7
176
     0
 43
1.0
176
     0
 76
     1
176
     0
 77
     6
176
     0
 78
     2
176
     0
 67
     7
176
     0
 79
     5
176
     0
170
     0
176
     0
171
     0
176
     0
290
     0
176
     0
 93
        1
176
     0
 44
0.0
176
     0
173
     0
176
     0
1001
ACAD
1000
AcDbSavedByObjectVersion
1070
     0
  0
VISUALSTYLE
  5
19D5
102
{ACAD_XDICTIONARY
360
47BB
102
}
102
{ACAD_REACTORS
330
19C6
102
}
330
19C6
100
AcDbVisualStyle
  2

 70
    15
177
     2
291
     1
 71
     2
176
     1
 72
     2
176
     1
 73
     0
176
     1
 90
        0
176
     1
 40
0.6
176
     1
 41
30.0
176
     1
 63
     7
176
     1
 74
     1
176
     1
 91
        4
176
     1
 64
     7
176
     1
 65
   257
176
     1
 75
     1
176
     1
175
     1
176
     1
 42
1.0
176
     1
 92
        8
176
     1
 66
     7
176
     1
 43
1.0
176
     1
 76
     1
176
     1
 77
     6
176
     1
 78
     2
176
     1
 67
     7
176
     1
 79
     5
176
     1
170
     0
176
     1
171
     0
176
     1
290
     0
176
     1
 93
        1
176
     1
 44
0.0
176
     1
173
     0
176
     1
1001
ACAD
1000
AcDbSavedByObjectVersion
1070
     0
  0
VISUALSTYLE
  5
19C7
102
{ACAD_XDICTIONARY
360
479F
102
}
102
{ACAD_REACTORS
330
19C6
102
}
330
19C6
100
AcDbVisualStyle
  2

 70
     0
177
     2
291
     1
 71
     2
176
     1
 72
     1
176
     1
 73
     1
176
     1
 90
        2
176
     1
 40
0.6
176
     1
 41
30.0
176
     1
 63
     7
176
     1
 74
     0
176
     1
 91
        4
176
     1
 64
     7
176
     1
 65
   257
176
     1
 75
     1
176
     1
175
     1
176
     1
 42
1.0
176
     1
 92
        8
176
     1
 66
     7
176
     1
 43
1.0
176
     1
 76
     1
176
     1
 77
     6
176
     1
 78
     2
176
     1
 67
     7
176
     1
 79
     5
176
     1
170
     0
176
     1
171
     0
176
     1
290
     0
176
     1
 93
       13
176
     1
 44
0.0
176
     1
173
     0
176
     1
1001
ACAD
1000
AcDbSavedByObjectVersion
1070
     0
  0
VISUALSTYLE
  5
19C8
102
{ACAD_XDICTIONARY
360
47A1
102
}
102
{ACAD_REACTORS
330
19C6
102
}
330
19C6
100
AcDbVisualStyle
  2

 70
     1
177
     2
291
     1
 71
     2
176
     1
 72
     1
176
     1
 73
     1
176
     1
 90
        2
176
     1
 40
0.6
176
     1
 41
30.0
176
     1
 63
     7
176
     1
 74
     1
176
     1
 91
        4
176
     1
 64
     7
176
     1
 65
   257
176
     1
 75
     1
176
     1
175
     1
176
     1
 42
1.0
176
     1
 92
        0
176
     1
 66
   257
176
     1
 43
1.0
176
     1
 76
     1
176
     1
 77
     6
176
     1
 78
     2
176
     1
 67
     7
176
     1
 79
     5
176
     1
170
     0
176
     1
171
     0
176
     1
290
     0
176
     1
 93
       13
176
     1
 44
0.0
176
     1
173
     0
176
     1
1001
ACAD
1000
AcDbSavedByObjectVersion
1070
     0
  0
VISUALSTYLE
  5
19C9
102
{ACAD_XDICTIONARY
360
47A3
102
}
102
{ACAD_REACTORS
330
19C6
102
}
330
19C6
100
AcDbVisualStyle
  2

 70
     2
177
     2
291
     1
 71
     2
176
     1
 72
     2
176
     1
 73
     1
176
     1
 90
        2
176
     1
 40
0.6
176
     1
 41
30.0
176
     1
 63
     7
176
     1
 74
     0
176
     1
 91
        4
176
     1
 64
     7
176
     1
 65
   257
176
     1
 75
     1
176
     1
175
     1
176
     1
 42
1.0
176
     1
 92
        0
176
     1
 66
     7
176
     1
 43
1.0
176
     1
 76
     1
176
     1
 77
     6
176
     1
 78
     2
176
     1
 67
     7
176
     1
 79
     5
176
     1
170
     0
176
     1
171
     0
176
     1
290
     0
176
     1
 93
       13
176
     1
 44
0.0
176
     1
173
     0
176
     1
1001
ACAD
1000
AcDbSavedByObjectVersion
1070
     0
  0
VISUALSTYLE
  5
19CA
102
{ACAD_XDICTIONARY
360
47A5
102
}
102
{ACAD_REACTORS
330
19C6
102
}
330
19C6
100
AcDbVisualStyle
  2

 70
     3
177
     2
291
     1
 71
     2
176
     1
 72
     2
176
     1
 73
     1
176
     1
 90
        2
176
     1
 40
0.6
176
     1
 41
30.0
176
     1
 63
     7
176
     1
 74
     1
176
     1
 91
        4
176
     1
 64
     7
176
     1
 65
   257
176
     1
 75
     1
176
     1
175
     1
176
     1
 42
1.0
176
     1
 92
        0
176
     1
 66
   257
176
     1
 43
1.0
176
     1
 76
     1
176
     1
 77
     6
176
     1
 78
     2
176
     1
 67
     7
176
     1
 79
     5
176
     1
170
     0
176
     1
171
     0
176
     1
290
     0
176
     1
 93
       13
176
     1
 44
0.0
176
     1
173
     0
176
     1
1001
ACAD
1000
AcDbSavedByObjectVersion
1070
     0
  0
VISUALSTYLE
  5
2149
102
{ACAD_XDICTIONARY
360
47C1
102
}
102
{ACAD_REACTORS
330
19C6
102
}
330
19C6
100
AcDbVisualStyle
  2

 70
     6
177
     2
291
     0
 71
     1
176
     1
 72
     2
176
     1
 73
     2
176
     1
 90
        0
176
     1
 40
0.6
176
     1
 41
30.0
176
     1
 63
     7
176
     1
 74
     2
176
     1
 91
        2
176
     1
 64
     7
176
     1
 65
   257
176
     1
 75
     2
176
     1
175
     1
176
     1
 42
40.0
176
     1
 92
        0
176
     1
 66
   257
176
     1
 43
1.0
176
     1
 76
     1
176
     1
 77
     6
176
     1
 78
     2
176
     1
 67
     7
176
     1
 79
     3
176
     1
170
     0
176
     1
171
     0
176
     1
290
     0
176
     1
 93
        1
176
     1
 44
0.0
176
     1
173
     0
176
     1
1001
ACAD
1000
AcDbSavedByObjectVersion
1070
     0
  0
VISUALSTYLE
  5
214F
102
{ACAD_XDICTIONARY
360
47CD
102
}
102
{ACAD_REACTORS
330
19C6
102
}
330
19C6
100
AcDbVisualStyle
  2

 70
    20
177
     2
291
     1
 71
     2
176
     0
 72
     2
176
     0
 73
     0
176
     0
 90
        0
176
     0
 40
0.6
176
     0
 41
30.0
176
     0
 63
     7
176
     0
 74
     1
176
     0
 91
        4
176
     0
 64
     7
176
     0
 65
   257
176
     0
 75
     1
176
     0
175
     1
176
     0
 42
1.0
176
     0
 92
       10
176
     2
 66
     7
176
     0
 43
1.0
176
     0
 76
     1
176
     0
 77
     6
176
     0
 78
     2
176
     0
 67
     7
176
     0
 79
     5
176
     0
170
     0
176
     0
171
     0
176
     0
290
     0
176
     0
 93
        1
176
     0
 44
0.0
176
     0
173
     0
176
     0
1001
ACAD
1000
AcDbSavedByObjectVersion
1070
     0
  0
VISUALSTYLE
  5
19D4
102
{ACAD_XDICTIONARY
360
47B9
102
}
102
{ACAD_REACTORS
330
19C6
102
}
330
19C6
100
AcDbVisualStyle
  2

 70
    14
177
     2
291
     1
 71
     2
176
     1
 72
     2
176
     1
 73
     0
176
     1
 90
        0
176
     1
 40
0.6
176
     1
 41
30.0
176
     1
 63
     7
176
     1
 74
     1
176
     1
 91
        4
176
     1
 64
     7
176
     1
 65
   257
176
     1
 75
     7
176
     1
175
     7
176
     1
 42
1.0
176
     1
 92
        8
176
     1
 66
     7
176
     1
 43
1.0
176
     1
 76
     1
176
     1
 77
     6
176
     1
 78
     2
176
     1
 67
     7
176
     1
 79
     5
176
     1
170
     0
176
     1
171
     0
176
     1
290
     0
176
     1
 93
        1
176
     1
 44
0.0
176
     1
173
     0
176
     1
1001
ACAD
1000
AcDbSavedByObjectVersion
1070
     0
  0
VISUALSTYLE
  5
2150
102
{ACAD_XDICTIONARY
360
47CF
102
}
102
{ACAD_REACTORS
330
19C6
102
}
330
19C6
100
AcDbVisualStyle
  2

 70
    21
177
     2
291
     1
 71
     2
176
     0
 72
     2
176
     0
 73
     0
176
     0
 90
        0
176
     0
 40
0.6
176
     0
 41
30.0
176
     0
 63
     7
176
     0
 74
     1
176
     0
 91
        4
176
     0
 64
     7
176
     0
 65
   257
176
     0
 75
     1
176
     0
175
     1
176
     0
 42
1.0
176
     0
 92
        9
176
     2
 66
     7
176
     0
 43
1.0
176
     0
 76
     1
176
     0
 77
     6
176
     0
 78
     2
176
     0
 67
     7
176
     0
 79
     5
176
     0
170
     0
176
     0
171
     0
176
     0
290
     0
176
     0
 93
        1
176
     0
 44
0.0
176
     0
173
     0
176
     0
1001
ACAD
1000
AcDbSavedByObjectVersion
1070
     0
  0
VISUALSTYLE
  5
19D0
102
{ACAD_XDICTIONARY
360
47B1
102
}
102
{ACAD_REACTORS
330
19C6
102
}
330
19C6
100
AcDbVisualStyle
  2

 70
     8
177
     2
291
     0
 71
     2
176
     1
 72
     2
176
     1
 73
     0
176
     1
 90
        0
176
     1
 40
0.6
176
     1
 41
30.0
176
     1
 63
     7
176
     1
 74
     1
176
     1
 91
        0
176
     1
 64
     7
176
     1
 65
   257
176
     1
 75
     1
176
     1
175
     1
176
     1
 42
1.0
176
     1
 92
        8
176
     1
 66
     8
176
     1
 43
1.0
176
     1
 76
     1
176
     1
 77
     6
176
     1
 78
     2
176
     1
 67
     7
176
     1
 79
     5
176
     1
170
     0
176
     1
171
     0
176
     1
290
     0
176
     1
 93
       13
176
     1
 44
0.0
176
     1
173
     0
176
     1
1001
ACAD
1000
AcDbSavedByObjectVersion
1070
     0
  0
VISUALSTYLE
  5
214E
102
{ACAD_XDICTIONARY
360
47CB
102
}
102
{ACAD_REACTORS
330
19C6
102
}
330
19C6
100
AcDbVisualStyle
  2

 70
    27
177
     2
291
     0
 71
     2
176
     1
 72
     2
176
     1
 73
     1
176
     1
 90
        2
176
     1
 40
0.6
176
     1
 41
30.0
176
     1
 63
     7
176
     1
 74
     0
176
     1
 91
        4
176
     1
 64
     7
176
     1
 65
   257
176
     1
 75
     1
176
     1
175
     1
176
     1
 42
1.0
176
     1
 92
        8
176
     1
 66
   257
176
     1
 43
1.0
176
     1
 76
     1
176
     1
 77
     6
176
     1
 78
     2
176
     1
 67
     8
176
     1
 79
     3
176
     1
170
     0
176
     1
171
     0
176
     1
290
     0
176
     1
 93
        5
176
     1
 44
0.0
176
     1
173
     0
176
     1
1001
ACAD
1000
AcDbSavedByObjectVersion
1070
     0
  0
VISUALSTYLE
  5
214D
102
{ACAD_XDICTIONARY
360
47C9
102
}
102
{ACAD_REACTORS
330
19C6
102
}
330
19C6
100
AcDbVisualStyle
  2

 70
    26
177
     2
291
     0
 71
     2
176
     1
 72
     2
176
     1
 73
     1
176
     1
 90
        2
176
     1
 40
0.6
176
     1
 41
30.0
176
     1
 63
     7
176
     1
 74
     1
176
     1
 91
        2
176
     1
 64
     7
176
     1
 65
   257
176
     1
 75
     2
176
     1
175
     1
176
     1
 42
1.0
176
     1
 92
        8
176
     1
 66
   257
176
     1
 43
1.0
176
     1
 76
     1
176
     1
 77
     6
176
     1
 78
     2
176
     1
 67
     7
176
     1
 79
     3
176
     1
170
     0
176
     1
171
     0
176
     1
290
     0
176
     1
 93
        5
176
     1
 44
0.0
176
     1
173
     0
176
     1
1001
ACAD
1000
AcDbSavedByObjectVersion
1070
     0
  0
VISUALSTYLE
  5
214A
102
{ACAD_XDICTIONARY
360
47C3
102
}
102
{ACAD_REACTORS
330
19C6
102
}
330
19C6
100
AcDbVisualStyle
  2

 70
    23
177
     2
291
     0
 71
     2
176
     1
 72
     2
176
     1
 73
     3
176
     1
 90
        0
176
     1
 40
0.6
176
     1
 41
30.0
176
     1
 63
     7
176
     1
 74
     2
176
     1
 91
        2
176
     1
 64
     7
176
     1
 65
     7
176
     1
 75
     1
176
     1
175
     1
176
     1
 42
40.0
176
     1
 92
        8
176
     1
 66
     7
176
     1
 43
1.0
176
     1
 76
     1
176
     1
 77
     6
176
     1
 78
     2
176
     1
 67
     7
176
     1
 79
     3
176
     1
170
     0
176
     1
171
     0
176
     1
290
     0
176
     1
 93
        1
176
     1
 44
0.0
176
     1
173
     0
176
     1
1001
ACAD
1000
AcDbSavedByObjectVersion
1070
     0
  0
VISUALSTYLE
  5
214B
102
{ACAD_XDICTIONARY
360
47C5
102
}
102
{ACAD_REACTORS
330
19C6
102
}
330
19C6
100
AcDbVisualStyle
  2

 70
    24
177
     2
291
     0
 71
     1
176
     1
 72
     2
176
     1
 73
     2
176
     1
 90
        0
176
     1
 40
0.6
176
     1
 41
30.0
176
     1
 63
     7
176
     1
 74
     2
176
     1
 91
        2
176
     1
 64
     7
176
     1
 65
     7
176
     1
 75
     1
176
     1
175
     1
176
     1
 42
40.0
176
     1
 92
       11
176
     1
 66
     7
176
     1
 43
1.0
176
     1
 76
     1
176
     1
 77
     6
176
     1
 78
     2
176
     1
 67
     7
176
     1
 79
     6
176
     1
170
     0
176
     1
171
     0
176
     1
290
     0
176
     1
 93
        1
176
     1
 44
0.0
176
     1
173
     0
176
     1
1001
ACAD
1000
AcDbSavedByObjectVersion
1070
     0
  0
VISUALSTYLE
  5
19D3
102
{ACAD_XDICTIONARY
360
47B7
102
}
102
{ACAD_REACTORS
330
19C6
102
}
330
19C6
100
AcDbVisualStyle
  2

 70
    13
177
     2
291
     1
 71
     2
176
     1
 72
     2
176
     1
 73
     0
176
     1
 90
        0
176
     1
 40
0.6
176
     1
 41
30.0
176
     1
 63
     7
176
     1
 74
     1
176
     1
 91
        4
176
     1
 64
     7
176
     1
 65
   257
176
     1
 75
     1
176
     1
175
     1
176
     1
 42
1.0
176
     1
 92
       12
176
     1
 66
     7
176
     1
 43
1.0
176
     1
 76
     1
176
     1
 77
     6
176
     1
 78
     2
176
     1
 67
     7
176
     1
 79
     5
176
     1
170
     0
176
     1
171
     0
176
     1
290
     0
176
     1
 93
        1
176
     1
 44
0.0
176
     1
173
     0
176
     1
1001
ACAD
1000
AcDbSavedByObjectVersion
1070
     0
  0
VISUALSTYLE
  5
2148
102
{ACAD_XDICTIONARY
360
47BF
102
}
102
{ACAD_REACTORS
330
19C6
102
}
330
19C6
100
AcDbVisualStyle
  2

 70
     5
177
     2
291
     0
 71
     0
176
     1
 72
     2
176
     1
 73
     0
176
     1
 90
        0
176
     1
 40
0.6
176
     1
 41
30.0
176
     1
 63
     7
176
     1
 74
     1
176
     1
 91
        4
176
     1
 64
     7
176
     1
 65
   257
176
     1
 75
     1
176
     1
175
     1
176
     1
 42
1.0
176
     1
 92
        0
176
     1
 66
   257
176
     1
 43
1.0
176
     1
 76
     1
176
     1
 77
     6
176
     1
 78
     2
176
     1
 67
     7
176
     1
 79
     3
176
     1
170
     0
176
     1
171
     0
176
     1
290
     0
176
     1
 93
        1
176
     1
 44
0.0
176
     1
173
     0
176
     1
1001
ACAD
1000
AcDbSavedByObjectVersion
1070
     0
  0
VISUALSTYLE
  5
214C
102
{ACAD_XDICTIONARY
360
47C7
102
}
102
{ACAD_REACTORS
330
19C6
102
}
330
19C6
100
AcDbVisualStyle
  2

 70
    25
177
     2
291
     0
 71
     2
176
     1
 72
     2
176
     1
 73
     1
176
     1
 90
        1
176
     1
 40
0.5
176
     1
 41
30.0
176
     1
 63
     7
176
     1
 74
     1
176
     1
 91
        0
176
     1
 64
     7
176
     1
 65
   257
176
     1
 75
     1
176
     1
175
     1
176
     1
 42
1.0
176
     1
 92
        8
176
     1
 66
     7
176
     1
 43
1.0
176
     1
 76
     1
176
     1
 77
     6
176
     1
 78
     2
176
     1
 67
     7
176
     1
 79
     3
176
     1
170
     0
176
     1
171
     0
176
     1
290
     0
176
     1
 93
       13
176
     1
 44
0.0
176
     1
173
     0
176
     1
1001
ACAD
1000
AcDbSavedByObjectVersion
1070
     0
  0
DICTIONARYVAR
  5
1FA1
102
{ACAD_REACTORS
330
1897
102
}
330
1897
100
DictionaryVariables
280
     0
  1
1:2
  0
DICTIONARYVAR
  5
1FA0
102
{ACAD_REACTORS
330
1897
102
}
330
1897
100
DictionaryVariables
280
     0
  1
STANDARD
  0
DICTIONARYVAR
  5
1898
102
{ACAD_REACTORS
330
1897
102
}
330
1897
100
DictionaryVariables
280
     0
  1
STANDARD
  0
DICTIONARYVAR
  5
2823
102
{ACAD_REACTORS
330
1897
102
}
330
1897
100
DictionaryVariables
280
     0
  1
Metric50
  0
DICTIONARYVAR
  5
2824
102
{ACAD_REACTORS
330
1897
102
}
330
1897
100
DictionaryVariables
280
     0
  1
Metric50
  0
DICTIONARYVAR
  5
1938
102
{ACAD_REACTORS
330
1897
102
}
330
1897
100
DictionaryVariables
280
     0
  1
1
  0
DICTIONARYVAR
  5
1EEE
102
{ACAD_REACTORS
330
1897
102
}
330
1897
100
DictionaryVariables
280
     0
  1
0
  0
DICTIONARYVAR
  5
2F41
102
{ACAD_REACTORS
330
1897
102
}
330
1897
100
DictionaryVariables
280
     0
  1
1
  0
DICTIONARYVAR
  5
2F42
102
{ACAD_REACTORS
330
1897
102
}
330
1897
100
DictionaryVariables
280
     0
  1
15
  0
DICTIONARYVAR
  5
2F40
102
{ACAD_REACTORS
330
1897
102
}
330
1897
100
DictionaryVariables
280
     0
  1
0
  0
DICTIONARYVAR
  5
2F3F
102
{ACAD_REACTORS
330
1897
102
}
330
1897
100
DictionaryVariables
280
     0
  1
0
  0
DICTIONARYVAR
  5
1939
102
{ACAD_REACTORS
330
1897
102
}
330
1897
100
DictionaryVariables
280
     0
  1

  0
DICTIONARYVAR
  5
1EED
102
{ACAD_REACTORS
330
1897
102
}
330
1897
100
DictionaryVariables
280
     0
  1
127
  0
DICTIONARY
  5
47D5
330
27CD
100
AcDbDictionary
280
     1
281
     1
  3
ACAD_XREC_ROUNDTRIP
360
47D6
  0
DICTIONARY
  5
3D1F
330
19C4
100
AcDbDictionary
280
     1
281
     1
  3
ACAD_XREC_ROUNDTRIP
360
3D20
  0
DICTIONARY
  5
3D1D
330
19C3
100
AcDbDictionary
280
     1
281
     1
  3
ACAD_XREC_ROUNDTRIP
360
3D1E
  0
DICTIONARY
  5
3D21
330
19C5
100
AcDbDictionary
280
     1
281
     1
  3
ACAD_XREC_ROUNDTRIP
360
3D22
  0
DICTIONARY
  5
47D3
330
27CB
100
AcDbDictionary
280
     1
281
     1
  3
ACAD_XREC_ROUNDTRIP
360
47D4
  0
DICTIONARY
  5
1F87
330
14DE
100
AcDbDictionary
280
     1
281
     1
  3
ACAD_ROUNDTRIP_2008_TABLESTYLE_CELLSTYLEMAP
360
479A
  0
DICTIONARY
  5
47A9
330
19CC
100
AcDbDictionary
280
     1
281
     1
  3
ACAD_XREC_ROUNDTRIP
360
47AA
  0
DICTIONARY
  5
47AD
330
19CE
100
AcDbDictionary
280
     1
281
     1
  3
ACAD_XREC_ROUNDTRIP
360
47AE
  0
DICTIONARY
  5
47AB
330
19CD
100
AcDbDictionary
280
     1
281
     1
  3
ACAD_XREC_ROUNDTRIP
360
47AC
  0
DICTIONARY
  5
47A7
330
19CB
100
AcDbDictionary
280
     1
281
     1
  3
ACAD_XREC_ROUNDTRIP
360
47A8
  0
DICTIONARY
  5
47B5
330
19D2
100
AcDbDictionary
280
     1
281
     1
  3
ACAD_XREC_ROUNDTRIP
360
47B6
  0
DICTIONARY
  5
47BD
330
19D6
100
AcDbDictionary
280
     1
281
     1
  3
ACAD_XREC_ROUNDTRIP
360
47BE
  0
DICTIONARY
  5
47AF
330
19CF
100
AcDbDictionary
280
     1
281
     1
  3
ACAD_XREC_ROUNDTRIP
360
47B0
  0
DICTIONARY
  5
47B3
330
19D1
100
AcDbDictionary
280
     1
281
     1
  3
ACAD_XREC_ROUNDTRIP
360
47B4
  0
DICTIONARY
  5
47D1
330
2151
100
AcDbDictionary
280
     1
281
     1
  3
ACAD_XREC_ROUNDTRIP
360
47D2
  0
DICTIONARY
  5
47BB
330
19D5
100
AcDbDictionary
280
     1
281
     1
  3
ACAD_XREC_ROUNDTRIP
360
47BC
  0
DICTIONARY
  5
479F
330
19C7
100
AcDbDictionary
280
     1
281
     1
  3
ACAD_XREC_ROUNDTRIP
360
47A0
  0
DICTIONARY
  5
47A1
330
19C8
100
AcDbDictionary
280
     1
281
     1
  3
ACAD_XREC_ROUNDTRIP
360
47A2
  0
DICTIONARY
  5
47A3
330
19C9
100
AcDbDictionary
280
     1
281
     1
  3
ACAD_XREC_ROUNDTRIP
360
47A4
  0
DICTIONARY
  5
47A5
330
19CA
100
AcDbDictionary
280
     1
281
     1
  3
ACAD_XREC_ROUNDTRIP
360
47A6
  0
DICTIONARY
  5
47C1
330
2149
100
AcDbDictionary
280
     1
281
     1
  3
ACAD_XREC_ROUNDTRIP
360
47C2
  0
DICTIONARY
  5
47CD
330
214F
100
AcDbDictionary
280
     1
281
     1
  3
ACAD_XREC_ROUNDTRIP
360
47CE
  0
DICTIONARY
  5
47B9
330
19D4
100
AcDbDictionary
280
     1
281
     1
  3
ACAD_XREC_ROUNDTRIP
360
47BA
  0
DICTIONARY
  5
47CF
330
2150
100
AcDbDictionary
280
     1
281
     1
  3
ACAD_XREC_ROUNDTRIP
360
47D0
  0
DICTIONARY
  5
47B1
330
19D0
100
AcDbDictionary
280
     1
281
     1
  3
ACAD_XREC_ROUNDTRIP
360
47B2
  0
DICTIONARY
  5
47CB
330
214E
100
AcDbDictionary
280
     1
281
     1
  3
ACAD_XREC_ROUNDTRIP
360
47CC
  0
DICTIONARY
  5
47C9
330
214D
100
AcDbDictionary
280
     1
281
     1
  3
ACAD_XREC_ROUNDTRIP
360
47CA
  0
DICTIONARY
  5
47C3
330
214A
100
AcDbDictionary
280
     1
281
     1
  3
ACAD_XREC_ROUNDTRIP
360
47C4
  0
DICTIONARY
  5
47C5
330
214B
100
AcDbDictionary
280
     1
281
     1
  3
ACAD_XREC_ROUNDTRIP
360
47C6
  0
DICTIONARY
  5
47B7
330
19D3
100
AcDbDictionary
280
     1
281
     1
  3
ACAD_XREC_ROUNDTRIP
360
47B8
  0
DICTIONARY
  5
47BF
330
2148
100
AcDbDictionary
280
     1
281
     1
  3
ACAD_XREC_ROUNDTRIP
360
47C0
  0
DICTIONARY
  5
47C7
330
214C
100
AcDbDictionary
280
     1
281
     1
  3
ACAD_XREC_ROUNDTRIP
360
47C8
  0
XRECORD
  5
47D6
102
{ACAD_REACTORS
330
47D5
102
}
330
47D5
100
AcDbXrecord
280
     1
102
DISPLAYNAME
  1
Metric50
102
FLAGS
 90
        0
  0
XRECORD
  5
3D20
102
{ACAD_REACTORS
330
3D1F
102
}
330
3D1F
100
AcDbXrecord
280
     1
102
MATERIAL
148
0.0
149
0.0
149
0.0
 93
        0
 94
       63
282
     0
 72
     1
 77
     1
171
     1
175
     1
179
     1
273
     0
  0
XRECORD
  5
3D1E
102
{ACAD_REACTORS
330
3D1D
102
}
330
3D1D
100
AcDbXrecord
280
     1
102
MATERIAL
148
0.0
149
0.0
149
0.0
 93
        0
 94
       63
282
     0
 72
     1
 77
     1
171
     1
175
     1
179
     1
273
     0
  0
XRECORD
  5
3D22
102
{ACAD_REACTORS
330
3D21
102
}
330
3D21
100
AcDbXrecord
280
     1
102
MATERIAL
148
0.0
149
0.0
149
0.0
 93
        0
 94
       63
282
     0
 72
     1
 77
     1
171
     1
175
     1
179
     1
273
     0
  0
XRECORD
  5
47D4
102
{ACAD_REACTORS
330
47D3
102
}
330
47D3
100
AcDbXrecord
280
     1
102
DISPLAYNAME
  1
Metric50
102
FLAGS
 90
        0
  0
CELLSTYLEMAP
  5
479A
102
{ACAD_REACTORS
330
1F87
102
}
330
1F87
100
AcDbCellStyleMap
 90
        3
300
CELLSTYLE
  1
TABLEFORMAT_BEGIN
 90
        5
170
     1
 91
        0
 92
    32768
 62
   257
 93
        1
300
CONTENTFORMAT
  1
CONTENTFORMAT_BEGIN
 90
        0
 91
        0
 92
        4
 93
        0
300

 40
0.0
140
1.0
 94
        5
 62
     0
340
10
144
6.0
309
CONTENTFORMAT_END
171
     1
301
MARGIN
  1
CELLMARGIN_BEGIN
 40
1.5
 40
1.5
 40
1.5
 40
1.5
 40
0.18
 40
0.18
309
CELLMARGIN_END
 94
        6
 95
        1
302
GRIDFORMAT
  1
GRIDFORMAT_BEGIN
 90
        0
 91
        1
 62
     0
 92
       -2
340
0
 93
        0
 40
0.045
309
GRIDFORMAT_END
 95
        2
302
GRIDFORMAT
  1
GRIDFORMAT_BEGIN
 90
        0
 91
        1
 62
     0
 92
       -2
340
0
 93
        0
 40
0.045
309
GRIDFORMAT_END
 95
        4
302
GRIDFORMAT
  1
GRIDFORMAT_BEGIN
 90
        0
 91
        1
 62
     0
 92
       -2
340
0
 93
        0
 40
0.045
309
GRIDFORMAT_END
 95
        8
302
GRIDFORMAT
  1
GRIDFORMAT_BEGIN
 90
        0
 91
        1
 62
     0
 92
       -2
340
0
 93
        0
 40
0.045
309
GRIDFORMAT_END
 95
       16
302
GRIDFORMAT
  1
GRIDFORMAT_BEGIN
 90
        0
 91
        1
 62
     0
 92
       -2
340
0
 93
        0
 40
0.045
309
GRIDFORMAT_END
 95
       32
302
GRIDFORMAT
  1
GRIDFORMAT_BEGIN
 90
        0
 91
        1
 62
     0
 92
       -2
340
0
 93
        0
 40
0.045
309
GRIDFORMAT_END
309
TABLEFORMAT_END
  1
CELLSTYLE_BEGIN
 90
        1
 91
        1
300
_TITLE
309
CELLSTYLE_END
300
CELLSTYLE
  1
TABLEFORMAT_BEGIN
 90
        5
170
     1
 91
        0
 92
        0
 62
   257
 93
        1
300
CONTENTFORMAT
  1
CONTENTFORMAT_BEGIN
 90
        0
 91
        0
 92
        4
 93
        0
300

 40
0.0
140
1.0
 94
        5
 62
     0
340
10
144
4.5
309
CONTENTFORMAT_END
171
     1
301
MARGIN
  1
CELLMARGIN_BEGIN
 40
1.5
 40
1.5
 40
1.5
 40
1.5
 40
0.18
 40
0.18
309
CELLMARGIN_END
 94
        6
 95
        1
302
GRIDFORMAT
  1
GRIDFORMAT_BEGIN
 90
        0
 91
        1
 62
     0
 92
       -2
340
0
 93
        0
 40
0.045
309
GRIDFORMAT_END
 95
        2
302
GRIDFORMAT
  1
GRIDFORMAT_BEGIN
 90
        0
 91
        1
 62
     0
 92
       -2
340
0
 93
        0
 40
0.045
309
GRIDFORMAT_END
 95
        4
302
GRIDFORMAT
  1
GRIDFORMAT_BEGIN
 90
        0
 91
        1
 62
     0
 92
       -2
340
0
 93
        0
 40
0.045
309
GRIDFORMAT_END
 95
        8
302
GRIDFORMAT
  1
GRIDFORMAT_BEGIN
 90
        0
 91
        1
 62
     0
 92
       -2
340
0
 93
        0
 40
0.045
309
GRIDFORMAT_END
 95
       16
302
GRIDFORMAT
  1
GRIDFORMAT_BEGIN
 90
        0
 91
        1
 62
     0
 92
       -2
340
0
 93
        0
 40
0.045
309
GRIDFORMAT_END
 95
       32
302
GRIDFORMAT
  1
GRIDFORMAT_BEGIN
 90
        0
 91
        1
 62
     0
 92
       -2
340
0
 93
        0
 40
0.045
309
GRIDFORMAT_END
309
TABLEFORMAT_END
  1
CELLSTYLE_BEGIN
 90
        2
 91
        1
300
_HEADER
309
CELLSTYLE_END
300
CELLSTYLE
  1
TABLEFORMAT_BEGIN
 90
        5
170
     1
 91
        0
 92
        0
 62
   257
 93
        1
300
CONTENTFORMAT
  1
CONTENTFORMAT_BEGIN
 90
        0
 91
        0
 92
        4
 93
        0
300

 40
0.0
140
1.0
 94
        2
 62
     0
340
10
144
4.5
309
CONTENTFORMAT_END
171
     1
301
MARGIN
  1
CELLMARGIN_BEGIN
 40
1.5
 40
1.5
 40
1.5
 40
1.5
 40
0.18
 40
0.18
309
CELLMARGIN_END
 94
        6
 95
        1
302
GRIDFORMAT
  1
GRIDFORMAT_BEGIN
 90
        0
 91
        1
 62
     0
 92
       -2
340
0
 93
        0
 40
0.045
309
GRIDFORMAT_END
 95
        2
302
GRIDFORMAT
  1
GRIDFORMAT_BEGIN
 90
        0
 91
        1
 62
     0
 92
       -2
340
0
 93
        0
 40
0.045
309
GRIDFORMAT_END
 95
        4
302
GRIDFORMAT
  1
GRIDFORMAT_BEGIN
 90
        0
 91
        1
 62
     0
 92
       -2
340
0
 93
        0
 40
0.045
309
GRIDFORMAT_END
 95
        8
302
GRIDFORMAT
  1
GRIDFORMAT_BEGIN
 90
        0
 91
        1
 62
     0
 92
       -2
340
0
 93
        0
 40
0.045
309
GRIDFORMAT_END
 95
       16
302
GRIDFORMAT
  1
GRIDFORMAT_BEGIN
 90
        0
 91
        1
 62
     0
 92
       -2
340
0
 93
        0
 40
0.045
309
GRIDFORMAT_END
 95
       32
302
GRIDFORMAT
  1
GRIDFORMAT_BEGIN
 90
        0
 91
        1
 62
     0
 92
       -2
340
0
 93
        0
 40
0.045
309
GRIDFORMAT_END
309
TABLEFORMAT_END
  1
CELLSTYLE_BEGIN
 90
        3
 91
        2
300
_DATA
309
CELLSTYLE_END
  0
XRECORD
  5
47AA
102
{ACAD_REACTORS
330
47A9
102
}
330
47A9
100
AcDbXrecord
280
     1
102
RTVSPost2010Prop28
280
     1
102
RTVSPost2010PropOp28
 70
     1
102
RTVSPost2010Prop29
280
     1
102
RTVSPost2010PropOp29
 70
     1
102
RTVSPost2010Prop30
280
     0
102
RTVSPost2010PropOp30
 70
     1
102
RTVSPost2010Prop31
280
     0
102
RTVSPost2010PropOp31
 70
     1
102
RTVSPost2010Prop32
280
     0
102
RTVSPost2010PropOp32
 70
     1
102
RTVSPost2010Prop33
280
     0
102
RTVSPost2010PropOp33
 70
     1
102
RTVSPost2010Prop34
280
     0
102
RTVSPost2010PropOp34
 70
     1
102
RTVSPost2010Prop35
280
     0
102
RTVSPost2010PropOp35
 70
     1
102
RTVSPost2010Prop36
280
     0
102
RTVSPost2010PropOp36
 70
     1
102
RTVSPost2010Prop37
 90
       50
102
RTVSPost2010PropOp37
 70
     1
102
RTVSPost2010Prop38
140
0.0
102
RTVSPost2010PropOp38
 70
     1
102
RTVSPost2010Prop39
140
1.0
102
RTVSPost2010PropOp39
 70
     1
102
RTVSPost2010Prop40
 90
        0
102
RTVSPost2010PropOp40
 70
     1
102
RTVSPost2010Prop41ColorIndex
 90
       18
102
RTVSPost2010Prop41ColorRGB
 90
        0
102
RTVSPost2010PropOp41
 70
     1
102
RTVSPost2010Prop42
 90
       50
102
RTVSPost2010PropOp42
 70
     1
102
RTVSPost2010Prop43
 90
        3
102
RTVSPost2010PropOp43
 70
     1
102
RTVSPost2010Prop44ColorIndex
 90
        5
102
RTVSPost2010Prop44ColorRGB
 90
      255
102
RTVSPost2010PropOp44
 70
     1
102
RTVSPost2010Prop45
280
     0
102
RTVSPost2010PropOp45
 70
     1
102
RTVSPost2010Prop46
 90
       50
102
RTVSPost2010PropOp46
 70
     1
102
RTVSPost2010Prop47
 90
       50
102
RTVSPost2010PropOp47
 70
     1
102
RTVSPost2010Prop48
 90
       50
102
RTVSPost2010PropOp48
 70
     1
102
RTVSPost2010Prop49
280
     0
102
RTVSPost2010PropOp49
 70
     1
102
RTVSPost2010Prop50
 90
       50
102
RTVSPost2010PropOp50
 70
     1
102
RTVSPost2010Prop51ColorIndex
 90
      256
102
RTVSPost2010Prop51ColorRGB
 90
-16777216
102
RTVSPost2010PropOp51
 70
     0
102
RTVSPost2010Prop52
140
1.0
102
RTVSPost2010PropOp52
 70
     0
102
RTVSPost2010Prop53
 90
        2
102
RTVSPost2010PropOp53
 70
     1
102
RTVSPost2010Prop54
  1
strokes_ogs.tif
102
RTVSPost2010PropOp54
 70
     1
102
RTVSPost2010Prop55
280
     0
102
RTVSPost2010PropOp55
 70
     1
102
RTVSPost2010Prop56
140
1.0
102
RTVSPost2010PropOp56
 70
     1
102
RTVSPost2010Prop57
140
1.0
102
RTVSPost2010PropOp57
 70
     1
  0
XRECORD
  5
47AE
102
{ACAD_REACTORS
330
47AD
102
}
330
47AD
100
AcDbXrecord
280
     1
102
RTVSPost2010Prop28
280
     0
102
RTVSPost2010PropOp28
 70
     1
102
RTVSPost2010Prop29
280
     1
102
RTVSPost2010PropOp29
 70
     1
102
RTVSPost2010Prop30
280
     1
102
RTVSPost2010PropOp30
 70
     1
102
RTVSPost2010Prop31
280
     0
102
RTVSPost2010PropOp31
 70
     1
102
RTVSPost2010Prop32
280
     0
102
RTVSPost2010PropOp32
 70
     1
102
RTVSPost2010Prop33
280
     0
102
RTVSPost2010PropOp33
 70
     1
102
RTVSPost2010Prop34
280
     0
102
RTVSPost2010PropOp34
 70
     1
102
RTVSPost2010Prop35
280
     0
102
RTVSPost2010PropOp35
 70
     1
102
RTVSPost2010Prop36
280
     0
102
RTVSPost2010PropOp36
 70
     1
102
RTVSPost2010Prop37
 90
       50
102
RTVSPost2010PropOp37
 70
     1
102
RTVSPost2010Prop38
140
0.0
102
RTVSPost2010PropOp38
 70
     1
102
RTVSPost2010Prop39
140
1.0
102
RTVSPost2010PropOp39
 70
     1
102
RTVSPost2010Prop40
 90
        0
102
RTVSPost2010PropOp40
 70
     1
102
RTVSPost2010Prop41ColorIndex
 90
       18
102
RTVSPost2010Prop41ColorRGB
 90
        0
102
RTVSPost2010PropOp41
 70
     1
102
RTVSPost2010Prop42
 90
       50
102
RTVSPost2010PropOp42
 70
     1
102
RTVSPost2010Prop43
 90
        3
102
RTVSPost2010PropOp43
 70
     1
102
RTVSPost2010Prop44ColorIndex
 90
        5
102
RTVSPost2010Prop44ColorRGB
 90
      255
102
RTVSPost2010PropOp44
 70
     1
102
RTVSPost2010Prop45
280
     0
102
RTVSPost2010PropOp45
 70
     1
102
RTVSPost2010Prop46
 90
       50
102
RTVSPost2010PropOp46
 70
     1
102
RTVSPost2010Prop47
 90
       50
102
RTVSPost2010PropOp47
 70
     1
102
RTVSPost2010Prop48
 90
       50
102
RTVSPost2010PropOp48
 70
     1
102
RTVSPost2010Prop49
280
     0
102
RTVSPost2010PropOp49
 70
     1
102
RTVSPost2010Prop50
 90
       50
102
RTVSPost2010PropOp50
 70
     1
102
RTVSPost2010Prop51ColorIndex
 90
      256
102
RTVSPost2010Prop51ColorRGB
 90
-16777216
102
RTVSPost2010PropOp51
 70
     0
102
RTVSPost2010Prop52
140
1.0
102
RTVSPost2010PropOp52
 70
     0
102
RTVSPost2010Prop53
 90
        2
102
RTVSPost2010PropOp53
 70
     1
102
RTVSPost2010Prop54
  1
strokes_ogs.tif
102
RTVSPost2010PropOp54
 70
     1
102
RTVSPost2010Prop55
280
     0
102
RTVSPost2010PropOp55
 70
     1
102
RTVSPost2010Prop56
140
1.0
102
RTVSPost2010PropOp56
 70
     1
102
RTVSPost2010Prop57
140
1.0
102
RTVSPost2010PropOp57
 70
     1
  0
XRECORD
  5
47AC
102
{ACAD_REACTORS
330
47AB
102
}
330
47AB
100
AcDbXrecord
280
     1
102
RTVSPost2010Prop28
280
     0
102
RTVSPost2010PropOp28
 70
     1
102
RTVSPost2010Prop29
280
     1
102
RTVSPost2010PropOp29
 70
     1
102
RTVSPost2010Prop30
280
     1
102
RTVSPost2010PropOp30
 70
     1
102
RTVSPost2010Prop31
280
     0
102
RTVSPost2010PropOp31
 70
     1
102
RTVSPost2010Prop32
280
     0
102
RTVSPost2010PropOp32
 70
     1
102
RTVSPost2010Prop33
280
     0
102
RTVSPost2010PropOp33
 70
     1
102
RTVSPost2010Prop34
280
     0
102
RTVSPost2010PropOp34
 70
     1
102
RTVSPost2010Prop35
280
     0
102
RTVSPost2010PropOp35
 70
     1
102
RTVSPost2010Prop36
280
     0
102
RTVSPost2010PropOp36
 70
     1
102
RTVSPost2010Prop37
 90
       50
102
RTVSPost2010PropOp37
 70
     1
102
RTVSPost2010Prop38
140
0.0
102
RTVSPost2010PropOp38
 70
     1
102
RTVSPost2010Prop39
140
1.0
102
RTVSPost2010PropOp39
 70
     1
102
RTVSPost2010Prop40
 90
        0
102
RTVSPost2010PropOp40
 70
     1
102
RTVSPost2010Prop41ColorIndex
 90
       18
102
RTVSPost2010Prop41ColorRGB
 90
        0
102
RTVSPost2010PropOp41
 70
     1
102
RTVSPost2010Prop42
 90
       50
102
RTVSPost2010PropOp42
 70
     1
102
RTVSPost2010Prop43
 90
        3
102
RTVSPost2010PropOp43
 70
     1
102
RTVSPost2010Prop44ColorIndex
 90
        5
102
RTVSPost2010Prop44ColorRGB
 90
      255
102
RTVSPost2010PropOp44
 70
     1
102
RTVSPost2010Prop45
280
     0
102
RTVSPost2010PropOp45
 70
     1
102
RTVSPost2010Prop46
 90
       50
102
RTVSPost2010PropOp46
 70
     1
102
RTVSPost2010Prop47
 90
       50
102
RTVSPost2010PropOp47
 70
     1
102
RTVSPost2010Prop48
 90
       50
102
RTVSPost2010PropOp48
 70
     1
102
RTVSPost2010Prop49
280
     0
102
RTVSPost2010PropOp49
 70
     1
102
RTVSPost2010Prop50
 90
       50
102
RTVSPost2010PropOp50
 70
     1
102
RTVSPost2010Prop51ColorIndex
 90
      256
102
RTVSPost2010Prop51ColorRGB
 90
-16777216
102
RTVSPost2010PropOp51
 70
     0
102
RTVSPost2010Prop52
140
1.0
102
RTVSPost2010PropOp52
 70
     0
102
RTVSPost2010Prop53
 90
        2
102
RTVSPost2010PropOp53
 70
     1
102
RTVSPost2010Prop54
  1
strokes_ogs.tif
102
RTVSPost2010PropOp54
 70
     1
102
RTVSPost2010Prop55
280
     0
102
RTVSPost2010PropOp55
 70
     1
102
RTVSPost2010Prop56
140
1.0
102
RTVSPost2010PropOp56
 70
     1
102
RTVSPost2010Prop57
140
1.0
102
RTVSPost2010PropOp57
 70
     1
  0
XRECORD
  5
47A8
102
{ACAD_REACTORS
330
47A7
102
}
330
47A7
100
AcDbXrecord
280
     1
102
RTVSPost2010Prop28
280
     0
102
RTVSPost2010PropOp28
 70
     1
102
RTVSPost2010Prop29
280
     1
102
RTVSPost2010PropOp29
 70
     1
102
RTVSPost2010Prop30
280
     1
102
RTVSPost2010PropOp30
 70
     1
102
RTVSPost2010Prop31
280
     0
102
RTVSPost2010PropOp31
 70
     1
102
RTVSPost2010Prop32
280
     0
102
RTVSPost2010PropOp32
 70
     1
102
RTVSPost2010Prop33
280
     0
102
RTVSPost2010PropOp33
 70
     1
102
RTVSPost2010Prop34
280
     0
102
RTVSPost2010PropOp34
 70
     1
102
RTVSPost2010Prop35
280
     0
102
RTVSPost2010PropOp35
 70
     1
102
RTVSPost2010Prop36
280
     0
102
RTVSPost2010PropOp36
 70
     1
102
RTVSPost2010Prop37
 90
       50
102
RTVSPost2010PropOp37
 70
     1
102
RTVSPost2010Prop38
140
0.0
102
RTVSPost2010PropOp38
 70
     1
102
RTVSPost2010Prop39
140
1.0
102
RTVSPost2010PropOp39
 70
     1
102
RTVSPost2010Prop40
 90
        0
102
RTVSPost2010PropOp40
 70
     1
102
RTVSPost2010Prop41ColorIndex
 90
       18
102
RTVSPost2010Prop41ColorRGB
 90
        0
102
RTVSPost2010PropOp41
 70
     1
102
RTVSPost2010Prop42
 90
       50
102
RTVSPost2010PropOp42
 70
     1
102
RTVSPost2010Prop43
 90
        3
102
RTVSPost2010PropOp43
 70
     1
102
RTVSPost2010Prop44ColorIndex
 90
        5
102
RTVSPost2010Prop44ColorRGB
 90
      255
102
RTVSPost2010PropOp44
 70
     1
102
RTVSPost2010Prop45
280
     0
102
RTVSPost2010PropOp45
 70
     1
102
RTVSPost2010Prop46
 90
       50
102
RTVSPost2010PropOp46
 70
     1
102
RTVSPost2010Prop47
 90
       50
102
RTVSPost2010PropOp47
 70
     1
102
RTVSPost2010Prop48
 90
       50
102
RTVSPost2010PropOp48
 70
     1
102
RTVSPost2010Prop49
280
     0
102
RTVSPost2010PropOp49
 70
     1
102
RTVSPost2010Prop50
 90
       50
102
RTVSPost2010PropOp50
 70
     1
102
RTVSPost2010Prop51ColorIndex
 90
      256
102
RTVSPost2010Prop51ColorRGB
 90
-16777216
102
RTVSPost2010PropOp51
 70
     0
102
RTVSPost2010Prop52
140
1.0
102
RTVSPost2010PropOp52
 70
     0
102
RTVSPost2010Prop53
 90
        2
102
RTVSPost2010PropOp53
 70
     1
102
RTVSPost2010Prop54
  1
strokes_ogs.tif
102
RTVSPost2010PropOp54
 70
     1
102
RTVSPost2010Prop55
280
     0
102
RTVSPost2010PropOp55
 70
     1
102
RTVSPost2010Prop56
140
1.0
102
RTVSPost2010PropOp56
 70
     1
102
RTVSPost2010Prop57
140
1.0
102
RTVSPost2010PropOp57
 70
     1
  0
XRECORD
  5
47B6
102
{ACAD_REACTORS
330
47B5
102
}
330
47B5
100
AcDbXrecord
280
     1
102
RTVSPost2010Prop28
280
     0
102
RTVSPost2010PropOp28
 70
     1
102
RTVSPost2010Prop29
280
     1
102
RTVSPost2010PropOp29
 70
     1
102
RTVSPost2010Prop30
280
     1
102
RTVSPost2010PropOp30
 70
     1
102
RTVSPost2010Prop31
280
     0
102
RTVSPost2010PropOp31
 70
     1
102
RTVSPost2010Prop32
280
     0
102
RTVSPost2010PropOp32
 70
     1
102
RTVSPost2010Prop33
280
     0
102
RTVSPost2010PropOp33
 70
     1
102
RTVSPost2010Prop34
280
     0
102
RTVSPost2010PropOp34
 70
     1
102
RTVSPost2010Prop35
280
     0
102
RTVSPost2010PropOp35
 70
     1
102
RTVSPost2010Prop36
280
     0
102
RTVSPost2010PropOp36
 70
     1
102
RTVSPost2010Prop37
 90
       50
102
RTVSPost2010PropOp37
 70
     1
102
RTVSPost2010Prop38
140
0.0
102
RTVSPost2010PropOp38
 70
     1
102
RTVSPost2010Prop39
140
1.0
102
RTVSPost2010PropOp39
 70
     1
102
RTVSPost2010Prop40
 90
        0
102
RTVSPost2010PropOp40
 70
     1
102
RTVSPost2010Prop41ColorIndex
 90
       18
102
RTVSPost2010Prop41ColorRGB
 90
        0
102
RTVSPost2010PropOp41
 70
     1
102
RTVSPost2010Prop42
 90
       50
102
RTVSPost2010PropOp42
 70
     1
102
RTVSPost2010Prop43
 90
        3
102
RTVSPost2010PropOp43
 70
     1
102
RTVSPost2010Prop44ColorIndex
 90
        5
102
RTVSPost2010Prop44ColorRGB
 90
      255
102
RTVSPost2010PropOp44
 70
     1
102
RTVSPost2010Prop45
280
     0
102
RTVSPost2010PropOp45
 70
     1
102
RTVSPost2010Prop46
 90
       50
102
RTVSPost2010PropOp46
 70
     1
102
RTVSPost2010Prop47
 90
       50
102
RTVSPost2010PropOp47
 70
     1
102
RTVSPost2010Prop48
 90
       50
102
RTVSPost2010PropOp48
 70
     1
102
RTVSPost2010Prop49
280
     0
102
RTVSPost2010PropOp49
 70
     1
102
RTVSPost2010Prop50
 90
       50
102
RTVSPost2010PropOp50
 70
     1
102
RTVSPost2010Prop51ColorIndex
 90
      256
102
RTVSPost2010Prop51ColorRGB
 90
-16777216
102
RTVSPost2010PropOp51
 70
     0
102
RTVSPost2010Prop52
140
1.0
102
RTVSPost2010PropOp52
 70
     0
102
RTVSPost2010Prop53
 90
        2
102
RTVSPost2010PropOp53
 70
     1
102
RTVSPost2010Prop54
  1
strokes_ogs.tif
102
RTVSPost2010PropOp54
 70
     1
102
RTVSPost2010Prop55
280
     0
102
RTVSPost2010PropOp55
 70
     1
102
RTVSPost2010Prop56
140
1.0
102
RTVSPost2010PropOp56
 70
     1
102
RTVSPost2010Prop57
140
1.0
102
RTVSPost2010PropOp57
 70
     1
  0
XRECORD
  5
47BE
102
{ACAD_REACTORS
330
47BD
102
}
330
47BD
100
AcDbXrecord
280
     1
102
RTVSPost2010Prop28
280
     0
102
RTVSPost2010PropOp28
 70
     1
102
RTVSPost2010Prop29
280
     1
102
RTVSPost2010PropOp29
 70
     1
102
RTVSPost2010Prop30
280
     1
102
RTVSPost2010PropOp30
 70
     1
102
RTVSPost2010Prop31
280
     0
102
RTVSPost2010PropOp31
 70
     1
102
RTVSPost2010Prop32
280
     0
102
RTVSPost2010PropOp32
 70
     1
102
RTVSPost2010Prop33
280
     0
102
RTVSPost2010PropOp33
 70
     1
102
RTVSPost2010Prop34
280
     0
102
RTVSPost2010PropOp34
 70
     1
102
RTVSPost2010Prop35
280
     0
102
RTVSPost2010PropOp35
 70
     1
102
RTVSPost2010Prop36
280
     0
102
RTVSPost2010PropOp36
 70
     1
102
RTVSPost2010Prop37
 90
       50
102
RTVSPost2010PropOp37
 70
     1
102
RTVSPost2010Prop38
140
0.0
102
RTVSPost2010PropOp38
 70
     1
102
RTVSPost2010Prop39
140
1.0
102
RTVSPost2010PropOp39
 70
     1
102
RTVSPost2010Prop40
 90
        0
102
RTVSPost2010PropOp40
 70
     1
102
RTVSPost2010Prop41ColorIndex
 90
       18
102
RTVSPost2010Prop41ColorRGB
 90
        0
102
RTVSPost2010PropOp41
 70
     1
102
RTVSPost2010Prop42
 90
       50
102
RTVSPost2010PropOp42
 70
     1
102
RTVSPost2010Prop43
 90
        3
102
RTVSPost2010PropOp43
 70
     1
102
RTVSPost2010Prop44ColorIndex
 90
        5
102
RTVSPost2010Prop44ColorRGB
 90
      255
102
RTVSPost2010PropOp44
 70
     1
102
RTVSPost2010Prop45
280
     0
102
RTVSPost2010PropOp45
 70
     1
102
RTVSPost2010Prop46
 90
       50
102
RTVSPost2010PropOp46
 70
     1
102
RTVSPost2010Prop47
 90
       50
102
RTVSPost2010PropOp47
 70
     1
102
RTVSPost2010Prop48
 90
       50
102
RTVSPost2010PropOp48
 70
     1
102
RTVSPost2010Prop49
280
     0
102
RTVSPost2010PropOp49
 70
     1
102
RTVSPost2010Prop50
 90
       50
102
RTVSPost2010PropOp50
 70
     1
102
RTVSPost2010Prop51ColorIndex
 90
      256
102
RTVSPost2010Prop51ColorRGB
 90
-16777216
102
RTVSPost2010PropOp51
 70
     0
102
RTVSPost2010Prop52
140
1.0
102
RTVSPost2010PropOp52
 70
     0
102
RTVSPost2010Prop53
 90
        2
102
RTVSPost2010PropOp53
 70
     1
102
RTVSPost2010Prop54
  1
strokes_ogs.tif
102
RTVSPost2010PropOp54
 70
     1
102
RTVSPost2010Prop55
280
     0
102
RTVSPost2010PropOp55
 70
     1
102
RTVSPost2010Prop56
140
1.0
102
RTVSPost2010PropOp56
 70
     1
102
RTVSPost2010Prop57
140
1.0
102
RTVSPost2010PropOp57
 70
     1
  0
XRECORD
  5
47B0
102
{ACAD_REACTORS
330
47AF
102
}
330
47AF
100
AcDbXrecord
280
     1
102
RTVSPost2010Prop28
280
     0
102
RTVSPost2010PropOp28
 70
     1
102
RTVSPost2010Prop29
280
     1
102
RTVSPost2010PropOp29
 70
     1
102
RTVSPost2010Prop30
280
     1
102
RTVSPost2010PropOp30
 70
     1
102
RTVSPost2010Prop31
280
     0
102
RTVSPost2010PropOp31
 70
     1
102
RTVSPost2010Prop32
280
     0
102
RTVSPost2010PropOp32
 70
     1
102
RTVSPost2010Prop33
280
     0
102
RTVSPost2010PropOp33
 70
     1
102
RTVSPost2010Prop34
280
     0
102
RTVSPost2010PropOp34
 70
     1
102
RTVSPost2010Prop35
280
     0
102
RTVSPost2010PropOp35
 70
     1
102
RTVSPost2010Prop36
280
     0
102
RTVSPost2010PropOp36
 70
     1
102
RTVSPost2010Prop37
 90
       50
102
RTVSPost2010PropOp37
 70
     1
102
RTVSPost2010Prop38
140
0.0
102
RTVSPost2010PropOp38
 70
     1
102
RTVSPost2010Prop39
140
1.0
102
RTVSPost2010PropOp39
 70
     1
102
RTVSPost2010Prop40
 90
        0
102
RTVSPost2010PropOp40
 70
     1
102
RTVSPost2010Prop41ColorIndex
 90
       18
102
RTVSPost2010Prop41ColorRGB
 90
        0
102
RTVSPost2010PropOp41
 70
     1
102
RTVSPost2010Prop42
 90
       50
102
RTVSPost2010PropOp42
 70
     1
102
RTVSPost2010Prop43
 90
        3
102
RTVSPost2010PropOp43
 70
     1
102
RTVSPost2010Prop44ColorIndex
 90
        5
102
RTVSPost2010Prop44ColorRGB
 90
      255
102
RTVSPost2010PropOp44
 70
     1
102
RTVSPost2010Prop45
280
     0
102
RTVSPost2010PropOp45
 70
     1
102
RTVSPost2010Prop46
 90
       50
102
RTVSPost2010PropOp46
 70
     1
102
RTVSPost2010Prop47
 90
       50
102
RTVSPost2010PropOp47
 70
     1
102
RTVSPost2010Prop48
 90
       50
102
RTVSPost2010PropOp48
 70
     1
102
RTVSPost2010Prop49
280
     0
102
RTVSPost2010PropOp49
 70
     1
102
RTVSPost2010Prop50
 90
       50
102
RTVSPost2010PropOp50
 70
     1
102
RTVSPost2010Prop51ColorIndex
 90
      256
102
RTVSPost2010Prop51ColorRGB
 90
-16777216
102
RTVSPost2010PropOp51
 70
     0
102
RTVSPost2010Prop52
140
1.0
102
RTVSPost2010PropOp52
 70
     0
102
RTVSPost2010Prop53
 90
        2
102
RTVSPost2010PropOp53
 70
     1
102
RTVSPost2010Prop54
  1
strokes_ogs.tif
102
RTVSPost2010PropOp54
 70
     1
102
RTVSPost2010Prop55
280
     0
102
RTVSPost2010PropOp55
 70
     1
102
RTVSPost2010Prop56
140
1.0
102
RTVSPost2010PropOp56
 70
     1
102
RTVSPost2010Prop57
140
1.0
102
RTVSPost2010PropOp57
 70
     1
  0
XRECORD
  5
47B4
102
{ACAD_REACTORS
330
47B3
102
}
330
47B3
100
AcDbXrecord
280
     1
102
RTVSPost2010Prop28
280
     0
102
RTVSPost2010PropOp28
 70
     1
102
RTVSPost2010Prop29
280
     1
102
RTVSPost2010PropOp29
 70
     1
102
RTVSPost2010Prop30
280
     1
102
RTVSPost2010PropOp30
 70
     1
102
RTVSPost2010Prop31
280
     0
102
RTVSPost2010PropOp31
 70
     1
102
RTVSPost2010Prop32
280
     0
102
RTVSPost2010PropOp32
 70
     1
102
RTVSPost2010Prop33
280
     0
102
RTVSPost2010PropOp33
 70
     1
102
RTVSPost2010Prop34
280
     0
102
RTVSPost2010PropOp34
 70
     1
102
RTVSPost2010Prop35
280
     0
102
RTVSPost2010PropOp35
 70
     1
102
RTVSPost2010Prop36
280
     0
102
RTVSPost2010PropOp36
 70
     1
102
RTVSPost2010Prop37
 90
       50
102
RTVSPost2010PropOp37
 70
     1
102
RTVSPost2010Prop38
140
0.0
102
RTVSPost2010PropOp38
 70
     1
102
RTVSPost2010Prop39
140
1.0
102
RTVSPost2010PropOp39
 70
     1
102
RTVSPost2010Prop40
 90
        0
102
RTVSPost2010PropOp40
 70
     1
102
RTVSPost2010Prop41ColorIndex
 90
       18
102
RTVSPost2010Prop41ColorRGB
 90
        0
102
RTVSPost2010PropOp41
 70
     1
102
RTVSPost2010Prop42
 90
       50
102
RTVSPost2010PropOp42
 70
     1
102
RTVSPost2010Prop43
 90
        3
102
RTVSPost2010PropOp43
 70
     1
102
RTVSPost2010Prop44ColorIndex
 90
        5
102
RTVSPost2010Prop44ColorRGB
 90
      255
102
RTVSPost2010PropOp44
 70
     1
102
RTVSPost2010Prop45
280
     0
102
RTVSPost2010PropOp45
 70
     1
102
RTVSPost2010Prop46
 90
       50
102
RTVSPost2010PropOp46
 70
     1
102
RTVSPost2010Prop47
 90
       50
102
RTVSPost2010PropOp47
 70
     1
102
RTVSPost2010Prop48
 90
       50
102
RTVSPost2010PropOp48
 70
     1
102
RTVSPost2010Prop49
280
     0
102
RTVSPost2010PropOp49
 70
     1
102
RTVSPost2010Prop50
 90
       50
102
RTVSPost2010PropOp50
 70
     1
102
RTVSPost2010Prop51ColorIndex
 90
      256
102
RTVSPost2010Prop51ColorRGB
 90
-16777216
102
RTVSPost2010PropOp51
 70
     0
102
RTVSPost2010Prop52
140
1.0
102
RTVSPost2010PropOp52
 70
     0
102
RTVSPost2010Prop53
 90
        2
102
RTVSPost2010PropOp53
 70
     1
102
RTVSPost2010Prop54
  1
strokes_ogs.tif
102
RTVSPost2010PropOp54
 70
     1
102
RTVSPost2010Prop55
280
     0
102
RTVSPost2010PropOp55
 70
     1
102
RTVSPost2010Prop56
140
1.0
102
RTVSPost2010PropOp56
 70
     1
102
RTVSPost2010Prop57
140
1.0
102
RTVSPost2010PropOp57
 70
     1
  0
XRECORD
  5
47D2
102
{ACAD_REACTORS
330
47D1
102
}
330
47D1
100
AcDbXrecord
280
     1
102
RTVSPost2010Prop28
280
     0
102
RTVSPost2010PropOp28
 70
     1
102
RTVSPost2010Prop29
280
     1
102
RTVSPost2010PropOp29
 70
     1
102
RTVSPost2010Prop30
280
     1
102
RTVSPost2010PropOp30
 70
     1
102
RTVSPost2010Prop31
280
     0
102
RTVSPost2010PropOp31
 70
     1
102
RTVSPost2010Prop32
280
     0
102
RTVSPost2010PropOp32
 70
     1
102
RTVSPost2010Prop33
280
     0
102
RTVSPost2010PropOp33
 70
     1
102
RTVSPost2010Prop34
280
     0
102
RTVSPost2010PropOp34
 70
     1
102
RTVSPost2010Prop35
280
     0
102
RTVSPost2010PropOp35
 70
     1
102
RTVSPost2010Prop36
280
     0
102
RTVSPost2010PropOp36
 70
     1
102
RTVSPost2010Prop37
 90
       50
102
RTVSPost2010PropOp37
 70
     1
102
RTVSPost2010Prop38
140
0.0
102
RTVSPost2010PropOp38
 70
     1
102
RTVSPost2010Prop39
140
1.0
102
RTVSPost2010PropOp39
 70
     1
102
RTVSPost2010Prop40
 90
        0
102
RTVSPost2010PropOp40
 70
     1
102
RTVSPost2010Prop41ColorIndex
 90
       18
102
RTVSPost2010Prop41ColorRGB
 90
        0
102
RTVSPost2010PropOp41
 70
     1
102
RTVSPost2010Prop42
 90
       50
102
RTVSPost2010PropOp42
 70
     1
102
RTVSPost2010Prop43
 90
        3
102
RTVSPost2010PropOp43
 70
     1
102
RTVSPost2010Prop44ColorIndex
 90
        5
102
RTVSPost2010Prop44ColorRGB
 90
      255
102
RTVSPost2010PropOp44
 70
     1
102
RTVSPost2010Prop45
280
     0
102
RTVSPost2010PropOp45
 70
     1
102
RTVSPost2010Prop46
 90
       50
102
RTVSPost2010PropOp46
 70
     1
102
RTVSPost2010Prop47
 90
       50
102
RTVSPost2010PropOp47
 70
     1
102
RTVSPost2010Prop48
 90
       50
102
RTVSPost2010PropOp48
 70
     1
102
RTVSPost2010Prop49
280
     0
102
RTVSPost2010PropOp49
 70
     1
102
RTVSPost2010Prop50
 90
       50
102
RTVSPost2010PropOp50
 70
     1
102
RTVSPost2010Prop51ColorIndex
 90
      256
102
RTVSPost2010Prop51ColorRGB
 90
-16777216
102
RTVSPost2010PropOp51
 70
     0
102
RTVSPost2010Prop52
140
1.0
102
RTVSPost2010PropOp52
 70
     0
102
RTVSPost2010Prop53
 90
        2
102
RTVSPost2010PropOp53
 70
     1
102
RTVSPost2010Prop54
  1
strokes_ogs.tif
102
RTVSPost2010PropOp54
 70
     1
102
RTVSPost2010Prop55
280
     0
102
RTVSPost2010PropOp55
 70
     1
102
RTVSPost2010Prop56
140
1.0
102
RTVSPost2010PropOp56
 70
     1
102
RTVSPost2010Prop57
140
1.0
102
RTVSPost2010PropOp57
 70
     1
  0
XRECORD
  5
47BC
102
{ACAD_REACTORS
330
47BB
102
}
330
47BB
100
AcDbXrecord
280
     1
102
RTVSPost2010Prop28
280
     0
102
RTVSPost2010PropOp28
 70
     1
102
RTVSPost2010Prop29
280
     1
102
RTVSPost2010PropOp29
 70
     1
102
RTVSPost2010Prop30
280
     1
102
RTVSPost2010PropOp30
 70
     1
102
RTVSPost2010Prop31
280
     0
102
RTVSPost2010PropOp31
 70
     1
102
RTVSPost2010Prop32
280
     0
102
RTVSPost2010PropOp32
 70
     1
102
RTVSPost2010Prop33
280
     0
102
RTVSPost2010PropOp33
 70
     1
102
RTVSPost2010Prop34
280
     0
102
RTVSPost2010PropOp34
 70
     1
102
RTVSPost2010Prop35
280
     0
102
RTVSPost2010PropOp35
 70
     1
102
RTVSPost2010Prop36
280
     0
102
RTVSPost2010PropOp36
 70
     1
102
RTVSPost2010Prop37
 90
       50
102
RTVSPost2010PropOp37
 70
     1
102
RTVSPost2010Prop38
140
0.0
102
RTVSPost2010PropOp38
 70
     1
102
RTVSPost2010Prop39
140
1.0
102
RTVSPost2010PropOp39
 70
     1
102
RTVSPost2010Prop40
 90
        0
102
RTVSPost2010PropOp40
 70
     1
102
RTVSPost2010Prop41ColorIndex
 90
       18
102
RTVSPost2010Prop41ColorRGB
 90
        0
102
RTVSPost2010PropOp41
 70
     1
102
RTVSPost2010Prop42
 90
       50
102
RTVSPost2010PropOp42
 70
     1
102
RTVSPost2010Prop43
 90
        3
102
RTVSPost2010PropOp43
 70
     1
102
RTVSPost2010Prop44ColorIndex
 90
        5
102
RTVSPost2010Prop44ColorRGB
 90
      255
102
RTVSPost2010PropOp44
 70
     1
102
RTVSPost2010Prop45
280
     0
102
RTVSPost2010PropOp45
 70
     1
102
RTVSPost2010Prop46
 90
       50
102
RTVSPost2010PropOp46
 70
     1
102
RTVSPost2010Prop47
 90
       50
102
RTVSPost2010PropOp47
 70
     1
102
RTVSPost2010Prop48
 90
       50
102
RTVSPost2010PropOp48
 70
     1
102
RTVSPost2010Prop49
280
     0
102
RTVSPost2010PropOp49
 70
     1
102
RTVSPost2010Prop50
 90
       50
102
RTVSPost2010PropOp50
 70
     1
102
RTVSPost2010Prop51ColorIndex
 90
      256
102
RTVSPost2010Prop51ColorRGB
 90
-16777216
102
RTVSPost2010PropOp51
 70
     0
102
RTVSPost2010Prop52
140
1.0
102
RTVSPost2010PropOp52
 70
     0
102
RTVSPost2010Prop53
 90
        2
102
RTVSPost2010PropOp53
 70
     1
102
RTVSPost2010Prop54
  1
strokes_ogs.tif
102
RTVSPost2010PropOp54
 70
     1
102
RTVSPost2010Prop55
280
     0
102
RTVSPost2010PropOp55
 70
     1
102
RTVSPost2010Prop56
140
1.0
102
RTVSPost2010PropOp56
 70
     1
102
RTVSPost2010Prop57
140
1.0
102
RTVSPost2010PropOp57
 70
     1
  0
XRECORD
  5
47A0
102
{ACAD_REACTORS
330
479F
102
}
330
479F
100
AcDbXrecord
280
     1
102
RTVSPost2010Prop28
280
     0
102
RTVSPost2010PropOp28
 70
     1
102
RTVSPost2010Prop29
280
     1
102
RTVSPost2010PropOp29
 70
     1
102
RTVSPost2010Prop30
280
     1
102
RTVSPost2010PropOp30
 70
     1
102
RTVSPost2010Prop31
280
     0
102
RTVSPost2010PropOp31
 70
     1
102
RTVSPost2010Prop32
280
     0
102
RTVSPost2010PropOp32
 70
     1
102
RTVSPost2010Prop33
280
     0
102
RTVSPost2010PropOp33
 70
     1
102
RTVSPost2010Prop34
280
     0
102
RTVSPost2010PropOp34
 70
     1
102
RTVSPost2010Prop35
280
     0
102
RTVSPost2010PropOp35
 70
     1
102
RTVSPost2010Prop36
280
     0
102
RTVSPost2010PropOp36
 70
     1
102
RTVSPost2010Prop37
 90
       50
102
RTVSPost2010PropOp37
 70
     1
102
RTVSPost2010Prop38
140
0.0
102
RTVSPost2010PropOp38
 70
     1
102
RTVSPost2010Prop39
140
1.0
102
RTVSPost2010PropOp39
 70
     1
102
RTVSPost2010Prop40
 90
        0
102
RTVSPost2010PropOp40
 70
     1
102
RTVSPost2010Prop41ColorIndex
 90
       18
102
RTVSPost2010Prop41ColorRGB
 90
        0
102
RTVSPost2010PropOp41
 70
     1
102
RTVSPost2010Prop42
 90
       50
102
RTVSPost2010PropOp42
 70
     1
102
RTVSPost2010Prop43
 90
        3
102
RTVSPost2010PropOp43
 70
     1
102
RTVSPost2010Prop44ColorIndex
 90
        5
102
RTVSPost2010Prop44ColorRGB
 90
      255
102
RTVSPost2010PropOp44
 70
     1
102
RTVSPost2010Prop45
280
     0
102
RTVSPost2010PropOp45
 70
     1
102
RTVSPost2010Prop46
 90
       50
102
RTVSPost2010PropOp46
 70
     1
102
RTVSPost2010Prop47
 90
       50
102
RTVSPost2010PropOp47
 70
     1
102
RTVSPost2010Prop48
 90
       50
102
RTVSPost2010PropOp48
 70
     1
102
RTVSPost2010Prop49
280
     0
102
RTVSPost2010PropOp49
 70
     1
102
RTVSPost2010Prop50
 90
       50
102
RTVSPost2010PropOp50
 70
     1
102
RTVSPost2010Prop51ColorIndex
 90
      256
102
RTVSPost2010Prop51ColorRGB
 90
-16777216
102
RTVSPost2010PropOp51
 70
     0
102
RTVSPost2010Prop52
140
1.0
102
RTVSPost2010PropOp52
 70
     0
102
RTVSPost2010Prop53
 90
        2
102
RTVSPost2010PropOp53
 70
     1
102
RTVSPost2010Prop54
  1
strokes_ogs.tif
102
RTVSPost2010PropOp54
 70
     1
102
RTVSPost2010Prop55
280
     0
102
RTVSPost2010PropOp55
 70
     1
102
RTVSPost2010Prop56
140
1.0
102
RTVSPost2010PropOp56
 70
     1
102
RTVSPost2010Prop57
140
1.0
102
RTVSPost2010PropOp57
 70
     1
  0
XRECORD
  5
47A2
102
{ACAD_REACTORS
330
47A1
102
}
330
47A1
100
AcDbXrecord
280
     1
102
RTVSPost2010Prop28
280
     0
102
RTVSPost2010PropOp28
 70
     1
102
RTVSPost2010Prop29
280
     1
102
RTVSPost2010PropOp29
 70
     1
102
RTVSPost2010Prop30
280
     1
102
RTVSPost2010PropOp30
 70
     1
102
RTVSPost2010Prop31
280
     0
102
RTVSPost2010PropOp31
 70
     1
102
RTVSPost2010Prop32
280
     0
102
RTVSPost2010PropOp32
 70
     1
102
RTVSPost2010Prop33
280
     0
102
RTVSPost2010PropOp33
 70
     1
102
RTVSPost2010Prop34
280
     0
102
RTVSPost2010PropOp34
 70
     1
102
RTVSPost2010Prop35
280
     0
102
RTVSPost2010PropOp35
 70
     1
102
RTVSPost2010Prop36
280
     0
102
RTVSPost2010PropOp36
 70
     1
102
RTVSPost2010Prop37
 90
       50
102
RTVSPost2010PropOp37
 70
     1
102
RTVSPost2010Prop38
140
0.0
102
RTVSPost2010PropOp38
 70
     1
102
RTVSPost2010Prop39
140
1.0
102
RTVSPost2010PropOp39
 70
     1
102
RTVSPost2010Prop40
 90
        0
102
RTVSPost2010PropOp40
 70
     1
102
RTVSPost2010Prop41ColorIndex
 90
       18
102
RTVSPost2010Prop41ColorRGB
 90
        0
102
RTVSPost2010PropOp41
 70
     1
102
RTVSPost2010Prop42
 90
       50
102
RTVSPost2010PropOp42
 70
     1
102
RTVSPost2010Prop43
 90
        3
102
RTVSPost2010PropOp43
 70
     1
102
RTVSPost2010Prop44ColorIndex
 90
        5
102
RTVSPost2010Prop44ColorRGB
 90
      255
102
RTVSPost2010PropOp44
 70
     1
102
RTVSPost2010Prop45
280
     0
102
RTVSPost2010PropOp45
 70
     1
102
RTVSPost2010Prop46
 90
       50
102
RTVSPost2010PropOp46
 70
     1
102
RTVSPost2010Prop47
 90
       50
102
RTVSPost2010PropOp47
 70
     1
102
RTVSPost2010Prop48
 90
       50
102
RTVSPost2010PropOp48
 70
     1
102
RTVSPost2010Prop49
280
     0
102
RTVSPost2010PropOp49
 70
     1
102
RTVSPost2010Prop50
 90
       50
102
RTVSPost2010PropOp50
 70
     1
102
RTVSPost2010Prop51ColorIndex
 90
      256
102
RTVSPost2010Prop51ColorRGB
 90
-16777216
102
RTVSPost2010PropOp51
 70
     0
102
RTVSPost2010Prop52
140
1.0
102
RTVSPost2010PropOp52
 70
     0
102
RTVSPost2010Prop53
 90
        2
102
RTVSPost2010PropOp53
 70
     1
102
RTVSPost2010Prop54
  1
strokes_ogs.tif
102
RTVSPost2010PropOp54
 70
     1
102
RTVSPost2010Prop55
280
     0
102
RTVSPost2010PropOp55
 70
     1
102
RTVSPost2010Prop56
140
1.0
102
RTVSPost2010PropOp56
 70
     1
102
RTVSPost2010Prop57
140
1.0
102
RTVSPost2010PropOp57
 70
     1
  0
XRECORD
  5
47A4
102
{ACAD_REACTORS
330
47A3
102
}
330
47A3
100
AcDbXrecord
280
     1
102
RTVSPost2010Prop28
280
     0
102
RTVSPost2010PropOp28
 70
     1
102
RTVSPost2010Prop29
280
     1
102
RTVSPost2010PropOp29
 70
     1
102
RTVSPost2010Prop30
280
     1
102
RTVSPost2010PropOp30
 70
     1
102
RTVSPost2010Prop31
280
     0
102
RTVSPost2010PropOp31
 70
     1
102
RTVSPost2010Prop32
280
     0
102
RTVSPost2010PropOp32
 70
     1
102
RTVSPost2010Prop33
280
     0
102
RTVSPost2010PropOp33
 70
     1
102
RTVSPost2010Prop34
280
     0
102
RTVSPost2010PropOp34
 70
     1
102
RTVSPost2010Prop35
280
     0
102
RTVSPost2010PropOp35
 70
     1
102
RTVSPost2010Prop36
280
     0
102
RTVSPost2010PropOp36
 70
     1
102
RTVSPost2010Prop37
 90
       50
102
RTVSPost2010PropOp37
 70
     1
102
RTVSPost2010Prop38
140
0.0
102
RTVSPost2010PropOp38
 70
     1
102
RTVSPost2010Prop39
140
1.0
102
RTVSPost2010PropOp39
 70
     1
102
RTVSPost2010Prop40
 90
        0
102
RTVSPost2010PropOp40
 70
     1
102
RTVSPost2010Prop41ColorIndex
 90
       18
102
RTVSPost2010Prop41ColorRGB
 90
        0
102
RTVSPost2010PropOp41
 70
     1
102
RTVSPost2010Prop42
 90
       50
102
RTVSPost2010PropOp42
 70
     1
102
RTVSPost2010Prop43
 90
        3
102
RTVSPost2010PropOp43
 70
     1
102
RTVSPost2010Prop44ColorIndex
 90
        5
102
RTVSPost2010Prop44ColorRGB
 90
      255
102
RTVSPost2010PropOp44
 70
     1
102
RTVSPost2010Prop45
280
     0
102
RTVSPost2010PropOp45
 70
     1
102
RTVSPost2010Prop46
 90
       50
102
RTVSPost2010PropOp46
 70
     1
102
RTVSPost2010Prop47
 90
       50
102
RTVSPost2010PropOp47
 70
     1
102
RTVSPost2010Prop48
 90
       50
102
RTVSPost2010PropOp48
 70
     1
102
RTVSPost2010Prop49
280
     0
102
RTVSPost2010PropOp49
 70
     1
102
RTVSPost2010Prop50
 90
       50
102
RTVSPost2010PropOp50
 70
     1
102
RTVSPost2010Prop51ColorIndex
 90
      256
102
RTVSPost2010Prop51ColorRGB
 90
-16777216
102
RTVSPost2010PropOp51
 70
     0
102
RTVSPost2010Prop52
140
1.0
102
RTVSPost2010PropOp52
 70
     0
102
RTVSPost2010Prop53
 90
        2
102
RTVSPost2010PropOp53
 70
     1
102
RTVSPost2010Prop54
  1
strokes_ogs.tif
102
RTVSPost2010PropOp54
 70
     1
102
RTVSPost2010Prop55
280
     0
102
RTVSPost2010PropOp55
 70
     1
102
RTVSPost2010Prop56
140
1.0
102
RTVSPost2010PropOp56
 70
     1
102
RTVSPost2010Prop57
140
1.0
102
RTVSPost2010PropOp57
 70
     1
  0
XRECORD
  5
47A6
102
{ACAD_REACTORS
330
47A5
102
}
330
47A5
100
AcDbXrecord
280
     1
102
RTVSPost2010Prop28
280
     0
102
RTVSPost2010PropOp28
 70
     1
102
RTVSPost2010Prop29
280
     1
102
RTVSPost2010PropOp29
 70
     1
102
RTVSPost2010Prop30
280
     1
102
RTVSPost2010PropOp30
 70
     1
102
RTVSPost2010Prop31
280
     0
102
RTVSPost2010PropOp31
 70
     1
102
RTVSPost2010Prop32
280
     0
102
RTVSPost2010PropOp32
 70
     1
102
RTVSPost2010Prop33
280
     0
102
RTVSPost2010PropOp33
 70
     1
102
RTVSPost2010Prop34
280
     0
102
RTVSPost2010PropOp34
 70
     1
102
RTVSPost2010Prop35
280
     0
102
RTVSPost2010PropOp35
 70
     1
102
RTVSPost2010Prop36
280
     0
102
RTVSPost2010PropOp36
 70
     1
102
RTVSPost2010Prop37
 90
       50
102
RTVSPost2010PropOp37
 70
     1
102
RTVSPost2010Prop38
140
0.0
102
RTVSPost2010PropOp38
 70
     1
102
RTVSPost2010Prop39
140
1.0
102
RTVSPost2010PropOp39
 70
     1
102
RTVSPost2010Prop40
 90
        0
102
RTVSPost2010PropOp40
 70
     1
102
RTVSPost2010Prop41ColorIndex
 90
       18
102
RTVSPost2010Prop41ColorRGB
 90
        0
102
RTVSPost2010PropOp41
 70
     1
102
RTVSPost2010Prop42
 90
       50
102
RTVSPost2010PropOp42
 70
     1
102
RTVSPost2010Prop43
 90
        3
102
RTVSPost2010PropOp43
 70
     1
102
RTVSPost2010Prop44ColorIndex
 90
        5
102
RTVSPost2010Prop44ColorRGB
 90
      255
102
RTVSPost2010PropOp44
 70
     1
102
RTVSPost2010Prop45
280
     0
102
RTVSPost2010PropOp45
 70
     1
102
RTVSPost2010Prop46
 90
       50
102
RTVSPost2010PropOp46
 70
     1
102
RTVSPost2010Prop47
 90
       50
102
RTVSPost2010PropOp47
 70
     1
102
RTVSPost2010Prop48
 90
       50
102
RTVSPost2010PropOp48
 70
     1
102
RTVSPost2010Prop49
280
     0
102
RTVSPost2010PropOp49
 70
     1
102
RTVSPost2010Prop50
 90
       50
102
RTVSPost2010PropOp50
 70
     1
102
RTVSPost2010Prop51ColorIndex
 90
      256
102
RTVSPost2010Prop51ColorRGB
 90
-16777216
102
RTVSPost2010PropOp51
 70
     0
102
RTVSPost2010Prop52
140
1.0
102
RTVSPost2010PropOp52
 70
     0
102
RTVSPost2010Prop53
 90
        2
102
RTVSPost2010PropOp53
 70
     1
102
RTVSPost2010Prop54
  1
strokes_ogs.tif
102
RTVSPost2010PropOp54
 70
     1
102
RTVSPost2010Prop55
280
     0
102
RTVSPost2010PropOp55
 70
     1
102
RTVSPost2010Prop56
140
1.0
102
RTVSPost2010PropOp56
 70
     1
102
RTVSPost2010Prop57
140
1.0
102
RTVSPost2010PropOp57
 70
     1
  0
XRECORD
  5
47C2
102
{ACAD_REACTORS
330
47C1
102
}
330
47C1
100
AcDbXrecord
280
     1
102
RTVSPost2010Prop28
280
     0
102
RTVSPost2010PropOp28
 70
     1
102
RTVSPost2010Prop29
280
     1
102
RTVSPost2010PropOp29
 70
     1
102
RTVSPost2010Prop30
280
     1
102
RTVSPost2010PropOp30
 70
     1
102
RTVSPost2010Prop31
280
     0
102
RTVSPost2010PropOp31
 70
     1
102
RTVSPost2010Prop32
280
     0
102
RTVSPost2010PropOp32
 70
     1
102
RTVSPost2010Prop33
280
     0
102
RTVSPost2010PropOp33
 70
     1
102
RTVSPost2010Prop34
280
     0
102
RTVSPost2010PropOp34
 70
     1
102
RTVSPost2010Prop35
280
     0
102
RTVSPost2010PropOp35
 70
     1
102
RTVSPost2010Prop36
280
     0
102
RTVSPost2010PropOp36
 70
     1
102
RTVSPost2010Prop37
 90
       50
102
RTVSPost2010PropOp37
 70
     1
102
RTVSPost2010Prop38
140
0.0
102
RTVSPost2010PropOp38
 70
     1
102
RTVSPost2010Prop39
140
1.0
102
RTVSPost2010PropOp39
 70
     1
102
RTVSPost2010Prop40
 90
        0
102
RTVSPost2010PropOp40
 70
     1
102
RTVSPost2010Prop41ColorIndex
 90
       18
102
RTVSPost2010Prop41ColorRGB
 90
        0
102
RTVSPost2010PropOp41
 70
     1
102
RTVSPost2010Prop42
 90
       50
102
RTVSPost2010PropOp42
 70
     1
102
RTVSPost2010Prop43
 90
        3
102
RTVSPost2010PropOp43
 70
     1
102
RTVSPost2010Prop44ColorIndex
 90
        5
102
RTVSPost2010Prop44ColorRGB
 90
      255
102
RTVSPost2010PropOp44
 70
     1
102
RTVSPost2010Prop45
280
     0
102
RTVSPost2010PropOp45
 70
     1
102
RTVSPost2010Prop46
 90
       50
102
RTVSPost2010PropOp46
 70
     1
102
RTVSPost2010Prop47
 90
       50
102
RTVSPost2010PropOp47
 70
     1
102
RTVSPost2010Prop48
 90
       50
102
RTVSPost2010PropOp48
 70
     1
102
RTVSPost2010Prop49
280
     0
102
RTVSPost2010PropOp49
 70
     1
102
RTVSPost2010Prop50
 90
       50
102
RTVSPost2010PropOp50
 70
     1
102
RTVSPost2010Prop51ColorIndex
 90
      256
102
RTVSPost2010Prop51ColorRGB
 90
-16777216
102
RTVSPost2010PropOp51
 70
     0
102
RTVSPost2010Prop52
140
1.0
102
RTVSPost2010PropOp52
 70
     0
102
RTVSPost2010Prop53
 90
        2
102
RTVSPost2010PropOp53
 70
     1
102
RTVSPost2010Prop54
  1
strokes_ogs.tif
102
RTVSPost2010PropOp54
 70
     1
102
RTVSPost2010Prop55
280
     0
102
RTVSPost2010PropOp55
 70
     1
102
RTVSPost2010Prop56
140
1.0
102
RTVSPost2010PropOp56
 70
     1
102
RTVSPost2010Prop57
140
1.0
102
RTVSPost2010PropOp57
 70
     1
  0
XRECORD
  5
47CE
102
{ACAD_REACTORS
330
47CD
102
}
330
47CD
100
AcDbXrecord
280
     1
102
RTVSPost2010Prop28
280
     0
102
RTVSPost2010PropOp28
 70
     1
102
RTVSPost2010Prop29
280
     1
102
RTVSPost2010PropOp29
 70
     1
102
RTVSPost2010Prop30
280
     1
102
RTVSPost2010PropOp30
 70
     1
102
RTVSPost2010Prop31
280
     0
102
RTVSPost2010PropOp31
 70
     1
102
RTVSPost2010Prop32
280
     0
102
RTVSPost2010PropOp32
 70
     1
102
RTVSPost2010Prop33
280
     0
102
RTVSPost2010PropOp33
 70
     1
102
RTVSPost2010Prop34
280
     0
102
RTVSPost2010PropOp34
 70
     1
102
RTVSPost2010Prop35
280
     0
102
RTVSPost2010PropOp35
 70
     1
102
RTVSPost2010Prop36
280
     0
102
RTVSPost2010PropOp36
 70
     1
102
RTVSPost2010Prop37
 90
       50
102
RTVSPost2010PropOp37
 70
     1
102
RTVSPost2010Prop38
140
0.0
102
RTVSPost2010PropOp38
 70
     1
102
RTVSPost2010Prop39
140
1.0
102
RTVSPost2010PropOp39
 70
     1
102
RTVSPost2010Prop40
 90
        0
102
RTVSPost2010PropOp40
 70
     1
102
RTVSPost2010Prop41ColorIndex
 90
       18
102
RTVSPost2010Prop41ColorRGB
 90
        0
102
RTVSPost2010PropOp41
 70
     1
102
RTVSPost2010Prop42
 90
       50
102
RTVSPost2010PropOp42
 70
     1
102
RTVSPost2010Prop43
 90
        3
102
RTVSPost2010PropOp43
 70
     1
102
RTVSPost2010Prop44ColorIndex
 90
        5
102
RTVSPost2010Prop44ColorRGB
 90
      255
102
RTVSPost2010PropOp44
 70
     1
102
RTVSPost2010Prop45
280
     0
102
RTVSPost2010PropOp45
 70
     1
102
RTVSPost2010Prop46
 90
       50
102
RTVSPost2010PropOp46
 70
     1
102
RTVSPost2010Prop47
 90
       50
102
RTVSPost2010PropOp47
 70
     1
102
RTVSPost2010Prop48
 90
       50
102
RTVSPost2010PropOp48
 70
     1
102
RTVSPost2010Prop49
280
     0
102
RTVSPost2010PropOp49
 70
     1
102
RTVSPost2010Prop50
 90
       50
102
RTVSPost2010PropOp50
 70
     1
102
RTVSPost2010Prop51ColorIndex
 90
      256
102
RTVSPost2010Prop51ColorRGB
 90
-16777216
102
RTVSPost2010PropOp51
 70
     0
102
RTVSPost2010Prop52
140
1.0
102
RTVSPost2010PropOp52
 70
     0
102
RTVSPost2010Prop53
 90
        2
102
RTVSPost2010PropOp53
 70
     1
102
RTVSPost2010Prop54
  1
strokes_ogs.tif
102
RTVSPost2010PropOp54
 70
     1
102
RTVSPost2010Prop55
280
     0
102
RTVSPost2010PropOp55
 70
     1
102
RTVSPost2010Prop56
140
1.0
102
RTVSPost2010PropOp56
 70
     1
102
RTVSPost2010Prop57
140
1.0
102
RTVSPost2010PropOp57
 70
     1
  0
XRECORD
  5
47BA
102
{ACAD_REACTORS
330
47B9
102
}
330
47B9
100
AcDbXrecord
280
     1
102
RTVSPost2010Prop28
280
     0
102
RTVSPost2010PropOp28
 70
     1
102
RTVSPost2010Prop29
280
     1
102
RTVSPost2010PropOp29
 70
     1
102
RTVSPost2010Prop30
280
     1
102
RTVSPost2010PropOp30
 70
     1
102
RTVSPost2010Prop31
280
     0
102
RTVSPost2010PropOp31
 70
     1
102
RTVSPost2010Prop32
280
     0
102
RTVSPost2010PropOp32
 70
     1
102
RTVSPost2010Prop33
280
     0
102
RTVSPost2010PropOp33
 70
     1
102
RTVSPost2010Prop34
280
     0
102
RTVSPost2010PropOp34
 70
     1
102
RTVSPost2010Prop35
280
     0
102
RTVSPost2010PropOp35
 70
     1
102
RTVSPost2010Prop36
280
     0
102
RTVSPost2010PropOp36
 70
     1
102
RTVSPost2010Prop37
 90
       50
102
RTVSPost2010PropOp37
 70
     1
102
RTVSPost2010Prop38
140
0.0
102
RTVSPost2010PropOp38
 70
     1
102
RTVSPost2010Prop39
140
1.0
102
RTVSPost2010PropOp39
 70
     1
102
RTVSPost2010Prop40
 90
        0
102
RTVSPost2010PropOp40
 70
     1
102
RTVSPost2010Prop41ColorIndex
 90
       18
102
RTVSPost2010Prop41ColorRGB
 90
        0
102
RTVSPost2010PropOp41
 70
     1
102
RTVSPost2010Prop42
 90
       50
102
RTVSPost2010PropOp42
 70
     1
102
RTVSPost2010Prop43
 90
        3
102
RTVSPost2010PropOp43
 70
     1
102
RTVSPost2010Prop44ColorIndex
 90
        5
102
RTVSPost2010Prop44ColorRGB
 90
      255
102
RTVSPost2010PropOp44
 70
     1
102
RTVSPost2010Prop45
280
     0
102
RTVSPost2010PropOp45
 70
     1
102
RTVSPost2010Prop46
 90
       50
102
RTVSPost2010PropOp46
 70
     1
102
RTVSPost2010Prop47
 90
       50
102
RTVSPost2010PropOp47
 70
     1
102
RTVSPost2010Prop48
 90
       50
102
RTVSPost2010PropOp48
 70
     1
102
RTVSPost2010Prop49
280
     0
102
RTVSPost2010PropOp49
 70
     1
102
RTVSPost2010Prop50
 90
       50
102
RTVSPost2010PropOp50
 70
     1
102
RTVSPost2010Prop51ColorIndex
 90
      256
102
RTVSPost2010Prop51ColorRGB
 90
-16777216
102
RTVSPost2010PropOp51
 70
     0
102
RTVSPost2010Prop52
140
1.0
102
RTVSPost2010PropOp52
 70
     0
102
RTVSPost2010Prop53
 90
        2
102
RTVSPost2010PropOp53
 70
     1
102
RTVSPost2010Prop54
  1
strokes_ogs.tif
102
RTVSPost2010PropOp54
 70
     1
102
RTVSPost2010Prop55
280
     0
102
RTVSPost2010PropOp55
 70
     1
102
RTVSPost2010Prop56
140
1.0
102
RTVSPost2010PropOp56
 70
     1
102
RTVSPost2010Prop57
140
1.0
102
RTVSPost2010PropOp57
 70
     1
  0
XRECORD
  5
47D0
102
{ACAD_REACTORS
330
47CF
102
}
330
47CF
100
AcDbXrecord
280
     1
102
RTVSPost2010Prop28
280
     0
102
RTVSPost2010PropOp28
 70
     1
102
RTVSPost2010Prop29
280
     1
102
RTVSPost2010PropOp29
 70
     1
102
RTVSPost2010Prop30
280
     1
102
RTVSPost2010PropOp30
 70
     1
102
RTVSPost2010Prop31
280
     0
102
RTVSPost2010PropOp31
 70
     1
102
RTVSPost2010Prop32
280
     0
102
RTVSPost2010PropOp32
 70
     1
102
RTVSPost2010Prop33
280
     0
102
RTVSPost2010PropOp33
 70
     1
102
RTVSPost2010Prop34
280
     0
102
RTVSPost2010PropOp34
 70
     1
102
RTVSPost2010Prop35
280
     0
102
RTVSPost2010PropOp35
 70
     1
102
RTVSPost2010Prop36
280
     0
102
RTVSPost2010PropOp36
 70
     1
102
RTVSPost2010Prop37
 90
       50
102
RTVSPost2010PropOp37
 70
     1
102
RTVSPost2010Prop38
140
0.0
102
RTVSPost2010PropOp38
 70
     1
102
RTVSPost2010Prop39
140
1.0
102
RTVSPost2010PropOp39
 70
     1
102
RTVSPost2010Prop40
 90
        0
102
RTVSPost2010PropOp40
 70
     1
102
RTVSPost2010Prop41ColorIndex
 90
       18
102
RTVSPost2010Prop41ColorRGB
 90
        0
102
RTVSPost2010PropOp41
 70
     1
102
RTVSPost2010Prop42
 90
       50
102
RTVSPost2010PropOp42
 70
     1
102
RTVSPost2010Prop43
 90
        3
102
RTVSPost2010PropOp43
 70
     1
102
RTVSPost2010Prop44ColorIndex
 90
        5
102
RTVSPost2010Prop44ColorRGB
 90
      255
102
RTVSPost2010PropOp44
 70
     1
102
RTVSPost2010Prop45
280
     0
102
RTVSPost2010PropOp45
 70
     1
102
RTVSPost2010Prop46
 90
       50
102
RTVSPost2010PropOp46
 70
     1
102
RTVSPost2010Prop47
 90
       50
102
RTVSPost2010PropOp47
 70
     1
102
RTVSPost2010Prop48
 90
       50
102
RTVSPost2010PropOp48
 70
     1
102
RTVSPost2010Prop49
280
     0
102
RTVSPost2010PropOp49
 70
     1
102
RTVSPost2010Prop50
 90
       50
102
RTVSPost2010PropOp50
 70
     1
102
RTVSPost2010Prop51ColorIndex
 90
      256
102
RTVSPost2010Prop51ColorRGB
 90
-16777216
102
RTVSPost2010PropOp51
 70
     0
102
RTVSPost2010Prop52
140
1.0
102
RTVSPost2010PropOp52
 70
     0
102
RTVSPost2010Prop53
 90
        2
102
RTVSPost2010PropOp53
 70
     1
102
RTVSPost2010Prop54
  1
strokes_ogs.tif
102
RTVSPost2010PropOp54
 70
     1
102
RTVSPost2010Prop55
280
     0
102
RTVSPost2010PropOp55
 70
     1
102
RTVSPost2010Prop56
140
1.0
102
RTVSPost2010PropOp56
 70
     1
102
RTVSPost2010Prop57
140
1.0
102
RTVSPost2010PropOp57
 70
     1
  0
XRECORD
  5
47B2
102
{ACAD_REACTORS
330
47B1
102
}
330
47B1
100
AcDbXrecord
280
     1
102
RTVSPost2010Prop28
280
     0
102
RTVSPost2010PropOp28
 70
     1
102
RTVSPost2010Prop29
280
     1
102
RTVSPost2010PropOp29
 70
     1
102
RTVSPost2010Prop30
280
     1
102
RTVSPost2010PropOp30
 70
     1
102
RTVSPost2010Prop31
280
     0
102
RTVSPost2010PropOp31
 70
     1
102
RTVSPost2010Prop32
280
     0
102
RTVSPost2010PropOp32
 70
     1
102
RTVSPost2010Prop33
280
     0
102
RTVSPost2010PropOp33
 70
     1
102
RTVSPost2010Prop34
280
     0
102
RTVSPost2010PropOp34
 70
     1
102
RTVSPost2010Prop35
280
     0
102
RTVSPost2010PropOp35
 70
     1
102
RTVSPost2010Prop36
280
     0
102
RTVSPost2010PropOp36
 70
     1
102
RTVSPost2010Prop37
 90
       50
102
RTVSPost2010PropOp37
 70
     1
102
RTVSPost2010Prop38
140
0.0
102
RTVSPost2010PropOp38
 70
     1
102
RTVSPost2010Prop39
140
1.0
102
RTVSPost2010PropOp39
 70
     1
102
RTVSPost2010Prop40
 90
        0
102
RTVSPost2010PropOp40
 70
     1
102
RTVSPost2010Prop41ColorIndex
 90
       18
102
RTVSPost2010Prop41ColorRGB
 90
        0
102
RTVSPost2010PropOp41
 70
     1
102
RTVSPost2010Prop42
 90
       50
102
RTVSPost2010PropOp42
 70
     1
102
RTVSPost2010Prop43
 90
        3
102
RTVSPost2010PropOp43
 70
     1
102
RTVSPost2010Prop44ColorIndex
 90
        5
102
RTVSPost2010Prop44ColorRGB
 90
      255
102
RTVSPost2010PropOp44
 70
     1
102
RTVSPost2010Prop45
280
     0
102
RTVSPost2010PropOp45
 70
     1
102
RTVSPost2010Prop46
 90
       50
102
RTVSPost2010PropOp46
 70
     1
102
RTVSPost2010Prop47
 90
       50
102
RTVSPost2010PropOp47
 70
     1
102
RTVSPost2010Prop48
 90
       50
102
RTVSPost2010PropOp48
 70
     1
102
RTVSPost2010Prop49
280
     0
102
RTVSPost2010PropOp49
 70
     1
102
RTVSPost2010Prop50
 90
       50
102
RTVSPost2010PropOp50
 70
     1
102
RTVSPost2010Prop51ColorIndex
 90
      256
102
RTVSPost2010Prop51ColorRGB
 90
-16777216
102
RTVSPost2010PropOp51
 70
     0
102
RTVSPost2010Prop52
140
1.0
102
RTVSPost2010PropOp52
 70
     0
102
RTVSPost2010Prop53
 90
        2
102
RTVSPost2010PropOp53
 70
     1
102
RTVSPost2010Prop54
  1
strokes_ogs.tif
102
RTVSPost2010PropOp54
 70
     1
102
RTVSPost2010Prop55
280
     0
102
RTVSPost2010PropOp55
 70
     1
102
RTVSPost2010Prop56
140
1.0
102
RTVSPost2010PropOp56
 70
     1
102
RTVSPost2010Prop57
140
1.0
102
RTVSPost2010PropOp57
 70
     1
  0
XRECORD
  5
47CC
102
{ACAD_REACTORS
330
47CB
102
}
330
47CB
100
AcDbXrecord
280
     1
102
RTVSPost2010Prop28
280
     0
102
RTVSPost2010PropOp28
 70
     1
102
RTVSPost2010Prop29
280
     1
102
RTVSPost2010PropOp29
 70
     1
102
RTVSPost2010Prop30
280
     1
102
RTVSPost2010PropOp30
 70
     1
102
RTVSPost2010Prop31
280
     0
102
RTVSPost2010PropOp31
 70
     1
102
RTVSPost2010Prop32
280
     0
102
RTVSPost2010PropOp32
 70
     1
102
RTVSPost2010Prop33
280
     0
102
RTVSPost2010PropOp33
 70
     1
102
RTVSPost2010Prop34
280
     0
102
RTVSPost2010PropOp34
 70
     1
102
RTVSPost2010Prop35
280
     0
102
RTVSPost2010PropOp35
 70
     1
102
RTVSPost2010Prop36
280
     0
102
RTVSPost2010PropOp36
 70
     1
102
RTVSPost2010Prop37
 90
       50
102
RTVSPost2010PropOp37
 70
     1
102
RTVSPost2010Prop38
140
0.0
102
RTVSPost2010PropOp38
 70
     1
102
RTVSPost2010Prop39
140
1.0
102
RTVSPost2010PropOp39
 70
     1
102
RTVSPost2010Prop40
 90
        0
102
RTVSPost2010PropOp40
 70
     1
102
RTVSPost2010Prop41ColorIndex
 90
       18
102
RTVSPost2010Prop41ColorRGB
 90
        0
102
RTVSPost2010PropOp41
 70
     1
102
RTVSPost2010Prop42
 90
       50
102
RTVSPost2010PropOp42
 70
     1
102
RTVSPost2010Prop43
 90
        3
102
RTVSPost2010PropOp43
 70
     1
102
RTVSPost2010Prop44ColorIndex
 90
        5
102
RTVSPost2010Prop44ColorRGB
 90
      255
102
RTVSPost2010PropOp44
 70
     1
102
RTVSPost2010Prop45
280
     0
102
RTVSPost2010PropOp45
 70
     1
102
RTVSPost2010Prop46
 90
       50
102
RTVSPost2010PropOp46
 70
     1
102
RTVSPost2010Prop47
 90
       50
102
RTVSPost2010PropOp47
 70
     1
102
RTVSPost2010Prop48
 90
       50
102
RTVSPost2010PropOp48
 70
     1
102
RTVSPost2010Prop49
280
     0
102
RTVSPost2010PropOp49
 70
     1
102
RTVSPost2010Prop50
 90
       50
102
RTVSPost2010PropOp50
 70
     1
102
RTVSPost2010Prop51ColorIndex
 90
      256
102
RTVSPost2010Prop51ColorRGB
 90
-16777216
102
RTVSPost2010PropOp51
 70
     0
102
RTVSPost2010Prop52
140
1.0
102
RTVSPost2010PropOp52
 70
     0
102
RTVSPost2010Prop53
 90
        2
102
RTVSPost2010PropOp53
 70
     1
102
RTVSPost2010Prop54
  1
strokes_ogs.tif
102
RTVSPost2010PropOp54
 70
     1
102
RTVSPost2010Prop55
280
     0
102
RTVSPost2010PropOp55
 70
     1
102
RTVSPost2010Prop56
140
1.0
102
RTVSPost2010PropOp56
 70
     1
102
RTVSPost2010Prop57
140
1.0
102
RTVSPost2010PropOp57
 70
     1
  0
XRECORD
  5
47CA
102
{ACAD_REACTORS
330
47C9
102
}
330
47C9
100
AcDbXrecord
280
     1
102
RTVSPost2010Prop28
280
     0
102
RTVSPost2010PropOp28
 70
     1
102
RTVSPost2010Prop29
280
     1
102
RTVSPost2010PropOp29
 70
     1
102
RTVSPost2010Prop30
280
     1
102
RTVSPost2010PropOp30
 70
     1
102
RTVSPost2010Prop31
280
     0
102
RTVSPost2010PropOp31
 70
     1
102
RTVSPost2010Prop32
280
     0
102
RTVSPost2010PropOp32
 70
     1
102
RTVSPost2010Prop33
280
     0
102
RTVSPost2010PropOp33
 70
     1
102
RTVSPost2010Prop34
280
     0
102
RTVSPost2010PropOp34
 70
     1
102
RTVSPost2010Prop35
280
     0
102
RTVSPost2010PropOp35
 70
     1
102
RTVSPost2010Prop36
280
     0
102
RTVSPost2010PropOp36
 70
     1
102
RTVSPost2010Prop37
 90
       50
102
RTVSPost2010PropOp37
 70
     1
102
RTVSPost2010Prop38
140
0.0
102
RTVSPost2010PropOp38
 70
     1
102
RTVSPost2010Prop39
140
1.0
102
RTVSPost2010PropOp39
 70
     1
102
RTVSPost2010Prop40
 90
        0
102
RTVSPost2010PropOp40
 70
     1
102
RTVSPost2010Prop41ColorIndex
 90
       18
102
RTVSPost2010Prop41ColorRGB
 90
        0
102
RTVSPost2010PropOp41
 70
     1
102
RTVSPost2010Prop42
 90
       50
102
RTVSPost2010PropOp42
 70
     1
102
RTVSPost2010Prop43
 90
        3
102
RTVSPost2010PropOp43
 70
     1
102
RTVSPost2010Prop44ColorIndex
 90
        5
102
RTVSPost2010Prop44ColorRGB
 90
      255
102
RTVSPost2010PropOp44
 70
     1
102
RTVSPost2010Prop45
280
     0
102
RTVSPost2010PropOp45
 70
     1
102
RTVSPost2010Prop46
 90
       50
102
RTVSPost2010PropOp46
 70
     1
102
RTVSPost2010Prop47
 90
       50
102
RTVSPost2010PropOp47
 70
     1
102
RTVSPost2010Prop48
 90
       50
102
RTVSPost2010PropOp48
 70
     1
102
RTVSPost2010Prop49
280
     0
102
RTVSPost2010PropOp49
 70
     1
102
RTVSPost2010Prop50
 90
       50
102
RTVSPost2010PropOp50
 70
     1
102
RTVSPost2010Prop51ColorIndex
 90
      256
102
RTVSPost2010Prop51ColorRGB
 90
-16777216
102
RTVSPost2010PropOp51
 70
     0
102
RTVSPost2010Prop52
140
1.0
102
RTVSPost2010PropOp52
 70
     0
102
RTVSPost2010Prop53
 90
        2
102
RTVSPost2010PropOp53
 70
     1
102
RTVSPost2010Prop54
  1
strokes_ogs.tif
102
RTVSPost2010PropOp54
 70
     1
102
RTVSPost2010Prop55
280
     0
102
RTVSPost2010PropOp55
 70
     1
102
RTVSPost2010Prop56
140
1.0
102
RTVSPost2010PropOp56
 70
     1
102
RTVSPost2010Prop57
140
1.0
102
RTVSPost2010PropOp57
 70
     1
  0
XRECORD
  5
47C4
102
{ACAD_REACTORS
330
47C3
102
}
330
47C3
100
AcDbXrecord
280
     1
102
RTVSPost2010Prop28
280
     0
102
RTVSPost2010PropOp28
 70
     1
102
RTVSPost2010Prop29
280
     1
102
RTVSPost2010PropOp29
 70
     1
102
RTVSPost2010Prop30
280
     1
102
RTVSPost2010PropOp30
 70
     1
102
RTVSPost2010Prop31
280
     0
102
RTVSPost2010PropOp31
 70
     1
102
RTVSPost2010Prop32
280
     0
102
RTVSPost2010PropOp32
 70
     1
102
RTVSPost2010Prop33
280
     0
102
RTVSPost2010PropOp33
 70
     1
102
RTVSPost2010Prop34
280
     0
102
RTVSPost2010PropOp34
 70
     1
102
RTVSPost2010Prop35
280
     0
102
RTVSPost2010PropOp35
 70
     1
102
RTVSPost2010Prop36
280
     0
102
RTVSPost2010PropOp36
 70
     1
102
RTVSPost2010Prop37
 90
       50
102
RTVSPost2010PropOp37
 70
     1
102
RTVSPost2010Prop38
140
0.0
102
RTVSPost2010PropOp38
 70
     1
102
RTVSPost2010Prop39
140
1.0
102
RTVSPost2010PropOp39
 70
     1
102
RTVSPost2010Prop40
 90
        0
102
RTVSPost2010PropOp40
 70
     1
102
RTVSPost2010Prop41ColorIndex
 90
       18
102
RTVSPost2010Prop41ColorRGB
 90
        0
102
RTVSPost2010PropOp41
 70
     1
102
RTVSPost2010Prop42
 90
       50
102
RTVSPost2010PropOp42
 70
     1
102
RTVSPost2010Prop43
 90
        3
102
RTVSPost2010PropOp43
 70
     1
102
RTVSPost2010Prop44ColorIndex
 90
        5
102
RTVSPost2010Prop44ColorRGB
 90
      255
102
RTVSPost2010PropOp44
 70
     1
102
RTVSPost2010Prop45
280
     0
102
RTVSPost2010PropOp45
 70
     1
102
RTVSPost2010Prop46
 90
       50
102
RTVSPost2010PropOp46
 70
     1
102
RTVSPost2010Prop47
 90
       50
102
RTVSPost2010PropOp47
 70
     1
102
RTVSPost2010Prop48
 90
       50
102
RTVSPost2010PropOp48
 70
     1
102
RTVSPost2010Prop49
280
     0
102
RTVSPost2010PropOp49
 70
     1
102
RTVSPost2010Prop50
 90
       50
102
RTVSPost2010PropOp50
 70
     1
102
RTVSPost2010Prop51ColorIndex
 90
      256
102
RTVSPost2010Prop51ColorRGB
 90
-16777216
102
RTVSPost2010PropOp51
 70
     0
102
RTVSPost2010Prop52
140
1.0
102
RTVSPost2010PropOp52
 70
     0
102
RTVSPost2010Prop53
 90
        2
102
RTVSPost2010PropOp53
 70
     1
102
RTVSPost2010Prop54
  1
strokes_ogs.tif
102
RTVSPost2010PropOp54
 70
     1
102
RTVSPost2010Prop55
280
     0
102
RTVSPost2010PropOp55
 70
     1
102
RTVSPost2010Prop56
140
1.0
102
RTVSPost2010PropOp56
 70
     1
102
RTVSPost2010Prop57
140
1.0
102
RTVSPost2010PropOp57
 70
     1
  0
XRECORD
  5
47C6
102
{ACAD_REACTORS
330
47C5
102
}
330
47C5
100
AcDbXrecord
280
     1
102
RTVSPost2010Prop28
280
     0
102
RTVSPost2010PropOp28
 70
     1
102
RTVSPost2010Prop29
280
     1
102
RTVSPost2010PropOp29
 70
     1
102
RTVSPost2010Prop30
280
     1
102
RTVSPost2010PropOp30
 70
     1
102
RTVSPost2010Prop31
280
     0
102
RTVSPost2010PropOp31
 70
     1
102
RTVSPost2010Prop32
280
     0
102
RTVSPost2010PropOp32
 70
     1
102
RTVSPost2010Prop33
280
     0
102
RTVSPost2010PropOp33
 70
     1
102
RTVSPost2010Prop34
280
     0
102
RTVSPost2010PropOp34
 70
     1
102
RTVSPost2010Prop35
280
     0
102
RTVSPost2010PropOp35
 70
     1
102
RTVSPost2010Prop36
280
     0
102
RTVSPost2010PropOp36
 70
     1
102
RTVSPost2010Prop37
 90
       50
102
RTVSPost2010PropOp37
 70
     1
102
RTVSPost2010Prop38
140
0.0
102
RTVSPost2010PropOp38
 70
     1
102
RTVSPost2010Prop39
140
1.0
102
RTVSPost2010PropOp39
 70
     1
102
RTVSPost2010Prop40
 90
        0
102
RTVSPost2010PropOp40
 70
     1
102
RTVSPost2010Prop41ColorIndex
 90
       18
102
RTVSPost2010Prop41ColorRGB
 90
        0
102
RTVSPost2010PropOp41
 70
     1
102
RTVSPost2010Prop42
 90
       50
102
RTVSPost2010PropOp42
 70
     1
102
RTVSPost2010Prop43
 90
        3
102
RTVSPost2010PropOp43
 70
     1
102
RTVSPost2010Prop44ColorIndex
 90
        5
102
RTVSPost2010Prop44ColorRGB
 90
      255
102
RTVSPost2010PropOp44
 70
     1
102
RTVSPost2010Prop45
280
     0
102
RTVSPost2010PropOp45
 70
     1
102
RTVSPost2010Prop46
 90
       50
102
RTVSPost2010PropOp46
 70
     1
102
RTVSPost2010Prop47
 90
       50
102
RTVSPost2010PropOp47
 70
     1
102
RTVSPost2010Prop48
 90
       50
102
RTVSPost2010PropOp48
 70
     1
102
RTVSPost2010Prop49
280
     0
102
RTVSPost2010PropOp49
 70
     1
102
RTVSPost2010Prop50
 90
       50
102
RTVSPost2010PropOp50
 70
     1
102
RTVSPost2010Prop51ColorIndex
 90
      256
102
RTVSPost2010Prop51ColorRGB
 90
-16777216
102
RTVSPost2010PropOp51
 70
     0
102
RTVSPost2010Prop52
140
1.0
102
RTVSPost2010PropOp52
 70
     0
102
RTVSPost2010Prop53
 90
        2
102
RTVSPost2010PropOp53
 70
     1
102
RTVSPost2010Prop54
  1
strokes_ogs.tif
102
RTVSPost2010PropOp54
 70
     1
102
RTVSPost2010Prop55
280
     0
102
RTVSPost2010PropOp55
 70
     1
102
RTVSPost2010Prop56
140
1.0
102
RTVSPost2010PropOp56
 70
     1
102
RTVSPost2010Prop57
140
1.0
102
RTVSPost2010PropOp57
 70
     1
  0
XRECORD
  5
47B8
102
{ACAD_REACTORS
330
47B7
102
}
330
47B7
100
AcDbXrecord
280
     1
102
RTVSPost2010Prop28
280
     0
102
RTVSPost2010PropOp28
 70
     1
102
RTVSPost2010Prop29
280
     1
102
RTVSPost2010PropOp29
 70
     1
102
RTVSPost2010Prop30
280
     1
102
RTVSPost2010PropOp30
 70
     1
102
RTVSPost2010Prop31
280
     0
102
RTVSPost2010PropOp31
 70
     1
102
RTVSPost2010Prop32
280
     0
102
RTVSPost2010PropOp32
 70
     1
102
RTVSPost2010Prop33
280
     0
102
RTVSPost2010PropOp33
 70
     1
102
RTVSPost2010Prop34
280
     0
102
RTVSPost2010PropOp34
 70
     1
102
RTVSPost2010Prop35
280
     0
102
RTVSPost2010PropOp35
 70
     1
102
RTVSPost2010Prop36
280
     0
102
RTVSPost2010PropOp36
 70
     1
102
RTVSPost2010Prop37
 90
       50
102
RTVSPost2010PropOp37
 70
     1
102
RTVSPost2010Prop38
140
0.0
102
RTVSPost2010PropOp38
 70
     1
102
RTVSPost2010Prop39
140
1.0
102
RTVSPost2010PropOp39
 70
     1
102
RTVSPost2010Prop40
 90
        0
102
RTVSPost2010PropOp40
 70
     1
102
RTVSPost2010Prop41ColorIndex
 90
       18
102
RTVSPost2010Prop41ColorRGB
 90
        0
102
RTVSPost2010PropOp41
 70
     1
102
RTVSPost2010Prop42
 90
       50
102
RTVSPost2010PropOp42
 70
     1
102
RTVSPost2010Prop43
 90
        3
102
RTVSPost2010PropOp43
 70
     1
102
RTVSPost2010Prop44ColorIndex
 90
        5
102
RTVSPost2010Prop44ColorRGB
 90
      255
102
RTVSPost2010PropOp44
 70
     1
102
RTVSPost2010Prop45
280
     0
102
RTVSPost2010PropOp45
 70
     1
102
RTVSPost2010Prop46
 90
       50
102
RTVSPost2010PropOp46
 70
     1
102
RTVSPost2010Prop47
 90
       50
102
RTVSPost2010PropOp47
 70
     1
102
RTVSPost2010Prop48
 90
       50
102
RTVSPost2010PropOp48
 70
     1
102
RTVSPost2010Prop49
280
     0
102
RTVSPost2010PropOp49
 70
     1
102
RTVSPost2010Prop50
 90
       50
102
RTVSPost2010PropOp50
 70
     1
102
RTVSPost2010Prop51ColorIndex
 90
      256
102
RTVSPost2010Prop51ColorRGB
 90
-16777216
102
RTVSPost2010PropOp51
 70
     0
102
RTVSPost2010Prop52
140
1.0
102
RTVSPost2010PropOp52
 70
     0
102
RTVSPost2010Prop53
 90
        2
102
RTVSPost2010PropOp53
 70
     1
102
RTVSPost2010Prop54
  1
strokes_ogs.tif
102
RTVSPost2010PropOp54
 70
     1
102
RTVSPost2010Prop55
280
     0
102
RTVSPost2010PropOp55
 70
     1
102
RTVSPost2010Prop56
140
1.0
102
RTVSPost2010PropOp56
 70
     1
102
RTVSPost2010Prop57
140
1.0
102
RTVSPost2010PropOp57
 70
     1
  0
XRECORD
  5
47C0
102
{ACAD_REACTORS
330
47BF
102
}
330
47BF
100
AcDbXrecord
280
     1
102
RTVSPost2010Prop28
280
     0
102
RTVSPost2010PropOp28
 70
     1
102
RTVSPost2010Prop29
280
     1
102
RTVSPost2010PropOp29
 70
     1
102
RTVSPost2010Prop30
280
     1
102
RTVSPost2010PropOp30
 70
     1
102
RTVSPost2010Prop31
280
     0
102
RTVSPost2010PropOp31
 70
     1
102
RTVSPost2010Prop32
280
     0
102
RTVSPost2010PropOp32
 70
     1
102
RTVSPost2010Prop33
280
     0
102
RTVSPost2010PropOp33
 70
     1
102
RTVSPost2010Prop34
280
     0
102
RTVSPost2010PropOp34
 70
     1
102
RTVSPost2010Prop35
280
     0
102
RTVSPost2010PropOp35
 70
     1
102
RTVSPost2010Prop36
280
     0
102
RTVSPost2010PropOp36
 70
     1
102
RTVSPost2010Prop37
 90
       50
102
RTVSPost2010PropOp37
 70
     1
102
RTVSPost2010Prop38
140
0.0
102
RTVSPost2010PropOp38
 70
     1
102
RTVSPost2010Prop39
140
1.0
102
RTVSPost2010PropOp39
 70
     1
102
RTVSPost2010Prop40
 90
        0
102
RTVSPost2010PropOp40
 70
     1
102
RTVSPost2010Prop41ColorIndex
 90
       18
102
RTVSPost2010Prop41ColorRGB
 90
        0
102
RTVSPost2010PropOp41
 70
     1
102
RTVSPost2010Prop42
 90
       50
102
RTVSPost2010PropOp42
 70
     1
102
RTVSPost2010Prop43
 90
        3
102
RTVSPost2010PropOp43
 70
     1
102
RTVSPost2010Prop44ColorIndex
 90
        5
102
RTVSPost2010Prop44ColorRGB
 90
      255
102
RTVSPost2010PropOp44
 70
     1
102
RTVSPost2010Prop45
280
     0
102
RTVSPost2010PropOp45
 70
     1
102
RTVSPost2010Prop46
 90
       50
102
RTVSPost2010PropOp46
 70
     1
102
RTVSPost2010Prop47
 90
       50
102
RTVSPost2010PropOp47
 70
     1
102
RTVSPost2010Prop48
 90
       50
102
RTVSPost2010PropOp48
 70
     1
102
RTVSPost2010Prop49
280
     0
102
RTVSPost2010PropOp49
 70
     1
102
RTVSPost2010Prop50
 90
       50
102
RTVSPost2010PropOp50
 70
     1
102
RTVSPost2010Prop51ColorIndex
 90
      256
102
RTVSPost2010Prop51ColorRGB
 90
-16777216
102
RTVSPost2010PropOp51
 70
     0
102
RTVSPost2010Prop52
140
1.0
102
RTVSPost2010PropOp52
 70
     0
102
RTVSPost2010Prop53
 90
        2
102
RTVSPost2010PropOp53
 70
     1
102
RTVSPost2010Prop54
  1
strokes_ogs.tif
102
RTVSPost2010PropOp54
 70
     1
102
RTVSPost2010Prop55
280
     0
102
RTVSPost2010PropOp55
 70
     1
102
RTVSPost2010Prop56
140
1.0
102
RTVSPost2010PropOp56
 70
     1
102
RTVSPost2010Prop57
140
1.0
102
RTVSPost2010PropOp57
 70
     1
  0
XRECORD
  5
47C8
102
{ACAD_REACTORS
330
47C7
102
}
330
47C7
100
AcDbXrecord
280
     1
102
RTVSPost2010Prop28
280
     0
102
RTVSPost2010PropOp28
 70
     1
102
RTVSPost2010Prop29
280
     1
102
RTVSPost2010PropOp29
 70
     1
102
RTVSPost2010Prop30
280
     1
102
RTVSPost2010PropOp30
 70
     1
102
RTVSPost2010Prop31
280
     0
102
RTVSPost2010PropOp31
 70
     1
102
RTVSPost2010Prop32
280
     0
102
RTVSPost2010PropOp32
 70
     1
102
RTVSPost2010Prop33
280
     0
102
RTVSPost2010PropOp33
 70
     1
102
RTVSPost2010Prop34
280
     0
102
RTVSPost2010PropOp34
 70
     1
102
RTVSPost2010Prop35
280
     0
102
RTVSPost2010PropOp35
 70
     1
102
RTVSPost2010Prop36
280
     0
102
RTVSPost2010PropOp36
 70
     1
102
RTVSPost2010Prop37
 90
       50
102
RTVSPost2010PropOp37
 70
     1
102
RTVSPost2010Prop38
140
0.0
102
RTVSPost2010PropOp38
 70
     1
102
RTVSPost2010Prop39
140
1.0
102
RTVSPost2010PropOp39
 70
     1
102
RTVSPost2010Prop40
 90
        0
102
RTVSPost2010PropOp40
 70
     1
102
RTVSPost2010Prop41ColorIndex
 90
       18
102
RTVSPost2010Prop41ColorRGB
 90
        0
102
RTVSPost2010PropOp41
 70
     1
102
RTVSPost2010Prop42
 90
       50
102
RTVSPost2010PropOp42
 70
     1
102
RTVSPost2010Prop43
 90
        3
102
RTVSPost2010PropOp43
 70
     1
102
RTVSPost2010Prop44ColorIndex
 90
        5
102
RTVSPost2010Prop44ColorRGB
 90
      255
102
RTVSPost2010PropOp44
 70
     1
102
RTVSPost2010Prop45
280
     0
102
RTVSPost2010PropOp45
 70
     1
102
RTVSPost2010Prop46
 90
       50
102
RTVSPost2010PropOp46
 70
     1
102
RTVSPost2010Prop47
 90
       50
102
RTVSPost2010PropOp47
 70
     1
102
RTVSPost2010Prop48
 90
       50
102
RTVSPost2010PropOp48
 70
     1
102
RTVSPost2010Prop49
280
     0
102
RTVSPost2010PropOp49
 70
     1
102
RTVSPost2010Prop50
 90
       50
102
RTVSPost2010PropOp50
 70
     1
102
RTVSPost2010Prop51ColorIndex
 90
      256
102
RTVSPost2010Prop51ColorRGB
 90
-16777216
102
RTVSPost2010PropOp51
 70
     0
102
RTVSPost2010Prop52
140
1.0
102
RTVSPost2010PropOp52
 70
     0
102
RTVSPost2010Prop53
 90
        2
102
RTVSPost2010PropOp53
 70
     1
102
RTVSPost2010Prop54
  1
strokes_ogs.tif
102
RTVSPost2010PropOp54
 70
     1
102
RTVSPost2010Prop55
280
     0
102
RTVSPost2010PropOp55
 70
     1
102
RTVSPost2010Prop56
140
1.0
102
RTVSPost2010PropOp56
 70
     1
102
RTVSPost2010Prop57
140
1.0
102
RTVSPost2010PropOp57
 70
     1
  0
ENDSEC
  0
EOF
