  0
SECTION
  2
HEADER
  9
$ACADVER
  1
AC1024
  9
$ACADMAINTVER
 70
   225
  9
$DWGCODEPAGE
  3
ANSI_932
  9
$LASTSAVEDBY
  1
takanashi
  9
$INSBASE
 10
0.0
 20
0.0
 30
0.0
  9
$EXTMIN
 10
-29.81261414727646
 20
9.997285330199247
 30
-0.0000000000017872
  9
$EXTMAX
 10
750.2354142599811
 20
560.0291761481542
 30
0.0000000000037322
  9
$LIMMIN
 10
0.0
 20
0.0
  9
$LIMMAX
 10
840.0
 20
594.0
  9
$ORTHOMODE
 70
     0
  9
$REGENMODE
 70
     1
  9
$FILLMODE
 70
     1
  9
$QTEXTMODE
 70
     0
  9
$MIRRTEXT
 70
     1
  9
$LTSCALE
 40
1.0
  9
$ATTMODE
 70
     1
  9
$TEXTSIZE
 40
5.0
  9
$TRACEWID
 40
1.0
  9
$TEXTSTYLE
  7
STANDARD
  9
$CLAYER
  8
0
  9
$CELTYPE
  6
BYLAYER
  9
$CECOLOR
 62
   256
  9
$CELTSCALE
 40
1.0
  9
$DISPSILH
 70
     0
  9
$DIMSCALE
 40
1.0
  9
$DIMASZ
 40
1.5
  9
$DIMEXO
 40
5.0
  9
$DIMDLI
 40
3.75
  9
$DIMRND
 40
0.0
  9
$DIMDLE
 40
0.0
  9
$DIMEXE
 40
0.0
  9
$DIMTP
 40
0.0
  9
$DIMTM
 40
0.0
  9
$DIMTXT
 40
5.0
  9
$DIMCEN
 40
2.5
  9
$DIMTSZ
 40
0.0
  9
$DIMTOL
 70
     0
  9
$DIMLIM
 70
     0
  9
$DIMTIH
 70
     0
  9
$DIMTOH
 70
     0
  9
$DIMSE1
 70
     0
  9
$DIMSE2
 70
     0
  9
$DIMTAD
 70
     1
  9
$DIMZIN
 70
     8
  9
$DIMBLK
  1
DotBlank
  9
$DIMASO
 70
     1
  9
$DIMSHO
 70
     1
  9
$DIMPOST
  1

  9
$DIMAPOST
  1

  9
$DIMALT
 70
     0
  9
$DIMALTD
 70
     2
  9
$DIMALTF
 40
25.4
  9
$DIMLFAC
 40
1.0
  9
$DIMTOFL
 70
     1
  9
$DIMTVP
 40
0.0
  9
$DIMTIX
 70
     0
  9
$DIMSOXD
 70
     0
  9
$DIMSAH
 70
     0
  9
$DIMBLK1
  1

  9
$DIMBLK2
  1

  9
$DIMSTYLE
  2
STANDARD
  9
$DIMCLRD
 70
     0
  9
$DIMCLRE
 70
     0
  9
$DIMCLRT
 70
     0
  9
$DIMTFAC
 40
1.0
  9
$DIMGAP
 40
0.625
  9
$DIMJUST
 70
     0
  9
$DIMSD1
 70
     0
  9
$DIMSD2
 70
     0
  9
$DIMTOLJ
 70
     1
  9
$DIMTZIN
 70
     0
  9
$DIMALTZ
 70
     0
  9
$DIMALTTZ
 70
     0
  9
$DIMUPT
 70
     0
  9
$DIMDEC
 70
     4
  9
$DIMTDEC
 70
     4
  9
$DIMALTU
 70
     2
  9
$DIMALTTD
 70
     2
  9
$DIMTXSTY
  7
STANDARD
  9
$DIMAUNIT
 70
     0
  9
$DIMADEC
 70
     0
  9
$DIMALTRND
 40
0.0
  9
$DIMAZIN
 70
     0
  9
$DIMDSEP
 70
    46
  9
$DIMATFIT
 70
     3
  9
$DIMFRAC
 70
     0
  9
$DIMLDRBLK
  1
NONE
  9
$DIMLUNIT
 70
     2
  9
$DIMLWD
 70
    -2
  9
$DIMLWE
 70
    -2
  9
$DIMTMOVE
 70
     0
  9
$DIMFXL
 40
1.0
  9
$DIMFXLON
 70
     0
  9
$DIMJOGANG
 40
0.7853981633974483
  9
$DIMTFILL
 70
     0
  9
$DIMTFILLCLR
 70
     0
  9
$DIMARCSYM
 70
     0
  9
$DIMLTYPE
  6

  9
$DIMLTEX1
  6

  9
$DIMLTEX2
  6

  9
$DIMTXTDIRECTION
 70
     0
  9
$LUNITS
 70
     2
  9
$LUPREC
 70
     4
  9
$SKETCHINC
 40
1.0
  9
$FILLETRAD
 40
0.75
  9
$AUNITS
 70
     0
  9
$AUPREC
 70
     1
  9
$MENU
  1
.
  9
$ELEVATION
 40
0.0
  9
$PELEVATION
 40
0.0
  9
$THICKNESS
 40
0.0
  9
$LIMCHECK
 70
     0
  9
$CHAMFERA
 40
10.0
  9
$CHAMFERB
 40
10.0
  9
$CHAMFERC
 40
20.0
  9
$CHAMFERD
 40
0.0
  9
$SKPOLY
 70
     0
  9
$TDCREATE
 40
2450431.623194444
  9
$TDUCREATE
 40
2450431.248202778
  9
$TDUPDATE
 40
2459607.561412037
  9
$TDUUPDATE
 40
2459607.186412037
  9
$TDINDWG
 40
1.0363128588
  9
$TDUSRTIMER
 40
1.0363127546
  9
$USRTIMER
 70
     1
  9
$ANGBASE
 50
0.0
  9
$ANGDIR
 70
     0
  9
$PDMODE
 70
    34
  9
$PDSIZE
 40
0.0
  9
$PLINEWID
 40
0.0
  9
$SPLFRAME
 70
     0
  9
$SPLINETYPE
 70
     6
  9
$SPLINESEGS
 70
     8
  9
$HANDSEED
  5
481F
  9
$SURFTAB1
 70
     6
  9
$SURFTAB2
 70
     6
  9
$SURFTYPE
 70
     6
  9
$SURFU
 70
     6
  9
$SURFV
 70
     6
  9
$UCSBASE
  2

  9
$UCSNAME
  2

  9
$UCSORG
 10
0.0
 20
0.0
 30
0.0
  9
$UCSXDIR
 10
1.0
 20
0.0
 30
0.0
  9
$UCSYDIR
 10
0.0
 20
1.0
 30
0.0
  9
$UCSORTHOREF
  2

  9
$UCSORTHOVIEW
 70
     1
  9
$UCSORGTOP
 10
0.0
 20
0.0
 30
0.0
  9
$UCSORGBOTTOM
 10
0.0
 20
0.0
 30
0.0
  9
$UCSORGLEFT
 10
0.0
 20
0.0
 30
0.0
  9
$UCSORGRIGHT
 10
0.0
 20
0.0
 30
0.0
  9
$UCSORGFRONT
 10
0.0
 20
0.0
 30
0.0
  9
$UCSORGBACK
 10
0.0
 20
0.0
 30
0.0
  9
$PUCSBASE
  2

  9
$PUCSNAME
  2

  9
$PUCSORG
 10
0.0
 20
0.0
 30
0.0
  9
$PUCSXDIR
 10
1.0
 20
0.0
 30
0.0
  9
$PUCSYDIR
 10
0.0
 20
1.0
 30
0.0
  9
$PUCSORTHOREF
  2

  9
$PUCSORTHOVIEW
 70
     0
  9
$PUCSORGTOP
 10
0.0
 20
0.0
 30
0.0
  9
$PUCSORGBOTTOM
 10
0.0
 20
0.0
 30
0.0
  9
$PUCSORGLEFT
 10
0.0
 20
0.0
 30
0.0
  9
$PUCSORGRIGHT
 10
0.0
 20
0.0
 30
0.0
  9
$PUCSORGFRONT
 10
0.0
 20
0.0
 30
0.0
  9
$PUCSORGBACK
 10
0.0
 20
0.0
 30
0.0
  9
$USERI1
 70
     0
  9
$USERI2
 70
     0
  9
$USERI3
 70
     0
  9
$USERI4
 70
     0
  9
$USERI5
 70
     0
  9
$USERR1
 40
0.0
  9
$USERR2
 40
0.0
  9
$USERR3
 40
0.0
  9
$USERR4
 40
0.0
  9
$USERR5
 40
0.0
  9
$WORLDVIEW
 70
     1
  9
$SHADEDGE
 70
     3
  9
$SHADEDIF
 70
    70
  9
$TILEMODE
 70
     1
  9
$MAXACTVP
 70
    16
  9
$PINSBASE
 10
0.0
 20
0.0
 30
0.0
  9
$PLIMCHECK
 70
     0
  9
$PEXTMIN
 10
1.000000000000000E+20
 20
1.000000000000000E+20
 30
1.000000000000000E+20
  9
$PEXTMAX
 10
-1.000000000000000E+20
 20
-1.000000000000000E+20
 30
-1.000000000000000E+20
  9
$PLIMMIN
 10
0.0
 20
0.0
  9
$PLIMMAX
 10
420.0
 20
297.0
  9
$UNITMODE
 70
     0
  9
$VISRETAIN
 70
     0
  9
$PLINEGEN
 70
     0
  9
$PSLTSCALE
 70
     1
  9
$TREEDEPTH
 70
  3020
  9
$CMLSTYLE
  2
STANDARD
  9
$CMLJUST
 70
     0
  9
$CMLSCALE
 40
1.0
  9
$PROXYGRAPHICS
 70
     1
  9
$MEASUREMENT
 70
     1
  9
$CELWEIGHT
370
    -1
  9
$ENDCAPS
280
     0
  9
$JOINSTYLE
280
     0
  9
$LWDISPLAY
290
     0
  9
$INSUNITS
 70
     0
  9
$HYPERLINKBASE
  1

  9
$STYLESHEET
  1
MONOCHROME.CTB
  9
$XEDIT
290
     1
  9
$CEPSNTYPE
380
     0
  9
$PSTYLEMODE
290
     1
  9
$FINGERPRINTGUID
  2
{87E49A17-DA8C-4230-82A7-C569D142D783}
  9
$VERSIONGUID
  2
{A62AD10B-C2B9-BA48-9D08-B3C0815FD680}
  9
$EXTNAMES
290
     1
  9
$PSVPSCALE
 40
0.0
  9
$OLESTARTUP
290
     0
  9
$SORTENTS
280
   127
  9
$INDEXCTL
280
     0
  9
$HIDETEXT
280
     0
  9
$XCLIPFRAME
280
     2
  9
$HALOGAP
280
     0
  9
$OBSCOLOR
 70
   257
  9
$OBSLTYPE
280
     0
  9
$INTERSECTIONDISPLAY
280
     0
  9
$INTERSECTIONCOLOR
 70
   257
  9
$DIMASSOC
280
     1
  9
$PROJECTNAME
  1

  9
$CAMERADISPLAY
290
     0
  9
$LENSLENGTH
 40
50.0
  9
$CAMERAHEIGHT
 40
0.0
  9
$STEPSPERSEC
 40
2.0
  9
$STEPSIZE
 40
6.0
  9
$3DDWFPREC
 40
2.0
  9
$PSOLWIDTH
 40
0.25
  9
$PSOLHEIGHT
 40
4.0
  9
$LOFTANG1
 40
1.570796326794896
  9
$LOFTANG2
 40
1.570796326794896
  9
$LOFTMAG1
 40
0.0
  9
$LOFTMAG2
 40
0.0
  9
$LOFTPARAM
 70
     7
  9
$LOFTNORMALS
280
     1
  9
$LATITUDE
 40
37.795
  9
$LONGITUDE
 40
-122.394
  9
$NORTHDIRECTION
 40
0.0
  9
$TIMEZONE
 70
 -8000
  9
$LIGHTGLYPHDISPLAY
280
     1
  9
$TILEMODELIGHTSYNCH
280
     1
  9
$CMATERIAL
347
27DC
  9
$SOLIDHIST
280
     0
  9
$SHOWHIST
280
     1
  9
$DWFFRAME
280
     2
  9
$DGNFRAME
280
     0
  9
$REALWORLDSCALE
290
     1
  9
$INTERFERECOLOR
 62
     1
  9
$INTERFEREOBJVS
345
27F6
  9
$INTERFEREVPVS
346
28E8
  9
$CSHADOW
280
     0
  9
$SHADOWPLANELOCATION
 40
0.0
  0
ENDSEC
  0
SECTION
  2
CLASSES
  0
CLASS
  1
ACDBDICTIONARYWDFLT
  2
AcDbDictionaryWithDefault
  3
ObjectDBX Classes
 90
        0
 91
        1
280
     0
281
     0
  0
CLASS
  1
DICTIONARYVAR
  2
AcDbDictionaryVar
  3
ObjectDBX Classes
 90
        0
 91
       14
280
     0
281
     0
  0
CLASS
  1
MATERIAL
  2
AcDbMaterial
  3
ObjectDBX Classes
 90
     1153
 91
        3
280
     0
281
     0
  0
CLASS
  1
SORTENTSTABLE
  2
AcDbSortentsTable
  3
ObjectDBX Classes
 90
        0
 91
        1
280
     0
281
     0
  0
CLASS
  1
VISUALSTYLE
  2
AcDbVisualStyle
  3
ObjectDBX Classes
 90
     4095
 91
       26
280
     0
281
     0
  0
CLASS
  1
TABLESTYLE
  2
AcDbTableStyle
  3
ObjectDBX Classes
 90
     4095
 91
        1
280
     0
281
     0
  0
CLASS
  1
SCALE
  2
AcDbScale
  3
ObjectDBX Classes
 90
     1153
 91
       33
280
     0
281
     0
  0
CLASS
  1
MLEADERSTYLE
  2
AcDbMLeaderStyle
  3
ACDB_MLEADERSTYLE_CLASS
 90
     4095
 91
        1
280
     0
281
     0
  0
CLASS
  1
CELLSTYLEMAP
  2
AcDbCellStyleMap
  3
ObjectDBX Classes
 90
     1152
 91
        1
280
     0
281
     0
  0
CLASS
  1
MULTILEADER
  2
AcDbMLeader
  3
ACDB_MLEADER_CLASS
 90
     1025
 91
       12
280
     0
281
     1
  0
CLASS
  1
ACDBSECTIONVIEWSTYLE
  2
AcDbSectionViewStyle
  3
ObjectDBX Classes
 90
     1025
 91
        1
280
     0
281
     0
  0
CLASS
  1
ACDBDETAILVIEWSTYLE
  2
AcDbDetailViewStyle
  3
ObjectDBX Classes
 90
     1025
 91
        1
280
     0
281
     0
  0
CLASS
  1
DIMASSOC
  2
AcDbDimAssoc
  3
"AcDbDimAssoc|Product Desc:     AcDim ARX App For Dimension|Company:          Autodesk, Inc.|WEB Address:      www.autodesk.com"
 90
        0
 91
        0
280
     0
281
     0
  0
ENDSEC
  0
SECTION
  2
TABLES
  0
TABLE
  2
VPORT
  5
8
102
{ACAD_XDICTIONARY
360
289B
102
}
330
0
100
AcDbSymbolTable
 70
     1
  0
VPORT
  5
28BE
330
8
100
AcDbSymbolTableRecord
100
AcDbViewportTableRecord
  2
*Active
 70
     0
 10
0.0
 20
0.0
 11
1.0
 21
1.0
 12
405.0936929263618
 22
297.0
 13
0.0
 23
0.0
 14
5.0
 24
5.0
 15
10.0
 25
10.0
 16
0.0
 26
0.0
 36
1.0
 17
0.0
 27
0.0
 37
0.0
 40
598.1684210526316
 41
1.879391100702576
 42
50.0
 43
0.0
 44
0.0
 50
0.0
 51
0.0
 71
     0
 72
   100
 73
     1
 74
     0
 75
     0
 76
     0
 77
     0
 78
     0
281
     0
 65
     1
110
0.0
120
0.0
130
0.0
111
1.0
121
0.0
131
0.0
112
0.0
122
1.0
132
0.0
 79
     0
146
0.0
348
27F2
 60
     3
 61
     5
292
     1
282
     1
141
0.0
142
0.0
 63
   250
421
  3355443
1001
ACAD_NAV_VCDISPLAY
1070
     3
  0
ENDTAB
  0
TABLE
  2
LTYPE
  5
5
330
0
100
AcDbSymbolTable
 70
     3
  0
LTYPE
  5
14
330
5
100
AcDbSymbolTableRecord
100
AcDbLinetypeTableRecord
  2
BYBLOCK
 70
     0
  3

 72
    65
 73
     0
 40
0.0
  0
LTYPE
  5
15
330
5
100
AcDbSymbolTableRecord
100
AcDbLinetypeTableRecord
  2
BYLAYER
 70
     0
  3

 72
    65
 73
     0
 40
0.0
  0
LTYPE
  5
16
330
5
100
AcDbSymbolTableRecord
100
AcDbLinetypeTableRecord
  2
CONTINUOUS
 70
     0
  3
Solid line
 72
    65
 73
     0
 40
0.0
  0
LTYPE
  5
E7E
330
5
100
AcDbSymbolTableRecord
100
AcDbLinetypeTableRecord
  2
DASHED2
 70
     0
  3
Dashed (.5x) _ _ _ _ _ _ _ _ _ _ _ _ _ _ _ _ _
 72
    65
 73
     2
 40
9.524999999999996
 49
6.349999999999997
 74
     0
 49
-3.174999999999998
 74
     0
  0
LTYPE
  5
1500
330
5
100
AcDbSymbolTableRecord
100
AcDbLinetypeTableRecord
  2
CENTER2
 70
     0
  3
Center (.5x) ___ _ ___ _ ___ _ ___ _ ___ _ ___
 72
    65
 73
     4
 40
28.57499999999999
 49
19.05
 74
     0
 49
-3.174999999999998
 74
     0
 49
3.174999999999998
 74
     0
 49
-3.174999999999998
 74
     0
  0
ENDTAB
  0
TABLE
  2
LAYER
  5
2
102
{ACAD_XDICTIONARY
360
16F6
102
}
330
0
100
AcDbSymbolTable
 70
    11
  0
LAYER
  5
F
102
{ACAD_XDICTIONARY
360
2891
102
}
330
2
100
AcDbSymbolTableRecord
100
AcDbLayerTableRecord
  2
0
 70
     0
 62
     7
  6
CONTINUOUS
370
    -3
390
3AE
347
16F3
  0
LAYER
  5
87
102
{ACAD_XDICTIONARY
360
2893
102
}
330
2
100
AcDbSymbolTableRecord
100
AcDbLayerTableRecord
  2
WAKU
 70
     0
 62
     7
  6
CONTINUOUS
370
    -3
390
3AE
347
16F3
  0
LAYER
  5
9C
330
2
100
AcDbSymbolTableRecord
100
AcDbLayerTableRecord
  2
DEFPOINTS
 70
     0
 62
     7
  6
CONTINUOUS
290
     0
370
    -3
390
3AE
347
16F3
  0
LAYER
  5
1502
102
{ACAD_XDICTIONARY
360
2895
102
}
330
2
100
AcDbSymbolTableRecord
100
AcDbLayerTableRecord
  2
SUNPOU
 70
     0
 62
     7
  6
CONTINUOUS
370
     5
390
3AE
347
16F3
  0
LAYER
  5
2341
102
{ACAD_XDICTIONARY
360
2342
102
}
330
2
100
AcDbSymbolTableRecord
100
AcDbLayerTableRecord
  2
TEKUSU
 70
     0
 62
     7
  6
CONTINUOUS
370
    -3
390
3AE
347
16F3
  0
LAYER
  5
23C8
102
{ACAD_XDICTIONARY
360
23C9
102
}
330
2
100
AcDbSymbolTableRecord
100
AcDbLayerTableRecord
  2
SITAJI
 70
     0
 62
     7
  6
CONTINUOUS
370
    -3
390
3AE
347
16F3
  0
LAYER
  5
23CC
102
{ACAD_XDICTIONARY
360
23CD
102
}
330
2
100
AcDbSymbolTableRecord
100
AcDbLayerTableRecord
  2
YAKUMONO
 70
     0
 62
     1
  6
CONTINUOUS
370
    -3
390
3AE
347
16F3
  0
LAYER
  5
23D0
102
{ACAD_XDICTIONARY
360
23D1
102
}
330
2
100
AcDbSymbolTableRecord
100
AcDbLayerTableRecord
  2
SEIHIN
 70
     0
 62
     4
  6
CONTINUOUS
370
    -3
390
3AE
347
16F3
  0
LAYER
  5
23D4
102
{ACAD_XDICTIONARY
360
23D5
102
}
330
2
100
AcDbSymbolTableRecord
100
AcDbLayerTableRecord
  2
SEALING
 70
     0
 62
     7
  6
CONTINUOUS
370
     9
390
3AE
347
16F3
  0
LAYER
  5
23D8
102
{ACAD_XDICTIONARY
360
23D9
102
}
330
2
100
AcDbSymbolTableRecord
100
AcDbLayerTableRecord
  2
HIKIDASI
 70
     0
 62
     7
  6
CONTINUOUS
370
     5
390
3AE
347
16F3
  0
LAYER
  5
23DC
102
{ACAD_XDICTIONARY
360
23DD
102
}
330
2
100
AcDbSymbolTableRecord
100
AcDbLayerTableRecord
  2
PACKING
 70
     0
 62
     7
  6
CONTINUOUS
370
     9
390
3AE
347
16F3
1001
AcAecLayerStandard
1000

1000

  0
ENDTAB
  0
TABLE
  2
STYLE
  5
3
330
0
100
AcDbSymbolTable
 70
     2
  0
STYLE
  5
10
330
3
100
AcDbSymbolTableRecord
100
AcDbTextStyleTableRecord
  2
STANDARD
 70
     0
 40
5.0
 41
1.0
 50
0.0
 71
     0
 42
5.0
  3
txt.shx
  4
extfont.shx
  0
STYLE
  5
EA1
330
3
100
AcDbSymbolTableRecord
100
AcDbTextStyleTableRecord
  2
WAKU
 70
     0
 40
5.0
 41
1.0
 50
0.0
 71
     0
 42
5.0
  3

  4

1001
ACAD
1000
MS Gothic
1071
    32817
  0
ENDTAB
  0
TABLE
  2
VIEW
  5
6
330
0
100
AcDbSymbolTable
 70
     2
  0
ENDTAB
  0
TABLE
  2
UCS
  5
7
330
0
100
AcDbSymbolTable
 70
     0
  0
ENDTAB
  0
TABLE
  2
APPID
  5
9
330
0
100
AcDbSymbolTable
 70
    13
  0
APPID
  5
11
330
9
100
AcDbSymbolTableRecord
100
AcDbRegAppTableRecord
  2
ACAD
 70
     0
  0
APPID
  5
2102
330
9
100
AcDbSymbolTableRecord
100
AcDbRegAppTableRecord
  2
GENIUS_GENODEF_13
 70
     0
  0
APPID
  5
2103
330
9
100
AcDbSymbolTableRecord
100
AcDbRegAppTableRecord
  2
GENIUS_GENOBJ-N-FIL_13
 70
     0
  0
APPID
  5
23E0
330
9
100
AcDbSymbolTableRecord
100
AcDbRegAppTableRecord
  2
AcAecLayerStandard
 70
     0
  0
APPID
  5
2823
330
9
100
AcDbSymbolTableRecord
100
AcDbRegAppTableRecord
  2
ACAD_MLEADERVER
 70
     0
  0
APPID
  5
28F8
330
9
100
AcDbSymbolTableRecord
100
AcDbRegAppTableRecord
  2
ACAD_NAV_VCDISPLAY
 70
     0
  0
APPID
  5
2970
330
9
100
AcDbSymbolTableRecord
100
AcDbRegAppTableRecord
  2
ACAD_EXEMPT_FROM_CAD_STANDARDS
 70
     0
  0
APPID
  5
29A6
330
9
100
AcDbSymbolTableRecord
100
AcDbRegAppTableRecord
  2
ACAD_PSEXT
 70
     0
  0
APPID
  5
32A6
330
9
100
AcDbSymbolTableRecord
100
AcDbRegAppTableRecord
  2
GradientColor1ACI
 70
     0
  0
APPID
  5
32A7
330
9
100
AcDbSymbolTableRecord
100
AcDbRegAppTableRecord
  2
GradientColor2ACI
 70
     0
  0
APPID
  5
3A82
330
9
100
AcDbSymbolTableRecord
100
AcDbRegAppTableRecord
  2
AcCmTransparency
 70
     0
  0
APPID
  5
44E2
330
9
100
AcDbSymbolTableRecord
100
AcDbRegAppTableRecord
  2
AcadAnnoMonitorAlertIconDisabled
 70
     0
  0
APPID
  5
46A8
330
9
100
AcDbSymbolTableRecord
100
AcDbRegAppTableRecord
  2
ACAD_DSTYLE_DIMRADIAL_EXTENSION
 70
     0
  0
ENDTAB
  0
TABLE
  2
DIMSTYLE
  5
A
330
0
100
AcDbSymbolTable
 70
     1
100
AcDbDimStyleTable
 71
     1
340
1D
  0
DIMSTYLE
105
1D
102
{ACAD_REACTORS
330
3F96
330
3FC7
330
3FC8
330
3EE3
330
3EE4
330
3EE5
330
3F11
330
3EE8
330
3F94
330
3F95
330
4685
330
469B
330
46A9
102
}
330
A
100
AcDbSymbolTableRecord
100
AcDbDimStyleTableRecord
  2
STANDARD
 70
     0
 41
1.5
 42
5.0
 43
3.75
 44
0.0
 73
     0
 74
     0
 77
     1
 78
     8
140
5.0
141
2.5
147
0.625
172
     1
340
10
341
B0
342
14C3
  0
ENDTAB
  0
TABLE
  2
BLOCK_RECORD
  5
1
330
0
100
AcDbSymbolTable
 70
    16
  0
BLOCK_RECORD
  5
1A
102
{ACAD_XDICTIONARY
360
297E
102
}
330
1
100
AcDbSymbolTableRecord
100
AcDbBlockTableRecord
  2
*MODEL_SPACE
340
3B3
 70
     0
280
     1
281
     0
  0
BLOCK_RECORD
  5
17
330
1
100
AcDbSymbolTableRecord
100
AcDbBlockTableRecord
  2
*PAPER_SPACE
340
3B4
 70
     0
280
     1
281
     0
  0
BLOCK_RECORD
  5
B0
330
1
100
AcDbSymbolTableRecord
100
AcDbBlockTableRecord
  2
_NONE
340
0
 70
     0
280
     1
281
     0
  0
BLOCK_RECORD
  5
E1F
330
1
100
AcDbSymbolTableRecord
100
AcDbBlockTableRecord
  2
IGロゴ
340
0
 70
     0
280
     1
281
     0
  0
BLOCK_RECORD
  5
14C3
330
1
100
AcDbSymbolTableRecord
100
AcDbBlockTableRecord
  2
_DotBlank
340
0
102
{BLKREFS
331
4614
331
4615
331
461D
331
461E
331
4626
331
4627
331
4638
331
4639
331
4641
331
4642
331
4695
331
4696
331
46A2
331
46A3
331
46CA
331
46CB
331
45E7
331
45E8
331
45F0
331
45F1
331
45F9
331
45FA
331
4602
331
4603
331
460B
331
460C
102
}
 70
     0
280
     1
281
     0
  0
BLOCK_RECORD
  5
3FC9
330
1
100
AcDbSymbolTableRecord
100
AcDbBlockTableRecord
  2
*D3
340
0
 70
     0
280
     1
281
     0
  0
BLOCK_RECORD
  5
3FE1
330
1
100
AcDbSymbolTableRecord
100
AcDbBlockTableRecord
  2
*D4
340
0
 70
     0
280
     1
281
     0
  0
BLOCK_RECORD
  5
3FED
330
1
100
AcDbSymbolTableRecord
100
AcDbBlockTableRecord
  2
*D5
340
0
 70
     0
280
     1
281
     0
  0
BLOCK_RECORD
  5
3FF9
330
1
100
AcDbSymbolTableRecord
100
AcDbBlockTableRecord
  2
*D6
340
0
 70
     0
280
     1
281
     0
  0
BLOCK_RECORD
  5
4005
330
1
100
AcDbSymbolTableRecord
100
AcDbBlockTableRecord
  2
*D7
340
0
 70
     0
280
     1
281
     0
  0
BLOCK_RECORD
  5
4011
330
1
100
AcDbSymbolTableRecord
100
AcDbBlockTableRecord
  2
*D8
340
0
 70
     0
280
     1
281
     0
  0
BLOCK_RECORD
  5
401D
330
1
100
AcDbSymbolTableRecord
100
AcDbBlockTableRecord
  2
*D9
340
0
 70
     0
280
     1
281
     0
  0
BLOCK_RECORD
  5
4029
330
1
100
AcDbSymbolTableRecord
100
AcDbBlockTableRecord
  2
*D10
340
0
 70
     0
280
     1
281
     0
  0
BLOCK_RECORD
  5
4035
330
1
100
AcDbSymbolTableRecord
100
AcDbBlockTableRecord
  2
*D11
340
0
 70
     0
280
     1
281
     0
  0
BLOCK_RECORD
  5
4041
330
1
100
AcDbSymbolTableRecord
100
AcDbBlockTableRecord
  2
*D12
340
0
 70
     0
280
     1
281
     0
  0
BLOCK_RECORD
  5
4686
330
1
100
AcDbSymbolTableRecord
100
AcDbBlockTableRecord
  2
*D13
340
0
 70
     0
280
     1
281
     0
  0
BLOCK_RECORD
  5
469C
330
1
100
AcDbSymbolTableRecord
100
AcDbBlockTableRecord
  2
*D14
340
0
 70
     0
280
     1
281
     0
  0
BLOCK_RECORD
  5
46AA
330
1
100
AcDbSymbolTableRecord
100
AcDbBlockTableRecord
  2
*D15
340
0
 70
     0
280
     1
281
     0
  0
ENDTAB
  0
ENDSEC
  0
SECTION
  2
BLOCKS
  0
BLOCK
  5
1B
330
1A
100
AcDbEntity
  8
0
100
AcDbBlockBegin
  2
*MODEL_SPACE
 70
     0
 10
0.0
 20
0.0
 30
0.0
  3
*MODEL_SPACE
  1

  0
ENDBLK
  5
1C
330
1A
100
AcDbEntity
  8
0
100
AcDbBlockEnd
  0
BLOCK
  5
18
330
17
100
AcDbEntity
 67
     1
  8
0
100
AcDbBlockBegin
  2
*PAPER_SPACE
 70
     0
 10
0.0
 20
0.0
 30
0.0
  3
*PAPER_SPACE
  1

  0
ENDBLK
  5
19
330
17
100
AcDbEntity
 67
     1
  8
0
100
AcDbBlockEnd
  0
BLOCK
  5
B1
330
B0
100
AcDbEntity
  8
0
100
AcDbBlockBegin
  2
_NONE
 70
     0
 10
0.0
 20
0.0
 30
0.0
  3
_NONE
  1

  0
CIRCLE
  5
B2
330
B0
100
AcDbEntity
  8
0
  6
ByBlock
 62
     0
100
AcDbCircle
 10
0.0
 20
0.0
 30
0.0
 40
0.25
  0
ENDBLK
  5
B3
330
B0
100
AcDbEntity
  8
0
100
AcDbBlockEnd
  0
BLOCK
  5
E20
330
E1F
100
AcDbEntity
  8
0
100
AcDbBlockBegin
  2
IGロゴ
 70
     0
 10
0.0
 20
0.0
 30
0.0
  3
IGロゴ
  1

  0
CIRCLE
  5
E21
330
E1F
100
AcDbEntity
  8
WAKU
100
AcDbCircle
 10
-7.133294257549736
 20
40.74217652150603
 30
0.0
 40
0.8702311197916666
  0
POLYLINE
  5
E22
330
E1F
100
AcDbEntity
  8
WAKU
100
AcDb2dPolyline
 66
     1
 10
0.0
 20
0.0
 30
0.0
 70
     1
  0
VERTEX
  5
E23
330
E22
100
AcDbEntity
  8
WAKU
100
AcDbVertex
100
AcDb2dVertex
 10
-6.558996840015013
 20
36.03789863522132
 30
0.0
  0
VERTEX
  5
E24
330
E22
100
AcDbEntity
  8
WAKU
100
AcDbVertex
100
AcDb2dVertex
 10
-7.774082017966402
 20
36.03789863522132
 30
0.0
  0
VERTEX
  5
E25
330
E22
100
AcDbEntity
  8
WAKU
100
AcDbVertex
100
AcDb2dVertex
 10
-7.774082017966402
 20
38.72059449025604
 30
0.0
  0
VERTEX
  5
E26
330
E22
100
AcDbEntity
  8
WAKU
100
AcDbVertex
100
AcDb2dVertex
 10
-6.558996840015013
 20
38.72059449025604
 30
0.0
  0
SEQEND
  5
E27
330
E22
100
AcDbEntity
  8
WAKU
  0
SPLINE
  5
E28
330
E1F
100
AcDbEntity
  8
WAKU
100
AcDbSpline
210
0.0
220
0.0
230
1.0
 70
     9
 71
     3
 72
    56
 73
    52
 74
     0
 42
0.000000001
 43
0.0000000001
 40
0.0
 40
0.0
 40
0.0
 40
0.0
 40
1.0
 40
1.0
 40
1.0
 40
2.0
 40
2.0
 40
2.0
 40
3.0
 40
3.0
 40
3.0
 40
4.0
 40
4.0
 40
4.0
 40
5.0
 40
5.0
 40
5.0
 40
6.0
 40
6.0
 40
6.0
 40
7.0
 40
7.0
 40
7.0
 40
8.0
 40
8.0
 40
8.0
 40
9.0
 40
9.0
 40
9.0
 40
10.0
 40
10.0
 40
10.0
 40
11.0
 40
11.0
 40
11.0
 40
12.0
 40
12.0
 40
12.0
 40
13.0
 40
13.0
 40
13.0
 40
14.0
 40
14.0
 40
14.0
 40
15.0
 40
15.0
 40
15.0
 40
16.0
 40
16.0
 40
16.0
 40
17.0
 40
17.0
 40
17.0
 40
17.0
 10
-3.33025335043168
 20
41.50009752845046
 30
0.0
 10
-3.33025335043168
 20
41.50009752845046
 30
0.0
 10
-3.254805759285846
 20
41.50698771942269
 30
0.0
 10
-3.254805759285846
 20
41.50698771942269
 30
0.0
 10
-3.014682603903903
 20
41.57795668643657
 30
0.0
 10
-2.824513333070568
 20
41.68785523244353
 30
0.0
 10
-2.840016262758068
 20
42.06302613088103
 30
0.0
 10
-2.853107625605291
 20
42.38342001108935
 30
0.0
 10
-3.100120971959456
 20
42.65248196855464
 30
0.0
 10
-3.420170342619181
 20
42.65248196855464
 30
0.0
 10
-3.420170342619181
 20
42.65248196855464
 30
0.0
 10
-7.55359590685529
 20
42.652137459006
 30
0.0
 10
-7.55359590685529
 20
42.652137459006
 30
0.0
 10
-8.404534491924735
 20
42.68383233747825
 30
0.0
 10
-8.989167195917787
 20
42.06509318817269
 30
0.0
 10
-8.989167195917787
 20
41.3305988305338
 30
0.0
 10
-8.989167195917787
 20
40.88411445553381
 30
0.0
 10
-8.740431301820567
 20
40.46932495900603
 30
0.0
 10
-8.381796861716402
 20
40.22816827497825
 30
0.0
 10
-8.381796861716402
 20
40.22816827497825
 30
0.0
 10
-8.354925116924736
 20
40.20715319251297
 30
0.0
 10
-8.354925116924736
 20
40.20715319251297
 30
0.0
 10
-8.607450616056681
 20
40.05798055796435
 30
0.0
 10
-8.748355021438625
 20
39.8075221161241
 30
0.0
 10
-8.771781670744179
 20
39.50090861786021
 30
0.0
 10
-8.794863810501125
 20
39.19601766733936
 30
0.0
 10
-8.621230998001124
 20
38.83669420813798
 30
0.0
 10
-8.330464938973346
 20
38.69854587914492
 30
0.0
 10
-8.330464938973346
 20
38.69854587914492
 30
0.0
 10
-8.350446492792791
 20
38.68407647810325
 30
0.0
 10
-8.350446492792791
 20
38.68407647810325
 30
0.0
 10
-9.024996188973343
 20
38.26515286699215
 30
0.0
 10
-9.494562703730293
 20
37.59198120900604
 30
0.0
 10
-9.243070733244179
 20
36.46681302324215
 30
0.0
 10
-9.13076062039696
 20
35.96176202497826
 30
0.0
 10
-8.617441392966401
 20
35.58314603105465
 30
0.0
 10
-8.290501831334458
 20
35.41468086178382
 30
0.0
 10
-7.829203545744178
 20
35.17765829233937
 30
0.0
 10
-6.996523966751125
 20
35.05983602671437
 30
0.0
 10
-6.482860229771957
 20
35.04467760657548
 30
0.0
 10
-6.482860229771957
 20
35.04467760657548
 30
0.0
 10
-3.647891154251122
 20
34.73668607011715
 30
0.0
 10
-3.247571058765013
 20
36.70865872636714
 30
0.0
 10
-2.847250963278903
 20
38.68028687306853
 30
0.0
 10
-4.534658732376124
 20
39.39479967688798
 30
0.0
 10
-4.775126397306681
 20
39.40513496334631
 30
0.0
 10
-5.015594062237235
 20
39.41478123070742
 30
0.0
 10
-3.57830022543168
 20
39.8912379364366
 30
0.0
 10
-3.738497165535846
 20
41.33438843556853
 30
0.0
 10
-3.738497165535846
 20
41.33438843556853
 30
0.0
 10
-3.640656453730291
 20
41.4573783444227
 30
0.0
 10
-3.33025335043168
 20
41.50009752845046
 30
0.0
  0
ELLIPSE
  5
E29
330
E1F
100
AcDbEntity
  8
WAKU
100
AcDbEllipse
 10
-6.072204847827513
 20
38.96691881751298
 30
0.0
 11
-5.716791449652776
 21
-5.716791449652776
 31
0.0
210
0.0
220
0.0
230
1.0
 40
0.7036880800289264
 41
0.0
 42
6.283185307179584
  0
POLYLINE
  5
E2A
330
E1F
100
AcDbEntity
  8
WAKU
100
AcDb2dPolyline
 66
     1
 10
0.0
 20
0.0
 30
0.0
 70
     1
  0
VERTEX
  5
E2B
330
E2A
100
AcDbEntity
  8
WAKU
100
AcDbVertex
100
AcDb2dVertex
 10
38.86320910616554
 20
39.71657159529075
 30
0.0
  0
VERTEX
  5
E2C
330
E2A
100
AcDbEntity
  8
WAKU
100
AcDbVertex
100
AcDb2dVertex
 10
38.86320910616554
 20
38.31097263695742
 30
0.0
  0
VERTEX
  5
E2D
330
E2A
100
AcDbEntity
  8
WAKU
100
AcDbVertex
100
AcDb2dVertex
 10
31.17513401935998
 20
38.31097263695742
 30
0.0
  0
VERTEX
  5
E2E
330
E2A
100
AcDbEntity
  8
WAKU
100
AcDbVertex
100
AcDb2dVertex
 10
31.17513401935998
 20
39.71657159529075
 30
0.0
  0
SEQEND
  5
E2F
330
E2A
100
AcDbEntity
  8
WAKU
  0
SPLINE
  5
E30
330
E1F
100
AcDbEntity
  8
WAKU
100
AcDbSpline
210
0.0
220
0.0
230
1.0
 70
     9
 71
     3
 72
    53
 73
    49
 74
     0
 42
0.000000001
 43
0.0000000001
 40
0.0
 40
0.0
 40
0.0
 40
0.0
 40
1.0
 40
1.0
 40
1.0
 40
2.0
 40
2.0
 40
2.0
 40
3.0
 40
3.0
 40
3.0
 40
4.0
 40
4.0
 40
4.0
 40
5.0
 40
5.0
 40
5.0
 40
6.0
 40
6.0
 40
6.0
 40
7.0
 40
7.0
 40
7.0
 40
8.0
 40
8.0
 40
8.0
 40
9.0
 40
9.0
 40
9.0
 40
10.0
 40
10.0
 40
10.0
 40
11.0
 40
11.0
 40
11.0
 40
12.0
 40
12.0
 40
12.0
 40
13.0
 40
13.0
 40
13.0
 40
14.0
 40
14.0
 40
14.0
 40
15.0
 40
15.0
 40
15.0
 40
16.0
 40
16.0
 40
16.0
 40
16.0
 10
92.00725207491553
 20
42.91637628279075
 30
0.0
 10
92.00725207491553
 20
42.87055651282547
 30
0.0
 10
92.00725207491553
 20
40.82899292775603
 30
0.0
 10
92.00725207491553
 20
40.82899292775603
 30
0.0
 10
92.00725207491553
 20
40.82899292775603
 30
0.0
 10
90.36945368081831
 20
40.82899292775603
 30
0.0
 10
90.32397842040165
 20
40.82899292775603
 30
0.0
 10
90.32397842040165
 20
40.78489570553379
 30
0.0
 10
90.32397842040165
 20
39.62424303626298
 30
0.0
 10
90.32397842040165
 20
39.57980130449215
 30
0.0
 10
90.36945368081831
 20
39.57980130449215
 30
0.0
 10
92.00725207491553
 20
39.57980130449215
 30
0.0
 10
92.00725207491553
 20
39.57980130449215
 30
0.0
 10
92.00725207491553
 20
39.57980130449215
 30
0.0
 10
92.00725207491553
 20
36.45303264129771
 30
0.0
 10
92.00725207491553
 20
36.45303264129771
 30
0.0
 10
92.00725207491553
 20
36.45303264129771
 30
0.0
 10
89.91194500026276
 20
36.45303264129771
 30
0.0
 10
89.86646973984608
 20
36.45303264129771
 30
0.0
 10
89.86646973984608
 20
36.40893541907548
 30
0.0
 10
89.86646973984608
 20
35.26481920813797
 30
0.0
 10
89.86646973984608
 20
35.22037747636714
 30
0.0
 10
89.91228950981136
 20
35.22037747636714
 30
0.0
 10
95.3272905948808
 20
35.22037747636714
 30
0.0
 10
95.3734548743947
 20
35.22037747636714
 30
0.0
 10
95.3734548743947
 20
35.26481920813797
 30
0.0
 10
95.3734548743947
 20
36.40893541907548
 30
0.0
 10
95.3734548743947
 20
36.45303264129771
 30
0.0
 10
95.32763510442942
 20
36.45303264129771
 30
0.0
 10
93.41905220512387
 20
36.45303264129771
 30
0.0
 10
93.41905220512387
 20
36.45303264129771
 30
0.0
 10
93.41905220512387
 20
36.45303264129771
 30
0.0
 10
93.41905220512387
 20
39.57980130449215
 30
0.0
 10
93.41905220512387
 20
39.57980130449215
 30
0.0
 10
93.41905220512387
 20
39.57980130449215
 30
0.0
 10
95.18776422769331
 20
39.57980130449215
 30
0.0
 10
95.23323948810995
 20
39.57980130449215
 30
0.0
 10
95.23323948810995
 20
39.62424303626298
 30
0.0
 10
95.23323948810995
 20
40.78489570553379
 30
0.0
 10
95.23323948810995
 20
40.82899292775603
 30
0.0
 10
95.18776422769331
 20
40.82899292775603
 30
0.0
 10
93.41905220512387
 20
40.82899292775603
 30
0.0
 10
93.41905220512387
 20
40.82899292775603
 30
0.0
 10
93.41905220512387
 20
40.82899292775603
 30
0.0
 10
93.41905220512387
 20
42.87055651282547
 30
0.0
 10
93.41905220512387
 20
42.91637628279075
 30
0.0
 10
93.37461047335304
 20
42.91637628279075
 30
0.0
 10
92.05134929713777
 20
42.91637628279075
 30
0.0
 10
92.00725207491553
 20
42.91637628279075
 30
0.0
  0
SPLINE
  5
E31
330
E1F
100
AcDbEntity
  8
WAKU
100
AcDbSpline
210
0.0
220
0.0
230
1.0
 70
     9
 71
     3
 72
    74
 73
    70
 74
     0
 42
0.000000001
 43
0.0000000001
 40
0.0
 40
0.0
 40
0.0
 40
0.0
 40
1.0
 40
1.0
 40
1.0
 40
2.0
 40
2.0
 40
2.0
 40
3.0
 40
3.0
 40
3.0
 40
4.0
 40
4.0
 40
4.0
 40
5.0
 40
5.0
 40
5.0
 40
6.0
 40
6.0
 40
6.0
 40
7.0
 40
7.0
 40
7.0
 40
8.0
 40
8.0
 40
8.0
 40
9.0
 40
9.0
 40
9.0
 40
10.0
 40
10.0
 40
10.0
 40
11.0
 40
11.0
 40
11.0
 40
12.0
 40
12.0
 40
12.0
 40
13.0
 40
13.0
 40
13.0
 40
14.0
 40
14.0
 40
14.0
 40
15.0
 40
15.0
 40
15.0
 40
16.0
 40
16.0
 40
16.0
 40
17.0
 40
17.0
 40
17.0
 40
18.0
 40
18.0
 40
18.0
 40
19.0
 40
19.0
 40
19.0
 40
20.0
 40
20.0
 40
20.0
 40
21.0
 40
21.0
 40
21.0
 40
22.0
 40
22.0
 40
22.0
 40
23.0
 40
23.0
 40
23.0
 40
23.0
 10
87.80871420599192
 20
42.92464451195741
 30
0.0
 10
87.80871420599192
 20
42.87951376108935
 30
0.0
 10
87.80871420599192
 20
41.76330282358935
 30
0.0
 10
87.80871420599192
 20
41.76330282358935
 30
0.0
 10
87.80871420599192
 20
41.76330282358935
 30
0.0
 10
86.67562230060999
 20
41.76330282358935
 30
0.0
 10
86.63083605929054
 20
41.76330282358935
 30
0.0
 10
86.63083605929054
 20
41.71920560136714
 30
0.0
 10
86.63083605929054
 20
40.67603068817269
 30
0.0
 10
86.63083605929054
 20
40.63193346595046
 30
0.0
 10
86.6763113197072
 20
40.63193346595046
 30
0.0
 10
88.69479276501968
 20
40.63193346595046
 30
0.0
 10
88.69479276501968
 20
40.63193346595046
 30
0.0
 10
88.69479276501968
 20
40.63193346595046
 30
0.0
 10
88.67550023029748
 20
40.59713800154074
 30
0.0
 10
88.67550023029748
 20
40.59713800154074
 30
0.0
 10
88.34959419731138
 20
40.01112725935325
 30
0.0
 10
87.48694228758914
 20
39.1315943817491
 30
0.0
 10
86.4654714759572
 20
38.57727851803382
 30
0.0
 10
86.47305068602666
 20
38.54558363956158
 30
0.0
 10
86.79516711397804
 20
37.19545071855464
 30
0.0
 10
86.8092920054711
 20
37.13585056664492
 30
0.0
 10
87.15896919731136
 20
37.34944648678381
 30
0.0
 10
87.41011665824888
 20
37.51377754147132
 30
0.0
 10
87.77116266519332
 20
37.79076321855465
 30
0.0
 10
87.77116266519332
 20
37.79076321855465
 30
0.0
 10
87.80871420599192
 20
37.81970202063798
 30
0.0
 10
87.80871420599192
 20
37.81970202063798
 30
0.0
 10
87.80871420599192
 20
37.81970202063798
 30
0.0
 10
87.80871420599192
 20
35.03089722463104
 30
0.0
 10
87.80871420599192
 20
34.98507745466576
 30
0.0
 10
87.85315593776275
 20
34.98507745466576
 30
0.0
 10
89.13886557317942
 20
34.98507745466576
 30
0.0
 10
89.18330730495027
 20
34.98507745466576
 30
0.0
 10
89.18330730495027
 20
35.03089722463104
 30
0.0
 10
89.18330730495027
 20
38.15973294511714
 30
0.0
 10
89.18330730495027
 20
38.15973294511714
 30
0.0
 10
89.18330730495027
 20
38.15973294511714
 30
0.0
 10
89.22499296033221
 20
38.10667847463103
 30
0.0
 10
89.22499296033221
 20
38.10667847463103
 30
0.0
 10
89.51128039522803
 20
37.74494344858937
 30
0.0
 10
89.71695259574886
 20
37.5471949676866
 30
0.0
 10
89.98635906276275
 20
37.32050768470048
 30
0.0
 10
90.01323080755442
 20
37.36598294511714
 30
0.0
 10
90.63782661918637
 20
38.43051745032548
 30
0.0
 10
90.6609087589433
 20
38.47013604841576
 30
0.0
 10
90.28470433186001
 20
38.66168335744354
 30
0.0
 10
89.8726709117211
 20
38.9052516083116
 30
0.0
 10
89.40551596380442
 20
39.37171753713104
 30
0.0
 10
89.40551596380442
 20
39.37171753713104
 30
0.0
 10
89.39070205321415
 20
39.38618693817272
 30
0.0
 10
89.39070205321415
 20
39.38618693817272
 30
0.0
 10
89.39070205321415
 20
39.38618693817272
 30
0.0
 10
89.40344890651275
 20
39.40237888695742
 30
0.0
 10
89.40344890651275
 20
39.40237888695742
 30
0.0
 10
89.81479330755439
 20
39.93740221595048
 30
0.0
 10
89.99256023463775
 20
40.29224705101992
 30
0.0
 10
90.13932130234607
 20
40.60988485483934
 30
0.0
 10
90.13932130234607
 20
40.60988485483934
 30
0.0
 10
90.13725424505443
 20
41.71851658226992
 30
0.0
 10
90.13725424505443
 20
41.76330282358935
 30
0.0
 10
90.09281251328358
 20
41.76330282358935
 30
0.0
 10
89.18330730495027
 20
41.76330282358935
 30
0.0
 10
89.18330730495027
 20
41.76330282358935
 30
0.0
 10
89.18330730495027
 20
41.76330282358935
 30
0.0
 10
89.18330730495027
 20
42.87951376108935
 30
0.0
 10
89.18330730495027
 20
42.92464451195741
 30
0.0
 10
89.13886557317942
 20
42.92464451195741
 30
0.0
 10
87.85315593776275
 20
42.92464451195741
 30
0.0
 10
87.80871420599192
 20
42.92464451195741
 30
0.0
  0
SPLINE
  5
E32
330
E1F
100
AcDbEntity
  8
WAKU
100
AcDbSpline
210
0.0
220
0.0
230
1.0
 70
     9
 71
     3
 72
    35
 73
    31
 74
     0
 42
0.000000001
 43
0.0000000001
 40
0.0
 40
0.0
 40
0.0
 40
0.0
 40
1.0
 40
1.0
 40
1.0
 40
2.0
 40
2.0
 40
2.0
 40
3.0
 40
3.0
 40
3.0
 40
4.0
 40
4.0
 40
4.0
 40
5.0
 40
5.0
 40
5.0
 40
6.0
 40
6.0
 40
6.0
 40
7.0
 40
7.0
 40
7.0
 40
8.0
 40
8.0
 40
8.0
 40
9.0
 40
9.0
 40
9.0
 40
10.0
 40
10.0
 40
10.0
 40
10.0
 10
80.33940268255442
 20
36.44579794077686
 30
0.0
 10
80.62155600286692
 20
36.95360501542964
 30
0.0
 10
80.80621312092246
 20
37.32808689476993
 30
0.0
 10
81.06804037786693
 20
37.88343628713104
 30
0.0
 10
81.06804037786693
 20
37.88343628713104
 30
0.0
 10
81.07424154974195
 20
37.89652764997825
 30
0.0
 10
81.07424154974195
 20
37.89652764997825
 30
0.0
 10
81.07424154974195
 20
37.89652764997825
 30
0.0
 10
83.71697429713776
 20
37.89652764997825
 30
0.0
 10
83.71697429713776
 20
37.89652764997825
 30
0.0
 10
83.71697429713776
 20
37.89652764997825
 30
0.0
 10
83.72593154540162
 20
37.85174140865882
 30
0.0
 10
83.72593154540162
 20
37.85174140865882
 30
0.0
 10
83.72593154540162
 20
37.85174140865882
 30
0.0
 10
82.7082503388044
 20
37.41731486786021
 30
0.0
 10
82.65209528238081
 20
37.39354370900603
 30
0.0
 10
82.69309191866554
 20
37.34669041039492
 30
0.0
 10
83.43034235269332
 20
36.50505358313797
 30
0.0
 10
83.43034235269332
 20
36.50505358313797
 30
0.0
 10
83.43034235269332
 20
36.50505358313797
 30
0.0
 10
83.38073297769332
 20
36.50367554494354
 30
0.0
 10
83.38073297769332
 20
36.50367554494354
 30
0.0
 10
83.38073297769332
 20
36.50367554494354
 30
0.0
 10
81.27750218342248
 20
36.41927070553381
 30
0.0
 10
81.27750218342248
 20
36.41927070553381
 30
0.0
 10
81.27750218342248
 20
36.41927070553381
 30
0.0
 10
80.3197656382836
 20
36.41065796681854
 30
0.0
 10
80.3197656382836
 20
36.41065796681854
 30
0.0
 10
80.3197656382836
 20
36.41065796681854
 30
0.0
 10
80.33940268255442
 20
36.44579794077686
 30
0.0
 10
80.33940268255442
 20
36.44579794077686
 30
0.0
  0
SPLINE
  5
E33
330
E1F
100
AcDbEntity
  8
WAKU
100
AcDbSpline
210
0.0
220
0.0
230
1.0
 70
     9
 71
     3
 72
    56
 73
    52
 74
     0
 42
0.000000001
 43
0.0000000001
 40
0.0
 40
0.0
 40
0.0
 40
0.0
 40
1.0
 40
1.0
 40
1.0
 40
2.0
 40
2.0
 40
2.0
 40
3.0
 40
3.0
 40
3.0
 40
4.0
 40
4.0
 40
4.0
 40
5.0
 40
5.0
 40
5.0
 40
6.0
 40
6.0
 40
6.0
 40
7.0
 40
7.0
 40
7.0
 40
8.0
 40
8.0
 40
8.0
 40
9.0
 40
9.0
 40
9.0
 40
10.0
 40
10.0
 40
10.0
 40
11.0
 40
11.0
 40
11.0
 40
12.0
 40
12.0
 40
12.0
 40
13.0
 40
13.0
 40
13.0
 40
14.0
 40
14.0
 40
14.0
 40
15.0
 40
15.0
 40
15.0
 40
16.0
 40
16.0
 40
16.0
 40
17.0
 40
17.0
 40
17.0
 40
17.0
 10
77.46619304713775
 20
39.06165894338104
 30
0.0
 10
77.46619304713775
 20
39.01756172115881
 30
0.0
 10
77.46619304713775
 20
37.94062487220048
 30
0.0
 10
77.46619304713775
 20
37.89652764997825
 30
0.0
 10
77.51166830755443
 20
37.89652764997825
 30
0.0
 10
79.56081110269329
 20
37.89652764997825
 30
0.0
 10
79.56081110269329
 20
37.89652764997825
 30
0.0
 10
79.56081110269329
 20
37.89652764997825
 30
0.0
 10
79.54978679713774
 20
37.86552179060326
 30
0.0
 10
79.54978679713774
 20
37.86552179060326
 30
0.0
 10
79.3306787242211
 20
37.2557398895616
 30
0.0
 10
79.0891775306447
 20
36.76998142601993
 30
0.0
 10
78.9031423743947
 20
36.41513659095048
 30
0.0
 10
78.9031423743947
 20
36.41513659095048
 30
0.0
 10
78.8965966929711
 20
36.40273424720048
 30
0.0
 10
78.8965966929711
 20
36.40273424720048
 30
0.0
 10
78.8965966929711
 20
36.40273424720048
 30
0.0
 10
77.83481826415166
 20
36.39446601803382
 30
0.0
 10
77.83481826415166
 20
36.39446601803382
 30
0.0
 10
77.83481826415166
 20
36.39446601803382
 30
0.0
 10
77.58367080321416
 20
36.40066718990882
 30
0.0
 10
77.53543946640859
 20
36.40170071855465
 30
0.0
 10
77.54474122422109
 20
36.34899075761715
 30
0.0
 10
77.74524578151275
 20
35.18317044511714
 30
0.0
 10
77.75179146293637
 20
35.14527439476992
 30
0.0
 10
79.81230307317942
 20
35.20280748938797
 30
0.0
 10
80.21331218776275
 20
35.23140178192271
 30
0.0
 10
83.93367080321414
 20
35.4980521725477
 30
0.0
 10
83.93367080321414
 20
35.4980521725477
 30
0.0
 10
84.18688532144331
 20
35.51596666907548
 30
0.0
 10
84.18688532144331
 20
35.51596666907548
 30
0.0
 10
84.18688532144331
 20
35.51596666907548
 30
0.0
 10
84.54483074245024
 20
34.9585502194227
 30
0.0
 10
84.56653484401275
 20
34.92409926456159
 30
0.0
 10
84.60236383706831
 20
34.94098023244354
 30
0.0
 10
85.82123862005444
 20
35.52010078365881
 30
0.0
 10
85.86946995685995
 20
35.54283841386715
 30
0.0
 10
85.40300402804053
 20
36.20670831404075
 30
0.0
 10
84.80769152804054
 20
36.99804674720048
 30
0.0
 10
83.92505806449888
 20
37.85656454233937
 30
0.0
 10
83.92505806449888
 20
37.85656454233937
 30
0.0
 10
83.88337240911694
 20
37.89652764997825
 30
0.0
 10
83.88337240911694
 20
37.89652764997825
 30
0.0
 10
83.88337240911694
 20
37.89652764997825
 30
0.0
 10
85.80814725720719
 20
37.89652764997825
 30
0.0
 10
85.85362251762388
 20
37.89652764997825
 30
0.0
 10
85.85362251762388
 20
37.94062487220048
 30
0.0
 10
85.85362251762388
 20
39.01756172115881
 30
0.0
 10
85.85362251762388
 20
39.06165894338104
 30
0.0
 10
85.80711372856137
 20
39.06165894338104
 30
0.0
 10
77.51235732665165
 20
39.06165894338104
 30
0.0
 10
77.46619304713775
 20
39.06165894338104
 30
0.0
  0
SPLINE
  5
E34
330
E1F
100
AcDbEntity
  8
WAKU
100
AcDbSpline
210
0.0
220
0.0
230
1.0
 70
     9
 71
     3
 72
    26
 73
    22
 74
     0
 42
0.000000001
 43
0.0000000001
 40
0.0
 40
0.0
 40
0.0
 40
0.0
 40
1.0
 40
1.0
 40
1.0
 40
2.0
 40
2.0
 40
2.0
 40
3.0
 40
3.0
 40
3.0
 40
4.0
 40
4.0
 40
4.0
 40
5.0
 40
5.0
 40
5.0
 40
6.0
 40
6.0
 40
6.0
 40
7.0
 40
7.0
 40
7.0
 40
7.0
 10
80.22502551241553
 20
40.82141371768659
 30
0.0
 10
81.11627171467246
 20
41.42912856143659
 30
0.0
 10
81.43356500894331
 20
41.75055597029075
 30
0.0
 10
81.66094131102665
 20
42.00445950761714
 30
0.0
 10
81.66094131102665
 20
42.00445950761714
 30
0.0
 10
81.67747776935998
 20
42.02237400414492
 30
0.0
 10
81.67747776935998
 20
42.02237400414492
 30
0.0
 10
81.67747776935998
 20
42.02237400414492
 30
0.0
 10
81.69504775633914
 20
42.00514852671434
 30
0.0
 10
81.69504775633914
 20
42.00514852671434
 30
0.0
 10
81.95584148463778
 20
41.74676636525602
 30
0.0
 10
82.3137869056447
 20
41.39226603973519
 30
0.0
 10
83.14991158012388
 20
40.82141371768659
 30
0.0
 10
83.14991158012388
 20
40.82141371768659
 30
0.0
 10
83.21261231797109
 20
40.77869453365879
 30
0.0
 10
83.21261231797109
 20
40.77869453365879
 30
0.0
 10
83.21261231797109
 20
40.77869453365879
 30
0.0
 10
80.1623247745683
 20
40.77869453365879
 30
0.0
 10
80.1623247745683
 20
40.77869453365879
 30
0.0
 10
80.1623247745683
 20
40.77869453365879
 30
0.0
 10
80.22502551241553
 20
40.82141371768659
 30
0.0
 10
80.22502551241553
 20
40.82141371768659
 30
0.0
  0
SPLINE
  5
E35
330
E1F
100
AcDbEntity
  8
WAKU
100
AcDbSpline
210
0.0
220
0.0
230
1.0
 70
     9
 71
     3
 72
    44
 73
    40
 74
     0
 42
0.000000001
 43
0.0000000001
 40
0.0
 40
0.0
 40
0.0
 40
0.0
 40
1.0
 40
1.0
 40
1.0
 40
2.0
 40
2.0
 40
2.0
 40
3.0
 40
3.0
 40
3.0
 40
4.0
 40
4.0
 40
4.0
 40
5.0
 40
5.0
 40
5.0
 40
6.0
 40
6.0
 40
6.0
 40
7.0
 40
7.0
 40
7.0
 40
8.0
 40
8.0
 40
8.0
 40
9.0
 40
9.0
 40
9.0
 40
10.0
 40
10.0
 40
10.0
 40
11.0
 40
11.0
 40
11.0
 40
12.0
 40
12.0
 40
12.0
 40
13.0
 40
13.0
 40
13.0
 40
13.0
 10
80.86581327283218
 20
42.98355564476993
 30
0.0
 10
80.20504395859608
 20
42.15363214216576
 30
0.0
 10
79.03681207925581
 20
41.47322578365881
 30
0.0
 10
77.08344293863081
 20
40.78110610049907
 30
0.0
 10
77.10859213567943
 20
40.73597534963103
 30
0.0
 10
77.7528249915822
 20
39.57635620900603
 30
0.0
 10
77.7714285072072
 20
39.54328329233937
 30
0.0
 10
77.7776296790822
 20
39.54535034963104
 30
0.0
 10
77.7838308509572
 20
39.54776191647132
 30
0.0
 10
77.7838308509572
 20
39.54776191647132
 30
0.0
 10
78.0573714325544
 20
39.64594713782548
 30
0.0
 10
78.46974936224192
 20
39.79443075327687
 30
0.0
 10
79.17048178411693
 20
40.17476929494352
 30
0.0
 10
79.17048178411693
 20
40.17476929494352
 30
0.0
 10
79.20493273897804
 20
40.19337281056853
 30
0.0
 10
79.20493273897804
 20
40.19337281056853
 30
0.0
 10
79.20493273897804
 20
40.19337281056853
 30
0.0
 10
79.20493273897804
 20
39.73999824459632
 30
0.0
 10
79.20493273897804
 20
39.69762357011715
 30
0.0
 10
79.25075250894329
 20
39.69762357011715
 30
0.0
 10
84.08663304279745
 20
39.69762357011715
 30
0.0
 10
84.13279732231137
 20
39.69762357011715
 30
0.0
 10
84.13279732231137
 20
39.74034275414492
 30
0.0
 10
84.13279732231137
 20
40.22679023678381
 30
0.0
 10
84.13279732231137
 20
40.22679023678381
 30
0.0
 10
84.13279732231137
 20
40.22679023678381
 30
0.0
 10
84.16724827717247
 20
40.20818672115882
 30
0.0
 10
84.16724827717247
 20
40.20818672115882
 30
0.0
 10
84.8438650306447
 20
39.83956150414492
 30
0.0
 10
85.26003256536695
 20
39.67695299720047
 30
0.0
 10
85.53874079019331
 20
39.5687769989366
 30
0.0
 10
85.55803332491553
 20
39.60219442515187
 30
0.0
 10
86.21845812960302
 20
40.75216729841574
 30
0.0
 10
86.2446408552975
 20
40.79798706838103
 30
0.0
 10
84.61338814262388
 20
41.35195842254769
 30
0.0
 10
83.39106826415164
 20
42.06681573591575
 30
0.0
 10
82.51015734835304
 20
42.98355564476993
 30
0.0
 10
82.49155383272805
 20
42.98355564476993
 30
0.0
 10
80.88648384574886
 20
42.98355564476993
 30
0.0
 10
80.86581327283218
 20
42.98355564476993
 30
0.0
  0
SPLINE
  5
E36
330
E1F
100
AcDbEntity
  8
WAKU
100
AcDbSpline
210
0.0
220
0.0
230
1.0
 70
     9
 71
     3
 72
    50
 73
    46
 74
     0
 42
0.000000001
 43
0.0000000001
 40
0.0
 40
0.0
 40
0.0
 40
0.0
 40
1.0
 40
1.0
 40
1.0
 40
2.0
 40
2.0
 40
2.0
 40
3.0
 40
3.0
 40
3.0
 40
4.0
 40
4.0
 40
4.0
 40
5.0
 40
5.0
 40
5.0
 40
6.0
 40
6.0
 40
6.0
 40
7.0
 40
7.0
 40
7.0
 40
8.0
 40
8.0
 40
8.0
 40
9.0
 40
9.0
 40
9.0
 40
10.0
 40
10.0
 40
10.0
 40
11.0
 40
11.0
 40
11.0
 40
12.0
 40
12.0
 40
12.0
 40
13.0
 40
13.0
 40
13.0
 40
14.0
 40
14.0
 40
14.0
 40
15.0
 40
15.0
 40
15.0
 40
15.0
 10
68.10483508272804
 20
39.81096721161021
 30
0.0
 10
68.10483508272804
 20
39.76686998938798
 30
0.0
 10
68.10483508272804
 20
38.68166491126298
 30
0.0
 10
68.10483508272804
 20
38.63756768904075
 30
0.0
 10
68.1499658335961
 20
38.63756768904075
 30
0.0
 10
69.59139378498497
 20
38.63756768904075
 30
0.0
 10
69.59139378498497
 20
38.63756768904075
 30
0.0
 10
69.59139378498497
 20
38.63756768904075
 30
0.0
 10
69.59139378498497
 20
36.56396471595048
 30
0.0
 10
69.59139378498497
 20
36.56396471595048
 30
0.0
 10
69.59139378498497
 20
36.56396471595048
 30
0.0
 10
68.2130110809919
 20
36.46991360917964
 30
0.0
 10
68.2130110809919
 20
36.46991360917964
 30
0.0
 10
68.21370010008914
 20
36.46991360917964
 30
0.0
 10
68.00596084227665
 20
36.46026734181854
 30
0.0
 10
68.00596084227665
 20
36.46026734181854
 30
0.0
 10
68.00596084227665
 20
36.46026734181854
 30
0.0
 10
67.88297093342248
 20
36.45578871768659
 30
0.0
 10
67.84541939262386
 20
36.45441067949214
 30
0.0
 10
67.85127605495026
 20
36.40686836178382
 30
0.0
 10
67.99355849852665
 20
35.22347806230464
 30
0.0
 10
67.99872614175581
 20
35.18041436872825
 30
0.0
 10
71.1575341929711
 20
35.4825492428602
 30
0.0
 10
71.73286513915164
 20
35.54077135657548
 30
0.0
 10
72.7794851478322
 20
35.73851983747825
 30
0.0
 10
72.77914063828359
 20
35.77572686872826
 30
0.0
 10
72.76260417995023
 20
36.83509373070742
 30
0.0
 10
72.76191516085304
 20
36.88642565345047
 30
0.0
 10
72.42085070772803
 20
36.82820353973522
 30
0.0
 10
72.03121040824886
 20
36.76205770640186
 30
0.0
 10
71.00078234835304
 20
36.67179620466575
 30
0.0
 10
71.00078234835304
 20
36.67179620466575
 30
0.0
 10
70.9749441322072
 20
36.6697291473741
 30
0.0
 10
70.9749441322072
 20
36.6697291473741
 30
0.0
 10
70.9749441322072
 20
36.6697291473741
 30
0.0
 10
70.9749441322072
 20
38.63756768904075
 30
0.0
 10
70.9749441322072
 20
38.63756768904075
 30
0.0
 10
70.9749441322072
 20
38.63756768904075
 30
0.0
 10
72.3888113197072
 20
38.63756768904075
 30
0.0
 10
72.43394207057527
 20
38.63756768904075
 30
0.0
 10
72.43394207057527
 20
38.68166491126298
 30
0.0
 10
72.43394207057527
 20
39.76686998938798
 30
0.0
 10
72.43394207057527
 20
39.81096721161021
 30
0.0
 10
72.38812230060998
 20
39.81096721161021
 30
0.0
 10
68.15065485269332
 20
39.81096721161021
 30
0.0
 10
68.10483508272804
 20
39.81096721161021
 30
0.0
  0
SPLINE
  5
E37
330
E1F
100
AcDbEntity
  8
WAKU
100
AcDbSpline
210
0.0
220
0.0
230
1.0
 70
     9
 71
     3
 72
    89
 73
    85
 74
     0
 42
0.000000001
 43
0.0000000001
 40
0.0
 40
0.0
 40
0.0
 40
0.0
 40
1.0
 40
1.0
 40
1.0
 40
2.0
 40
2.0
 40
2.0
 40
3.0
 40
3.0
 40
3.0
 40
4.0
 40
4.0
 40
4.0
 40
5.0
 40
5.0
 40
5.0
 40
6.0
 40
6.0
 40
6.0
 40
7.0
 40
7.0
 40
7.0
 40
8.0
 40
8.0
 40
8.0
 40
9.0
 40
9.0
 40
9.0
 40
10.0
 40
10.0
 40
10.0
 40
11.0
 40
11.0
 40
11.0
 40
12.0
 40
12.0
 40
12.0
 40
13.0
 40
13.0
 40
13.0
 40
14.0
 40
14.0
 40
14.0
 40
15.0
 40
15.0
 40
15.0
 40
16.0
 40
16.0
 40
16.0
 40
17.0
 40
17.0
 40
17.0
 40
18.0
 40
18.0
 40
18.0
 40
19.0
 40
19.0
 40
19.0
 40
20.0
 40
20.0
 40
20.0
 40
21.0
 40
21.0
 40
21.0
 40
22.0
 40
22.0
 40
22.0
 40
23.0
 40
23.0
 40
23.0
 40
24.0
 40
24.0
 40
24.0
 40
25.0
 40
25.0
 40
25.0
 40
26.0
 40
26.0
 40
26.0
 40
27.0
 40
27.0
 40
27.0
 40
28.0
 40
28.0
 40
28.0
 40
28.0
 10
74.36939671467247
 20
42.55980889997824
 30
0.0
 10
74.59573948810998
 20
42.36481649546436
 30
0.0
 10
74.79762208359609
 20
42.10436727671435
 30
0.0
 10
75.02844348116553
 20
41.80085436438797
 30
0.0
 10
75.02844348116553
 20
41.80085436438797
 30
0.0
 10
75.05703777370027
 20
41.76330282358935
 30
0.0
 10
75.05703777370027
 20
41.76330282358935
 30
0.0
 10
75.05703777370027
 20
41.76330282358935
 30
0.0
 10
74.07036242647802
 20
41.76330282358935
 30
0.0
 10
74.07036242647802
 20
41.76330282358935
 30
0.0
 10
74.07036242647802
 20
41.76330282358935
 30
0.0
 10
74.07036242647802
 20
42.88743748070742
 30
0.0
 10
74.07036242647802
 20
42.93325725067268
 30
0.0
 10
74.0259206947072
 20
42.93325725067268
 30
0.0
 10
72.6678640540822
 20
42.93325725067268
 30
0.0
 10
72.62169977456832
 20
42.93325725067268
 30
0.0
 10
72.62307781276277
 20
42.89122708574214
 30
0.0
 10
72.6306570228322
 20
42.66178372636714
 30
0.0
 10
72.6306570228322
 20
42.66178372636714
 30
0.0
 10
72.6303125132836
 20
42.66316176456157
 30
0.0
 10
72.64857151935998
 20
42.2325248287977
 30
0.0
 10
72.64857151935998
 20
42.2325248287977
 30
0.0
 10
72.64857151935998
 20
42.2325248287977
 30
0.0
 10
72.66855307317944
 20
41.76399184268658
 30
0.0
 10
72.66855307317944
 20
41.76399184268658
 30
0.0
 10
72.66855307317944
 20
41.76399184268658
 30
0.0
 10
72.64409289522801
 20
41.76330282358935
 30
0.0
 10
72.64409289522801
 20
41.76330282358935
 30
0.0
 10
72.64409289522801
 20
41.76330282358935
 30
0.0
 10
67.97288792560998
 20
41.76330282358935
 30
0.0
 10
67.92672364609609
 20
41.76330282358935
 30
0.0
 10
67.92672364609609
 20
41.71920560136714
 30
0.0
 10
67.92672364609609
 20
40.63400052324214
 30
0.0
 10
67.92672364609609
 20
40.58990330101992
 30
0.0
 10
67.97288792560998
 20
40.58990330101992
 30
0.0
 10
72.71333931449887
 20
40.58990330101992
 30
0.0
 10
72.71333931449887
 20
40.58990330101992
 30
0.0
 10
72.71333931449887
 20
40.58990330101992
 30
0.0
 10
72.71540637179054
 20
40.54511705970047
 30
0.0
 10
72.71540637179054
 20
40.54511705970047
 30
0.0
 10
72.7698388804711
 20
39.22702352671436
 30
0.0
 10
72.87112468776277
 20
36.77411554060326
 30
0.0
 10
74.21333388915164
 20
35.44086358747826
 30
0.0
 10
74.44415528672109
 20
35.21004218990881
 30
0.0
 10
74.88133790390858
 20
34.97646471595048
 30
0.0
 10
75.33712403672109
 20
34.97646471595048
 30
0.0
 10
76.16050185790166
 20
34.97646471595048
 30
0.0
 10
76.64005914956831
 20
35.85393053626297
 30
0.0
 10
76.85503310790164
 20
36.38344171247825
 30
0.0
 10
76.84676487873497
 20
36.40135620900603
 30
0.0
 10
76.32104330755443
 20
37.58371297983936
 30
0.0
 10
76.28176921901277
 20
37.67259644338103
 30
0.0
 10
76.0533593882836
 20
37.11449097463103
 30
0.0
 10
75.56966798203359
 20
36.56224216820742
 30
0.0
 10
75.2999170054711
 20
36.56224216820742
 30
0.0
 10
75.01294055147804
 20
36.56224216820742
 30
0.0
 10
74.7576589759572
 20
37.16754544511714
 30
0.0
 10
74.6611963023461
 20
37.42765015431853
 30
0.0
 10
74.25088542995027
 20
38.53455933400603
 30
0.0
 10
74.14512099852666
 20
39.68591024546436
 30
0.0
 10
74.09861220946416
 20
40.56509861351992
 30
0.0
 10
74.09861220946416
 20
40.56509861351992
 30
0.0
 10
74.0972341712697
 20
40.58990330101992
 30
0.0
 10
74.0972341712697
 20
40.58990330101992
 30
0.0
 10
74.0972341712697
 20
40.58990330101992
 30
0.0
 10
76.6521169837697
 20
40.58990330101992
 30
0.0
 10
76.69793675373495
 20
40.58990330101992
 30
0.0
 10
76.69793675373495
 20
40.63400052324214
 30
0.0
 10
76.69793675373495
 20
41.71920560136714
 30
0.0
 10
76.69793675373495
 20
41.76330282358935
 30
0.0
 10
76.65349502196416
 20
41.76330282358935
 30
0.0
 10
75.84217503498497
 20
41.76330282358935
 30
0.0
 10
75.84217503498497
 20
41.76330282358935
 30
0.0
 10
75.84217503498497
 20
41.76330282358935
 30
0.0
 10
75.83390680581832
 20
41.80843357445739
 30
0.0
 10
75.83390680581832
 20
41.80843357445739
 30
0.0
 10
75.83390680581832
 20
41.80843357445739
 30
0.0
 10
76.34929309054053
 20
42.01169420813797
 30
0.0
 10
76.40269207057524
 20
42.03270929060325
 30
0.0
 10
75.78636448810998
 20
42.81061185136714
 30
0.0
 10
75.65889595512387
 20
42.89639472897131
 30
0.0
 10
75.52625977890859
 20
42.98424466386713
 30
0.0
 10
75.52591526935998
 20
42.97976603973518
 30
0.0
 10
74.53579482665166
 20
42.6200980709852
 30
0.0
 10
74.36939671467247
 20
42.55980889997824
 30
0.0
  0
SPLINE
  5
E38
330
E1F
100
AcDbEntity
  8
WAKU
100
AcDbSpline
210
0.0
220
0.0
230
1.0
 70
     9
 71
     3
 72
   197
 73
   193
 74
     0
 42
0.000000001
 43
0.0000000001
 40
0.0
 40
0.0
 40
0.0
 40
0.0
 40
1.0
 40
1.0
 40
1.0
 40
2.0
 40
2.0
 40
2.0
 40
3.0
 40
3.0
 40
3.0
 40
4.0
 40
4.0
 40
4.0
 40
5.0
 40
5.0
 40
5.0
 40
6.0
 40
6.0
 40
6.0
 40
7.0
 40
7.0
 40
7.0
 40
8.0
 40
8.0
 40
8.0
 40
9.0
 40
9.0
 40
9.0
 40
10.0
 40
10.0
 40
10.0
 40
11.0
 40
11.0
 40
11.0
 40
12.0
 40
12.0
 40
12.0
 40
13.0
 40
13.0
 40
13.0
 40
14.0
 40
14.0
 40
14.0
 40
15.0
 40
15.0
 40
15.0
 40
16.0
 40
16.0
 40
16.0
 40
17.0
 40
17.0
 40
17.0
 40
18.0
 40
18.0
 40
18.0
 40
19.0
 40
19.0
 40
19.0
 40
20.0
 40
20.0
 40
20.0
 40
21.0
 40
21.0
 40
21.0
 40
22.0
 40
22.0
 40
22.0
 40
23.0
 40
23.0
 40
23.0
 40
24.0
 40
24.0
 40
24.0
 40
25.0
 40
25.0
 40
25.0
 40
26.0
 40
26.0
 40
26.0
 40
27.0
 40
27.0
 40
27.0
 40
28.0
 40
28.0
 40
28.0
 40
29.0
 40
29.0
 40
29.0
 40
30.0
 40
30.0
 40
30.0
 40
31.0
 40
31.0
 40
31.0
 40
32.0
 40
32.0
 40
32.0
 40
33.0
 40
33.0
 40
33.0
 40
34.0
 40
34.0
 40
34.0
 40
35.0
 40
35.0
 40
35.0
 40
36.0
 40
36.0
 40
36.0
 40
37.0
 40
37.0
 40
37.0
 40
38.0
 40
38.0
 40
38.0
 40
39.0
 40
39.0
 40
39.0
 40
40.0
 40
40.0
 40
40.0
 40
41.0
 40
41.0
 40
41.0
 40
42.0
 40
42.0
 40
42.0
 40
43.0
 40
43.0
 40
43.0
 40
44.0
 40
44.0
 40
44.0
 40
45.0
 40
45.0
 40
45.0
 40
46.0
 40
46.0
 40
46.0
 40
47.0
 40
47.0
 40
47.0
 40
48.0
 40
48.0
 40
48.0
 40
49.0
 40
49.0
 40
49.0
 40
50.0
 40
50.0
 40
50.0
 40
51.0
 40
51.0
 40
51.0
 40
52.0
 40
52.0
 40
52.0
 40
53.0
 40
53.0
 40
53.0
 40
54.0
 40
54.0
 40
54.0
 40
55.0
 40
55.0
 40
55.0
 40
56.0
 40
56.0
 40
56.0
 40
57.0
 40
57.0
 40
57.0
 40
58.0
 40
58.0
 40
58.0
 40
59.0
 40
59.0
 40
59.0
 40
60.0
 40
60.0
 40
60.0
 40
61.0
 40
61.0
 40
61.0
 40
62.0
 40
62.0
 40
62.0
 40
63.0
 40
63.0
 40
63.0
 40
64.0
 40
64.0
 40
64.0
 40
64.0
 10
64.0265310462697
 20
42.91637628279075
 30
0.0
 10
64.0265310462697
 20
42.87193455101991
 30
0.0
 10
64.0265310462697
 20
41.85563138261714
 30
0.0
 10
64.0265310462697
 20
41.85563138261714
 30
0.0
 10
64.0265310462697
 20
41.85563138261714
 30
0.0
 10
63.48737360269332
 20
41.85563138261714
 30
0.0
 10
63.48737360269332
 20
41.85563138261714
 30
0.0
 10
63.48737360269332
 20
41.85563138261714
 30
0.0
 10
63.66341798203359
 20
42.60872925588103
 30
0.0
 10
63.67478679713776
 20
42.65730510223519
 30
0.0
 10
63.6237993839433
 20
42.66143921681853
 30
0.0
 10
62.49966472682526
 20
42.75170071855463
 30
0.0
 10
62.4603906382836
 20
42.75480130449214
 30
0.0
 10
62.36013835963776
 20
42.10781237220047
 30
0.0
 10
62.1599783118947
 20
41.52317966820739
 30
0.0
 10
61.86301108099192
 20
41.01778416039493
 30
0.0
 10
61.86301108099192
 20
41.01778416039493
 30
0.0
 10
61.81960287786693
 20
40.94337009789492
 30
0.0
 10
61.81960287786693
 20
40.94337009789492
 30
0.0
 10
61.81960287786693
 20
40.94337009789492
 30
0.0
 10
61.81960287786693
 20
41.48493910831159
 30
0.0
 10
61.81960287786693
 20
41.52765829233937
 30
0.0
 10
61.77516114609609
 20
41.52765829233937
 30
0.0
 10
60.93145726154748
 20
41.52765829233937
 30
0.0
 10
60.93145726154748
 20
41.52765829233937
 30
0.0
 10
60.93145726154748
 20
41.52765829233937
 30
0.0
 10
60.93145726154748
 20
42.8712455319227
 30
0.0
 10
60.93145726154748
 20
42.91637628279075
 30
0.0
 10
60.88736003932526
 20
42.91637628279075
 30
0.0
 10
59.73187501328361
 20
42.91637628279075
 30
0.0
 10
59.68777779106137
 20
42.91637628279075
 30
0.0
 10
59.68777779106137
 20
42.8712455319227
 30
0.0
 10
59.68777779106137
 20
41.52765829233937
 30
0.0
 10
59.68777779106137
 20
41.52765829233937
 30
0.0
 10
59.68777779106137
 20
41.52765829233937
 30
0.0
 10
58.59154840738082
 20
41.52765829233937
 30
0.0
 10
58.54710667560998
 20
41.52765829233937
 30
0.0
 10
58.54710667560998
 20
41.48390557966575
 30
0.0
 10
58.54710667560998
 20
40.45692261525603
 30
0.0
 10
58.54710667560998
 20
40.41282539303379
 30
0.0
 10
58.59154840738082
 20
40.41282539303379
 30
0.0
 10
59.59372668429054
 20
40.41282539303379
 30
0.0
 10
59.59372668429054
 20
40.41282539303379
 30
0.0
 10
59.59372668429054
 20
40.41282539303379
 30
0.0
 10
59.58373590738081
 20
40.38250855275602
 30
0.0
 10
59.58373590738081
 20
40.38250855275602
 30
0.0
 10
59.15378799071415
 20
39.0327201412977
 30
0.0
 10
58.73314183185998
 20
38.4835719208116
 30
0.0
 10
58.37140680581832
 20
38.0777396725477
 30
0.0
 10
58.3776079776933
 20
38.05500204233937
 30
0.0
 10
58.77276042995024
 20
36.56534275414492
 30
0.0
 10
58.7958425697072
 20
36.47818183834632
 30
0.0
 10
58.99462457925581
 20
36.74035360483936
 30
0.0
 10
59.3350000132836
 20
37.21164266733936
 30
0.0
 10
59.64230253064471
 20
38.16662313608937
 30
0.0
 10
59.64230253064471
 20
38.16662313608937
 30
0.0
 10
59.68777779106137
 20
38.15973294511714
 30
0.0
 10
59.68777779106137
 20
38.15973294511714
 30
0.0
 10
59.68777779106137
 20
38.15973294511714
 30
0.0
 10
59.68777779106137
 20
35.0391654537977
 30
0.0
 10
59.68777779106137
 20
34.99334568383242
 30
0.0
 10
59.73187501328361
 20
34.99334568383242
 30
0.0
 10
60.88736003932526
 20
34.99334568383242
 30
0.0
 10
60.93145726154748
 20
34.99334568383242
 30
0.0
 10
60.93145726154748
 20
35.0391654537977
 30
0.0
 10
60.93145726154748
 20
38.47943780622826
 30
0.0
 10
60.93145726154748
 20
38.47943780622826
 30
0.0
 10
60.93145726154748
 20
38.47943780622826
 30
0.0
 10
60.97899957925581
 20
38.47943780622826
 30
0.0
 10
60.97899957925581
 20
38.47943780622826
 30
0.0
 10
61.07063911918636
 20
38.14112942949214
 30
0.0
 10
61.11921496554053
 20
37.96611857879771
 30
0.0
 10
61.49128527804053
 20
37.34152276716576
 30
0.0
 10
61.5305593665822
 20
37.38872057532547
 30
0.0
 10
62.2312917884572
 20
38.22450074025603
 30
0.0
 10
62.2591970618947
 20
38.25791816647131
 30
0.0
 10
62.13689617213774
 20
38.36092652150603
 30
0.0
 10
62.03044272161693
 20
38.45601115692272
 30
0.0
 10
61.84440756536693
 20
38.66581747202687
 30
0.0
 10
61.84440756536693
 20
38.66581747202687
 30
0.0
 10
61.8099566105058
 20
38.70474705101992
 30
0.0
 10
61.8099566105058
 20
38.70474705101992
 30
0.0
 10
61.8099566105058
 20
38.70474705101992
 30
0.0
 10
61.81719131102664
 20
38.70474705101992
 30
0.0
 10
61.82098091606136
 20
38.70474705101992
 30
0.0
 10
61.5832693275197
 20
38.98207723765187
 30
0.0
 10
61.15642199679054
 20
39.51572252845048
 30
0.0
 10
60.93386882838776
 20
40.00974922115879
 30
0.0
 10
60.93386882838776
 20
40.00974922115879
 30
0.0
 10
60.93145726154748
 20
40.01422784529075
 30
0.0
 10
60.93145726154748
 20
40.01422784529075
 30
0.0
 10
60.93145726154748
 20
40.01422784529075
 30
0.0
 10
60.93145726154748
 20
40.41282539303379
 30
0.0
 10
60.93145726154748
 20
40.41282539303379
 30
0.0
 10
60.93145726154748
 20
40.41282539303379
 30
0.0
 10
61.81512425373497
 20
40.41282539303379
 30
0.0
 10
61.81512425373497
 20
40.41282539303379
 30
0.0
 10
61.82856012613082
 20
40.40869127845048
 30
0.0
 10
62.54824057317943
 20
39.90364028018659
 30
0.0
 10
62.54824057317943
 20
39.90364028018659
 30
0.0
 10
62.54824057317943
 20
39.90364028018659
 30
0.0
 10
62.5940603431447
 20
39.87228991126297
 30
0.0
 10
62.6033621009572
 20
39.86574422983937
 30
0.0
 10
62.60818523463774
 20
39.87194540171437
 30
0.0
 10
62.62885580755442
 20
39.89916165605464
 30
0.0
 10
62.62885580755442
 20
39.89916165605464
 30
0.0
 10
62.74323297769331
 20
40.05040134789489
 30
0.0
 10
62.91721029974192
 20
40.31085056664492
 30
0.0
 10
63.09359918863082
 20
40.69394518470047
 30
0.0
 10
63.09359918863082
 20
40.69394518470047
 30
0.0
 10
63.10014487005442
 20
40.70738105709629
 30
0.0
 10
63.10014487005442
 20
40.70738105709629
 30
0.0
 10
63.10014487005442
 20
40.70738105709629
 30
0.0
 10
64.0265310462697
 20
40.70738105709629
 30
0.0
 10
64.0265310462697
 20
40.70738105709629
 30
0.0
 10
64.0265310462697
 20
40.70738105709629
 30
0.0
 10
64.0265310462697
 20
39.86161011525604
 30
0.0
 10
64.0265310462697
 20
39.86161011525604
 30
0.0
 10
64.0265310462697
 20
39.86161011525604
 30
0.0
 10
61.90986437960305
 20
39.86161011525604
 30
0.0
 10
61.86645617647805
 20
39.86161011525604
 30
0.0
 10
61.86645617647805
 20
39.8168238739366
 30
0.0
 10
61.86645617647805
 20
38.70750312740881
 30
0.0
 10
61.86645617647805
 20
38.70474705101992
 30
0.0
 10
61.87506891519332
 20
38.70474705101992
 30
0.0
 10
63.55868707925582
 20
38.70474705101992
 30
0.0
 10
63.55868707925582
 20
38.70474705101992
 30
0.0
 10
63.55868707925582
 20
38.70474705101992
 30
0.0
 10
63.53698297769331
 20
38.66891805796436
 30
0.0
 10
63.53698297769331
 20
38.66891805796436
 30
0.0
 10
63.00816082057526
 20
37.8045436004991
 30
0.0
 10
62.30398330321413
 20
37.1165580319227
 30
0.0
 10
61.44581001762386
 20
36.62184232011714
 30
0.0
 10
61.47130372422109
 20
36.58429077931854
 30
0.0
 10
62.21096572508916
 20
35.51768921681853
 30
0.0
 10
62.23956001762386
 20
35.4763480709852
 30
0.0
 10
62.98749024765861
 20
36.09474271074214
 30
0.0
 10
63.5583425697072
 20
36.7940970944227
 30
0.0
 10
63.98208931449886
 20
37.61471883921436
 30
0.0
 10
63.98208931449886
 20
37.61471883921436
 30
0.0
 10
64.0265310462697
 20
37.60403904320742
 30
0.0
 10
64.0265310462697
 20
37.60403904320742
 30
0.0
 10
64.0265310462697
 20
37.60403904320742
 30
0.0
 10
64.0265310462697
 20
35.0391654537977
 30
0.0
 10
64.0265310462697
 20
34.99334568383242
 30
0.0
 10
64.07062826849193
 20
34.99334568383242
 30
0.0
 10
65.27262208359609
 20
34.99334568383242
 30
0.0
 10
65.31671930581831
 20
34.99334568383242
 30
0.0
 10
65.31671930581831
 20
35.0391654537977
 30
0.0
 10
65.31671930581831
 20
37.41042467688798
 30
0.0
 10
65.31671930581831
 20
37.41042467688798
 30
0.0
 10
65.31671930581831
 20
37.41042467688798
 30
0.0
 10
65.36081652804054
 20
37.42144898244354
 30
0.0
 10
65.36081652804054
 20
37.42144898244354
 30
0.0
 10
65.78800836831831
 20
36.60668389997825
 30
0.0
 10
66.33474502196415
 20
35.96038398678382
 30
0.0
 10
66.9848345401933
 20
35.49632962480465
 30
0.0
 10
67.00688315130442
 20
35.55248468122825
 30
0.0
 10
67.50504395859609
 20
36.83612725935326
 30
0.0
 10
67.51813532144331
 20
36.87092272376297
 30
0.0
 10
67.1488210853322
 20
37.09761000674909
 30
0.0
 10
66.40399144123498
 20
37.56373142601992
 30
0.0
 10
65.7039480384572
 20
38.66891805796436
 30
0.0
 10
65.7039480384572
 20
38.66891805796436
 30
0.0
 10
65.68121040824888
 20
38.70474705101992
 30
0.0
 10
65.68121040824888
 20
38.70474705101992
 30
0.0
 10
65.68121040824888
 20
38.70474705101992
 30
0.0
 10
67.31005155408221
 20
38.70474705101992
 30
0.0
 10
67.35552681449886
 20
38.70474705101992
 30
0.0
 10
67.35552681449886
 20
38.74884427324214
 30
0.0
 10
67.35552681449886
 20
39.81751289303382
 30
0.0
 10
67.35552681449886
 20
39.86161011525604
 30
0.0
 10
67.30970704453359
 20
39.86161011525604
 30
0.0
 10
65.31671930581831
 20
39.86161011525604
 30
0.0
 10
65.31671930581831
 20
39.86161011525604
 30
0.0
 10
65.31671930581831
 20
39.86161011525604
 30
0.0
 10
65.31671930581831
 20
40.70738105709629
 30
0.0
 10
65.31671930581831
 20
40.70738105709629
 30
0.0
 10
65.31671930581831
 20
40.70738105709629
 30
0.0
 10
67.16949165824885
 20
40.70738105709629
 30
0.0
 10
67.21496691866554
 20
40.70738105709629
 30
0.0
 10
67.21496691866554
 20
40.75147827931853
 30
0.0
 10
67.21496691866554
 20
41.81187866994353
 30
0.0
 10
67.21496691866554
 20
41.85563138261714
 30
0.0
 10
67.16949165824885
 20
41.85563138261714
 30
0.0
 10
65.31671930581831
 20
41.85563138261714
 30
0.0
 10
65.31671930581831
 20
41.85563138261714
 30
0.0
 10
65.31671930581831
 20
41.85563138261714
 30
0.0
 10
65.31671930581831
 20
42.87193455101991
 30
0.0
 10
65.31671930581831
 20
42.91637628279075
 30
0.0
 10
65.27262208359609
 20
42.91637628279075
 30
0.0
 10
64.07062826849193
 20
42.91637628279075
 30
0.0
 10
64.0265310462697
 20
42.91637628279075
 30
0.0
  0
SPLINE
  5
E39
330
E1F
100
AcDbEntity
  8
WAKU
100
AcDbSpline
210
0.0
220
0.0
230
1.0
 70
     9
 71
     3
 72
    29
 73
    25
 74
     0
 42
0.000000001
 43
0.0000000001
 40
0.0
 40
0.0
 40
0.0
 40
0.0
 40
1.0
 40
1.0
 40
1.0
 40
2.0
 40
2.0
 40
2.0
 40
3.0
 40
3.0
 40
3.0
 40
4.0
 40
4.0
 40
4.0
 40
5.0
 40
5.0
 40
5.0
 40
6.0
 40
6.0
 40
6.0
 40
7.0
 40
7.0
 40
7.0
 40
8.0
 40
8.0
 40
8.0
 40
8.0
 10
52.86201010442942
 20
40.47552613088103
 30
0.0
 10
52.84340658880442
 20
40.53271471595047
 30
0.0
 10
52.72213922769331
 20
40.83450508053378
 30
0.0
 10
52.68596572508915
 20
40.89996189476992
 30
0.0
 10
52.68596572508915
 20
40.89996189476992
 30
0.0
 10
52.66632868081831
 20
40.93475735917964
 30
0.0
 10
52.66632868081831
 20
40.93475735917964
 30
0.0
 10
52.66632868081831
 20
40.93475735917964
 30
0.0
 10
54.5883474525197
 20
40.93475735917964
 30
0.0
 10
54.5883474525197
 20
40.93475735917964
 30
0.0
 10
54.5883474525197
 20
40.93475735917964
 30
0.0
 10
54.58042373290165
 20
40.9054740475477
 30
0.0
 10
54.58042373290165
 20
40.9054740475477
 30
0.0
 10
54.5015310462697
 20
40.61401896942268
 30
0.0
 10
54.46329048637386
 20
40.53374824459631
 30
0.0
 10
54.42815051241554
 20
40.47104750674907
 30
0.0
 10
54.42815051241554
 20
40.47104750674907
 30
0.0
 10
54.42126032144331
 20
40.45898967254768
 30
0.0
 10
54.42126032144331
 20
40.45898967254768
 30
0.0
 10
54.42126032144331
 20
40.45898967254768
 30
0.0
 10
52.86683323810998
 20
40.45898967254768
 30
0.0
 10
52.86683323810998
 20
40.45898967254768
 30
0.0
 10
52.86683323810998
 20
40.45898967254768
 30
0.0
 10
52.86201010442942
 20
40.47552613088103
 30
0.0
 10
52.86201010442942
 20
40.47552613088103
 30
0.0
  0
SPLINE
  5
E3A
330
E1F
100
AcDbEntity
  8
WAKU
100
AcDbSpline
210
0.0
220
0.0
230
1.0
 70
     9
 71
     3
 72
   203
 73
   199
 74
     0
 42
0.000000001
 43
0.0000000001
 40
0.0
 40
0.0
 40
0.0
 40
0.0
 40
1.0
 40
1.0
 40
1.0
 40
2.0
 40
2.0
 40
2.0
 40
3.0
 40
3.0
 40
3.0
 40
4.0
 40
4.0
 40
4.0
 40
5.0
 40
5.0
 40
5.0
 40
6.0
 40
6.0
 40
6.0
 40
7.0
 40
7.0
 40
7.0
 40
8.0
 40
8.0
 40
8.0
 40
9.0
 40
9.0
 40
9.0
 40
10.0
 40
10.0
 40
10.0
 40
11.0
 40
11.0
 40
11.0
 40
12.0
 40
12.0
 40
12.0
 40
13.0
 40
13.0
 40
13.0
 40
14.0
 40
14.0
 40
14.0
 40
15.0
 40
15.0
 40
15.0
 40
16.0
 40
16.0
 40
16.0
 40
17.0
 40
17.0
 40
17.0
 40
18.0
 40
18.0
 40
18.0
 40
19.0
 40
19.0
 40
19.0
 40
20.0
 40
20.0
 40
20.0
 40
21.0
 40
21.0
 40
21.0
 40
22.0
 40
22.0
 40
22.0
 40
23.0
 40
23.0
 40
23.0
 40
24.0
 40
24.0
 40
24.0
 40
25.0
 40
25.0
 40
25.0
 40
26.0
 40
26.0
 40
26.0
 40
27.0
 40
27.0
 40
27.0
 40
28.0
 40
28.0
 40
28.0
 40
29.0
 40
29.0
 40
29.0
 40
30.0
 40
30.0
 40
30.0
 40
31.0
 40
31.0
 40
31.0
 40
32.0
 40
32.0
 40
32.0
 40
33.0
 40
33.0
 40
33.0
 40
34.0
 40
34.0
 40
34.0
 40
35.0
 40
35.0
 40
35.0
 40
36.0
 40
36.0
 40
36.0
 40
37.0
 40
37.0
 40
37.0
 40
38.0
 40
38.0
 40
38.0
 40
39.0
 40
39.0
 40
39.0
 40
40.0
 40
40.0
 40
40.0
 40
41.0
 40
41.0
 40
41.0
 40
42.0
 40
42.0
 40
42.0
 40
43.0
 40
43.0
 40
43.0
 40
44.0
 40
44.0
 40
44.0
 40
45.0
 40
45.0
 40
45.0
 40
46.0
 40
46.0
 40
46.0
 40
47.0
 40
47.0
 40
47.0
 40
48.0
 40
48.0
 40
48.0
 40
49.0
 40
49.0
 40
49.0
 40
50.0
 40
50.0
 40
50.0
 40
51.0
 40
51.0
 40
51.0
 40
52.0
 40
52.0
 40
52.0
 40
53.0
 40
53.0
 40
53.0
 40
54.0
 40
54.0
 40
54.0
 40
55.0
 40
55.0
 40
55.0
 40
56.0
 40
56.0
 40
56.0
 40
57.0
 40
57.0
 40
57.0
 40
58.0
 40
58.0
 40
58.0
 40
59.0
 40
59.0
 40
59.0
 40
60.0
 40
60.0
 40
60.0
 40
61.0
 40
61.0
 40
61.0
 40
62.0
 40
62.0
 40
62.0
 40
63.0
 40
63.0
 40
63.0
 40
64.0
 40
64.0
 40
64.0
 40
65.0
 40
65.0
 40
65.0
 40
66.0
 40
66.0
 40
66.0
 40
66.0
 10
50.02221789522804
 20
42.70346938174909
 30
0.0
 10
50.17380209661692
 20
42.45611152584632
 30
0.0
 10
50.30471572508915
 20
42.2077201412977
 30
0.0
 10
50.40841309922109
 20
41.96449639997825
 30
0.0
 10
50.40841309922109
 20
41.96449639997825
 30
0.0
 10
50.42253799071414
 20
41.93176799286018
 30
0.0
 10
50.42253799071414
 20
41.93176799286018
 30
0.0
 10
50.42253799071414
 20
41.93176799286018
 30
0.0
 10
49.28669000894331
 20
41.93176799286018
 30
0.0
 10
49.24190376762386
 20
41.93176799286018
 30
0.0
 10
49.24190376762386
 20
41.88801528018657
 30
0.0
 10
49.24190376762386
 20
40.97816556230464
 30
0.0
 10
49.24190376762386
 20
40.93475735917964
 30
0.0
 10
49.28737902804054
 20
40.93475735917964
 30
0.0
 10
51.28829048637386
 20
40.93475735917964
 30
0.0
 10
51.28829048637386
 20
40.93475735917964
 30
0.0
 10
51.28829048637386
 20
40.93475735917964
 30
0.0
 10
51.29518067734609
 20
40.9237330536241
 30
0.0
 10
51.29518067734609
 20
40.9237330536241
 30
0.0
 10
51.38130806449886
 20
40.78661825327685
 30
0.0
 10
51.40921333793636
 20
40.7104816430338
 30
0.0
 10
51.48500543863081
 20
40.4899955319227
 30
0.0
 10
51.48500543863081
 20
40.4899955319227
 30
0.0
 10
51.49568523463774
 20
40.45898967254768
 30
0.0
 10
51.49568523463774
 20
40.45898967254768
 30
0.0
 10
51.49568523463774
 20
40.45898967254768
 30
0.0
 10
49.6518701304711
 20
40.45898967254768
 30
0.0
 10
49.60639487005442
 20
40.45898967254768
 30
0.0
 10
49.60639487005442
 20
40.41558146942271
 30
0.0
 10
49.60639487005442
 20
39.6063285397352
 30
0.0
 10
49.60639487005442
 20
39.56326484615882
 30
0.0
 10
49.65255914956832
 20
39.56326484615882
 30
0.0
 10
52.95399415390861
 20
39.56326484615882
 30
0.0
 10
52.95399415390861
 20
39.56326484615882
 30
0.0
 10
52.95399415390861
 20
39.56326484615882
 30
0.0
 10
52.95399415390861
 20
39.17982571855464
 30
0.0
 10
52.95399415390861
 20
39.17982571855464
 30
0.0
 10
52.95399415390861
 20
39.17982571855464
 30
0.0
 10
49.89578289088774
 20
39.17982571855464
 30
0.0
 10
49.84961861137386
 20
39.17982571855464
 30
0.0
 10
49.84961861137386
 20
39.13676202497825
 30
0.0
 10
49.84961861137386
 20
38.46117880015187
 30
0.0
 10
49.84961861137386
 20
38.4184596161241
 30
0.0
 10
49.89578289088774
 20
38.4184596161241
 30
0.0
 10
52.95399415390861
 20
38.4184596161241
 30
0.0
 10
52.95399415390861
 20
38.4184596161241
 30
0.0
 10
52.95399415390861
 20
38.4184596161241
 30
0.0
 10
52.95399415390861
 20
38.03502048851992
 30
0.0
 10
52.95399415390861
 20
38.03502048851992
 30
0.0
 10
52.95399415390861
 20
38.03502048851992
 30
0.0
 10
49.28806804713776
 20
38.03502048851992
 30
0.0
 10
49.24190376762386
 20
38.03502048851992
 30
0.0
 10
49.24190376762386
 20
37.99161228539492
 30
0.0
 10
49.24190376762386
 20
37.14067370032547
 30
0.0
 10
49.24190376762386
 20
37.09726549720048
 30
0.0
 10
49.28772353758915
 20
37.09726549720048
 30
0.0
 10
51.88325847682524
 20
37.09726549720048
 30
0.0
 10
51.88325847682524
 20
37.09726549720048
 30
0.0
 10
51.88325847682524
 20
37.09726549720048
 30
0.0
 10
51.8935937632836
 20
37.05316827497826
 30
0.0
 10
51.8935937632836
 20
37.05316827497826
 30
0.0
 10
50.77669380668638
 20
36.51573337914492
 30
0.0
 10
49.73799751762386
 20
36.26286337046437
 30
0.0
 10
49.19884007404748
 20
36.15709893904075
 30
0.0
 10
49.22915691432526
 20
36.10438897810325
 30
0.0
 10
49.8103445228322
 20
35.10358873938797
 30
0.0
 10
49.82791450981136
 20
35.0732718991102
 30
0.0
 10
51.74442112873498
 20
35.62276462914493
 30
0.0
 10
52.36109322074886
 20
36.04582235483937
 30
0.0
 10
52.91575359401274
 20
36.50264201629771
 30
0.0
 10
52.91575359401274
 20
36.50264201629771
 30
0.0
 10
52.95399415390861
 20
36.53433689476992
 30
0.0
 10
52.95399415390861
 20
36.53433689476992
 30
0.0
 10
52.95399415390861
 20
36.53433689476992
 30
0.0
 10
52.95399415390861
 20
35.04674466386715
 30
0.0
 10
52.95399415390861
 20
35.00161391299909
 30
0.0
 10
52.99809137613081
 20
35.00161391299909
 30
0.0
 10
54.24659398029748
 20
35.00161391299909
 30
0.0
 10
54.2910357120683
 20
35.00161391299909
 30
0.0
 10
54.2910357120683
 20
35.04674466386715
 30
0.0
 10
54.2910357120683
 20
36.5674098114366
 30
0.0
 10
54.2910357120683
 20
36.5674098114366
 30
0.0
 10
54.2910357120683
 20
36.5674098114366
 30
0.0
 10
54.32927627196415
 20
36.5367484616102
 30
0.0
 10
54.32927627196415
 20
36.5367484616102
 30
0.0
 10
55.1619558509572
 20
35.86116523678381
 30
0.0
 10
55.75451227456831
 20
35.53663724199215
 30
0.0
 10
57.39920085963776
 20
35.0732718991102
 30
0.0
 10
57.41642633706831
 20
35.10255521074215
 30
0.0
 10
58.03998862005443
 20
36.13505032792964
 30
0.0
 10
58.07306153672111
 20
36.18982734615882
 30
0.0
 10
57.60142796467248
 20
36.27113159963104
 30
0.0
 10
56.43422961397804
 20
36.47887085744353
 30
0.0
 10
55.3324880775197
 20
37.05316827497826
 30
0.0
 10
55.3324880775197
 20
37.05316827497826
 30
0.0
 10
55.34316787352665
 20
37.09726549720048
 30
0.0
 10
55.34316787352665
 20
37.09726549720048
 30
0.0
 10
55.34316787352665
 20
37.09726549720048
 30
0.0
 10
57.93870281276276
 20
37.09726549720048
 30
0.0
 10
57.98486709227663
 20
37.09726549720048
 30
0.0
 10
57.98486709227663
 20
37.14067370032547
 30
0.0
 10
57.98486709227663
 20
37.99161228539492
 30
0.0
 10
57.98486709227663
 20
38.03502048851992
 30
0.0
 10
57.93870281276276
 20
38.03502048851992
 30
0.0
 10
54.2910357120683
 20
38.03502048851992
 30
0.0
 10
54.2910357120683
 20
38.03502048851992
 30
0.0
 10
54.2910357120683
 20
38.03502048851992
 30
0.0
 10
54.2910357120683
 20
38.4184596161241
 30
0.0
 10
54.2910357120683
 20
38.4184596161241
 30
0.0
 10
54.2910357120683
 20
38.4184596161241
 30
0.0
 10
57.36819500026276
 20
38.4184596161241
 30
0.0
 10
57.41435927977665
 20
38.4184596161241
 30
0.0
 10
57.41435927977665
 20
38.46117880015187
 30
0.0
 10
57.41435927977665
 20
39.13676202497825
 30
0.0
 10
57.41435927977665
 20
39.17982571855464
 30
0.0
 10
57.36819500026276
 20
39.17982571855464
 30
0.0
 10
54.2910357120683
 20
39.17982571855464
 30
0.0
 10
54.2910357120683
 20
39.17982571855464
 30
0.0
 10
54.2910357120683
 20
39.17982571855464
 30
0.0
 10
54.2910357120683
 20
39.56326484615882
 30
0.0
 10
54.2910357120683
 20
39.56326484615882
 30
0.0
 10
54.2910357120683
 20
39.56326484615882
 30
0.0
 10
57.62037598984609
 20
39.56326484615882
 30
0.0
 10
57.66654026935999
 20
39.56326484615882
 30
0.0
 10
57.66654026935999
 20
39.6063285397352
 30
0.0
 10
57.66654026935999
 20
40.41558146942271
 30
0.0
 10
57.66654026935999
 20
40.45898967254768
 30
0.0
 10
57.62140951849192
 20
40.45898967254768
 30
0.0
 10
55.77759441432526
 20
40.45898967254768
 30
0.0
 10
55.77759441432526
 20
40.45898967254768
 30
0.0
 10
55.77759441432526
 20
40.45898967254768
 30
0.0
 10
55.77759441432526
 20
40.48241632185325
 30
0.0
 10
55.77759441432526
 20
40.48241632185325
 30
0.0
 10
55.77759441432526
 20
40.50033081838103
 30
0.0
 10
55.94605958359609
 20
40.91684286265186
 30
0.0
 10
55.94812664088776
 20
40.92097697723519
 30
0.0
 10
55.94812664088776
 20
40.92097697723519
 30
0.0
 10
55.95432781276276
 20
40.93475735917964
 30
0.0
 10
55.95432781276276
 20
40.93475735917964
 30
0.0
 10
55.95432781276276
 20
40.93475735917964
 30
0.0
 10
57.93904732231136
 20
40.93475735917964
 30
0.0
 10
57.98452258272803
 20
40.93475735917964
 30
0.0
 10
57.98452258272803
 20
40.97816556230464
 30
0.0
 10
57.98452258272803
 20
41.88801528018657
 30
0.0
 10
57.98452258272803
 20
41.93176799286018
 30
0.0
 10
57.9400808509572
 20
41.93176799286018
 30
0.0
 10
56.83489421901274
 20
41.93176799286018
 30
0.0
 10
56.83489421901274
 20
41.93176799286018
 30
0.0
 10
56.83489421901274
 20
41.93176799286018
 30
0.0
 10
56.85659832057526
 20
41.96725247636714
 30
0.0
 10
56.85659832057526
 20
41.96725247636714
 30
0.0
 10
57.00645997422109
 20
42.21254327497825
 30
0.0
 10
57.1370290931447
 20
42.49883070987407
 30
0.0
 10
57.22625706623498
 20
42.70243585310325
 30
0.0
 10
57.17044651935998
 20
42.71208212046436
 30
0.0
 10
55.96707466606137
 20
42.91534275414489
 30
0.0
 10
55.92952312526275
 20
42.92154392601992
 30
0.0
 10
55.85993219644332
 20
42.69141154754769
 30
0.0
 10
55.69697917995025
 20
42.24079305796435
 30
0.0
 10
55.53195910616555
 20
41.94382582706157
 30
0.0
 10
55.53195910616555
 20
41.94382582706157
 30
0.0
 10
55.52506891519332
 20
41.93176799286018
 30
0.0
 10
55.52506891519332
 20
41.93176799286018
 30
0.0
 10
55.52506891519332
 20
41.93176799286018
 30
0.0
 10
55.11372451415165
 20
41.93176799286018
 30
0.0
 10
55.11372451415165
 20
41.93176799286018
 30
0.0
 10
55.11372451415165
 20
41.93176799286018
 30
0.0
 10
55.11372451415165
 20
42.85470907358936
 30
0.0
 10
55.11372451415165
 20
42.89949531490881
 30
0.0
 10
55.06997180147804
 20
42.89949531490881
 30
0.0
 10
53.96168458359611
 20
42.89949531490881
 30
0.0
 10
53.91724285182526
 20
42.89949531490881
 30
0.0
 10
53.91724285182526
 20
42.85470907358936
 30
0.0
 10
53.91724285182526
 20
41.93176799286018
 30
0.0
 10
53.91724285182526
 20
41.93176799286018
 30
0.0
 10
53.91724285182526
 20
41.93176799286018
 30
0.0
 10
53.34639052977665
 20
41.93176799286018
 30
0.0
 10
53.34639052977665
 20
41.93176799286018
 30
0.0
 10
53.34639052977665
 20
41.93176799286018
 30
0.0
 10
53.34639052977665
 20
42.85470907358936
 30
0.0
 10
53.34639052977665
 20
42.89949531490881
 30
0.0
 10
53.30229330755443
 20
42.89949531490881
 30
0.0
 10
52.20330784748497
 20
42.89949531490881
 30
0.0
 10
52.15921062526276
 20
42.89949531490881
 30
0.0
 10
52.15921062526276
 20
42.85470907358936
 30
0.0
 10
52.15921062526276
 20
41.93176799286018
 30
0.0
 10
52.15921062526276
 20
41.93176799286018
 30
0.0
 10
52.15921062526276
 20
41.93176799286018
 30
0.0
 10
51.72616212265859
 20
41.93176799286018
 30
0.0
 10
51.72616212265859
 20
41.93176799286018
 30
0.0
 10
51.72616212265859
 20
41.93176799286018
 30
0.0
 10
51.72099447942943
 20
41.94795994164493
 30
0.0
 10
51.72099447942943
 20
41.94795994164493
 30
0.0
 10
51.57836752630442
 20
42.40064548851992
 30
0.0
 10
51.46467937526274
 20
42.65007040171435
 30
0.0
 10
51.31860732665165
 20
42.92188843556853
 30
0.0
 10
51.28691244817943
 20
42.91672079233936
 30
0.0
 10
50.08422961397805
 20
42.7138046682074
 30
0.0
 10
50.02221789522804
 20
42.70346938174909
 30
0.0
  0
SPLINE
  5
E3B
330
E1F
100
AcDbEntity
  8
WAKU
100
AcDbSpline
210
0.0
220
0.0
230
1.0
 70
     9
 71
     3
 72
    41
 73
    37
 74
     0
 42
0.000000001
 43
0.0000000001
 40
0.0
 40
0.0
 40
0.0
 40
0.0
 40
1.0
 40
1.0
 40
1.0
 40
2.0
 40
2.0
 40
2.0
 40
3.0
 40
3.0
 40
3.0
 40
4.0
 40
4.0
 40
4.0
 40
5.0
 40
5.0
 40
5.0
 40
6.0
 40
6.0
 40
6.0
 40
7.0
 40
7.0
 40
7.0
 40
8.0
 40
8.0
 40
8.0
 40
9.0
 40
9.0
 40
9.0
 40
10.0
 40
10.0
 40
10.0
 40
11.0
 40
11.0
 40
11.0
 40
12.0
 40
12.0
 40
12.0
 40
12.0
 10
40.24538141519331
 20
42.52087932098517
 30
0.0
 10
40.24538141519331
 20
42.47678209876297
 30
0.0
 10
40.24538141519331
 20
41.33232137827685
 30
0.0
 10
40.24538141519331
 20
41.28822415605464
 30
0.0
 10
40.2912011851586
 20
41.28822415605464
 30
0.0
 10
43.54647190998497
 20
41.28822415605464
 30
0.0
 10
43.54647190998497
 20
41.28822415605464
 30
0.0
 10
43.54647190998497
 20
41.28822415605464
 30
0.0
 10
43.54647190998497
 20
36.63011054928381
 30
0.0
 10
43.54647190998497
 20
36.63011054928381
 30
0.0
 10
43.54647190998497
 20
36.63011054928381
 30
0.0
 10
39.91740832491553
 20
36.63011054928381
 30
0.0
 10
39.87124404540166
 20
36.63011054928381
 30
0.0
 10
39.87124404540166
 20
36.58566881751298
 30
0.0
 10
39.87124404540166
 20
35.43293986786022
 30
0.0
 10
39.87124404540166
 20
35.38884264563797
 30
0.0
 10
39.91775283446415
 20
35.38884264563797
 30
0.0
 10
48.60525012179054
 20
35.38884264563797
 30
0.0
 10
48.65141440130443
 20
35.38884264563797
 30
0.0
 10
48.65141440130443
 20
35.43293986786022
 30
0.0
 10
48.65141440130443
 20
36.58566881751298
 30
0.0
 10
48.65141440130443
 20
36.63011054928381
 30
0.0
 10
48.60525012179054
 20
36.63011054928381
 30
0.0
 10
44.9765310462697
 20
36.63011054928381
 30
0.0
 10
44.9765310462697
 20
36.63011054928381
 30
0.0
 10
44.9765310462697
 20
36.63011054928381
 30
0.0
 10
44.9765310462697
 20
41.28822415605464
 30
0.0
 10
44.9765310462697
 20
41.28822415605464
 30
0.0
 10
44.9765310462697
 20
41.28822415605464
 30
0.0
 10
48.24075901935998
 20
41.28822415605464
 30
0.0
 10
48.28692329887386
 20
41.28822415605464
 30
0.0
 10
48.28692329887386
 20
41.33232137827685
 30
0.0
 10
48.28692329887386
 20
42.47678209876297
 30
0.0
 10
48.28692329887386
 20
42.52087932098517
 30
0.0
 10
48.24041450981138
 20
42.52087932098517
 30
0.0
 10
40.29154569470721
 20
42.52087932098517
 30
0.0
 10
40.24538141519331
 20
42.52087932098517
 30
0.0
  0
SPLINE
  5
E3C
330
E1F
100
AcDbEntity
  8
WAKU
100
AcDbSpline
210
0.0
220
0.0
230
1.0
 70
     9
 71
     3
 72
    17
 73
    13
 74
     0
 42
0.000000001
 43
0.0000000001
 40
0.0
 40
0.0
 40
0.0
 40
0.0
 40
1.0
 40
1.0
 40
1.0
 40
2.0
 40
2.0
 40
2.0
 40
3.0
 40
3.0
 40
3.0
 40
4.0
 40
4.0
 40
4.0
 40
4.0
 10
22.23166613741554
 20
36.78789592254771
 30
0.0
 10
25.25198135008916
 20
37.05695788001297
 30
0.0
 10
27.22498753498499
 20
37.56200887827687
 30
0.0
 10
28.49691678845721
 20
41.30717218122825
 30
0.0
 10
28.49691678845721
 20
41.30717218122825
 30
0.0
 10
29.86186362005443
 20
40.66741794945742
 30
0.0
 10
29.86186362005443
 20
40.66741794945742
 30
0.0
 10
28.41251194904748
 20
36.82992608747826
 30
0.0
 10
26.33684191866554
 20
35.7860621551866
 30
0.0
 10
22.65265680581832
 20
35.3488795379991
 30
0.0
 10
22.65265680581832
 20
35.3488795379991
 30
0.0
 10
22.23166613741554
 20
36.78789592254771
 30
0.0
 10
22.23166613741554
 20
36.78789592254771
 30
0.0
  0
SPLINE
  5
E3D
330
E1F
100
AcDbEntity
  8
WAKU
100
AcDbSpline
210
0.0
220
0.0
230
1.0
 70
     9
 71
     3
 72
    17
 73
    13
 74
     0
 42
0.000000001
 43
0.0000000001
 40
0.0
 40
0.0
 40
0.0
 40
0.0
 40
1.0
 40
1.0
 40
1.0
 40
2.0
 40
2.0
 40
2.0
 40
3.0
 40
3.0
 40
3.0
 40
4.0
 40
4.0
 40
4.0
 40
4.0
 10
24.45719782144332
 20
38.40364570553381
 30
0.0
 10
23.34443197942943
 20
38.92523316213104
 30
0.0
 10
22.37188152370026
 20
39.2029078583116
 30
0.0
 10
21.70801162352665
 20
39.3799857662977
 30
0.0
 10
21.70801162352665
 20
39.3799857662977
 30
0.0
 10
22.20341635442943
 20
40.52444648678378
 30
0.0
 10
22.20341635442943
 20
40.52444648678378
 30
0.0
 10
22.75532065130443
 20
40.40662422115882
 30
0.0
 10
24.08306045165165
 20
40.06969388261715
 30
0.0
 10
25.00875760876971
 20
39.63216675588103
 30
0.0
 10
25.00875760876971
 20
39.63216675588103
 30
0.0
 10
24.45719782144332
 20
38.40364570553381
 30
0.0
 10
24.45719782144332
 20
38.40364570553381
 30
0.0
  0
SPLINE
  5
E3E
330
E1F
100
AcDbEntity
  8
WAKU
100
AcDbSpline
210
0.0
220
0.0
230
1.0
 70
     9
 71
     3
 72
    17
 73
    13
 74
     0
 42
0.000000001
 43
0.0000000001
 40
0.0
 40
0.0
 40
0.0
 40
0.0
 40
1.0
 40
1.0
 40
1.0
 40
2.0
 40
2.0
 40
2.0
 40
3.0
 40
3.0
 40
3.0
 40
4.0
 40
4.0
 40
4.0
 40
4.0
 10
29.31960559054054
 20
41.70266914303382
 30
0.0
 10
29.24484701849193
 20
42.03925497202686
 30
0.0
 10
29.09532987439471
 20
42.53569323157547
 30
0.0
 10
28.90826118949887
 20
42.92292196421437
 30
0.0
 10
28.90826118949887
 20
42.92292196421437
 30
0.0
 10
29.72130372422109
 20
43.04074422983936
 30
0.0
 10
29.72130372422109
 20
43.04074422983936
 30
0.0
 10
29.96487197508915
 20
42.56945516733935
 30
0.0
 10
30.13299263481137
 20
41.92970093556853
 30
0.0
 10
30.15159615043637
 20
41.85425334442268
 30
0.0
 10
30.15159615043637
 20
41.85425334442268
 30
0.0
 10
29.31960559054054
 20
41.70266914303382
 30
0.0
 10
29.31960559054054
 20
41.70266914303382
 30
0.0
  0
SPLINE
  5
E3F
330
E1F
100
AcDbEntity
  8
WAKU
100
AcDbSpline
210
0.0
220
0.0
230
1.0
 70
     9
 71
     3
 72
    17
 73
    13
 74
     0
 42
0.000000001
 43
0.0000000001
 40
0.0
 40
0.0
 40
0.0
 40
0.0
 40
1.0
 40
1.0
 40
1.0
 40
2.0
 40
2.0
 40
2.0
 40
3.0
 40
3.0
 40
3.0
 40
4.0
 40
4.0
 40
4.0
 40
4.0
 10
27.95431424939471
 20
41.50905477671435
 30
0.0
 10
27.91710721814471
 20
41.70266914303382
 30
0.0
 10
27.78584908012387
 20
42.36722806230464
 30
0.0
 10
27.58982314696415
 20
42.83851712480464
 30
0.0
 10
27.58982314696415
 20
42.83851712480464
 30
0.0
 10
28.42181370685999
 20
42.94772665171436
 30
0.0
 10
28.42181370685999
 20
42.94772665171436
 30
0.0
 10
28.5058740367211
 20
42.75445679494352
 30
0.0
 10
28.63678766519332
 20
42.48505032792964
 30
0.0
 10
28.83315810790165
 20
41.66890720726992
 30
0.0
 10
28.83315810790165
 20
41.66890720726992
 30
0.0
 10
27.95431424939471
 20
41.50905477671435
 30
0.0
 10
27.95431424939471
 20
41.50905477671435
 30
0.0
  0
SPLINE
  5
E40
330
E1F
100
AcDbEntity
  8
WAKU
100
AcDbSpline
210
0.0
220
0.0
230
1.0
 70
     9
 71
     3
 72
    17
 73
    13
 74
     0
 42
0.000000001
 43
0.0000000001
 40
0.0
 40
0.0
 40
0.0
 40
0.0
 40
1.0
 40
1.0
 40
1.0
 40
2.0
 40
2.0
 40
2.0
 40
3.0
 40
3.0
 40
3.0
 40
4.0
 40
4.0
 40
4.0
 40
4.0
 10
25.27988662352665
 20
40.4403861569227
 30
0.0
 10
24.27012913654749
 20
40.88618151282547
 30
0.0
 10
23.50359539088776
 20
41.11355781490881
 30
0.0
 10
22.45594185356138
 20
41.35747057532547
 30
0.0
 10
22.45594185356138
 20
41.35747057532547
 30
0.0
 10
22.98924263481137
 20
42.49366306664492
 30
0.0
 10
22.98924263481137
 20
42.49366306664492
 30
0.0
 10
24.05481066866554
 20
42.28316773244353
 30
0.0
 10
24.84993870685999
 20
42.06440416907547
 30
0.0
 10
25.86899795165165
 20
41.66890720726992
 30
0.0
 10
25.86899795165165
 20
41.66890720726992
 30
0.0
 10
25.27988662352665
 20
40.4403861569227
 30
0.0
 10
25.27988662352665
 20
40.4403861569227
 30
0.0
  0
SPLINE
  5
E41
330
E1F
100
AcDbEntity
  8
WAKU
100
AcDbSpline
210
0.0
220
0.0
230
1.0
 70
    11
 71
     3
 72
    32
 73
    28
 74
     0
 42
0.000000001
 43
0.0000000001
 40
0.0
 40
0.0
 40
0.0
 40
0.0
 40
1.0
 40
1.0
 40
1.0
 40
2.0
 40
2.0
 40
2.0
 40
3.0
 40
3.0
 40
3.0
 40
4.0
 40
4.0
 40
4.0
 40
5.0
 40
5.0
 40
5.0
 40
6.0
 40
6.0
 40
6.0
 40
7.0
 40
7.0
 40
7.0
 40
8.0
 40
8.0
 40
8.0
 40
9.0
 40
9.0
 40
9.0
 40
9.0
 10
17.82917861571415
 20
35.36541599633242
 30
0.0
 10
17.82917861571415
 20
35.36541599633242
 30
0.0
 10
16.24891331623498
 20
35.36541599633242
 30
0.0
 10
16.24891331623498
 20
35.36541599633242
 30
0.0
 10
16.24891331623498
 20
35.36541599633242
 30
0.0
 10
16.24891331623498
 20
38.79914266733937
 30
0.0
 10
16.24891331623498
 20
38.79914266733937
 30
0.0
 10
14.98663033012387
 20
38.13423923851992
 30
0.0
 10
13.86421822074886
 20
37.77250421247825
 30
0.0
 10
13.12558974852665
 20
37.54512791039493
 30
0.0
 10
13.12558974852665
 20
37.54512791039493
 30
0.0
 10
12.30290094644331
 20
38.68132040171437
 30
0.0
 10
12.30290094644331
 20
38.68132040171437
 30
0.0
 10
13.72400283446415
 20
39.04305542775603
 30
0.0
 10
15.06138890217249
 20
39.64077949459632
 30
0.0
 10
16.2864648570336
 20
40.3811305145616
 30
0.0
 10
17.63280817300582
 20
41.19761814476992
 30
0.0
 10
18.52129829887387
 20
42.06440416907547
 30
0.0
 10
19.20377171467248
 20
42.77133776282545
 30
0.0
 10
19.20377171467248
 20
42.77133776282545
 30
0.0
 10
20.54081327283221
 20
41.93831367428381
 30
0.0
 10
20.54081327283221
 20
41.93831367428381
 30
0.0
 10
19.74602974418637
 20
41.16385620900604
 30
0.0
 10
19.02600478758914
 20
40.5582084225477
 30
0.0
 10
17.82917861571415
 20
39.74998902150603
 30
0.0
 10
17.82917861571415
 20
39.74998902150603
 30
0.0
 10
17.82917861571415
 20
35.36541599633242
 30
0.0
 10
17.82917861571415
 20
35.36541599633242
 30
0.0
  0
SPLINE
  5
E42
330
E1F
100
AcDbEntity
  8
WAKU
100
AcDbSpline
210
0.0
220
0.0
230
1.0
 70
     9
 71
     3
 72
    41
 73
    37
 74
     0
 42
0.000000001
 43
0.0000000001
 40
0.0
 40
0.0
 40
0.0
 40
0.0
 40
1.0
 40
1.0
 40
1.0
 40
2.0
 40
2.0
 40
2.0
 40
3.0
 40
3.0
 40
3.0
 40
4.0
 40
4.0
 40
4.0
 40
5.0
 40
5.0
 40
5.0
 40
6.0
 40
6.0
 40
6.0
 40
7.0
 40
7.0
 40
7.0
 40
8.0
 40
8.0
 40
8.0
 40
9.0
 40
9.0
 40
9.0
 40
10.0
 40
10.0
 40
10.0
 40
11.0
 40
11.0
 40
11.0
 40
12.0
 40
12.0
 40
12.0
 40
12.0
 10
3.74907336397804
 20
36.2914576629991
 30
0.0
 10
4.515951619186371
 20
36.56051962046436
 30
0.0
 10
6.133423949915536
 20
37.12448175154076
 30
0.0
 10
6.526509344880821
 20
38.98448880449215
 30
0.0
 10
6.666724731165542
 20
39.62389852671437
 30
0.0
 10
6.657078463804432
 20
40.14548598331159
 30
0.0
 10
6.648121215540541
 20
40.58335761959629
 30
0.0
 10
6.648121215540541
 20
40.58335761959629
 30
0.0
 10
8.2094384898461
 20
40.57508939042963
 30
0.0
 10
8.2094384898461
 20
40.57508939042963
 30
0.0
 10
8.200136732033596
 20
40.21300985483935
 30
0.0
 10
8.190834974221097
 20
39.94360338782548
 30
0.0
 10
8.134335408248871
 20
39.48919529320742
 30
0.0
 10
8.836101358769711
 20
39.78375095726992
 30
0.0
 10
9.54682455755443
 20
40.21300985483935
 30
0.0
 10
9.9767724742211
 20
41.1473197506727
 30
0.0
 10
9.9767724742211
 20
41.1473197506727
 30
0.0
 10
3.67431479192943
 20
41.1473197506727
 30
0.0
 10
3.67431479192943
 20
41.1473197506727
 30
0.0
 10
3.67431479192943
 20
41.1473197506727
 30
0.0
 10
3.67431479192943
 20
42.43440742428381
 30
0.0
 10
3.67431479192943
 20
42.43440742428381
 30
0.0
 10
3.67431479192943
 20
42.43440742428381
 30
0.0
 10
11.88432184488082
 20
42.43440742428381
 30
0.0
 10
11.88432184488082
 20
42.43440742428381
 30
0.0
 10
11.59458931449887
 20
40.36424954667963
 30
0.0
 10
10.65924589001971
 20
39.27869995900604
 30
0.0
 10
9.097928615714151
 20
38.46255683834632
 30
0.0
 10
9.097928615714151
 20
38.46255683834632
 30
0.0
 10
8.115731892623877
 20
39.3799857662977
 30
0.0
 10
8.115731892623877
 20
39.3799857662977
 30
0.0
 10
7.86355090304054
 20
37.67121840518659
 30
0.0
 10
7.246189791929432
 20
36.34175605709631
 30
0.0
 10
4.721623819707208
 20
35.22244453365882
 30
0.0
 10
4.721623819707208
 20
35.22244453365882
 30
0.0
 10
3.74907336397804
 20
36.2914576629991
 30
0.0
 10
3.74907336397804
 20
36.2914576629991
 30
0.0
  0
ENDBLK
  5
E43
330
E1F
100
AcDbEntity
  8
0
100
AcDbBlockEnd
  0
BLOCK
  5
14C6
330
14C3
100
AcDbEntity
  8
0
100
AcDbBlockBegin
  2
_DotBlank
 70
     0
 10
0.0
 20
0.0
 30
0.0
  3
_DotBlank
  1

  0
CIRCLE
  5
14C4
330
14C3
100
AcDbEntity
  8
0
  6
ByBlock
 62
     0
370
    -2
100
AcDbCircle
 10
0.0
 20
0.0
 30
0.0
 40
0.5
  0
LINE
  5
14C5
330
14C3
100
AcDbEntity
  8
0
  6
ByBlock
 62
     0
370
    -2
100
AcDbLine
 10
-0.5
 20
0.0
 30
0.0
 11
-1.0
 21
0.0
 31
0.0
  0
ENDBLK
  5
14C7
330
14C3
100
AcDbEntity
  8
0
100
AcDbBlockEnd
  0
BLOCK
  5
3FCA
330
3FC9
100
AcDbEntity
  8
0
100
AcDbBlockBegin
  2
*D3
 70
     1
 10
0.0
 20
0.0
 30
0.0
  3
*D3
  1

  0
LINE
  5
4623
330
3FC9
100
AcDbEntity
  8
SUNPOU
 62
     0
440
 16777216
370
    -2
100
AcDbLine
 10
356.5595012035359
 20
402.2147627136481
 30
0.0
 11
356.5595012035359
 21
409.8557824729724
 31
0.0
  0
LINE
  5
4624
330
3FC9
100
AcDbEntity
  8
SUNPOU
 62
     0
440
 16777216
370
    -2
100
AcDbLine
 10
229.0595008544426
 20
377.8756916613004
 30
0.0
 11
229.0595008544426
 21
409.8557824729724
 31
0.0
  0
LINE
  5
4625
330
3FC9
100
AcDbEntity
  8
SUNPOU
 62
     0
440
 16777216
370
    -2
100
AcDbLine
 10
355.0595012035358
 20
409.8557824729724
 30
0.0
 11
230.5595008544426
 21
409.8557824729724
 31
0.0
  0
INSERT
  5
4626
330
3FC9
100
AcDbEntity
  8
SUNPOU
 62
     0
440
 16777216
370
    -2
100
AcDbBlockReference
  2
_DotBlank
 10
356.5595012035359
 20
409.8557824729724
 30
0.0
 41
1.5
 42
1.5
 43
1.5
  0
INSERT
  5
4627
330
3FC9
100
AcDbEntity
  8
SUNPOU
 62
     0
440
 16777216
370
    -2
100
AcDbBlockReference
  2
_DotBlank
 10
229.0595008544426
 20
409.8557824729724
 30
0.0
 41
1.5
 42
1.5
 43
1.5
 50
180.0
  0
MTEXT
  5
4628
330
3FC9
100
AcDbEntity
  8
SUNPOU
 62
     0
440
 16777216
100
AcDbMText
 10
292.8095010289892
 20
412.9807824729724
 30
0.0
 40
5.0
 41
0.0
 46
0.0
 71
     5
 72
     1
  1
\A1;125
 73
     1
 44
1.0
  0
POINT
  5
4629
330
3FC9
100
AcDbEntity
  8
DEFPOINTS
 62
     0
440
 16777216
100
AcDbPoint
 10
356.5595012035359
 20
397.2147627136483
 30
-0.0000000000027204
  0
POINT
  5
462A
330
3FC9
100
AcDbEntity
  8
DEFPOINTS
 62
     0
440
 16777216
100
AcDbPoint
 10
229.0595008544426
 20
372.8756916613004
 30
-0.0000000000027197
  0
POINT
  5
462B
330
3FC9
100
AcDbEntity
  8
DEFPOINTS
 62
     0
440
 16777216
100
AcDbPoint
 10
229.0595008544426
 20
409.8557824729724
 30
0.0
  0
ENDBLK
  5
3FCB
330
3FC9
100
AcDbEntity
  8
0
100
AcDbBlockEnd
  0
BLOCK
  5
3FE2
330
3FE1
100
AcDbEntity
  8
0
100
AcDbBlockBegin
  2
*D4
 70
     1
 10
0.0
 20
0.0
 30
0.0
  3
*D4
  1

  0
LINE
  5
4635
330
3FE1
100
AcDbEntity
  8
SUNPOU
 62
     0
440
 16777216
370
    -2
100
AcDbLine
 10
189.6047726428786
 20
245.3756883307144
 30
-0.0000000000000024
 11
190.3719569518047
 21
245.3756883307144
 31
-0.0000000000000024
  0
LINE
  5
4636
330
3FE1
100
AcDbEntity
  8
SUNPOU
 62
     0
440
 16777216
370
    -2
100
AcDbLine
 10
224.0595008544391
 20
290.375688330719
 30
-0.0000000000000024
 11
190.3719569518047
 21
290.375688330719
 31
-0.0000000000000024
  0
LINE
  5
4637
330
3FE1
100
AcDbEntity
  8
SUNPOU
 62
     0
440
 16777216
370
    -2
100
AcDbLine
 10
190.3719569518047
 20
246.8756883307144
 30
-0.0000000000000024
 11
190.3719569518047
 21
288.875688330719
 31
-0.0000000000000024
  0
INSERT
  5
4638
330
3FE1
100
AcDbEntity
  8
SUNPOU
 62
     0
440
 16777216
370
    -2
100
AcDbBlockReference
  2
_DotBlank
 10
190.3719569518047
 20
245.3756883307144
 30
-0.0000000000000024
 41
1.5
 42
1.5
 43
1.5
 50
270.0
  0
INSERT
  5
4639
330
3FE1
100
AcDbEntity
  8
SUNPOU
 62
     0
440
 16777216
370
    -2
100
AcDbBlockReference
  2
_DotBlank
 10
190.3719569518047
 20
290.375688330719
 30
-0.0000000000000024
 41
1.5
 42
1.5
 43
1.5
 50
90.0
  0
MTEXT
  5
463A
330
3FE1
100
AcDbEntity
  8
SUNPOU
 62
     0
440
 16777216
100
AcDbMText
 10
187.2469569518048
 20
267.8756883307165
 30
-0.0000000000000024
 40
5.0
 41
0.0
 46
0.0
 71
     5
 72
     1
  1
\A1;45
 11
0.0000000000000001
 21
1.0
 31
0.0
 73
     1
 44
1.0
  0
POINT
  5
463B
330
3FE1
100
AcDbEntity
  8
DEFPOINTS
 62
     0
440
 16777216
100
AcDbPoint
 10
194.6047726428786
 20
245.3756883307145
 30
-0.0000000000000024
  0
POINT
  5
463C
330
3FE1
100
AcDbEntity
  8
DEFPOINTS
 62
     0
440
 16777216
100
AcDbPoint
 10
229.0595008544391
 20
290.375688330719
 30
0.000000000002843
  0
POINT
  5
463D
330
3FE1
100
AcDbEntity
  8
DEFPOINTS
 62
     0
440
 16777216
100
AcDbPoint
 10
190.3719569518047
 20
290.375688330719
 30
-0.0000000000000024
  0
ENDBLK
  5
3FE3
330
3FE1
100
AcDbEntity
  8
0
100
AcDbBlockEnd
  0
BLOCK
  5
3FEE
330
3FED
100
AcDbEntity
  8
0
100
AcDbBlockBegin
  2
*D5
 70
     1
 10
0.0
 20
0.0
 30
0.0
  3
*D5
  1

  0
LINE
  5
463E
330
3FED
100
AcDbEntity
  8
SUNPOU
 62
     0
440
 16777216
370
    -2
100
AcDbLine
 10
224.0595008544391
 20
290.3756883307171
 30
-0.0000000000000024
 11
190.3719569518047
 21
290.3756883307171
 31
-0.0000000000000024
  0
LINE
  5
463F
330
3FED
100
AcDbEntity
  8
SUNPOU
 62
     0
440
 16777216
370
    -2
100
AcDbLine
 10
224.0595008544391
 20
297.8756916613014
 30
-0.0000000000000024
 11
190.3719569518047
 21
297.8756916613014
 31
-0.0000000000000024
  0
LINE
  5
4640
330
3FED
100
AcDbEntity
  8
SUNPOU
 62
     0
440
 16777216
370
    -2
100
AcDbLine
 10
190.3719569518047
 20
291.8756883307171
 30
-0.0000000000000024
 11
190.3719569518047
 21
296.3756916613013
 31
-0.0000000000000024
  0
INSERT
  5
4641
330
3FED
100
AcDbEntity
  8
SUNPOU
 62
     0
440
 16777216
370
    -2
100
AcDbBlockReference
  2
_DotBlank
 10
190.3719569518047
 20
290.3756883307171
 30
-0.0000000000000024
 41
1.5
 42
1.5
 43
1.5
 50
270.0
  0
INSERT
  5
4642
330
3FED
100
AcDbEntity
  8
SUNPOU
 62
     0
440
 16777216
370
    -2
100
AcDbBlockReference
  2
_DotBlank
 10
190.3719569518047
 20
297.8756916613014
 30
-0.0000000000000024
 41
1.5
 42
1.5
 43
1.5
 50
90.0
  0
MTEXT
  5
4643
330
3FED
100
AcDbEntity
  8
SUNPOU
 62
     0
440
 16777216
100
AcDbMText
 10
187.2469569518048
 20
294.1256899960091
 30
-0.0000000000000024
 40
5.0
 41
0.0
 46
0.0
 71
     5
 72
     1
  1
\A1;5
 11
0.0000000000000001
 21
1.0
 31
0.0
 73
     1
 44
1.0
  0
POINT
  5
4644
330
3FED
100
AcDbEntity
  8
DEFPOINTS
 62
     0
440
 16777216
100
AcDbPoint
 10
229.0595008544391
 20
290.3756883307171
 30
0.000000000002843
  0
POINT
  5
4645
330
3FED
100
AcDbEntity
  8
DEFPOINTS
 62
     0
440
 16777216
100
AcDbPoint
 10
229.0595008544391
 20
297.8756916613014
 30
-0.0000000000000024
  0
POINT
  5
4646
330
3FED
100
AcDbEntity
  8
DEFPOINTS
 62
     0
440
 16777216
100
AcDbPoint
 10
190.3719569518047
 20
297.8756916613014
 30
-0.0000000000000024
  0
ENDBLK
  5
3FEF
330
3FED
100
AcDbEntity
  8
0
100
AcDbBlockEnd
  0
BLOCK
  5
3FFA
330
3FF9
100
AcDbEntity
  8
0
100
AcDbBlockBegin
  2
*D6
 70
     1
 10
0.0
 20
0.0
 30
0.0
  3
*D6
  1

  0
LINE
  5
45E4
330
3FF9
100
AcDbEntity
  8
SUNPOU
 62
     0
440
 16777216
370
    -2
100
AcDbLine
 10
218.0595008544399
 20
386.875691661309
 30
0.0
 11
218.0595008544399
 21
439.5756801632818
 31
0.0
  0
LINE
  5
45E5
330
3FF9
100
AcDbEntity
  8
SUNPOU
 62
     0
440
 16777216
370
    -2
100
AcDbLine
 10
363.0595008544399
 20
387.625691661301
 30
0.0
 11
363.0595008544399
 21
439.5756801632818
 31
0.0
  0
LINE
  5
45E6
330
3FF9
100
AcDbEntity
  8
SUNPOU
 62
     0
440
 16777216
370
    -2
100
AcDbLine
 10
219.5595008544399
 20
439.5756801632818
 30
0.0
 11
361.5595008544399
 21
439.5756801632818
 31
0.0
  0
INSERT
  5
45E7
330
3FF9
100
AcDbEntity
  8
SUNPOU
 62
     0
440
 16777216
370
    -2
100
AcDbBlockReference
  2
_DotBlank
 10
218.0595008544399
 20
439.5756801632818
 30
0.0
 41
1.5
 42
1.5
 43
1.5
 50
180.0
  0
INSERT
  5
45E8
330
3FF9
100
AcDbEntity
  8
SUNPOU
 62
     0
440
 16777216
370
    -2
100
AcDbBlockReference
  2
_DotBlank
 10
363.0595008544399
 20
439.5756801632818
 30
0.0
 41
1.5
 42
1.5
 43
1.5
  0
MTEXT
  5
45E9
330
3FF9
100
AcDbEntity
  8
SUNPOU
 62
     0
440
 16777216
100
AcDbMText
 10
288.4577677951972
 20
442.7006801632818
 30
0.0
 40
5.0
 41
0.0
 46
0.0
 71
     5
 72
     1
  1
\A1;145
 73
     1
 44
1.0
  0
POINT
  5
45EA
330
3FF9
100
AcDbEntity
  8
DEFPOINTS
 62
     0
440
 16777216
100
AcDbPoint
 10
218.0595008544399
 20
381.875691661309
 30
0.0000000000008935
  0
POINT
  5
45EB
330
3FF9
100
AcDbEntity
  8
DEFPOINTS
 62
     0
440
 16777216
100
AcDbPoint
 10
363.0595008544399
 20
382.6256916613009
 30
0.0000000000000007
  0
POINT
  5
45EC
330
3FF9
100
AcDbEntity
  8
DEFPOINTS
 62
     0
440
 16777216
100
AcDbPoint
 10
363.0595008544399
 20
439.5756801632818
 30
0.0
  0
ENDBLK
  5
3FFB
330
3FF9
100
AcDbEntity
  8
0
100
AcDbBlockEnd
  0
BLOCK
  5
4006
330
4005
100
AcDbEntity
  8
0
100
AcDbBlockBegin
  2
*D7
 70
     1
 10
0.0
 20
0.0
 30
0.0
  3
*D7
  1

  0
LINE
  5
45ED
330
4005
100
AcDbEntity
  8
SUNPOU
 62
     0
440
 16777216
370
    -2
100
AcDbLine
 10
534.0595008544392
 20
297.8756916613014
 30
0.0000000000008958
 11
559.2782228046421
 21
297.8756916613014
 31
0.0000000000008958
  0
LINE
  5
45EE
330
4005
100
AcDbEntity
  8
SUNPOU
 62
     0
440
 16777216
370
    -2
100
AcDbLine
 10
534.0595008544385
 20
372.8756916613033
 30
0.0000000000008958
 11
559.2782228046421
 21
372.8756916613033
 31
0.0000000000008958
  0
LINE
  5
45EF
330
4005
100
AcDbEntity
  8
SUNPOU
 62
     0
440
 16777216
370
    -2
100
AcDbLine
 10
559.2782228046421
 20
299.3756916613013
 30
0.0000000000008958
 11
559.2782228046421
 21
371.3756916613033
 31
0.0000000000008958
  0
INSERT
  5
45F0
330
4005
100
AcDbEntity
  8
SUNPOU
 62
     0
440
 16777216
370
    -2
100
AcDbBlockReference
  2
_DotBlank
 10
559.2782228046421
 20
297.8756916613014
 30
0.0000000000008958
 41
1.5
 42
1.5
 43
1.5
 50
270.0
  0
INSERT
  5
45F1
330
4005
100
AcDbEntity
  8
SUNPOU
 62
     0
440
 16777216
370
    -2
100
AcDbBlockReference
  2
_DotBlank
 10
559.2782228046421
 20
372.8756916613033
 30
0.0000000000008958
 41
1.5
 42
1.5
 43
1.5
 50
90.0
  0
MTEXT
  5
45F2
330
4005
100
AcDbEntity
  8
SUNPOU
 62
     0
440
 16777216
100
AcDbMText
 10
556.1532228046421
 20
335.3756916613021
 30
0.0000000000008958
 40
5.0
 41
0.0
 46
0.0
 71
     5
 72
     1
  1
\A1;75
 11
0.0000000000000001
 21
1.0
 31
0.0
 73
     1
 44
1.0
  0
POINT
  5
45F3
330
4005
100
AcDbEntity
  8
DEFPOINTS
 62
     0
440
 16777216
100
AcDbPoint
 10
529.0595008544392
 20
297.8756916613014
 30
0.0000000000008934
  0
POINT
  5
45F4
330
4005
100
AcDbEntity
  8
DEFPOINTS
 62
     0
440
 16777216
100
AcDbPoint
 10
529.0595008544385
 20
372.8756916613033
 30
0.0000000000008965
  0
POINT
  5
45F5
330
4005
100
AcDbEntity
  8
DEFPOINTS
 62
     0
440
 16777216
100
AcDbPoint
 10
559.2782228046421
 20
372.8756916613033
 30
0.0000000000008958
  0
ENDBLK
  5
4007
330
4005
100
AcDbEntity
  8
0
100
AcDbBlockEnd
  0
BLOCK
  5
4012
330
4011
100
AcDbEntity
  8
0
100
AcDbBlockBegin
  2
*D8
 70
     1
 10
0.0
 20
0.0
 30
0.0
  3
*D8
  1

  0
LINE
  5
45F6
330
4011
100
AcDbEntity
  8
SUNPOU
 62
     0
440
 16777216
370
    -2
100
AcDbLine
 10
534.0595008544392
 20
295.3756883307173
 30
0.0000000000008958
 11
559.2782228046421
 21
295.3756883307173
 31
0.0000000000008958
  0
LINE
  5
45F7
330
4011
100
AcDbEntity
  8
SUNPOU
 62
     0
440
 16777216
370
    -2
100
AcDbLine
 10
534.0595008544392
 20
195.375688330717
 30
0.0000000000008958
 11
559.2782228046424
 21
195.375688330717
 31
0.0000000000008958
  0
LINE
  5
45F8
330
4011
100
AcDbEntity
  8
SUNPOU
 62
     0
440
 16777216
370
    -2
100
AcDbLine
 10
559.2782228046421
 20
293.8756883307172
 30
0.0000000000008958
 11
559.2782228046424
 21
196.8756883307172
 31
0.0000000000008958
  0
INSERT
  5
45F9
330
4011
100
AcDbEntity
  8
SUNPOU
 62
     0
440
 16777216
370
    -2
100
AcDbBlockReference
  2
_DotBlank
 10
559.2782228046421
 20
295.3756883307173
 30
0.0000000000008958
 41
1.5
 42
1.5
 43
1.5
 50
90.0
  0
INSERT
  5
45FA
330
4011
100
AcDbEntity
  8
SUNPOU
 62
     0
440
 16777216
370
    -2
100
AcDbBlockReference
  2
_DotBlank
 10
559.2782228046424
 20
195.375688330717
 30
0.0000000000008958
 41
1.5
 42
1.5
 43
1.5
 50
270.0
  0
MTEXT
  5
45FB
330
4011
100
AcDbEntity
  8
SUNPOU
 62
     0
440
 16777216
100
AcDbMText
 10
556.1532228046421
 20
245.3756883307172
 30
0.0000000000008958
 40
5.0
 41
0.0
 46
0.0
 71
     5
 72
     1
  1
\A1;100
 11
0.0000000000000001
 21
1.0
 31
0.0
 73
     1
 44
1.0
  0
POINT
  5
45FC
330
4011
100
AcDbEntity
  8
DEFPOINTS
 62
     0
440
 16777216
100
AcDbPoint
 10
529.0595008544392
 20
295.3756883307173
 30
0.0000000000008934
  0
POINT
  5
45FD
330
4011
100
AcDbEntity
  8
DEFPOINTS
 62
     0
440
 16777216
100
AcDbPoint
 10
529.0595008544392
 20
195.375688330717
 30
0.0000000000008958
  0
POINT
  5
45FE
330
4011
100
AcDbEntity
  8
DEFPOINTS
 62
     0
440
 16777216
100
AcDbPoint
 10
559.2782228046424
 20
195.375688330717
 30
0.0000000000008958
  0
ENDBLK
  5
4013
330
4011
100
AcDbEntity
  8
0
100
AcDbBlockEnd
  0
BLOCK
  5
401E
330
401D
100
AcDbEntity
  8
0
100
AcDbBlockBegin
  2
*D9
 70
     1
 10
0.0
 20
0.0
 30
0.0
  3
*D9
  1

  0
LINE
  5
4608
330
401D
100
AcDbEntity
  8
SUNPOU
 62
     0
440
 16777216
370
    -2
100
AcDbLine
 10
306.5595012035359
 20
237.5297166150609
 30
0.0000000000008935
 11
306.5595012035359
 21
232.1320977419188
 31
0.0000000000008935
  0
LINE
  5
4609
330
401D
100
AcDbEntity
  8
SUNPOU
 62
     0
440
 16777216
370
    -2
100
AcDbLine
 10
351.5595008544402
 20
264.2895081792681
 30
0.0000000000008935
 11
351.5595008544402
 21
232.1320977419188
 31
0.0000000000008935
  0
LINE
  5
460A
330
401D
100
AcDbEntity
  8
SUNPOU
 62
     0
440
 16777216
370
    -2
100
AcDbLine
 10
308.0595012035358
 20
232.1320977419188
 30
0.0000000000008935
 11
350.0595008544402
 21
232.1320977419188
 31
0.0000000000008935
  0
INSERT
  5
460B
330
401D
100
AcDbEntity
  8
SUNPOU
 62
     0
440
 16777216
370
    -2
100
AcDbBlockReference
  2
_DotBlank
 10
306.5595012035359
 20
232.1320977419188
 30
0.0000000000008935
 41
1.5
 42
1.5
 43
1.5
 50
180.0
  0
INSERT
  5
460C
330
401D
100
AcDbEntity
  8
SUNPOU
 62
     0
440
 16777216
370
    -2
100
AcDbBlockReference
  2
_DotBlank
 10
351.5595008544402
 20
232.1320977419188
 30
0.0000000000008935
 41
1.5
 42
1.5
 43
1.5
  0
MTEXT
  5
460D
330
401D
100
AcDbEntity
  8
SUNPOU
 62
     0
440
 16777216
100
AcDbMText
 10
329.0595010289881
 20
235.2570977419188
 30
0.0000000000008935
 40
5.0
 41
0.0
 46
0.0
 71
     5
 72
     1
  1
\A1;45
 73
     1
 44
1.0
  0
POINT
  5
460E
330
401D
100
AcDbEntity
  8
DEFPOINTS
 62
     0
440
 16777216
100
AcDbPoint
 10
306.5595012035359
 20
242.529716615061
 30
0.0
  0
POINT
  5
460F
330
401D
100
AcDbEntity
  8
DEFPOINTS
 62
     0
440
 16777216
100
AcDbPoint
 10
351.5595008544402
 20
269.2895081792681
 30
0.0000000000008935
  0
POINT
  5
4610
330
401D
100
AcDbEntity
  8
DEFPOINTS
 62
     0
440
 16777216
100
AcDbPoint
 10
351.5595008544402
 20
232.1320977419188
 30
0.0000000000008935
  0
ENDBLK
  5
401F
330
401D
100
AcDbEntity
  8
0
100
AcDbBlockEnd
  0
BLOCK
  5
402A
330
4029
100
AcDbEntity
  8
0
100
AcDbBlockBegin
  2
*D10
 70
     1
 10
0.0
 20
0.0
 30
0.0
  3
*D10
  1

  0
LINE
  5
45FF
330
4029
100
AcDbEntity
  8
SUNPOU
 62
     0
440
 16777216
370
    -2
100
AcDbLine
 10
322.0595038783208
 20
387.8756916613069
 30
0.0000000000008935
 11
322.0595038783208
 21
425.9912292297982
 31
0.0000000000008935
  0
LINE
  5
4600
330
4029
100
AcDbEntity
  8
SUNPOU
 62
     0
440
 16777216
370
    -2
100
AcDbLine
 10
218.0595008544399
 20
386.875691661309
 30
0.0000000000008935
 11
218.0595008544399
 21
425.9912292297982
 31
0.0000000000008935
  0
LINE
  5
4601
330
4029
100
AcDbEntity
  8
SUNPOU
 62
     0
440
 16777216
370
    -2
100
AcDbLine
 10
320.5595038783208
 20
425.9912292297982
 30
0.0000000000008935
 11
219.5595008544399
 21
425.9912292297982
 31
0.0000000000008935
  0
INSERT
  5
4602
330
4029
100
AcDbEntity
  8
SUNPOU
 62
     0
440
 16777216
370
    -2
100
AcDbBlockReference
  2
_DotBlank
 10
322.0595038783208
 20
425.9912292297982
 30
0.0000000000008935
 41
1.5
 42
1.5
 43
1.5
  0
INSERT
  5
4603
330
4029
100
AcDbEntity
  8
SUNPOU
 62
     0
440
 16777216
370
    -2
100
AcDbBlockReference
  2
_DotBlank
 10
218.0595008544399
 20
425.9912292297982
 30
0.0000000000008935
 41
1.5
 42
1.5
 43
1.5
 50
180.0
  0
MTEXT
  5
4604
330
4029
100
AcDbEntity
  8
SUNPOU
 62
     0
440
 16777216
100
AcDbMText
 10
270.0595023663804
 20
429.1162292297982
 30
0.0000000000008935
 40
5.0
 41
0.0
 46
0.0
 71
     5
 72
     1
  1
\A1;104
 73
     1
 44
1.0
  0
POINT
  5
4605
330
4029
100
AcDbEntity
  8
DEFPOINTS
 62
     0
440
 16777216
100
AcDbPoint
 10
322.0595038783208
 20
382.8756916613069
 30
0.0000000000008935
  0
POINT
  5
4606
330
4029
100
AcDbEntity
  8
DEFPOINTS
 62
     0
440
 16777216
100
AcDbPoint
 10
218.0595008544399
 20
381.875691661309
 30
0.0000000000008935
  0
POINT
  5
4607
330
4029
100
AcDbEntity
  8
DEFPOINTS
 62
     0
440
 16777216
100
AcDbPoint
 10
218.0595008544399
 20
425.9912292297982
 30
0.0000000000008935
  0
ENDBLK
  5
402B
330
4029
100
AcDbEntity
  8
0
100
AcDbBlockEnd
  0
BLOCK
  5
4036
330
4035
100
AcDbEntity
  8
0
100
AcDbBlockBegin
  2
*D11
 70
     1
 10
0.0
 20
0.0
 30
0.0
  3
*D11
  1

  0
LINE
  5
4611
330
4035
100
AcDbEntity
  8
SUNPOU
 62
     0
440
 16777216
370
    -2
100
AcDbLine
 10
322.0595038783208
 20
387.8756916612997
 30
-0.0000000000008929
 11
322.0595038783208
 21
425.9912292297982
 31
-0.0000000000008929
  0
LINE
  5
4612
330
4035
100
AcDbEntity
  8
SUNPOU
 62
     0
440
 16777216
370
    -2
100
AcDbLine
 10
338.0595038783208
 20
387.8756916612993
 30
-0.0000000000008929
 11
338.0595038783208
 21
425.9912292297982
 31
-0.0000000000008929
  0
LINE
  5
4613
330
4035
100
AcDbEntity
  8
SUNPOU
 62
     0
440
 16777216
370
    -2
100
AcDbLine
 10
323.5595038783208
 20
425.9912292297982
 30
-0.0000000000008929
 11
336.5595038783208
 21
425.9912292297982
 31
-0.0000000000008929
  0
INSERT
  5
4614
330
4035
100
AcDbEntity
  8
SUNPOU
 62
     0
440
 16777216
370
    -2
100
AcDbBlockReference
  2
_DotBlank
 10
322.0595038783208
 20
425.9912292297982
 30
-0.0000000000008929
 41
1.5
 42
1.5
 43
1.5
 50
180.0
  0
INSERT
  5
4615
330
4035
100
AcDbEntity
  8
SUNPOU
 62
     0
440
 16777216
370
    -2
100
AcDbBlockReference
  2
_DotBlank
 10
338.0595038783208
 20
425.9912292297982
 30
-0.0000000000008929
 41
1.5
 42
1.5
 43
1.5
  0
MTEXT
  5
4616
330
4035
100
AcDbEntity
  8
SUNPOU
 62
     0
440
 16777216
100
AcDbMText
 10
330.0595038783208
 20
429.1162292297982
 30
-0.0000000000008929
 40
5.0
 41
0.0
 46
0.0
 71
     5
 72
     1
  1
\A1;16
 73
     1
 44
1.0
  0
POINT
  5
4617
330
4035
100
AcDbEntity
  8
DEFPOINTS
 62
     0
440
 16777216
100
AcDbPoint
 10
322.0595038783208
 20
382.8756916612996
 30
0.0000000000000006
  0
POINT
  5
4618
330
4035
100
AcDbEntity
  8
DEFPOINTS
 62
     0
440
 16777216
100
AcDbPoint
 10
338.0595038783208
 20
382.8756916612993
 30
0.0000000000000006
  0
POINT
  5
4619
330
4035
100
AcDbEntity
  8
DEFPOINTS
 62
     0
440
 16777216
100
AcDbPoint
 10
338.0595038783208
 20
425.9912292297982
 30
-0.0000000000008929
  0
ENDBLK
  5
4037
330
4035
100
AcDbEntity
  8
0
100
AcDbBlockEnd
  0
BLOCK
  5
4042
330
4041
100
AcDbEntity
  8
0
100
AcDbBlockBegin
  2
*D12
 70
     1
 10
0.0
 20
0.0
 30
0.0
  3
*D12
  1

  0
LINE
  5
461A
330
4041
100
AcDbEntity
  8
SUNPOU
 62
     0
440
 16777216
370
    -2
100
AcDbLine
 10
338.0595038783208
 20
387.8756916612993
 30
-0.0000000000008929
 11
338.0595038783208
 21
425.9912292297982
 31
-0.0000000000008929
  0
LINE
  5
461B
330
4041
100
AcDbEntity
  8
SUNPOU
 62
     0
440
 16777216
370
    -2
100
AcDbLine
 10
363.0595038783217
 20
387.6256916613002
 30
-0.0000000000008929
 11
363.0595038783217
 21
425.9912292297982
 31
-0.0000000000008929
  0
LINE
  5
461C
330
4041
100
AcDbEntity
  8
SUNPOU
 62
     0
440
 16777216
370
    -2
100
AcDbLine
 10
339.5595038783208
 20
425.9912292297982
 30
-0.0000000000008929
 11
361.5595038783216
 21
425.9912292297982
 31
-0.0000000000008929
  0
INSERT
  5
461D
330
4041
100
AcDbEntity
  8
SUNPOU
 62
     0
440
 16777216
370
    -2
100
AcDbBlockReference
  2
_DotBlank
 10
338.0595038783208
 20
425.9912292297982
 30
-0.0000000000008929
 41
1.5
 42
1.5
 43
1.5
 50
180.0
  0
INSERT
  5
461E
330
4041
100
AcDbEntity
  8
SUNPOU
 62
     0
440
 16777216
370
    -2
100
AcDbBlockReference
  2
_DotBlank
 10
363.0595038783217
 20
425.9912292297982
 30
-0.0000000000008929
 41
1.5
 42
1.5
 43
1.5
  0
MTEXT
  5
461F
330
4041
100
AcDbEntity
  8
SUNPOU
 62
     0
440
 16777216
100
AcDbMText
 10
350.5595038783213
 20
429.1162292297982
 30
-0.0000000000008929
 40
5.0
 41
0.0
 46
0.0
 71
     5
 72
     1
  1
\A1;25
 73
     1
 44
1.0
  0
POINT
  5
4620
330
4041
100
AcDbEntity
  8
DEFPOINTS
 62
     0
440
 16777216
100
AcDbPoint
 10
338.0595038783208
 20
382.8756916612993
 30
0.0000000000000006
  0
POINT
  5
4621
330
4041
100
AcDbEntity
  8
DEFPOINTS
 62
     0
440
 16777216
100
AcDbPoint
 10
363.0595038783217
 20
382.6256916613003
 30
0.0000000000000006
  0
POINT
  5
4622
330
4041
100
AcDbEntity
  8
DEFPOINTS
 62
     0
440
 16777216
100
AcDbPoint
 10
363.0595038783217
 20
425.9912292297982
 30
-0.0000000000008929
  0
ENDBLK
  5
4043
330
4041
100
AcDbEntity
  8
0
100
AcDbBlockEnd
  0
BLOCK
  5
4687
330
4686
100
AcDbEntity
  8
0
100
AcDbBlockBegin
  2
*D13
 70
     1
 10
0.0
 20
0.0
 30
0.0
  3
*D13
  1

  0
LINE
  5
4692
330
4686
100
AcDbEntity
  8
SUNPOU
 62
     0
440
 16777216
370
    -2
100
AcDbLine
 10
364.4054729191922
 20
295.3756883307157
 30
0.0000000000008935
 11
369.8030917923335
 21
295.3756883307157
 31
0.0000000000008935
  0
LINE
  5
4693
330
4686
100
AcDbEntity
  8
SUNPOU
 62
     0
440
 16777216
370
    -2
100
AcDbLine
 10
337.6456813549834
 20
250.3756886798121
 30
0.0000000000008935
 11
369.8030917923335
 21
250.3756886798121
 31
0.0000000000008935
  0
LINE
  5
4694
330
4686
100
AcDbEntity
  8
SUNPOU
 62
     0
440
 16777216
370
    -2
100
AcDbLine
 10
369.8030917923335
 20
293.8756883307156
 30
0.0000000000008935
 11
369.8030917923335
 21
251.8756886798121
 31
0.0000000000008935
  0
INSERT
  5
4695
330
4686
100
AcDbEntity
  8
SUNPOU
 62
     0
440
 16777216
370
    -2
100
AcDbBlockReference
  2
_DotBlank
 10
369.8030917923335
 20
295.3756883307157
 30
0.0000000000008935
 41
1.5
 42
1.5
 43
1.5
 50
90.0
  0
INSERT
  5
4696
330
4686
100
AcDbEntity
  8
SUNPOU
 62
     0
440
 16777216
370
    -2
100
AcDbBlockReference
  2
_DotBlank
 10
369.8030917923335
 20
250.3756886798121
 30
0.0000000000008935
 41
1.5
 42
1.5
 43
1.5
 50
270.0
  0
MTEXT
  5
4697
330
4686
100
AcDbEntity
  8
SUNPOU
 62
     0
440
 16777216
100
AcDbMText
 10
366.6780917923335
 20
272.8756885052628
 30
0.0000000000008935
 40
5.0
 41
0.0
 46
0.0
 71
     5
 72
     1
  1
\A1;45
 11
0.0000000000000001
 21
1.0
 31
0.0
 73
     1
 44
1.0
  0
POINT
  5
4698
330
4686
100
AcDbEntity
  8
DEFPOINTS
 62
     0
440
 16777216
100
AcDbPoint
 10
359.4054729191922
 20
295.3756883307157
 30
0.0
  0
POINT
  5
4699
330
4686
100
AcDbEntity
  8
DEFPOINTS
 62
     0
440
 16777216
100
AcDbPoint
 10
332.6456813549834
 20
250.3756886798121
 30
0.0000000000008935
  0
POINT
  5
469A
330
4686
100
AcDbEntity
  8
DEFPOINTS
 62
     0
440
 16777216
100
AcDbPoint
 10
369.8030917923335
 20
250.3756886798121
 30
0.0000000000008935
  0
ENDBLK
  5
4688
330
4686
100
AcDbEntity
  8
0
100
AcDbBlockEnd
  0
BLOCK
  5
469D
330
469C
100
AcDbEntity
  8
0
100
AcDbBlockBegin
  2
*D14
 70
     1
 10
0.0
 20
0.0
 30
0.0
  3
*D14
  1

  0
LINE
  5
469F
330
469C
100
AcDbEntity
  8
SUNPOU
 62
     0
440
 16777216
370
    -2
100
AcDbLine
 10
366.80950085444
 20
383.8756916613011
 30
0.0
 11
391.7898608772889
 21
383.8756916613012
 31
0.0
  0
LINE
  5
46A0
330
469C
100
AcDbEntity
  8
SUNPOU
 62
     0
440
 16777216
370
    -2
100
AcDbLine
 10
366.8095008544402
 20
372.8756916613019
 30
0.0
 11
391.7898608772889
 21
372.8756916613019
 31
0.0
  0
LINE
  5
46A1
330
469C
100
AcDbEntity
  8
SUNPOU
 62
     0
440
 16777216
370
    -2
100
AcDbLine
 10
391.7898608772889
 20
382.3756916613012
 30
0.0
 11
391.7898608772889
 21
374.3756916613019
 31
0.0
  0
INSERT
  5
46A2
330
469C
100
AcDbEntity
  8
SUNPOU
 62
     0
440
 16777216
370
    -2
100
AcDbBlockReference
  2
_DotBlank
 10
391.7898608772889
 20
383.8756916613012
 30
0.0
 41
1.5
 42
1.5
 43
1.5
 50
90.0
  0
INSERT
  5
46A3
330
469C
100
AcDbEntity
  8
SUNPOU
 62
     0
440
 16777216
370
    -2
100
AcDbBlockReference
  2
_DotBlank
 10
391.7898608772889
 20
372.8756916613019
 30
0.0
 41
1.5
 42
1.5
 43
1.5
 50
270.0
  0
MTEXT
  5
46A4
330
469C
100
AcDbEntity
  8
SUNPOU
 62
     0
440
 16777216
100
AcDbMText
 10
388.6648608772889
 20
378.3756916613013
 30
0.0
 40
5.0
 41
0.0
 46
0.0
 71
     5
 72
     1
  1
\A1;11
 11
0.0000000000000001
 21
1.0
 31
0.0
 73
     1
 44
1.0
  0
POINT
  5
46A5
330
469C
100
AcDbEntity
  8
DEFPOINTS
 62
     0
440
 16777216
100
AcDbPoint
 10
361.80950085444
 20
383.8756916613011
 30
0.0000000000000007
  0
POINT
  5
46A6
330
469C
100
AcDbEntity
  8
DEFPOINTS
 62
     0
440
 16777216
100
AcDbPoint
 10
361.8095008544401
 20
372.8756916613019
 30
0.0
  0
POINT
  5
46A7
330
469C
100
AcDbEntity
  8
DEFPOINTS
 62
     0
440
 16777216
100
AcDbPoint
 10
391.7898608772889
 20
372.8756916613019
 30
0.0
  0
ENDBLK
  5
469E
330
469C
100
AcDbEntity
  8
0
100
AcDbBlockEnd
  0
BLOCK
  5
46AB
330
46AA
100
AcDbEntity
  8
0
100
AcDbBlockBegin
  2
*D15
 70
     1
 10
0.0
 20
0.0
 30
0.0
  3
*D15
  1

  0
LINE
  5
46C5
330
46AA
100
AcDbEntity
  8
SUNPOU
 62
     0
440
 16777216
370
    -2
100
AcDbLine
 10
366.8095008544391
 20
381.3756916613007
 30
0.0
 11
379.2996808658648
 21
381.3756916613007
 31
0.0
  0
LINE
  5
46C6
330
46AA
100
AcDbEntity
  8
SUNPOU
 62
     0
440
 16777216
370
    -2
100
AcDbLine
 10
366.8095008544408
 20
383.8756916613011
 30
0.0
 11
379.2996808658648
 21
383.8756916613011
 31
0.0
  0
LINE
  5
46C7
330
46AA
100
AcDbEntity
  8
SUNPOU
 62
     0
440
 16777216
370
    -2
100
AcDbLine
 10
379.2996808658648
 20
379.8756916613007
 30
0.0
 11
379.2996808658648
 21
378.3756916613007
 31
0.0
  0
LINE
  5
46C8
330
46AA
100
AcDbEntity
  8
SUNPOU
 62
     0
440
 16777216
370
    -2
100
AcDbLine
 10
379.2996808658648
 20
385.3756916613012
 30
0.0
 11
379.2996808658648
 21
391.4590249946345
 31
0.0
  0
LINE
  5
46C9
330
46AA
100
AcDbEntity
  8
SUNPOU
 62
     0
440
 16777216
370
    -2
100
AcDbLine
 10
379.2996808658648
 20
381.3756916613007
 30
0.0
 11
379.2996808658648
 21
383.8756916613011
 31
0.0
  0
INSERT
  5
46CA
330
46AA
100
AcDbEntity
  8
SUNPOU
 62
     0
440
 16777216
370
    -2
100
AcDbBlockReference
  2
_DotBlank
 10
379.2996808658648
 20
381.3756916613007
 30
0.0
 41
1.5
 42
1.5
 43
1.5
 50
90.0
  0
INSERT
  5
46CB
330
46AA
100
AcDbEntity
  8
SUNPOU
 62
     0
440
 16777216
370
    -2
100
AcDbBlockReference
  2
_DotBlank
 10
379.2996808658648
 20
383.8756916613011
 30
0.0
 41
1.5
 42
1.5
 43
1.5
 50
270.0
  0
MTEXT
  5
46CC
330
46AA
100
AcDbEntity
  8
SUNPOU
 62
     0
440
 16777216
100
AcDbMText
 10
376.1746808658648
 20
389.1673583279677
 30
0.0
 40
5.0
 41
0.0
 46
0.0
 71
     5
 72
     1
  1
\A1;3
 11
0.0000000000000001
 21
1.0
 31
0.0
 73
     1
 44
1.0
  0
POINT
  5
46CD
330
46AA
100
AcDbEntity
  8
DEFPOINTS
 62
     0
440
 16777216
100
AcDbPoint
 10
361.8095008544391
 20
381.3756916613007
 30
0.0000000000000007
  0
POINT
  5
46CE
330
46AA
100
AcDbEntity
  8
DEFPOINTS
 62
     0
440
 16777216
100
AcDbPoint
 10
361.8095008544409
 20
383.8756916613011
 30
0.0
  0
POINT
  5
46CF
330
46AA
100
AcDbEntity
  8
DEFPOINTS
 62
     0
440
 16777216
100
AcDbPoint
 10
379.2996808658648
 20
383.8756916613011
 30
0.0
  0
ENDBLK
  5
46AC
330
46AA
100
AcDbEntity
  8
0
100
AcDbBlockEnd
  0
ENDSEC
  0
SECTION
  2
ENTITIES
  0
LINE
  5
3E71
330
1A
100
AcDbEntity
  8
YAKUMONO
100
AcDbLine
 10
322.5595038783208
 20
373.3756916613005
 30
0.0000000000000007
 11
337.5595038783208
 21
373.3756916612993
 31
0.0000000000000007
  0
LINE
  5
3E72
330
1A
100
AcDbEntity
  8
YAKUMONO
100
AcDbLine
 10
228.559500854439
 20
279.3756886374208
 30
0.0000000000000007
 11
228.5595008544399
 21
264.3756886374204
 31
0.0000000000000007
  0
LINE
  5
3E73
330
1A
100
AcDbEntity
  8
YAKUMONO
100
AcDbLine
 10
229.059500854439
 20
279.3756864937523
 30
0.0000000000025743
 11
229.059500854439
 21
264.3756864937523
 31
0.0000000000000007
  0
LINE
  5
3E74
330
1A
100
AcDbEntity
  8
YAKUMONO
100
AcDbLine
 10
322.5595060219916
 20
372.8756916613015
 30
0.0000000000000007
 11
337.5595060219916
 21
372.8756916613002
 31
0.0000000000000007
  0
LINE
  5
3E75
330
1A
100
AcDbEntity
  8
TEKUSU
  6
DASHED2
 48
0.5
100
AcDbLine
 10
229.5595008544369
 20
252.430391241011
 30
0.0000000000008935
 11
229.5595008544369
 21
248.3209920816083
 31
0.0000000000008935
  0
LINE
  5
3E76
330
1A
100
AcDbEntity
  8
SEALING
100
AcDbLine
 10
229.059500854439
 20
253.3756916613099
 30
0.0000000000008935
 11
229.0595008544476
 21
238.8756916613099
 31
0.0000000000008935
  0
LINE
  5
3E77
330
1A
100
AcDbEntity
  8
0
100
AcDbLine
 10
229.059500854439
 20
372.8756916613003
 30
0.0000000000000007
 11
229.059500854439
 21
297.8756916613012
 31
-0.0000000000000024
  0
LINE
  5
3E78
330
1A
100
AcDbEntity
  8
0
100
AcDbLine
 10
229.059500854439
 20
372.8756916613003
 30
0.0000000000000007
 11
243.8095008544387
 21
372.8756916613003
 31
0.0000000000000007
  0
LINE
  5
3E79
330
1A
100
AcDbEntity
  8
0
100
AcDbLine
 10
228.809500854439
 20
373.1256916613002
 30
0.0000000000000007
 11
243.8095008544387
 21
373.1256916613002
 31
0.0000000000000007
  0
LINE
  5
3E7A
330
1A
100
AcDbEntity
  8
0
100
AcDbLine
 10
228.809500854439
 20
373.1256916613002
 30
0.0000000000000007
 11
228.809500854439
 21
297.6256916613012
 31
-0.0000000000000024
  0
LINE
  5
3E7B
330
1A
100
AcDbEntity
  8
0
100
AcDbLine
 10
229.059500854439
 20
297.8756916613012
 30
-0.0000000000000024
 11
243.8095008544387
 21
297.8756916613012
 31
-0.0000000000000024
  0
LINE
  5
3E7C
330
1A
100
AcDbEntity
  8
0
100
AcDbLine
 10
228.809500854439
 20
297.6256916613012
 30
-0.0000000000000024
 11
243.8095008544387
 21
297.6256916613012
 31
-0.0000000000000024
  0
LINE
  5
3E7D
330
1A
100
AcDbEntity
  8
0
100
AcDbLine
 10
243.8095008544387
 20
372.8756916613003
 30
0.0000000000000007
 11
243.8095008544387
 21
373.1256916613002
 31
0.0000000000000007
  0
LINE
  5
3E7E
330
1A
100
AcDbEntity
  8
0
100
AcDbLine
 10
243.8095008544387
 20
297.6256916613012
 30
-0.0000000000000024
 11
243.8095008544387
 21
297.8756916613012
 31
-0.0000000000000024
  0
LINE
  5
3E7F
330
1A
100
AcDbEntity
  8
0
100
AcDbLine
 10
304.0595008544427
 20
290.3756883307171
 30
0.0
 11
229.059500854439
 21
290.3756883307171
 31
0.0000000000028904
  0
LINE
  5
3E80
330
1A
100
AcDbEntity
  8
0
100
AcDbLine
 10
304.0595008544427
 20
290.375688330717
 30
0.0
 11
304.0595008544427
 21
280.6256883307171
 31
0.0
  0
LINE
  5
3E81
330
1A
100
AcDbEntity
  8
0
100
AcDbLine
 10
304.0595008544427
 20
280.6256883307171
 30
0.0
 11
304.3095008544427
 21
280.6256883307171
 31
0.0
  0
LINE
  5
3E82
330
1A
100
AcDbEntity
  8
0
100
AcDbLine
 10
304.3095008544427
 20
280.6256883307171
 30
0.0
 11
304.3095008544427
 21
290.6256883307171
 31
0.0
  0
LINE
  5
3E83
330
1A
100
AcDbEntity
  8
0
100
AcDbLine
 10
304.3095008544427
 20
290.6256883307171
 30
0.0
 11
228.809500854439
 21
290.6256883307171
 31
0.0000000000028904
  0
LINE
  5
3E84
330
1A
100
AcDbEntity
  8
0
100
AcDbLine
 10
229.059500854439
 20
290.3756883307188
 30
0.0000000000028502
 11
229.059500854439
 21
280.6256883307171
 31
0.0000000000027718
  0
LINE
  5
3E85
330
1A
100
AcDbEntity
  8
0
100
AcDbLine
 10
228.809500854439
 20
290.6256883307171
 30
0.0000000000028904
 11
228.809500854439
 21
280.6256883307171
 31
0.0000000000028904
  0
LINE
  5
3E86
330
1A
100
AcDbEntity
  8
SEALING
100
AcDbLine
 10
348.5595008544399
 20
383.3756916613083
 30
0.0000000000008935
 11
348.5595008544399
 21
372.8756916613015
 31
0.0000000000008935
  0
LINE
  5
3E87
330
1A
100
AcDbEntity
  8
SEALING
100
AcDbLine
 10
348.5595008544399
 20
372.8756916613015
 30
0.0000000000008935
 11
363.0595008544399
 21
372.8756916613018
 31
0.0000000000008935
  0
LINE
  5
3E88
330
1A
100
AcDbEntity
  8
WAKU
100
AcDbLine
 10
-29.79934975816104
 20
10.00000000000013
 30
0.0
 11
750.2006502418387
 21
10.00000000000013
 31
0.0
  0
LINE
  5
3E89
330
1A
100
AcDbEntity
  8
WAKU
100
AcDbLine
 10
750.2006502418387
 20
10.00000000000013
 30
0.0
 11
750.2006502418387
 21
560.0000000000001
 31
0.0
  0
LINE
  5
3E8A
330
1A
100
AcDbEntity
  8
WAKU
100
AcDbLine
 10
750.2006502418387
 20
560.0000000000001
 30
0.0
 11
-29.79934975816104
 21
560.0000000000001
 31
0.0
  0
LINE
  5
3E8B
330
1A
100
AcDbEntity
  8
WAKU
100
AcDbLine
 10
-29.79934975816104
 20
560.0000000000001
 30
0.0
 11
-29.79934975816104
 21
10.00000000000013
 31
0.0
  0
LINE
  5
3E8C
330
1A
100
AcDbEntity
  8
WAKU
100
AcDbLine
 10
-29.79934975816104
 20
30.00000000000014
 30
0.0
 11
750.2006502418387
 21
30.00000000000014
 31
0.0
  0
LINE
  5
3E8D
330
1A
100
AcDbEntity
  8
WAKU
100
AcDbLine
 10
70.20065024183896
 20
30.00000000000014
 30
0.0
 11
70.20065024183896
 21
10.00000000000013
 31
0.0
  0
LINE
  5
3E8F
330
1A
100
AcDbEntity
  8
WAKU
100
AcDbLine
 10
-27.79934975816104
 20
28.00000000000014
 30
0.0
 11
68.20065024183896
 21
28.00000000000014
 31
0.0
  0
LINE
  5
3E90
330
1A
100
AcDbEntity
  8
WAKU
100
AcDbLine
 10
-27.79934975816104
 20
28.00000000000014
 30
0.0
 11
-27.79934975816104
 21
12.00000000000013
 31
0.0
  0
LINE
  5
3E91
330
1A
100
AcDbEntity
  8
WAKU
100
AcDbLine
 10
-27.79934975816104
 20
12.00000000000013
 30
0.0
 11
68.20065024183896
 21
12.00000000000013
 31
0.0
  0
LINE
  5
3E92
330
1A
100
AcDbEntity
  8
WAKU
100
AcDbLine
 10
68.20065024183896
 20
28.00000000000014
 30
0.0
 11
68.20065024183896
 21
12.00000000000013
 31
0.0
  0
LINE
  5
3E94
330
1A
100
AcDbEntity
  8
WAKU
100
AcDbLine
 10
210.200650241839
 20
30.00000000000014
 30
0.0
 11
210.200650241839
 21
10.00000000000013
 31
0.0
  0
LINE
  5
3E95
330
1A
100
AcDbEntity
  8
WAKU
100
AcDbLine
 10
220.2006502418389
 20
30.00000000000014
 30
0.0
 11
220.2006502418389
 21
10.00000000000013
 31
0.0
  0
MTEXT
  5
3E96
330
1A
100
AcDbEntity
  8
WAKU
100
AcDbMText
 10
212.0192681043688
 20
27.72724847366126
 30
0.0
 40
5.0
 41
10.0
 46
0.0
 71
     1
 72
     5
  1
名称
  7
WAKU
 73
     1
 44
1.0
  0
LINE
  5
3E97
330
1A
100
AcDbEntity
  8
WAKU
100
AcDbLine
 10
-29.79934975816104
 20
30.00000000000014
 30
0.0
 11
-29.79934975816104
 21
10.00000000000013
 31
0.0
  0
LINE
  5
3E98
330
1A
100
AcDbEntity
  8
WAKU
100
AcDbLine
 10
470.2006502418389
 20
30.00000000000014
 30
0.0
 11
470.2006502418389
 21
10.00000000000013
 31
0.0
  0
LINE
  5
3E99
330
1A
100
AcDbEntity
  8
WAKU
100
AcDbLine
 10
480.2006502418389
 20
30.00000000000014
 30
0.0
 11
480.2006502418389
 21
10.00000000000013
 31
0.0
  0
MTEXT
  5
3E9A
330
1A
100
AcDbEntity
  8
WAKU
100
AcDbMText
 10
472.0192681043685
 20
27.72724847366126
 30
0.0
 40
5.0
 41
10.0
 46
0.0
 71
     1
 72
     5
  1
縮尺
  7
WAKU
 73
     1
 44
1.0
  0
MTEXT
  5
3E9B
330
1A
100
AcDbEntity
  8
WAKU
100
AcDbMText
 10
489.5251908108448
 20
23.21985646788349
 30
0.0
 40
5.0
 41
190.5002997985425
 46
0.0
 71
     1
 72
     5
  1
1/2（A3）
  7
WAKU
 73
     1
 44
1.0
  0
MTEXT
  5
3E9C
330
1A
100
AcDbEntity
  8
WAKU
100
AcDbMText
 10
532.0192681043688
 20
27.72724847366126
 30
0.0
 40
5.0
 41
10.0
 46
0.0
 71
     1
 72
     5
  1
図番
  7
WAKU
 73
     1
 44
1.0
  0
LINE
  5
3E9D
330
1A
100
AcDbEntity
  8
WAKU
100
AcDbLine
 10
540.2006502418389
 20
30.00000000000014
 30
0.0
 11
540.2006502418389
 21
10.00000000000013
 31
0.0
  0
LINE
  5
3E9E
330
1A
100
AcDbEntity
  8
WAKU
100
AcDbLine
 10
530.2006502418389
 20
30.00000000000014
 30
0.0
 11
530.2006502418389
 21
10.00000000000013
 31
0.0
  0
LINE
  5
3E9F
330
1A
100
AcDbEntity
  8
WAKU
100
AcDbLine
 10
610.2006502418389
 20
30.00000000000014
 30
0.0
 11
610.2006502418389
 21
10.00000000000013
 31
0.0
  0
LINE
  5
3EA0
330
1A
100
AcDbEntity
  8
WAKU
100
AcDbLine
 10
620.2006502418389
 20
30.00000000000014
 30
0.0
 11
620.2006502418389
 21
10.00000000000013
 31
0.0
  0
MTEXT
  5
3EA1
330
1A
100
AcDbEntity
  8
WAKU
100
AcDbMText
 10
612.0192681043687
 20
27.72724847366126
 30
0.0
 40
5.0
 41
10.0
 46
0.0
 71
     1
 72
     5
  1
特記
  7
WAKU
 73
     1
 44
1.0
  0
LINE
  5
3EA2
330
1A
100
AcDbEntity
  8
WAKU
  6
DASHED2
 48
0.5
100
AcDbLine
 10
620.2006502418389
 20
20.00000000000014
 30
0.0
 11
750.2006502418387
 21
20.00000000000014
 31
0.0
  0
LINE
  5
3EA3
330
1A
100
AcDbEntity
  8
WAKU
100
AcDbLine
 10
420.2006502418389
 20
10.00000000000013
 30
0.0
 11
420.2006502418389
 21
30.00000000000014
 31
0.0
  0
MTEXT
  5
3EA4
330
1A
100
AcDbEntity
  8
WAKU
100
AcDbMText
 10
446.5680971571631
 20
23.21985646788349
 30
0.0
 40
5.0
 41
190.5002997985425
 46
0.0
 71
     1
 72
     5
  1
mm
  7
WAKU
 73
     1
 44
1.0
  0
MTEXT
  5
3EA5
330
1A
100
AcDbEntity
  8
WAKU
100
AcDbMText
 10
422.0192681043688
 20
27.72724847366126
 30
0.0
 40
5.0
 41
10.0
 46
0.0
 71
     1
 72
     5
  1
単位
  7
WAKU
 73
     1
 44
1.0
  0
LINE
  5
3EA6
330
1A
100
AcDbEntity
  8
WAKU
100
AcDbLine
 10
430.2006502418389
 20
30.00000000000014
 30
0.0
 11
430.2006502418389
 21
10.00000000000013
 31
0.0
  0
MTEXT
  5
3EA7
102
{ACAD_XDICTIONARY
360
471C
102
}
330
1A
100
AcDbEntity
  8
WAKU
100
AcDbMText
 10
224.5251908108448
 20
23.21985646788349
 30
0.0
 40
5.0
 41
190.4834854329754
 46
0.0
 71
     1
 72
     5
  1
\pi21.4854;耐火ヴァンドＲＺ７５Ｖ　出隅部・出隅カバー７５
  7
WAKU
 73
     1
 44
1.0
  0
MTEXT
  5
3EA8
330
1A
100
AcDbEntity
  8
WAKU
100
AcDbMText
 10
554.5251908108448
 20
23.21985646788349
 30
0.0
 40
5.0
 41
190.4834854329754
 46
0.0
 71
     1
 72
     5
  1
IGRZV7503_01
  7
WAKU
 73
     1
 44
1.0
  0
LINE
  5
3EA9
330
1A
100
AcDbEntity
  8
SITAJI
100
AcDbLine
 10
401.5595012035356
 20
293.075688330717
 30
0.0
 11
311.5595012035358
 21
293.0756883307173
 31
0.0
  0
LINE
  5
3EAA
330
1A
100
AcDbEntity
  8
SITAJI
100
AcDbLine
 10
401.5595012035356
 20
197.6756883307172
 30
0.0
 11
311.5595012035358
 21
197.6756883307172
 31
0.0
  0
LINE
  5
3EAB
330
1A
100
AcDbEntity
  8
SITAJI
100
AcDbLine
 10
401.5595012035356
 20
295.3756883307171
 30
0.0
 11
311.5595012035358
 21
295.3756883307171
 31
0.0
  0
LINE
  5
3EAC
330
1A
100
AcDbEntity
  8
SITAJI
370
     9
100
AcDbLine
 10
365.2640356803952
 20
295.3756883307171
 30
0.0
 11
362.9640356803923
 21
293.0756883307173
 31
0.0
  0
LINE
  5
3EAD
330
1A
100
AcDbEntity
  8
SITAJI
100
AcDbLine
 10
401.5595012035356
 20
195.375688330717
 30
0.0
 11
311.5595012035358
 21
195.375688330717
 31
0.0
  0
LINE
  5
3EAE
330
1A
100
AcDbEntity
  8
SITAJI
100
AcDbLine
 10
308.8595012035351
 20
290.3756883307171
 30
0.0
 11
308.8595012035351
 21
200.3756883307171
 31
0.0
  0
LINE
  5
3EAF
330
1A
100
AcDbEntity
  8
SITAJI
100
AcDbLine
 10
306.5595012035359
 20
290.3756883307171
 30
0.0
 11
306.5595012035359
 21
200.3756883307171
 31
0.0
  0
ARC
  5
3EB0
330
1A
100
AcDbEntity
  8
SITAJI
100
AcDbCircle
 10
311.5595012035358
 20
200.3756883307171
 30
0.0
 40
2.7
100
AcDbArc
 50
180.0
 51
270.0
  0
ARC
  5
3EB1
330
1A
100
AcDbEntity
  8
SITAJI
100
AcDbCircle
 10
311.5595012035358
 20
200.3756883307171
 30
0.0
 40
5.0
100
AcDbArc
 50
180.0
 51
270.0
  0
LINE
  5
3EB2
330
1A
100
AcDbEntity
  8
SITAJI
370
     9
100
AcDbLine
 10
312.8188696763339
 20
197.6756883307172
 30
0.0
 11
310.6098765924163
 21
195.466695246799
 31
0.0
  0
LINE
  5
3EB3
330
1A
100
AcDbEntity
  8
SITAJI
370
     9
100
AcDbLine
 10
310.3014470170732
 20
197.9866927962032
 30
0.0
 11
308.6349514024316
 21
196.3201971815625
 31
0.0
  0
LINE
  5
3EB4
330
1A
100
AcDbEntity
  8
YAKUMONO
100
AcDbLine
 10
304.5595012035358
 20
207.1256883307172
 30
0.0
 11
304.5595012035358
 21
215.875688330717
 31
0.0
  0
LINE
  5
3EB5
330
1A
100
AcDbEntity
  8
YAKUMONO
100
AcDbLine
 10
304.0595012035358
 20
215.875688330717
 30
0.0
 11
304.0595012035358
 21
207.1256883307172
 31
0.0
  0
ARC
  5
3EB6
330
1A
100
AcDbEntity
  8
YAKUMONO
100
AcDbCircle
 10
305.3095012035358
 20
207.1256883307172
 30
0.0
 40
1.25
100
AcDbArc
 50
180.0
 51
0.0
  0
ARC
  5
3EB7
330
1A
100
AcDbEntity
  8
YAKUMONO
100
AcDbCircle
 10
305.3095012035358
 20
207.1256883307172
 30
0.0
 40
0.75
100
AcDbArc
 50
180.0
 51
0.0
  0
LINE
  5
3EB8
330
1A
100
AcDbEntity
  8
SITAJI
370
     9
100
AcDbLine
 10
355.7452765475266
 20
197.6756883307172
 30
0.0
 11
353.4452765475273
 21
195.375688330717
 31
0.0
  0
LINE
  5
3EB9
330
1A
100
AcDbEntity
  8
SITAJI
370
     9
100
AcDbLine
 10
352.9168494227798
 20
197.6756883307172
 30
0.0
 11
350.6168494227807
 21
195.375688330717
 31
0.0
  0
LINE
  5
3EBA
330
1A
100
AcDbEntity
  8
SITAJI
370
     9
100
AcDbLine
 10
308.8595012035351
 20
236.142726729109
 30
0.0
 11
306.5595012035359
 21
233.8427267291088
 31
0.0
  0
LINE
  5
3EBB
330
1A
100
AcDbEntity
  8
SITAJI
370
     9
100
AcDbLine
 10
308.8595012035351
 20
238.9711538538578
 30
0.0
 11
306.5595012035359
 21
236.6711538538582
 31
0.0
  0
ARC
  5
3EBC
330
1A
100
AcDbEntity
  8
SITAJI
100
AcDbCircle
 10
311.5595012035358
 20
290.3756883307171
 30
0.0
 40
2.7
100
AcDbArc
 50
90.0
 51
180.0
  0
ARC
  5
3EBD
330
1A
100
AcDbEntity
  8
SITAJI
100
AcDbCircle
 10
311.5595012035358
 20
290.3756883307171
 30
0.0
 40
5.0
100
AcDbArc
 50
90.0
 51
180.0
  0
LINE
  5
3EBE
330
1A
100
AcDbEntity
  8
SITAJI
370
     9
100
AcDbLine
 10
308.8595012035351
 20
281.3975607250506
 30
0.0
 11
306.5595012035359
 21
279.0975607250508
 31
0.0
  0
LINE
  5
3EBF
330
1A
100
AcDbEntity
  8
SITAJI
370
     9
100
AcDbLine
 10
308.8595012035351
 20
278.5691336003044
 30
0.0
 11
306.5595012035359
 21
276.2691336003046
 31
0.0
  0
ARC
  5
3EC0
330
1A
100
AcDbEntity
  8
YAKUMONO
100
AcDbCircle
 10
307.5595012035358
 20
294.3756883307171
 30
0.0
 40
1.5
100
AcDbArc
 50
90.0
 51
180.0
  0
ARC
  5
3EC1
330
1A
100
AcDbEntity
  8
YAKUMONO
100
AcDbCircle
 10
307.5595012035358
 20
294.3756883307171
 30
0.0
 40
1.0
100
AcDbArc
 50
90.0
 51
180.0
  0
LINE
  5
3EC2
330
1A
100
AcDbEntity
  8
SITAJI
370
     9
100
AcDbLine
 10
322.8376288092024
 20
295.3756883307171
 30
0.0
 11
320.5376288091995
 21
293.075688330717
 31
0.0
  0
LINE
  5
3EC3
330
1A
100
AcDbEntity
  8
SITAJI
370
     9
100
AcDbLine
 10
325.6660559339491
 20
295.3756883307171
 30
0.0
 11
323.3660559339462
 21
293.075688330717
 31
0.0
  0
LINE
  5
3EC4
330
1A
100
AcDbEntity
  8
SITAJI
100
AcDbLine
 10
404.2595012035365
 20
290.3756883307171
 30
0.0
 11
404.2595012035365
 21
200.3756883307171
 31
0.0
  0
LINE
  5
3EC5
330
1A
100
AcDbEntity
  8
SITAJI
100
AcDbLine
 10
406.5595012035357
 20
290.3756883307171
 30
0.0
 11
406.5595012035357
 21
200.3756883307171
 31
0.0
  0
LINE
  5
3EC6
330
1A
100
AcDbEntity
  8
SITAJI
370
     9
100
AcDbLine
 10
397.6716834187194
 20
197.6756883307172
 30
0.0
 11
395.3716834187201
 21
195.375688330717
 31
0.0
  0
LINE
  5
3EC7
330
1A
100
AcDbEntity
  8
SITAJI
370
     9
100
AcDbLine
 10
394.8432562939727
 20
197.6756883307172
 30
0.0
 11
392.5432562939734
 21
195.375688330717
 31
0.0
  0
ARC
  5
3EC8
330
1A
100
AcDbEntity
  8
SITAJI
100
AcDbCircle
 10
401.5595012035356
 20
200.3756883307171
 30
0.0
 40
2.7
100
AcDbArc
 50
270.0
 51
0.0
  0
ARC
  5
3EC9
330
1A
100
AcDbEntity
  8
SITAJI
100
AcDbCircle
 10
401.5595012035356
 20
200.3756883307171
 30
0.0
 40
5.0
100
AcDbArc
 50
270.0
 51
0.0
  0
LINE
  5
3ECA
330
1A
100
AcDbEntity
  8
SITAJI
370
     9
100
AcDbLine
 10
406.5595012035357
 20
209.3919332402795
 30
0.0
 11
404.2595012035365
 21
207.0919332402792
 31
0.0
  0
LINE
  5
3ECB
330
1A
100
AcDbEntity
  8
SITAJI
370
     9
100
AcDbLine
 10
406.5595012035357
 20
206.5635061155333
 30
0.0
 11
404.2595012035365
 21
204.2635061155331
 31
0.0
  0
LINE
  5
3ECC
330
1A
100
AcDbEntity
  8
SITAJI
370
     9
100
AcDbLine
 10
406.5595012035357
 20
248.9899129867265
 30
0.0
 11
404.2595012035365
 21
246.6899129867258
 31
0.0
  0
LINE
  5
3ECD
330
1A
100
AcDbEntity
  8
SITAJI
370
     9
100
AcDbLine
 10
406.5595012035357
 20
251.8183401114722
 30
0.0
 11
404.2595012035365
 21
249.518340111472
 31
0.0
  0
LINE
  5
3ECE
330
1A
100
AcDbEntity
  8
SITAJI
370
     9
100
AcDbLine
 10
368.0924628051418
 20
295.3756883307171
 30
0.0
 11
365.7924628051387
 21
293.075688330717
 31
0.0
  0
LINE
  5
3ECF
330
1A
100
AcDbEntity
  8
YAKUMONO
100
AcDbLine
 10
394.8095012035358
 20
297.3756883307171
 30
0.0
 11
386.0595012035359
 21
297.3756883307171
 31
0.0
  0
LINE
  5
3ED0
330
1A
100
AcDbEntity
  8
YAKUMONO
100
AcDbLine
 10
386.0595012035359
 20
297.8756883307172
 30
0.0
 11
394.8095012035358
 21
297.8756883307172
 31
0.0
  0
ARC
  5
3ED1
330
1A
100
AcDbEntity
  8
YAKUMONO
100
AcDbCircle
 10
394.8095012035358
 20
296.6256883307171
 30
0.0
 40
0.75
100
AcDbArc
 50
270.0
 51
90.0
  0
ARC
  5
3ED2
330
1A
100
AcDbEntity
  8
YAKUMONO
100
AcDbCircle
 10
394.8095012035358
 20
296.6256883307171
 30
0.0
 40
1.25
100
AcDbArc
 50
270.0
 51
90.0
  0
ARC
  5
3ED3
330
1A
100
AcDbEntity
  8
SITAJI
100
AcDbCircle
 10
401.5595012035356
 20
290.3756883307171
 30
0.0
 40
2.7
100
AcDbArc
 50
0.0
 51
90.0
  0
ARC
  5
3ED4
330
1A
100
AcDbEntity
  8
SITAJI
100
AcDbCircle
 10
401.5595012035356
 20
290.3756883307171
 30
0.0
 40
5.0
100
AcDbArc
 50
0.0
 51
90.0
  0
LINE
  5
3ED5
330
1A
100
AcDbEntity
  8
SITAJI
370
     9
100
AcDbLine
 10
405.6149923526882
 20
293.3002381318194
 30
0.0
 11
403.9484967380468
 21
291.6337425171788
 31
0.0
  0
LINE
  5
3ED6
330
1A
100
AcDbEntity
  8
SITAJI
370
     9
100
AcDbLine
 10
406.4684942874536
 20
291.3253129418369
 30
0.0
 11
404.2595012035365
 21
289.116319857919
 31
0.0
  0
HATCH
  5
3ED7
330
1A
100
AcDbEntity
  8
YAKUMONO
 62
     7
370
     9
100
AcDbHatch
 10
0.0
 20
0.0
 30
0.0
210
0.0
220
0.0
230
1.0
  2
ANSI31
 70
     0
 71
     0
 91
        1
 92
        7
 72
     0
 73
     1
 93
        4
 10
386.0595012035359
 20
295.8756883307172
 10
386.0595012035359
 20
297.8756883307172
 10
376.0595012035358
 20
297.8756916613012
 10
376.0595012035358
 20
295.8756883307172
 97
        0
 75
     0
 76
     1
 52
0.0
 41
0.5
 77
     0
 78
     1
 53
45.0
 43
-49.79934975816092
 44
0.000000000000135
 45
-1.122532015133643
 46
1.122532015133643
 79
     0
 47
0.1130596921388364
 98
        1
 10
379.5443728238822
 20
296.1470944490189
1001
ACAD
1010
0.0
1020
0.0
1030
0.0
  0
LINE
  5
3ED8
330
1A
100
AcDbEntity
  8
YAKUMONO
 62
     7
100
AcDbLine
 10
386.0595012035359
 20
297.8756883307172
 30
0.0
 11
386.0595012035359
 21
295.8756883307172
 31
0.0
  0
LINE
  5
3ED9
330
1A
100
AcDbEntity
  8
YAKUMONO
 62
     7
100
AcDbLine
 10
386.0595012035359
 20
295.8756883307172
 30
0.0
 11
376.0595012035358
 21
295.8756883307172
 31
0.0
  0
LINE
  5
3EDA
330
1A
100
AcDbEntity
  8
YAKUMONO
 62
     7
100
AcDbLine
 10
376.0595012035358
 20
295.8756883307172
 30
0.0
 11
376.0595012035358
 21
297.8756883307172
 31
0.0
  0
LINE
  5
3EDB
330
1A
100
AcDbEntity
  8
YAKUMONO
 62
     7
100
AcDbLine
 10
376.0595012035358
 20
297.8756916613012
 30
-0.0000000000000024
 11
386.0595012035359
 21
297.8756883307172
 31
0.0
  0
HATCH
  5
3EDC
330
1A
100
AcDbEntity
  8
YAKUMONO
 62
     7
370
     9
100
AcDbHatch
 10
0.0
 20
0.0
 30
0.0
210
0.0
220
0.0
230
1.0
  2
ANSI31
 70
     0
 71
     0
 91
        1
 92
        7
 72
     0
 73
     1
 93
        4
 10
304.0595012035358
 20
215.875688330717
 10
306.0595012035358
 20
215.875688330717
 10
306.0595012035358
 20
225.8756883307172
 10
304.0595008544427
 20
225.8756883307172
 97
        0
 75
     0
 76
     1
 52
0.0
 41
0.5
 77
     0
 78
     1
 53
45.0
 43
-49.79934975816092
 44
0.000000000000135
 45
-1.122532015133643
 46
1.122532015133643
 79
     0
 47
0.1130596921388364
 98
        1
 10
304.4114381778202
 20
224.4973092420069
1001
ACAD
1010
0.0
1020
0.0
1030
0.0
  0
LINE
  5
3EDD
330
1A
100
AcDbEntity
  8
YAKUMONO
 62
     7
100
AcDbLine
 10
304.0595012035358
 20
215.875688330717
 30
0.0
 11
306.0595012035358
 21
215.875688330717
 31
0.0
  0
LINE
  5
3EDE
330
1A
100
AcDbEntity
  8
YAKUMONO
 62
     7
100
AcDbLine
 10
306.0595012035358
 20
215.875688330717
 30
0.0
 11
306.0595012035358
 21
225.8756883307172
 31
0.0
  0
LINE
  5
3EDF
330
1A
100
AcDbEntity
  8
YAKUMONO
 62
     7
100
AcDbLine
 10
306.0595012035358
 20
225.8756883307172
 30
0.0
 11
304.0595012035358
 21
225.8756883307172
 31
0.0
  0
LINE
  5
3EE0
330
1A
100
AcDbEntity
  8
YAKUMONO
 62
     7
100
AcDbLine
 10
304.0595008544427
 20
225.8756883307172
 30
0.0000000000016808
 11
304.0595012035358
 21
215.875688330717
 31
0.0
  0
ARC
  5
3EE1
330
1A
100
AcDbEntity
  8
SEALING
100
AcDbCircle
 10
330.0595038783197
 20
452.1048763811329
 30
0.0000000000008935
 40
69.02207793863832
100
AcDbArc
 50
263.0993319333214
 51
276.9006680666787
  0
CIRCLE
  5
3EE2
330
1A
100
AcDbEntity
  8
PACKING
100
AcDbCircle
 10
343.5595008544388
 20
378.1256916613049
 30
0.0000000000008935
 40
4.500000000001136
  0
DIMENSION
  5
3EE3
330
1A
100
AcDbEntity
  8
SUNPOU
100
AcDbDimension
280
     0
  2
*D6
 10
363.0595008544399
 20
439.5756801632818
 30
0.0
 11
288.4577677951972
 21
439.5756801632818
 31
0.0
 70
   160
 71
     5
 42
145.0
 73
     0
 74
     0
 75
     0
  3
STANDARD
100
AcDbAlignedDimension
 13
218.0595008544399
 23
381.875691661309
 33
0.0000000000008935
 14
363.0595008544399
 24
382.6256916613009
 34
0.0000000000000007
100
AcDbRotatedDimension
  0
DIMENSION
  5
3EE4
330
1A
100
AcDbEntity
  8
SUNPOU
100
AcDbDimension
280
     0
  2
*D7
 10
559.2782228046421
 20
372.8756916613033
 30
0.0000000000008958
 11
559.2782228046421
 21
335.3756916613021
 31
0.0000000000008958
 70
   160
 71
     5
 42
75.00000000000193
 73
     0
 74
     0
 75
     0
  3
STANDARD
100
AcDbAlignedDimension
 13
529.0595008544387
 23
297.8756916613012
 33
0.0000000000008934
 14
529.059500854438
 24
372.8756916613032
 34
0.0000000000008965
 50
90.0
100
AcDbRotatedDimension
1001
ACAD
1000
DSTYLE
1002
{
1070
    76
1070
     0
1002
}
  0
DIMENSION
  5
3EE5
330
1A
100
AcDbEntity
  8
SUNPOU
100
AcDbDimension
280
     0
  2
*D8
 10
559.2782228046424
 20
195.375688330717
 30
0.0000000000008958
 11
559.2782228046421
 21
245.3756883307172
 31
0.0000000000008958
 70
   160
 71
     5
 42
100.0000000000001
 73
     0
 74
     0
 75
     0
  3
STANDARD
100
AcDbAlignedDimension
 13
529.0595008544387
 23
295.3756883307171
 33
0.0000000000008934
 14
529.0595008544387
 24
195.375688330717
 34
0.0000000000008958
 50
90.0
100
AcDbRotatedDimension
1001
ACAD
1000
DSTYLE
1002
{
1070
    76
1070
     0
1002
}
  0
HATCH
  5
3EE6
330
1A
100
AcDbEntity
  8
PACKING
370
     9
100
AcDbHatch
 10
0.0
 20
0.0
 30
0.0000000000008935
210
0.0
220
0.0
230
1.0
  2
ANSI31
 70
     0
 71
     0
 91
        1
 92
        7
 72
     1
 73
     1
 93
        2
 10
348.0595008544399
 20
378.1256916613049
 42
1.0
 10
339.0595008544377
 20
378.1256916613049
 42
1.0
 97
        0
 75
     0
 76
     1
 52
0.0
 41
1.0
 77
     0
 78
     1
 53
45.0
 43
-50.78338465391404
 44
0.7065995975968562
 45
-2.245064030267287
 46
2.245064030267287
 79
     0
 47
0.1722364127960794
 98
        1
 10
346.1681611076155
 20
377.6465582314238
  0
HATCH
  5
3EE7
330
1A
100
AcDbEntity
  8
SEALING
370
     9
100
AcDbHatch
 10
0.0
 20
0.0
 30
0.0
210
0.0
220
0.0
230
1.0
  2
ANSI37
 70
     0
 71
     0
 91
        1
 92
        1
 93
        8
 72
     1
 10
338.0595038783208
 20
373.8756916613072
 11
338.0595038783208
 21
382.8756916613069
 72
     2
 10
339.0595038732227
 20
382.8756916634208
 40
0.9999999949018839
 50
179.999999878873
 51
225.0000001209173
 73
     0
 72
     2
 10
330.0595038783197
 20
452.104876381132
 40
69.02207793863738
 50
83.09933193332247
 51
96.90066806667713
 73
     0
 72
     2
 10
321.0595038783206
 20
382.8756916613071
 40
1.000000000000289
 50
314.9999999999378
 51
359.9999999999446
 73
     0
 72
     1
 10
322.0595038783208
 20
382.8756916613081
 11
322.0595038783208
 21
373.8756916613084
 72
     2
 10
322.5595038783208
 20
373.8756916613076
 40
0.4999999999999434
 50
179.9999999998892
 51
270.0000000000065
 73
     1
 72
     1
 10
322.5595038783208
 20
373.3756916613077
 11
337.5595038783208
 21
373.3756916613073
 72
     2
 10
337.5595038783208
 20
373.8756916613072
 40
0.4999999999999434
 50
269.9999999999935
 51
360.0000000000065
 73
     1
 97
        0
 75
     0
 76
     1
 52
0.0
 41
1.0
 77
     0
 78
     2
 53
45.0
 43
-49.80304975816089
 44
-0.0000000000012292
 45
-2.245064030267287
 46
2.245064030267287
 79
     0
 53
135.0
 43
-49.80304975816089
 44
-0.0000000000012292
 45
-2.245064030267287
 46
-2.245064030267287
 79
     0
 98
        1
 10
334.7338710763352
 20
379.2640544598029
  0
DIMENSION
  5
3EE8
330
1A
100
AcDbEntity
  8
SUNPOU
100
AcDbDimension
280
     0
  2
*D10
 10
218.0595008544399
 20
425.9912292297982
 30
0.0000000000008935
 11
270.0595023663804
 21
425.9912292297982
 31
0.0000000000008935
 70
   160
  1
104
 71
     5
 42
104.0000030238809
 73
     0
 74
     0
 75
     0
  3
STANDARD
100
AcDbAlignedDimension
 13
322.0595038783208
 23
382.8756916613069
 33
0.0000000000008935
 14
218.0595008544399
 24
381.875691661309
 34
0.0000000000008935
 50
180.0
100
AcDbRotatedDimension
  0
LINE
  5
3EE9
330
1A
100
AcDbEntity
  8
TEKUSU
  6
CENTER2
370
     5
100
AcDbLine
 10
351.5595008544402
 20
380.7793411613088
 30
0.0000000000008935
 11
351.5595008544402
 21
269.2895081792681
 31
0.0000000000008935
  0
LINE
  5
3EEA
330
1A
100
AcDbEntity
  8
TEKUSU
  6
DASHED2
 48
0.5
100
AcDbLine
 10
345.0595008544401
 20
373.3756916613089
 30
0.0000000000008935
 11
358.0595008544402
 21
373.3756916613089
 31
0.0000000000008935
  0
LINE
  5
3EEB
330
1A
100
AcDbEntity
  8
TEKUSU
  6
DASHED2
 48
0.5
100
AcDbLine
 10
358.0595008544402
 20
373.3756916613089
 30
0.0000000000008935
 11
358.0595008544437
 21
372.8756916613102
 31
0.0000000000008935
  0
LINE
  5
3EEC
330
1A
100
AcDbEntity
  8
TEKUSU
  6
DASHED2
 48
0.5
100
AcDbLine
 10
345.0595008544401
 20
373.3756916613089
 30
0.0000000000008935
 11
345.0595008544401
 21
372.8756916613089
 31
0.0000000000008935
  0
LINE
  5
3EED
330
1A
100
AcDbEntity
  8
TEKUSU
  6
DASHED2
 48
0.5
100
AcDbLine
 10
349.5048012747389
 20
372.3756916613124
 30
0.0000000000008935
 11
353.6142004341414
 21
372.3756916613124
 31
0.0000000000008935
  0
ARC
  5
3EEE
330
1A
100
AcDbEntity
  8
TEKUSU
  6
DASHED2
 48
0.5
100
AcDbCircle
 10
347.5395008544396
 20
372.0047546613127
 30
0.0000000000008935
 40
2.0
100
AcDbArc
 50
10.68844818695999
 51
26.50000000008522
  0
ARC
  5
3EEF
330
1A
100
AcDbEntity
  8
TEKUSU
  6
DASHED2
 48
0.5
100
AcDbCircle
 10
355.5795008544405
 20
372.0047546613127
 30
0.0000000000008935
 40
2.0
100
AcDbArc
 50
153.4999999999148
 51
169.31155181304
  0
ARC
  5
3EF0
330
1A
100
AcDbEntity
  8
TEKUSU
  6
DASHED2
 48
0.5
100
AcDbCircle
 10
346.0595008544402
 20
374.3756916613124
 30
0.0000000000008935
 40
0.5
100
AcDbArc
 50
90.0
 51
180.0
  0
ARC
  5
3EF1
330
1A
100
AcDbEntity
  8
TEKUSU
  6
DASHED2
 48
0.5
100
AcDbCircle
 10
357.0595008544402
 20
374.3756916613124
 30
0.0000000000008935
 40
0.5
100
AcDbArc
 50
0.0
 51
90.0
  0
ARC
  5
3EF2
330
1A
100
AcDbEntity
  8
TEKUSU
  6
DASHED2
 48
0.5
100
AcDbCircle
 10
356.2764918544413
 20
375.8756916613124
 30
0.0000000000008935
 40
1.0
100
AcDbArc
 50
246.061074000026
 51
270.0
  0
ARC
  5
3EF3
330
1A
100
AcDbEntity
  8
TEKUSU
  6
DASHED2
 48
0.5
100
AcDbCircle
 10
346.8425108544393
 20
375.8756916613124
 30
0.0000000000008935
 40
1.0
100
AcDbArc
 50
270.0
 51
293.938925999974
  0
LINE
  5
3EF4
330
1A
100
AcDbEntity
  8
TEKUSU
  6
DASHED2
 48
0.5
100
AcDbLine
 10
357.0595008544402
 20
374.8756916613124
 30
0.0000000000008935
 11
346.0595008544402
 21
374.8756916613124
 31
0.0000000000008935
  0
LINE
  5
3EF5
330
1A
100
AcDbEntity
  8
TEKUSU
  6
DASHED2
 48
0.5
100
AcDbLine
 10
346.0595008544402
 20
374.8756916613124
 30
0.0000000000008935
 11
346.8425108544393
 21
374.8756916613124
 31
0.0000000000008935
  0
ARC
  5
3EF6
330
1A
100
AcDbEntity
  8
TEKUSU
  6
DASHED2
 48
0.5
100
AcDbCircle
 10
351.5595008544402
 20
365.2506916613124
 30
0.0000000000008935
 40
10.625
100
AcDbArc
 50
66.06107143914666
 51
113.938925999974
  0
LINE
  5
3EF7
330
1A
100
AcDbEntity
  8
TEKUSU
  6
DASHED2
 48
0.5
100
AcDbLine
 10
357.5595008544401
 20
373.8756916613124
 30
0.0000000000008935
 11
357.5595008544401
 21
374.3756916613124
 31
0.0000000000008935
  0
LINE
  5
3EF8
330
1A
100
AcDbEntity
  8
TEKUSU
  6
DASHED2
 48
0.5
100
AcDbLine
 10
345.5595008544402
 20
373.8756916613124
 30
0.0000000000008935
 11
345.5595008544402
 21
374.3756916613124
 31
0.0000000000008935
  0
LINE
  5
3EF9
330
1A
100
AcDbEntity
  8
TEKUSU
  6
DASHED2
 48
0.5
100
AcDbLine
 10
345.5595008544402
 20
373.8756916613124
 30
0.0000000000008935
 11
346.1553776507385
 21
373.3756916613125
 31
0.0000000000008935
  0
LINE
  5
3EFA
330
1A
100
AcDbEntity
  8
TEKUSU
  6
DASHED2
 48
0.5
100
AcDbLine
 10
357.5595008544401
 20
373.8756916613124
 30
0.0000000000008935
 11
356.9636240581417
 21
373.3756916613125
 31
0.0000000000008935
  0
LINE
  5
3EFB
330
1A
100
AcDbEntity
  8
TEKUSU
  6
DASHED2
 48
0.5
100
AcDbLine
 10
357.5595008544401
 20
373.8756916613124
 30
0.0000000000008935
 11
345.5595008544402
 21
373.8756916613088
 31
0.0000000000008935
  0
LINE
  5
3EFC
330
1A
100
AcDbEntity
  8
TEKUSU
100
AcDbLine
 10
353.6595008544387
 20
274.6302846613102
 30
0.0000000000008935
 11
353.6595008544387
 21
281.3756916613089
 31
0.0000000000008935
  0
LINE
  5
3EFD
330
1A
100
AcDbEntity
  8
TEKUSU
100
AcDbLine
 10
351.5595008544402
 20
273.1598482143766
 30
0.0000000000008935
 11
349.4595008544416
 21
274.6302846613102
 31
0.0000000000008935
  0
LINE
  5
3EFE
330
1A
100
AcDbEntity
  8
TEKUSU
100
AcDbLine
 10
351.5595008544402
 20
273.1598482143766
 30
0.0000000000008935
 11
353.6595008544387
 21
274.6302846613102
 31
0.0000000000008935
  0
LINE
  5
3EFF
330
1A
100
AcDbEntity
  8
TEKUSU
100
AcDbLine
 10
349.2045008544405
 20
281.3756916613089
 30
0.0000000000008935
 11
353.9145008544397
 21
281.3756916613089
 31
0.0000000000008935
  0
LINE
  5
3F00
330
1A
100
AcDbEntity
  8
TEKUSU
100
AcDbLine
 10
349.4595008544416
 20
274.6302846613102
 30
0.0000000000008935
 11
349.4595008544416
 21
281.3756916613089
 31
0.0000000000008935
  0
LINE
  5
3F01
330
1A
100
AcDbEntity
  8
TEKUSU
  6
DASHED2
 48
0.5
100
AcDbLine
 10
349.2045008544405
 20
321.3756916613089
 30
0.0000000000008935
 11
353.9145008544397
 21
321.3756916613089
 31
0.0000000000008935
  0
LINE
  5
3F02
330
1A
100
AcDbEntity
  8
TEKUSU
  6
DASHED2
 48
0.5
100
AcDbLine
 10
349.5048012747389
 20
321.3756916613089
 30
0.0000000000008935
 11
349.5048012747389
 21
372.3756916613124
 31
0.0000000000008935
  0
LINE
  5
3F03
330
1A
100
AcDbEntity
  8
TEKUSU
  6
DASHED2
 48
0.5
100
AcDbLine
 10
353.9145008544397
 20
293.0756883307172
 30
0.0000000000008935
 11
353.9145008544397
 21
321.3756916613087
 31
0.0000000000008935
  0
LINE
  5
3F04
330
1A
100
AcDbEntity
  8
TEKUSU
  6
DASHED2
 48
0.5
100
AcDbLine
 10
349.2045008544405
 20
293.0756883307172
 30
0.0000000000008935
 11
349.2045008544405
 21
321.3756916613089
 31
0.0000000000008935
  0
LINE
  5
3F05
330
1A
100
AcDbEntity
  8
TEKUSU
100
AcDbLine
 10
352.8316512179945
 20
281.3756916613089
 30
0.0000000000008935
 11
351.5595008544403
 21
273.1598482143766
 31
0.0000000000008935
  0
LINE
  5
3F06
330
1A
100
AcDbEntity
  8
TEKUSU
  6
DASHED2
 48
0.5
100
AcDbLine
 10
353.6142004341414
 20
321.3756916613089
 30
0.0000000000008935
 11
353.6142004341414
 21
372.3756916613124
 31
0.0000000000008935
  0
LINE
  5
3F07
330
1A
100
AcDbEntity
  8
TEKUSU
100
AcDbLine
 10
353.9145008544397
 20
293.0756883307171
 30
0.0000000000008935
 11
353.9145008544397
 21
281.3756916613089
 31
0.0000000000008935
  0
LINE
  5
3F08
330
1A
100
AcDbEntity
  8
TEKUSU
100
AcDbLine
 10
349.2045008544405
 20
293.0756883307172
 30
0.0000000000008935
 11
349.2045008544405
 21
281.3756916613089
 31
0.0000000000008935
  0
HATCH
  5
3F09
330
1A
100
AcDbEntity
  8
TEKUSU
  6
DASHED2
 48
0.5
100
AcDbHatch
 10
0.0
 20
0.0
 30
0.0000000000018263
210
0.0
220
0.0
230
1.0
  2
ANSI31
 70
     0
 71
     0
 91
        1
 92
        1
 93
        4
 72
     1
 10
345.0595008544401
 20
373.3756916613089
 11
345.0595008544401
 21
372.8756916613123
 72
     1
 10
345.0595008544401
 20
372.8756916613123
 11
358.0595008544419
 21
372.8756916613116
 72
     1
 10
358.0595008544419
 20
372.8756916613116
 11
358.0595008544419
 21
373.3756916613089
 72
     1
 10
358.0595008544419
 20
373.3756916613089
 11
345.0595008544401
 21
373.3756916613089
 97
        0
 75
     0
 76
     1
 52
0.0
 41
0.5
 77
     0
 78
     1
 53
45.0
 43
-49.79934975816104
 44
0.000000000000135
 45
-1.122532015133643
 46
1.122532015133643
 79
     0
 98
        2
 10
348.5985176675522
 20
373.181368946017
 10
352.6324681633403
 20
373.0566644016627
  0
LINE
  5
3F0A
330
1A
100
AcDbEntity
  8
TEKUSU
  6
DASHED2
 48
0.5
100
AcDbLine
 10
345.0595008544401
 20
372.8756916613089
 30
0.0000000000008935
 11
358.0595008544437
 21
372.8756916613102
 31
0.0000000000008935
  0
DIMENSION
  5
3F11
330
1A
100
AcDbEntity
  8
SUNPOU
100
AcDbDimension
280
     0
  2
*D9
 10
351.5595008544402
 20
232.1320977419188
 30
0.0000000000008935
 11
329.0595010289881
 21
232.1320977419188
 31
0.0000000000008935
 70
   160
 71
     5
 42
44.99999965090433
 73
     0
 74
     0
 75
     0
  3
STANDARD
100
AcDbAlignedDimension
 13
306.5595012035359
 23
242.529716615061
 33
0.0
 14
351.5595008544402
 24
269.2895081792681
 34
0.0000000000008935
100
AcDbRotatedDimension
  0
LINE
  5
3F12
330
1A
100
AcDbEntity
  8
SITAJI
100
AcDbLine
 10
411.5595012035357
 20
295.3756883307171
 30
0.0
 11
411.5595012035357
 21
195.375688330717
 31
0.0
  0
LINE
  5
3F13
330
1A
100
AcDbEntity
  8
SITAJI
100
AcDbLine
 10
411.5595012035357
 20
295.3756883307171
 30
0.0
 11
529.0595008544392
 21
295.3756883307171
 31
-0.0000000000000033
  0
LINE
  5
3F14
330
1A
100
AcDbEntity
  8
SITAJI
  6
DASHED2
100
AcDbLine
 10
411.5595012035357
 20
275.3756883307171
 30
0.0
 11
529.0595008544405
 21
275.3756883307171
 31
-0.0000000000000033
  0
LINE
  5
3F15
330
1A
100
AcDbEntity
  8
SITAJI
100
AcDbLine
 10
411.5595012035357
 20
195.375688330717
 30
0.0
 11
529.0595008544463
 21
195.375688330717
 31
-0.0000000000000033
  0
LINE
  5
3F16
330
1A
100
AcDbEntity
  8
SITAJI
  6
DASHED2
100
AcDbLine
 10
411.5595012035357
 20
215.3756883307172
 30
0.0
 11
529.0595008544449
 21
215.3756883307172
 31
-0.0000000000000033
  0
LINE
  5
3F17
330
1A
100
AcDbEntity
  8
SITAJI
100
AcDbLine
 10
406.5595012035357
 20
190.375688330717
 30
0.0
 11
306.5595012035359
 21
190.3756883307171
 31
0.0
  0
LINE
  5
3F18
330
1A
100
AcDbEntity
  8
SITAJI
100
AcDbLine
 10
406.5595012035357
 20
190.375688330717
 30
0.0
 11
406.5595012035355
 21
95.37568833071459
 31
-0.0000000000000027
  0
LINE
  5
3F19
330
1A
100
AcDbEntity
  8
SITAJI
  6
DASHED2
100
AcDbLine
 10
386.5595012035358
 20
190.3756883307171
 30
0.0
 11
386.5595012035356
 21
95.37568833071508
 31
-0.0000000000000027
  0
LINE
  5
3F1A
330
1A
100
AcDbEntity
  8
SITAJI
100
AcDbLine
 10
306.5595012035359
 20
190.3756883307171
 30
0.0
 11
306.5595012035359
 21
95.37568833071707
 31
-0.0000000000000027
  0
LINE
  5
3F1B
330
1A
100
AcDbEntity
  8
SITAJI
  6
DASHED2
100
AcDbLine
 10
326.5595012035358
 20
190.3756883307171
 30
0.0
 11
326.5595012035358
 21
95.37568833071658
 31
-0.0000000000000027
  0
MULTILEADER
  5
3F1C
330
1A
100
AcDbEntity
  8
HIKIDASI
160
               568
310
38020000150000000C00000016000000000000C00C00000033000000000000000C00000013000000993A0000E000000026000000CDB04C788FC8604056C19E3B02FE6640000000000000000000000000000000000000000000000000000000000000F03F000000000000F03F00000000000000000000000000000000025C28
310
75D330B930003034FF37FF15FF11FF10FF10FF00000B000000010000000000000000001440000000000000F03F0000000000000000000000000000F03F000000000000000000000000000000000000000000000000000000000100000000000000000000007400780074002E00730068007800000065007800740066006F00
310
6E0074002E0073006800780000000C00000033000000000000000C00000010000000090000000C00000016000000000000C00C00000012000000FF7F00000C00000013000000010000000C00000013000000891300003C00000006000000020000009FF059B18F9F6D40A7534F4F81306F4000000000000000006139D50018
310
11694056C19E3B024E674000000000000000000C00000013000000112700003C00000006000000020000006139D5001811694056C19E3B024E674000000000000000002E06A2CDE4FD684056C19E3B024E674000000000000000000C00000016000000000000C00C00000012000000FF7F00000C0000001700000000000000
310
0C000000130000009A3A00000C00000016000000000000C00C00000012000000FF7F00000C00000017000000FFFFFFFF0C0000003300000000000000
100
AcDbMLeader
270
     2
300
CONTEXT_DATA{
 40
1.0
 10
132.2675134179942
 20
186.437772569722
 30
0.0
 41
5.0
140
0.0
145
2.0
174
     1
175
     3
176
     2
177
     0
290
     1
304
専用ビス　ＴＷ５１００
 11
0.0
 21
0.0
 31
1.0
340
10
 12
197.9341800846606
 22
188.937772569722
 32
0.0
 13
1.0
 23
0.0
 33
0.0
 42
0.0
 43
0.0
 44
0.0
 45
1.0
170
     1
 90
-1073741824
171
     3
172
     5
 91
-1073741824
141
0.0
 92
        0
291
     0
292
     0
173
     0
293
     0
142
0.0
143
0.0
294
     0
295
     0
296
     0
110
240.6945875957638
120
255.9976388316232
130
0.0
111
1.0
121
0.0
131
0.0
112
0.0
122
1.0
132
0.0
297
     0
302
LEADER{
290
     1
291
     1
 10
200.5341800846609
 20
186.437772569722
 30
0.0
 11
-1.0
 21
0.0
 31
0.0
 90
        0
 40
0.6
304
LEADER_LINE{
 10
236.9862906223907
 20
249.5157848882056
 30
0.0
 91
        0
305
}
271
     0
303
}
272
     9
273
     9
301
}
340
2822
 90
   279552
170
     1
 91
-1056964608
341
14
171
    -2
290
     1
291
     1
 41
0.6
342
B0
 42
0.0
172
     2
343
10
173
     1
 95
        3
174
     1
175
     2
 92
-1056964608
292
     0
 93
-1056964608
 10
1.0
 20
1.0
 30
1.0
 43
0.0
176
     0
293
     0
294
     0
178
     0
179
     3
 45
1.0
271
     0
272
     9
273
     9
1001
ACAD_MLEADERVER
1070
     2
  0
LINE
  5
3F1D
330
1A
100
AcDbEntity
  8
YAKUMONO
100
AcDbLine
 10
386.0595012035359
 20
297.3756883307171
 30
0.0
 11
386.0595012035359
 21
297.8756883307172
 31
0.0
  0
LINE
  5
3F1E
330
1A
100
AcDbEntity
  8
YAKUMONO
100
AcDbLine
 10
304.5595012035358
 20
215.875688330717
 30
0.0
 11
304.0595012035358
 21
215.875688330717
 31
0.0
  0
LINE
  5
3F1F
330
1A
100
AcDbEntity
  8
YAKUMONO
100
AcDbLine
 10
307.5595012035358
 20
295.8756883307172
 30
0.0
 11
394.8095012035358
 21
295.8756883307172
 31
0.0
  0
LINE
  5
3F20
330
1A
100
AcDbEntity
  8
YAKUMONO
100
AcDbLine
 10
306.0595012035358
 20
294.3756883307171
 30
0.0
 11
306.0595012035358
 21
207.1256883307172
 31
0.0
  0
LINE
  5
3F21
330
1A
100
AcDbEntity
  8
YAKUMONO
100
AcDbLine
 10
307.5595012035358
 20
295.3756883307171
 30
0.0
 11
394.8095012035358
 21
295.3756883307171
 31
0.0
  0
LINE
  5
3F22
330
1A
100
AcDbEntity
  8
YAKUMONO
100
AcDbLine
 10
306.5595012035359
 20
294.3756883307171
 30
0.0
 11
306.5595012035359
 21
207.1256883307172
 31
0.0
  0
HATCH
  5
3F23
330
1A
100
AcDbEntity
  8
SEIHIN
370
     9
100
AcDbHatch
 10
0.0
 20
0.0
 30
0.0
210
0.0
220
0.0
230
1.0
  2
ANSI35
 70
     0
 71
     0
 91
        1
 92
        1
 93
        4
 72
     1
 10
229.059500854439
 20
372.3756916613012
 11
229.059500854439
 21
298.3756916613032
 72
     1
 10
229.059500854439
 20
298.3756916613032
 11
529.0595008544362
 21
298.3756916613018
 72
     1
 10
529.0595008544362
 20
298.3756916613018
 11
529.0595008544362
 21
372.3756916612998
 72
     1
 10
529.0595008544362
 20
372.3756916612998
 11
229.059500854439
 21
372.3756916613012
 97
        0
 75
     0
 76
     1
 52
0.0
 41
5.0
 77
     0
 78
     2
 53
45.0
 43
-49.79934975816092
 44
0.000000000000135
 45
-22.45064030267288
 46
22.45064030267288
 79
     0
 53
45.0
 43
-27.34869975816093
 44
0.000000000000135
 45
-22.45064030267288
 46
22.45064030267288
 79
     4
 49
39.6875
 49
-7.9375
 49
0.0
 49
-7.9375
 98
       11
 10
297.5456639401482
 20
332.2695978621175
 10
329.4653558037639
 20
316.8872477861004
 10
329.3116932862201
 20
325.4897444234786
 10
331.0019645335696
 20
326.4114406437783
 10
331.1556252238208
 20
318.8842555540403
 10
342.0655506772957
 20
323.6463519828793
 10
351.8998494717187
 20
315.6583194923675
 10
354.0511027898219
 20
317.0408631134411
 10
354.0511027898219
 20
323.7999687289717
 10
351.8998494717187
 20
324.7216649492715
 10
371.8757702683606
 20
323.7999687289717
1001
ACAD
1010
0.0
1020
0.0
1030
0.0
  0
LINE
  5
3F24
330
1A
100
AcDbEntity
  8
SEIHIN
100
AcDbLine
 10
229.0595008544335
 20
372.8756916613003
 30
0.0000000000000007
 11
229.059500854439
 21
297.8756916613012
 31
-0.0000000000000024
  0
HATCH
  5
3F25
330
1A
100
AcDbEntity
  8
SEIHIN
370
     9
100
AcDbHatch
 10
0.0
 20
0.0
 30
0.0
210
0.0
220
0.0
230
1.0
  2
ANSI35
 70
     0
 71
     0
 91
        1
 92
        1
 93
        4
 72
     1
 10
303.559500854439
 20
290.375688330717
 11
229.5595008544408
 21
290.3756883307189
 72
     1
 10
229.5595008544408
 20
290.3756883307189
 11
229.5595008544428
 21
95.3756883307189
 72
     1
 10
229.5595008544428
 20
95.37568833071892
 11
303.5595008544387
 21
95.37568833071714
 72
     1
 10
303.559500854439
 20
95.37568833071714
 11
303.559500854439
 21
290.375688330717
 97
        0
 75
     0
 76
     1
 52
0.0
 41
5.0
 77
     0
 78
     2
 53
45.0
 43
-49.79934975816092
 44
0.000000000000135
 45
-22.45064030267288
 46
22.45064030267288
 79
     0
 53
45.0
 43
-27.34869975816093
 44
0.000000000000135
 45
-22.45064030267288
 46
22.45064030267288
 79
     4
 49
39.6875
 49
-7.9375
 49
0.0
 49
-7.9375
 98
       11
 10
275.8248376743784
 20
178.4995357989645
 10
288.0146372458016
 20
247.1529957000352
 10
274.9679123587771
 20
247.1529957000352
 10
274.3155762057906
 20
249.5441965007622
 10
285.0791245573619
 20
249.4355059422068
 10
272.2449814108334
 20
256.9761507281856
 10
285.617874374351
 20
270.1277551321844
 10
274.4194358632194
 20
270.1277551321844
 10
275.0717720162061
 20
272.7363370500222
 10
283.9870339918844
 20
273.171100702995
 10
277.7898405385117
 20
278.8230296103951
1001
ACAD
1010
0.0
1020
0.0
1030
0.0
  0
LINE
  5
3F26
330
1A
100
AcDbEntity
  8
SEIHIN
100
AcDbLine
 10
229.059500854439
 20
290.3756883307189
 30
0.0000000000028904
 11
304.0595008544427
 21
290.3756883307171
 31
0.0
  0
LINE
  5
3F27
330
1A
100
AcDbEntity
  8
SEIHIN
100
AcDbLine
 10
529.0595008544335
 20
372.3756916613012
 30
0.0000000000000006
 11
229.059500854439
 21
372.3756916613012
 31
0.0000000000000006
  0
LINE
  5
3F28
330
1A
100
AcDbEntity
  8
SEIHIN
100
AcDbLine
 10
529.0595008544387
 20
298.3756916613032
 30
-0.0000000000000024
 11
229.059500854439
 21
298.3756916613032
 31
-0.0000000000000024
  0
LINE
  5
3F29
330
1A
100
AcDbEntity
  8
SEIHIN
100
AcDbLine
 10
529.0595008544387
 20
297.8756916613012
 30
-0.0000000000000024
 11
229.059500854439
 21
297.8756916613012
 31
-0.0000000000000024
  0
LINE
  5
3F2A
330
1A
100
AcDbEntity
  8
SEIHIN
100
AcDbLine
 10
229.5595008544428
 20
95.37568833071892
 30
0.0000000000009925
 11
229.5595008544399
 21
290.3756883307188
 31
0.000000000002843
  0
LINE
  5
3F2B
330
1A
100
AcDbEntity
  8
SEIHIN
100
AcDbLine
 10
304.0595008544427
 20
95.37568833071714
 30
0.0000000000016808
 11
304.0595008544427
 21
290.3756883307171
 31
0.0000000000016808
  0
LINE
  5
3F2C
330
1A
100
AcDbEntity
  8
SEIHIN
100
AcDbLine
 10
303.559500854439
 20
95.37568833071714
 30
0.0000000000016808
 11
303.5595008544392
 21
290.3756883307171
 31
0.0000000000016808
  0
LINE
  5
3F2D
330
1A
100
AcDbEntity
  8
SEIHIN
100
AcDbLine
 10
229.059500854439
 20
95.37568833071892
 30
0.0000000000009926
 11
229.059500854439
 21
290.3756883307189
 31
0.000000000002843
  0
LINE
  5
3F2E
330
1A
100
AcDbEntity
  8
SEIHIN
100
AcDbLine
 10
529.0595008544335
 20
372.8756916613035
 30
0.0000000000000007
 11
229.059500854439
 21
372.8756916613003
 31
0.0000000000000007
  0
LINE
  5
3F2F
330
1A
100
AcDbEntity
  8
TEKUSU
  6
CENTER2
370
     5
100
AcDbLine
 10
221.1558513544405
 20
250.3756916613097
 30
0.0000000000008935
 11
332.6456843364815
 21
250.3756916613093
 31
0.0000000000008935
  0
LINE
  5
3F30
330
1A
100
AcDbEntity
  8
TEKUSU
  6
DASHED2
 48
0.5
100
AcDbLine
 10
228.5595008544405
 20
256.8756916613097
 30
0.0000000000008935
 11
228.5595008544405
 21
243.8756916613097
 31
0.0000000000008935
  0
LINE
  5
3F31
330
1A
100
AcDbEntity
  8
TEKUSU
  6
DASHED2
 48
0.5
100
AcDbLine
 10
228.5595008544405
 20
243.8756916613097
 30
0.0000000000008935
 11
229.0595008544392
 21
243.875691661306
 31
0.0000000000008935
  0
LINE
  5
3F32
330
1A
100
AcDbEntity
  8
TEKUSU
  6
DASHED2
 48
0.5
100
AcDbLine
 10
228.5595008544405
 20
256.8756916613097
 30
0.0000000000008935
 11
229.0595008544406
 21
256.8756916613097
 31
0.0000000000008935
  0
ARC
  5
3F33
330
1A
100
AcDbEntity
  8
TEKUSU
  6
DASHED2
 48
0.5
100
AcDbCircle
 10
229.9304378544366
 20
254.3956916613101
 30
0.0000000000008935
 40
2.0
100
AcDbArc
 50
243.4999999999102
 51
259.3115518130403
  0
ARC
  5
3F34
330
1A
100
AcDbEntity
  8
TEKUSU
  6
DASHED2
 48
0.5
100
AcDbCircle
 10
229.9304378544366
 20
246.3556916613092
 30
0.0000000000008935
 40
2.0
100
AcDbArc
 50
100.6884481869596
 51
116.5000000000898
  0
ARC
  5
3F35
330
1A
100
AcDbEntity
  8
TEKUSU
  6
DASHED2
 48
0.5
100
AcDbCircle
 10
227.5595008544369
 20
255.8756916613097
 30
0.0000000000008935
 40
0.5
100
AcDbArc
 50
90.0
 51
180.0
  0
ARC
  5
3F36
330
1A
100
AcDbEntity
  8
TEKUSU
  6
DASHED2
 48
0.5
100
AcDbCircle
 10
227.5595008544369
 20
244.8756916613097
 30
0.0000000000008935
 40
0.5
100
AcDbArc
 50
180.0
 51
270.0
  0
ARC
  5
3F37
330
1A
100
AcDbEntity
  8
TEKUSU
  6
DASHED2
 48
0.5
100
AcDbCircle
 10
226.0595008544369
 20
245.6587006613086
 30
0.0000000000008935
 40
1.0
100
AcDbArc
 50
0.0
 51
23.93892599997646
  0
ARC
  5
3F38
330
1A
100
AcDbEntity
  8
TEKUSU
  6
DASHED2
 48
0.5
100
AcDbCircle
 10
226.0595008544369
 20
255.0926816613105
 30
0.0000000000008935
 40
1.0
100
AcDbArc
 50
336.0610740000235
 51
0.0
  0
LINE
  5
3F39
330
1A
100
AcDbEntity
  8
TEKUSU
  6
DASHED2
 48
0.5
100
AcDbLine
 10
227.0595008544369
 20
244.8756916613097
 30
0.0000000000008935
 11
227.0595008544369
 21
255.8756916613097
 31
0.0000000000008935
  0
LINE
  5
3F3A
330
1A
100
AcDbEntity
  8
TEKUSU
  6
DASHED2
 48
0.5
100
AcDbLine
 10
227.0595008544369
 20
255.8756916613097
 30
0.0000000000008935
 11
227.0595008544369
 21
255.0926816613105
 31
0.0000000000008935
  0
ARC
  5
3F3B
330
1A
100
AcDbEntity
  8
TEKUSU
  6
DASHED2
 48
0.5
100
AcDbCircle
 10
236.6845008544371
 20
250.3756916613097
 30
0.0000000000008935
 40
10.625
100
AcDbArc
 50
156.0610740000235
 51
203.9389285608565
  0
LINE
  5
3F3C
330
1A
100
AcDbEntity
  8
TEKUSU
  6
DASHED2
 48
0.5
100
AcDbLine
 10
228.0595008544369
 20
244.3756916613097
 30
0.0000000000008935
 11
227.5595008544369
 21
244.3756916613097
 31
0.0000000000008935
  0
LINE
  5
3F3D
330
1A
100
AcDbEntity
  8
TEKUSU
  6
DASHED2
 48
0.5
100
AcDbLine
 10
228.0595008544369
 20
256.3756916613097
 30
0.0000000000008935
 11
227.5595008544369
 21
256.3756916613097
 31
0.0000000000008935
  0
LINE
  5
3F3E
330
1A
100
AcDbEntity
  8
TEKUSU
  6
DASHED2
 48
0.5
100
AcDbLine
 10
228.0595008544369
 20
256.3756916613097
 30
0.0000000000008935
 11
228.5595008544369
 21
255.7798148650114
 31
0.0000000000008935
  0
LINE
  5
3F3F
330
1A
100
AcDbEntity
  8
TEKUSU
  6
DASHED2
 48
0.5
100
AcDbLine
 10
228.0595008544369
 20
244.3756916613097
 30
0.0000000000008935
 11
228.5595008544369
 21
244.9715684576081
 31
0.0000000000008935
  0
LINE
  5
3F40
330
1A
100
AcDbEntity
  8
TEKUSU
  6
DASHED2
 48
0.5
100
AcDbLine
 10
228.0595008544369
 20
244.3756916613097
 30
0.0000000000008935
 11
228.0595008544405
 21
256.3756916613097
 31
0.0000000000008935
  0
LINE
  5
3F41
330
1A
100
AcDbEntity
  8
TEKUSU
100
AcDbLine
 10
327.3049078544391
 20
248.2756916613107
 30
0.0000000000008935
 11
320.5595008544406
 21
248.2756916613107
 31
0.0000000000008935
  0
LINE
  5
3F42
330
1A
100
AcDbEntity
  8
TEKUSU
100
AcDbLine
 10
328.7753443013728
 20
250.3756916613093
 30
0.0000000000008935
 11
327.3049078544391
 21
252.4756916613078
 31
0.0000000000008935
  0
LINE
  5
3F43
330
1A
100
AcDbEntity
  8
TEKUSU
100
AcDbLine
 10
328.7753443013728
 20
250.3756916613093
 30
0.0000000000008935
 11
327.3049078544391
 21
248.2756916613107
 31
0.0000000000008935
  0
LINE
  5
3F44
330
1A
100
AcDbEntity
  8
TEKUSU
100
AcDbLine
 10
320.5595008544408
 20
252.7306916613091
 30
0.0000000000008935
 11
320.5595008544406
 21
248.0206916613098
 31
0.0000000000008935
  0
LINE
  5
3F45
330
1A
100
AcDbEntity
  8
TEKUSU
100
AcDbLine
 10
327.3049078544391
 20
252.4756916613078
 30
0.0000000000008935
 11
320.5595008544408
 21
252.4756916613078
 31
0.0000000000008935
  0
LINE
  5
3F46
330
1A
100
AcDbEntity
  8
TEKUSU
  6
DASHED2
 48
0.5
100
AcDbLine
 10
280.5595008544405
 20
252.7306916613091
 30
0.0000000000008935
 11
280.5595008544405
 21
248.0206916613099
 31
0.0000000000008935
  0
LINE
  5
3F47
330
1A
100
AcDbEntity
  8
TEKUSU
  6
DASHED2
 48
0.5
100
AcDbLine
 10
280.5595008544405
 20
252.4303912410108
 30
0.0000000000008935
 11
229.5595008544369
 21
252.430391241011
 31
0.0000000000008935
  0
LINE
  5
3F48
330
1A
100
AcDbEntity
  8
TEKUSU
  6
DASHED2
 48
0.5
100
AcDbLine
 10
308.8595041850322
 20
248.0206916613099
 30
0.0000000000008935
 11
280.5595008544405
 21
248.02069166131
 31
0.0000000000008935
  0
LINE
  5
3F49
330
1A
100
AcDbEntity
  8
TEKUSU
  6
DASHED2
 48
0.5
100
AcDbLine
 10
308.8595041850322
 20
252.7306916613088
 30
0.0000000000008935
 11
280.5595008544405
 21
252.7306916613091
 31
0.0000000000008935
  0
LINE
  5
3F4A
330
1A
100
AcDbEntity
  8
TEKUSU
  6
DASHED2
 48
0.5
100
AcDbLine
 10
280.5595008544405
 20
248.3209920816082
 30
0.0000000000008935
 11
229.5595008544369
 21
248.3209920816083
 31
0.0000000000008935
  0
LINE
  5
3F4B
330
1A
100
AcDbEntity
  8
TEKUSU
100
AcDbLine
 10
308.8595041850322
 20
248.0206916613099
 30
0.0000000000008935
 11
320.5595008544406
 21
248.0206916613096
 31
0.0000000000008935
  0
LINE
  5
3F4C
330
1A
100
AcDbEntity
  8
TEKUSU
100
AcDbLine
 10
308.8595041850322
 20
252.7306916613088
 30
0.0000000000008935
 11
320.5595008544408
 21
252.7306916613091
 31
0.0000000000008935
  0
HATCH
  5
3F4D
330
1A
100
AcDbEntity
  8
TEKUSU
  6
DASHED2
 48
0.5
100
AcDbHatch
 10
0.0
 20
0.0
 30
0.0000000000018263
210
0.0
220
0.0
230
1.0
  2
ANSI31
 70
     0
 71
     0
 91
        1
 92
        1
 93
        4
 72
     1
 10
228.5595008544405
 20
256.8756916613097
 11
229.0595008544369
 21
256.8756916613097
 72
     1
 10
229.0595008544372
 20
256.8756916613097
 11
229.0595008544378
 21
243.8756916613078
 72
     1
 10
229.0595008544378
 20
243.8756916613078
 11
228.5595008544405
 21
243.8756916613078
 72
     1
 10
228.5595008544405
 20
243.8756916613078
 11
228.5595008544405
 21
256.8756916613097
 97
        0
 75
     0
 76
     1
 52
0.0
 41
0.5
 77
     0
 78
     1
 53
45.0
 43
-49.79934975816104
 44
0.000000000000135
 45
-1.122532015133643
 46
1.122532015133643
 79
     0
 98
        2
 10
228.7538235697325
 20
253.3366748481976
 10
228.8785281140867
 20
249.3027243524093
  0
LINE
  5
3F4E
330
1A
100
AcDbEntity
  8
TEKUSU
  6
DASHED2
 48
0.5
100
AcDbLine
 10
229.0595008544406
 20
256.8756916613097
 30
0.0000000000008935
 11
229.0595008544392
 21
243.875691661306
 31
0.0000000000008935
  0
LINE
  5
3F4F
330
1A
100
AcDbEntity
  8
0
100
AcDbLine
 10
228.809500854439
 20
280.6256883307171
 30
0.0000000000037313
 11
229.059500854439
 21
280.6256883307171
 31
0.0000000000037313
  0
ARC
  5
3F50
330
1A
100
AcDbEntity
  8
SEALING
100
AcDbCircle
 10
149.8303161346164
 20
271.8756886374303
 30
0.0000000000008935
 40
69.02207793863832
100
AcDbArc
 50
353.0993319333218
 51
6.900668066678085
  0
CIRCLE
  5
3F51
330
1A
100
AcDbEntity
  8
PACKING
100
AcDbCircle
 10
223.8095008544446
 20
258.3756916613109
 30
0.0000000000008935
 40
4.500000000001136
  0
HATCH
  5
3F52
330
1A
100
AcDbEntity
  8
PACKING
370
     9
100
AcDbHatch
 10
0.0
 20
0.0
 30
0.0000000000008935
210
0.0
220
0.0
230
1.0
  2
ANSI31
 70
     0
 71
     0
 91
        1
 92
        7
 72
     1
 73
     1
 93
        2
 10
223.8095008544444
 20
253.8756916613098
 42
-1.0
 10
223.8095008544446
 20
262.8756916613121
 42
-1.0
 97
        0
 75
     0
 76
     1
 52
0.0
 41
1.0
 77
     0
 78
     1
 53
45.0
 43
-50.78338465391404
 44
0.7065995975968562
 45
-2.245064030267287
 46
2.245064030267287
 79
     0
 47
0.1722364127960794
 98
        1
 10
224.2886342843259
 20
255.7670314081342
  0
HATCH
  5
3F53
330
1A
100
AcDbEntity
  8
SEALING
370
     9
100
AcDbHatch
 10
0.0
 20
0.0
 30
0.0
210
0.0
220
0.0
230
1.0
  2
ANSI37
 70
     0
 71
     0
 91
        1
 92
        1
 93
        8
 72
     1
 10
228.0595008544424
 20
263.8756886374289
 11
219.0595008544428
 21
263.8756886374289
 72
     2
 10
219.0595008523287
 20
262.875688642527
 40
0.9999999949018839
 50
89.99999987887292
 51
135.0000001209171
 73
     1
 72
     2
 10
149.8303161346173
 20
271.8756886374302
 40
69.02207793863738
 50
-6.900668066677678
 51
6.900668066676968
 73
     1
 72
     2
 10
219.0595008544424
 20
280.8756886374292
 40
1.000000000000289
 50
224.9999999999377
 51
269.9999999999445
 73
     1
 72
     1
 10
219.0595008544415
 20
279.8756886374289
 11
228.059500854441
 21
279.8756886374289
 72
     2
 10
228.0595008544419
 20
279.3756886374289
 40
0.4999999999999434
 50
269.9999999998894
 51
360.0000000000067
 73
     0
 72
     1
 10
228.5595008544419
 20
279.3756886374289
 11
228.5595008544424
 21
264.3756886374288
 72
     2
 10
228.0595008544424
 20
264.3756886374288
 40
0.4999999999999434
 50
359.9999999999937
 51
450.0000000000066
 73
     0
 97
        0
 75
     0
 76
     1
 52
0.0
 41
1.0
 77
     0
 78
     2
 53
45.0
 43
-49.80304975816089
 44
-0.0000000000012292
 45
-2.245064030267287
 46
2.245064030267287
 79
     0
 53
135.0
 43
-49.80304975816089
 44
-0.0000000000012292
 45
-2.245064030267287
 46
-2.245064030267287
 79
     0
 98
        1
 10
222.6711380559466
 20
267.2013214394147
  0
LINE
  5
3F54
330
1A
100
AcDbEntity
  8
TEKUSU
100
AcDbLine
 10
320.5595008544408
 20
251.6478420248639
 30
0.0000000000008935
 11
328.775344301373
 21
250.3756916613096
 31
0.0000000000008935
  0
HATCH
  5
3F55
330
1A
100
AcDbEntity
  8
SEALING
370
     9
100
AcDbHatch
 10
0.0
 20
0.0
 30
-0.0000000000008928
210
0.0
220
0.0
230
1.0
  2
ANSI37
 70
     0
 71
     0
 91
        1
 92
        1
 93
        7
 72
     1
 10
229.0595008544392
 20
253.3756916612995
 11
218.5595008544396
 21
253.3756916612996
 72
     1
 10
218.5595008544396
 20
253.3756916612996
 11
218.5595008544396
 21
248.8756916612996
 72
     1
 10
218.5595008544396
 20
248.8756916612996
 11
220.5595008544392
 21
248.8756916613015
 72
     1
 10
220.559500854439
 20
248.8756916613015
 11
220.559500854438
 21
240.1256916613016
 72
     2
 10
219.3094947603158
 20
240.1256941855701
 40
1.250006094124775
 50
0.000115703376942
 51
44.99988429664727
 73
     0
 72
     2
 10
224.2696102334523
 20
230.4174647773325
 40
9.720321711842135
 50
245.2063845353991
 51
299.5228609115635
 73
     0
 72
     1
 10
229.059500854439
 20
238.8756916613014
 11
229.0595008544392
 21
253.3756916612995
 97
        0
 75
     0
 76
     1
 52
0.0
 41
1.0
 77
     0
 78
     2
 53
45.0
 43
-53.44049879646423
 44
8.075688330710553
 45
-2.245064030267287
 46
2.245064030267287
 79
     0
 53
135.0
 43
-53.44049879646423
 44
8.075688330710553
 45
-2.245064030267287
 46
-2.245064030267287
 79
     0
 98
        1
 10
224.2447855081732
 20
249.5042545922845
1001
ACAD
1010
0.0
1020
0.0
1030
0.0
  0
LINE
  5
3F56
330
1A
100
AcDbEntity
  8
SEALING
100
AcDbLine
 10
220.559500854439
 20
240.1256916613014
 30
0.0000000000000007
 11
220.559500854439
 21
248.8756916613015
 31
0.0000000000000007
  0
LINE
  5
3F57
330
1A
100
AcDbEntity
  8
SEALING
100
AcDbLine
 10
220.559500854439
 20
248.8756916613015
 30
0.0000000000000007
 11
218.5595008544396
 21
248.8756916612996
 31
0.0000000000008941
  0
LINE
  5
3F58
330
1A
100
AcDbEntity
  8
SEALING
100
AcDbLine
 10
229.0595008544392
 20
253.3756916612995
 30
0.0000000000016035
 11
218.5595008544396
 21
253.3756916612996
 31
0.0000000000000007
  0
LINE
  5
3F59
330
1A
100
AcDbEntity
  8
SEALING
100
AcDbLine
 10
361.809500854439
 20
381.3756916613005
 30
0.0000000000000007
 11
353.0595008544399
 21
381.375691661301
 31
0.0000000000000007
  0
LINE
  5
3F5A
330
1A
100
AcDbEntity
  8
SEALING
100
AcDbLine
 10
353.0595008544399
 20
381.375691661301
 30
0.0000000000000007
 11
353.0595008544399
 21
383.3756916613012
 31
0.0000000000008941
  0
ARC
  5
3F5B
330
1A
100
AcDbEntity
  8
YAKUMONO
100
AcDbCircle
 10
220.0595008544399
 20
381.8756916613023
 30
0.0000000000000007
 40
2.0
100
AcDbArc
 50
90.0
 51
180.0
  0
ARC
  5
3F5C
330
1A
100
AcDbEntity
  8
YAKUMONO
100
AcDbCircle
 10
220.0595008544399
 20
381.8756916613015
 30
0.0000000000000007
 40
1.5
100
AcDbArc
 50
90.0
 51
180.0
  0
LINE
  5
3F5D
330
1A
100
AcDbEntity
  8
YAKUMONO
100
AcDbLine
 10
220.559500854439
 20
248.8756916613015
 30
0.0000000000000007
 11
220.559500854439
 21
240.1256916613014
 31
0.0000000000000007
  0
LINE
  5
3F5E
330
1A
100
AcDbEntity
  8
YAKUMONO
100
AcDbLine
 10
220.0595008544399
 20
248.875691661301
 30
0.000000000000224
 11
220.0595008544399
 21
240.125691661301
 31
0.0000000000000007
  0
LINE
  5
3F5F
330
1A
100
AcDbEntity
  8
YAKUMONO
100
AcDbLine
 10
218.559500854439
 20
262.8756864937491
 30
0.0000000000000007
 11
218.5595008544399
 21
240.1256916613027
 31
0.0000000000000007
  0
LINE
  5
3F60
330
1A
100
AcDbEntity
  8
YAKUMONO
100
AcDbLine
 10
218.0595008544399
 20
262.8756886374213
 30
0.0000000000000007
 11
218.0595008544399
 21
240.1256916613027
 31
0.0000000000000007
  0
LINE
  5
3F61
330
1A
100
AcDbEntity
  8
YAKUMONO
100
AcDbLine
 10
218.0595008544399
 20
381.8756916613023
 30
0.0000000000000007
 11
218.0595008544408
 21
280.8756886374213
 31
0.0000000000000007
  0
LINE
  5
3F62
330
1A
100
AcDbEntity
  8
YAKUMONO
100
AcDbLine
 10
218.5595008544399
 20
280.87568649375
 30
0.0000000000000007
 11
218.5595008544408
 21
381.8756916613015
 31
0.0000000000000007
  0
LINE
  5
3F63
330
1A
100
AcDbEntity
  8
YAKUMONO
100
AcDbLine
 10
219.0595008544399
 20
279.8756886374208
 30
0.0000000000000007
 11
228.0595008544399
 21
279.8756886374204
 31
0.0000000000000007
  0
LINE
  5
3F64
330
1A
100
AcDbEntity
  8
YAKUMONO
100
AcDbLine
 10
219.0595008544399
 20
280.3756864937491
 30
0.0000000000000007
 11
228.059500854439
 21
280.3756864937497
 31
0.0000000000000007
  0
LINE
  5
3F65
330
1A
100
AcDbEntity
  8
YAKUMONO
100
AcDbLine
 10
228.0595008544399
 20
263.8756886374195
 30
0.0000000000000007
 11
219.0595008544399
 21
263.8756886374209
 31
0.0000000000000007
  0
LINE
  5
3F66
330
1A
100
AcDbEntity
  8
YAKUMONO
100
AcDbLine
 10
228.059500854439
 20
263.3756864937506
 30
0.0000000000000007
 11
219.059500854439
 21
263.3756864937496
 31
0.0000000000000007
  0
LINE
  5
3F67
330
1A
100
AcDbEntity
  8
YAKUMONO
100
AcDbLine
 10
220.0595008544399
 20
248.875691661301
 30
0.000000000000224
 11
220.559500854439
 21
248.8756916613015
 31
0.0000000000000007
  0
ARC
  5
3F68
330
1A
100
AcDbEntity
  8
YAKUMONO
100
AcDbCircle
 10
219.0595008544408
 20
280.8756886374213
 30
0.0000000000000007
 40
1.0
100
AcDbArc
 50
180.0
 51
270.0
  0
ARC
  5
3F69
330
1A
100
AcDbEntity
  8
YAKUMONO
100
AcDbCircle
 10
219.0595008544399
 20
262.87568863742
 30
0.0000000000000007
 40
1.0
100
AcDbArc
 50
90.0
 51
180.0
  0
ARC
  5
3F6A
330
1A
100
AcDbEntity
  8
YAKUMONO
100
AcDbCircle
 10
228.0595008544399
 20
279.3756864937523
 30
0.0000000000000007
 40
1.0
100
AcDbArc
 50
0.0
 51
90.0
  0
ARC
  5
3F6B
330
1A
100
AcDbEntity
  8
YAKUMONO
100
AcDbCircle
 10
228.0595008544399
 20
264.3756864937523
 30
0.0000000000000007
 40
1.0
100
AcDbArc
 50
270.0
 51
0.0
  0
ARC
  5
3F6C
330
1A
100
AcDbEntity
  8
YAKUMONO
100
AcDbCircle
 10
219.0595008544408
 20
262.8756864937506
 30
0.0000000000000007
 40
0.5
100
AcDbArc
 50
90.0
 51
180.0
  0
ARC
  5
3F6D
330
1A
100
AcDbEntity
  8
YAKUMONO
100
AcDbCircle
 10
228.0595008544399
 20
264.3756886374209
 30
0.0000000000000007
 40
0.5
100
AcDbArc
 50
270.0
 51
0.0
  0
ARC
  5
3F6E
330
1A
100
AcDbEntity
  8
YAKUMONO
100
AcDbCircle
 10
228.0595008544399
 20
279.3756886374204
 30
0.0000000000000007
 40
0.5
100
AcDbArc
 50
0.0
 51
90.0
  0
ARC
  5
3F6F
330
1A
100
AcDbEntity
  8
YAKUMONO
100
AcDbCircle
 10
219.0595008544399
 20
280.87568649375
 30
0.0000000000000007
 40
0.5
100
AcDbArc
 50
180.0
 51
270.0
  0
LINE
  5
3F70
330
1A
100
AcDbEntity
  8
YAKUMONO
100
AcDbLine
 10
219.309500854439
 20
238.8756916613014
 30
0.0000000000000007
 11
219.3095008544381
 21
238.8756916613023
 31
0.0000000000000007
  0
LINE
  5
3F71
330
1A
100
AcDbEntity
  8
YAKUMONO
100
AcDbLine
 10
219.309500854439
 20
239.3756916613014
 30
0.0000000000000007
 11
219.3095008544417
 21
239.375691661301
 31
0.0000000000000007
  0
ARC
  5
3F72
330
1A
100
AcDbEntity
  8
YAKUMONO
100
AcDbCircle
 10
219.3095008544399
 20
240.1256916613027
 30
0.0000000000000007
 40
1.25
100
AcDbArc
 50
180.0
 51
0.0
  0
ARC
  5
3F73
330
1A
100
AcDbEntity
  8
YAKUMONO
100
AcDbCircle
 10
219.3095008544399
 20
240.1256916613027
 30
0.0000000000000007
 40
0.75
100
AcDbArc
 50
180.0
 51
0.0
  0
LINE
  5
3F74
330
1A
100
AcDbEntity
  8
YAKUMONO
100
AcDbLine
 10
353.0595008544399
 20
381.375691661301
 30
0.0000000000000007
 11
361.809500854439
 21
381.3756916613005
 31
0.0000000000000007
  0
LINE
  5
3F75
330
1A
100
AcDbEntity
  8
YAKUMONO
100
AcDbLine
 10
353.0595008544399
 20
381.8756916612993
 30
0.000000000000224
 11
361.809500854439
 21
381.8756916612993
 31
0.0000000000000007
  0
LINE
  5
3F76
330
1A
100
AcDbEntity
  8
YAKUMONO
100
AcDbLine
 10
339.0595060219907
 20
383.3756916613002
 30
0.0000000000000007
 11
361.8095008544399
 21
383.375691661301
 31
0.0000000000000007
  0
LINE
  5
3F77
330
1A
100
AcDbEntity
  8
YAKUMONO
100
AcDbLine
 10
339.0595038783199
 20
383.8756916613005
 30
0.0000000000000007
 11
361.8095008544399
 21
383.8756916613009
 31
0.0000000000000007
  0
LINE
  5
3F78
330
1A
100
AcDbEntity
  8
YAKUMONO
100
AcDbLine
 10
322.0595038783208
 20
382.8756916612996
 30
0.0000000000000007
 11
322.0595038783208
 21
373.8756916613009
 31
0.0000000000000007
  0
LINE
  5
3F79
330
1A
100
AcDbEntity
  8
YAKUMONO
100
AcDbLine
 10
321.5595060219907
 20
382.8756916612996
 30
0.0000000000000007
 11
321.5595060219907
 21
373.8756916613007
 31
0.0000000000000007
  0
LINE
  5
3F7A
330
1A
100
AcDbEntity
  8
YAKUMONO
100
AcDbLine
 10
338.0595038783208
 20
373.8756916612993
 30
0.0000000000000007
 11
338.0595038783208
 21
382.8756916612996
 31
0.0000000000000007
  0
LINE
  5
3F7B
330
1A
100
AcDbEntity
  8
YAKUMONO
100
AcDbLine
 10
338.5595060219916
 20
373.8756916612997
 30
0.0000000000000007
 11
338.5595060219916
 21
382.875691661301
 31
0.0000000000000007
  0
LINE
  5
3F7C
330
1A
100
AcDbEntity
  8
YAKUMONO
100
AcDbLine
 10
353.0595008544399
 20
381.8756916612993
 30
0.000000000000224
 11
353.0595008544399
 21
381.375691661301
 31
0.0000000000000007
  0
ARC
  5
3F7D
330
1A
100
AcDbEntity
  8
YAKUMONO
100
AcDbCircle
 10
321.0595038783199
 20
382.875691661301
 30
0.0000000000000007
 40
1.0
100
AcDbArc
 50
0.0
 51
90.0
  0
ARC
  5
3F7E
330
1A
100
AcDbEntity
  8
YAKUMONO
100
AcDbCircle
 10
339.0595038783199
 20
382.875691661301
 30
0.0000000000000007
 40
1.0
100
AcDbArc
 50
90.0
 51
180.0
  0
ARC
  5
3F7F
330
1A
100
AcDbEntity
  8
YAKUMONO
100
AcDbCircle
 10
322.5595060219916
 20
373.8756916613023
 30
0.0000000000000007
 40
1.0
100
AcDbArc
 50
180.0
 51
270.0
  0
ARC
  5
3F80
330
1A
100
AcDbEntity
  8
YAKUMONO
100
AcDbCircle
 10
337.5595060219916
 20
373.8756916613001
 30
0.0000000000000007
 40
1.0
100
AcDbArc
 50
270.0
 51
0.0
  0
ARC
  5
3F81
330
1A
100
AcDbEntity
  8
YAKUMONO
100
AcDbCircle
 10
339.0595060219926
 20
382.8756916613015
 30
0.0000000000000007
 40
0.5
100
AcDbArc
 50
90.0
 51
180.0
  0
ARC
  5
3F82
330
1A
100
AcDbEntity
  8
YAKUMONO
100
AcDbCircle
 10
337.5595038783208
 20
373.8756916613001
 30
0.0000000000000007
 40
0.5
100
AcDbArc
 50
270.0
 51
0.0
  0
ARC
  5
3F83
330
1A
100
AcDbEntity
  8
YAKUMONO
100
AcDbCircle
 10
322.5595038783199
 20
373.8756916613015
 30
0.0000000000000007
 40
0.5
100
AcDbArc
 50
180.0
 51
270.0
  0
ARC
  5
3F84
330
1A
100
AcDbEntity
  8
YAKUMONO
100
AcDbCircle
 10
321.0595060219916
 20
382.8756916613005
 30
0.0000000000000007
 40
0.5
100
AcDbArc
 50
0.0
 51
90.0
  0
LINE
  5
3F85
330
1A
100
AcDbEntity
  8
YAKUMONO
100
AcDbLine
 10
363.0595008544399
 20
382.6256916613001
 30
0.0000000000000007
 11
363.059500854439
 21
382.6256916613005
 31
0.0000000000000007
  0
LINE
  5
3F86
330
1A
100
AcDbEntity
  8
YAKUMONO
100
AcDbLine
 10
362.5595008544399
 20
382.6256916613001
 30
0.0000000000000007
 11
362.5595008544399
 21
382.6256916613001
 31
0.0000000000000007
  0
ARC
  5
3F87
330
1A
100
AcDbEntity
  8
YAKUMONO
100
AcDbCircle
 10
361.8095008544399
 20
382.6256916613009
 30
0.0000000000000007
 40
1.25
100
AcDbArc
 50
270.0
 51
90.0
  0
ARC
  5
3F88
330
1A
100
AcDbEntity
  8
YAKUMONO
100
AcDbCircle
 10
361.8095008544399
 20
382.6256916613009
 30
0.0000000000000007
 40
0.75
100
AcDbArc
 50
270.0
 51
90.0
  0
LINE
  5
3F89
330
1A
100
AcDbEntity
  8
YAKUMONO
100
AcDbLine
 10
220.0595008544389
 20
383.8756916613005
 30
0.0000000000000007
 11
321.0595038783199
 21
383.8756916613009
 31
0.0000000000000007
  0
LINE
  5
3F8A
330
1A
100
AcDbEntity
  8
YAKUMONO
100
AcDbLine
 10
321.0595060219916
 20
383.3756916613005
 30
0.0000000000000007
 11
220.0595008544399
 21
383.3756916612996
 31
0.0000000000000007
  0
LINE
  5
3F8B
330
1A
100
AcDbEntity
  8
SEALING
  6
DASHED2
 48
0.5
100
AcDbLine
 10
229.059500854439
 20
239.0650314813051
 30
0.0000000000026692
 11
229.0595006901692
 21
229.0650316373613
 31
0.0000000000035634
  0
ARC
  5
3F8C
330
1A
100
AcDbEntity
  8
SEALING
100
AcDbCircle
 10
224.2696120999331
 20
230.4174713107174
 30
-0.0000000000017863
 40
9.720315107010476
100
AcDbArc
 50
60.47712968488554
 51
114.7936649259045
  0
HATCH
  5
3F8D
330
1A
100
AcDbEntity
  8
SEALING
370
     9
100
AcDbHatch
 10
0.0
 20
0.0
 30
-0.0000000000008928
210
0.0
220
0.0
230
1.0
  2
ANSI37
 70
     0
 71
     0
 91
        1
 92
        1
 93
        7
 72
     1
 10
348.5595008544399
 20
372.8756916613015
 11
348.5595008544399
 21
383.3756916613005
 72
     1
 10
348.5595008544399
 20
383.3756916613005
 11
353.0595008544437
 21
383.3756916613018
 72
     1
 10
353.0595008544435
 20
383.3756916613018
 11
353.0595008544417
 21
381.3756916613023
 72
     1
 10
353.0595008544419
 20
381.3756916613023
 11
361.8095008544415
 21
381.3756916613034
 72
     2
 10
361.809498330173
 20
382.6256977554257
 40
1.250006094125001
 50
270.0001157033756
 51
314.9998842966427
 73
     1
 72
     2
 10
371.5177277384105
 20
377.6655822822889
 40
9.720321711842107
 50
155.206384535399
 51
209.5228609115635
 73
     1
 72
     1
 10
363.0595008544419
 20
372.8756916613023
 11
348.5595008544399
 21
372.8756916613015
 97
        0
 75
     0
 76
     1
 52
0.0
 41
1.0
 77
     0
 78
     2
 53
45.0
 43
-53.44049879646423
 44
8.075688330708736
 45
-2.245064030267287
 46
2.245064030267287
 79
     0
 53
135.0
 43
-53.44049879646423
 44
8.075688330708736
 45
-2.245064030267287
 46
-2.245064030267287
 79
     0
 98
        1
 10
352.4309379234587
 20
377.6904070075681
1001
ACAD
1010
0.0
1020
0.0
1030
0.0
  0
ARC
  5
3F8F
330
1A
100
AcDbEntity
  8
SEALING
100
AcDbCircle
 10
371.5176996268949
 20
377.6655811214532
 30
0.0000000000017863
 40
9.720296678333991
100
AcDbArc
 50
155.2063088364162
 51
209.5229366105426
  0
LINE
  5
3F90
330
1A
100
AcDbEntity
  8
SUNPOU
  6
CENTER2
100
AcDbLine
 10
142.620514631496
 20
245.3756883307171
 30
0.0
 11
431.5595012035355
 21
245.3756883307171
 31
0.0
  0
LINE
  5
3F91
330
1A
100
AcDbEntity
  8
SUNPOU
  6
CENTER2
100
AcDbLine
 10
356.5595012035359
 20
464.8307953773478
 30
0.0
 11
356.5595012035359
 21
170.375688330717
 31
0.0
  0
MTEXT
  5
3F92
330
1A
100
AcDbEntity
  8
SUNPOU
100
AcDbMText
 10
348.5477406924374
 20
472.5652806218177
 30
0.0
 40
5.0
 41
32.92428517347344
 46
0.0
 71
     1
 72
     5
  1
胴縁芯
 73
     1
 44
1.0
1001
ACAD
1000
ACAD_MTEXT_COLUMN_INFO_BEGIN
1070
    75
1070
     2
1070
    79
1070
     0
1070
    76
1070
     1
1070
    78
1070
     0
1070
    48
1040
32.92428517347344
1070
    49
1040
12.5
1070
    50
1070
     1
1040
0.0
1000
ACAD_MTEXT_COLUMN_INFO_END
  0
MTEXT
  5
3F93
330
1A
100
AcDbEntity
  8
SUNPOU
100
AcDbMText
 10
123.794545255665
 20
247.6114651978921
 30
0.0
 40
5.0
 41
32.92428517347344
 46
0.0
 71
     1
 72
     5
  1
胴縁芯
 73
     1
 44
1.0
1001
ACAD
1000
ACAD_MTEXT_COLUMN_INFO_BEGIN
1070
    75
1070
     2
1070
    79
1070
     0
1070
    76
1070
     1
1070
    78
1070
     0
1070
    48
1040
32.92428517347344
1070
    49
1040
12.5
1070
    50
1070
     1
1040
0.0
1000
ACAD_MTEXT_COLUMN_INFO_END
  0
DIMENSION
  5
3F94
330
1A
100
AcDbEntity
  8
SUNPOU
100
AcDbDimension
280
     0
  2
*D11
 10
338.0595038783208
 20
425.9912292297982
 30
-0.0000000000008929
 11
330.0595038783208
 21
429.1162292297982
 31
-0.0000000000008929
 70
    32
 71
     5
 42
16.0
 73
     0
 74
     0
 75
     0
  3
STANDARD
100
AcDbAlignedDimension
 13
322.0595038783208
 23
382.8756916612996
 33
0.0000000000000006
 14
338.0595038783208
 24
382.8756916612993
 34
0.0000000000000006
100
AcDbRotatedDimension
  0
DIMENSION
  5
3F95
330
1A
100
AcDbEntity
  8
SUNPOU
100
AcDbDimension
280
     0
  2
*D12
 10
363.0595038783217
 20
425.9912292297982
 30
-0.0000000000008929
 11
350.5595038783213
 21
429.1162292297982
 31
-0.0000000000008929
 70
    32
 71
     5
 42
25.00000000000091
 73
     0
 74
     0
 75
     0
  3
STANDARD
100
AcDbAlignedDimension
 13
338.0595038783208
 23
382.8756916612993
 33
0.0000000000000006
 14
363.0595038783217
 24
382.6256916613003
 34
0.0000000000000006
100
AcDbRotatedDimension
  0
DIMENSION
  5
3F96
330
1A
100
AcDbEntity
  8
SUNPOU
100
AcDbDimension
280
     0
  2
*D3
 10
229.0595008544426
 20
409.8557824729724
 30
0.0000000000027204
 11
292.8095010289892
 21
412.9807824729724
 31
0.0000000000027204
 70
    32
  1
125
 71
     5
 42
127.5000003490931
 73
     0
 74
     0
 75
     0
  3
STANDARD
100
AcDbAlignedDimension
 13
356.5595012035359
 23
397.2147627136483
 33
0.0
 14
229.0595008544426
 24
372.8756916613004
 34
0.0000000000000007
 50
180.0
100
AcDbRotatedDimension
  0
MULTILEADER
  5
3F98
330
1A
100
AcDbEntity
  8
HIKIDASI
160
               556
310
2C020000150000000C00000016000000000000C00C00000033000000000000000C00000013000000993A0000D40000002600000011F9803A4A437A4077AB4477AB037040000000000000000000000000000000000000000000000000000000000000F03F000000000000F03F00000000000000000000000000000000FA5185
310
9668637F670000320004000000010000000000000000001440000000000000F03F0000000000000000000000000000F03F000000000000000000000000000000000000000000000000000000000100000000000000000000007400780074002E00730068007800000065007800740066006F006E0074002E00730068007800
310
00000C00000033000000000000000C00000010000000090000000C00000016000000000000C00C00000012000000FF7F00000C00000013000000010000000C00000013000000891300003C000000060000000200000025B488B7F3C07840B25EC4D1028A72400000000000000000CBB43CF6051F7A4077AB4477AB2B704000
310
000000000000000C00000013000000112700003C0000000600000002000000CBB43CF6051F7A4077AB4477AB2B70400000000000000000654ED68F9F287A4077AB4477AB2B704000000000000000000C00000016000000000000C00C00000012000000FF7F00000C00000017000000000000000C000000130000009A3A0000
310
0C00000016000000000000C00C00000012000000FF7F00000C00000017000000FFFFFFFF0C0000003300000000000000
100
AcDbMLeader
270
     2
300
CONTEXT_DATA{
 40
1.0
 10
418.5389555331552
 20
258.7293617899335
 30
0.0
 41
5.0
140
0.0
145
2.0
174
     1
175
     3
176
     0
177
     0
290
     1
304
出隅捨板
 11
0.0
 21
0.0
 31
1.0
340
10
 12
420.5389555331552
 22
261.2293617899335
 32
0.0
 13
1.0
 23
0.0
 33
0.0
 42
0.0
 43
0.0
 44
0.0
 45
1.0
170
     1
 90
-1073741824
171
     1
172
     5
 91
-1073741824
141
0.0
 92
        0
291
     0
292
     0
173
     0
293
     0
142
0.0
143
0.0
294
     0
295
     0
296
     0
110
396.0595012035359
120
296.625688330717
130
0.0
111
1.0
121
0.0
131
0.0
112
0.0
122
1.0
132
0.0
297
     0
302
LEADER{
290
     1
291
     1
 10
417.9389555331551
 20
258.7293617899335
 30
0.0
 11
1.0
 21
0.0
 31
0.0
 90
        0
 40
0.6
304
LEADER_LINE{
 10
396.0595012035359
 20
296.625688330717
 30
0.0
 91
        0
305
}
271
     0
303
}
272
     9
273
     9
301
}
340
2822
 90
   279552
170
     1
 91
-1056964608
341
14
171
    -2
290
     1
291
     1
 41
0.6
342
B0
 42
0.0
172
     2
343
10
173
     1
 95
        3
174
     1
175
     0
 92
-1056964608
292
     0
 93
-1056964608
 10
1.0
 20
1.0
 30
1.0
 43
0.0
176
     0
293
     0
294
     0
178
     0
179
     1
 45
1.0
271
     0
272
     9
273
     9
1001
ACAD_MLEADERVER
1070
     2
  0
MULTILEADER
  5
3F99
330
1A
100
AcDbEntity
  8
HIKIDASI
160
               576
310
40020000150000000C00000016000000000000C00C00000033000000000000000C00000013000000993A0000E80000002600000072ADCCDE48197A40E6BD88AFC7E96540000000000000000000000000000000000000000000000000000000000000F03F000000000000F03F00000000000000000000000000000000A12531
310
0030003000D700310030003000D70032002E003300E54E0A4E000000000E000000010000000000000000001440000000000000F03F0000000000000000000000000000F03F000000000000000000000000000000000000000000000000000000000100000000000000000000007400780074002E0073006800780000006500
310
7800740066006F006E0074002E0073006800780000000C00000033000000000000000C00000010000000090000000C00000016000000000000C00C00000012000000FF7F00000C00000013000000010000000C00000013000000891300003C0000000600000002000000049408B8F44C794067E3A172709268400000000000
310
00000083BEDDEF59FA7940E6BD88AFC739664000000000000000000C00000013000000112700003C000000060000000200000083BEDDEF59FA7940E6BD88AFC739664000000000000000001D587789F3037A40E6BD88AFC739664000000000000000000C00000016000000000000C00C00000012000000FF7F00000C000000
310
17000000000000000C000000130000009A3A00000C00000016000000000000C00C00000012000000FF7F00000C00000017000000FFFFFFFF0C0000003300000000000000
100
AcDbMLeader
270
     2
300
CONTEXT_DATA{
 40
1.0
 10
416.2469572698482
 20
177.8056256933916
 30
0.0
 41
5.0
140
0.0
145
2.0
174
     1
175
     3
176
     0
177
     0
290
     1
304
□100×100×2.3以上
 11
0.0
 21
0.0
 31
1.0
340
10
 12
418.246957269848
 22
180.3056256933916
 32
0.0
 13
1.0
 23
0.0
 33
0.0
 42
0.0
 43
0.0
 44
0.0
 45
1.0
170
     1
 90
-1073741824
171
     1
172
     5
 91
-1073741824
141
0.0
 92
        0
291
     0
292
     0
173
     0
293
     0
142
0.0
143
0.0
294
     0
295
     0
296
     0
110
404.8097458205304
120
196.5762265359765
130
0.0
111
1.0
121
0.0
131
0.0
112
0.0
122
1.0
132
0.0
297
     0
302
LEADER{
290
     1
291
     1
 10
415.6469572698481
 20
177.8056256933916
 30
0.0
 11
1.0
 21
0.0
 31
0.0
 90
        0
 40
0.6
304
LEADER_LINE{
 10
404.8097458205304
 20
196.5762265359765
 30
0.0
 91
        0
305
}
271
     0
303
}
272
     9
273
     9
301
}
340
2822
 90
   279552
170
     1
 91
-1056964608
341
14
171
    -2
290
     1
291
     1
 41
0.6
342
B0
 42
0.0
172
     2
343
10
173
     1
 95
        3
174
     1
175
     0
 92
-1056964608
292
     0
 93
-1056964608
 10
1.0
 20
1.0
 30
1.0
 43
0.0
176
     0
293
     0
294
     0
178
     0
179
     1
 45
1.0
271
     0
272
     9
273
     9
1001
ACAD_MLEADERVER
1070
     2
  0
LINE
  5
3F9A
330
1A
100
AcDbEntity
  8
TEKUSU
  6
DASHED2
 48
0.5
100
AcDbLine
 10
228.5595008544424
 20
275.875688637429
 30
0.0000000000008935
 11
228.5595008544424
 21
267.8756886374292
 31
0.0000000000008935
  0
LINE
  5
3F9B
330
1A
100
AcDbEntity
  8
TEKUSU
  6
CENTER2
 48
0.5
370
     5
100
AcDbLine
 10
223.0756815307061
 20
271.875688637429
 30
0.0000000000008935
 11
244.3215129893442
 21
271.875688637429
 31
0.0000000000008935
1001
ACAD
1000
ASC_BOUNDS
1002
{
1070
    19
1002
}
  0
LINE
  5
3F9C
330
1A
100
AcDbEntity
  8
TEKUSU
  6
DASHED2
 48
0.5
100
AcDbLine
 10
238.0595008544422
 20
272.3530295801561
 30
0.0000000000008935
 11
241.1432846058797
 21
271.426613211348
 31
0.0000000000008935
  0
LINE
  5
3F9D
330
1A
100
AcDbEntity
  8
TEKUSU
  6
DASHED2
 48
0.5
100
AcDbLine
 10
238.0595008544422
 20
273.9256886374306
 30
0.0000000000008935
 11
239.6595008544473
 21
273.9256886374306
 31
0.0000000000008935
1001
ACAD
1000
ASC_BOUNDS
1002
{
1070
    19
1002
}
  0
LINE
  5
3F9E
330
1A
100
AcDbEntity
  8
TEKUSU
  6
DASHED2
 48
0.5
100
AcDbLine
 10
238.059500854441
 20
269.8256886374279
 30
0.0000000000008935
 11
239.6595008544473
 21
269.8256886374279
 31
0.0000000000008935
1001
ACAD
1000
ASC_BOUNDS
1002
{
1070
    19
1002
}
  0
LINE
  5
3F9F
330
1A
100
AcDbEntity
  8
TEKUSU
  6
DASHED2
 48
0.5
100
AcDbLine
 10
229.559500854441
 20
274.1256886374276
 30
0.0000000000008935
 11
238.0595008544424
 21
274.1256886374281
 31
0.0000000000008935
  0
LINE
  5
3FA0
330
1A
100
AcDbEntity
  8
TEKUSU
  6
DASHED2
 48
0.5
100
AcDbLine
 10
229.5595008544415
 20
269.6256886374308
 30
0.0000000000008935
 11
238.0595008544414
 21
269.6256886374308
 31
0.0000000000008935
  0
LINE
  5
3FA1
330
1A
100
AcDbEntity
  8
TEKUSU
  6
DASHED2
 48
0.5
100
AcDbLine
 10
238.059500854441
 20
269.6256886374308
 30
0.0000000000008935
 11
238.0595008544422
 21
274.1256886374276
 31
0.0000000000008935
1001
ACAD
1000
ASC_BOUNDS
1002
{
1070
    19
1002
}
  0
ARC
  5
3FA2
330
1A
100
AcDbEntity
  8
TEKUSU
  6
DASHED2
 48
0.5
100
AcDbCircle
 10
227.9986287488096
 20
275.6309125289285
 30
0.0000000000008935
 40
0.7472595700539684
100
AcDbArc
 50
85.32748224779508
 51
184.8078660453652
  0
ARC
  5
3FA3
330
1A
100
AcDbEntity
  8
TEKUSU
  6
DASHED2
 48
0.5
100
AcDbCircle
 10
228.0595008544424
 20
275.875688637429
 30
0.0000000000008935
 40
0.5
100
AcDbArc
 50
0.0
 51
90.0
  0
LINE
  5
3FA4
330
1A
100
AcDbEntity
  8
TEKUSU
  6
DASHED2
 48
0.5
100
AcDbLine
 10
241.5595008544415
 20
271.875688637429
 30
0.0000000000008935
 11
239.6595008544473
 21
269.8256886374279
 31
0.0000000000008935
1001
ACAD
1000
ASC_BOUNDS
1002
{
1070
    19
1002
}
  0
ARC
  5
3FA5
330
1A
100
AcDbEntity
  8
TEKUSU
  6
DASHED2
 48
0.5
100
AcDbCircle
 10
241.5718850953231
 20
271.4633998953281
 30
0.0000000000008935
 40
2.517798969140252
100
AcDbArc
 50
166.8892070343048
 51
220.5758057406374
  0
LINE
  5
3FA6
330
1A
100
AcDbEntity
  8
TEKUSU
  6
DASHED2
 48
0.5
100
AcDbLine
 10
241.5595008544415
 20
271.875688637429
 30
0.0000000000008935
 11
239.6595008544473
 21
273.9256886374306
 31
0.0000000000008935
1001
ACAD
1000
ASC_BOUNDS
1002
{
1070
    19
1002
}
  0
ARC
  5
3FA7
330
1A
100
AcDbEntity
  8
TEKUSU
  6
DASHED2
 48
0.5
100
AcDbCircle
 10
232.3642703050493
 20
271.875688637429
 30
0.0000000000008935
 40
6.304769450606842
100
AcDbArc
 50
144.1487859157
 51
215.8512140843
  0
ARC
  5
3FA8
330
1A
100
AcDbEntity
  8
TEKUSU
  6
DASHED2
 48
0.5
100
AcDbCircle
 10
227.9986287488093
 20
268.1204647459294
 30
0.0000000000008935
 40
0.7472595700534376
100
AcDbArc
 50
175.1921339546346
 51
274.6725177522311
  0
ARC
  5
3FA9
330
1A
100
AcDbEntity
  8
TEKUSU
  6
DASHED2
 48
0.5
100
AcDbCircle
 10
228.0595008544424
 20
267.875688637429
 30
0.0000000000008935
 40
0.5
100
AcDbArc
 50
270.0
 51
0.0
  0
LINE
  5
3FAA
330
1A
100
AcDbEntity
  8
TEKUSU
  6
DASHED2
 48
0.5
370
     5
100
AcDbLine
 10
229.5596138123585
 20
269.7804146470472
 30
0.0000000000008935
 11
229.5596138123585
 21
269.7804146470472
 31
0.0000000000008935
  0
LINE
  5
3FAB
330
1A
100
AcDbEntity
  8
TEKUSU
  6
DASHED2
 48
0.5
100
AcDbLine
 10
229.5595008544415
 20
269.6256886374308
 30
0.0000000000008935
 11
228.559500854446
 21
269.1256886374308
 31
0.0000000000008935
  0
LINE
  5
3FAC
330
1A
100
AcDbEntity
  8
TEKUSU
  6
DASHED2
 48
0.5
100
AcDbLine
 10
229.559500854441
 20
274.1256886374281
 30
0.0000000000008935
 11
228.5595008544456
 21
274.6256886374281
 31
0.0000000000008935
  0
LINE
  5
3FAD
330
1A
100
AcDbEntity
  8
TEKUSU
  6
DASHED2
 48
0.5
100
AcDbLine
 10
229.559500854441
 20
274.1256886374281
 30
0.0000000000008935
 11
229.5595008544415
 21
269.6256886374308
 31
0.0000000000008935
  0
LINE
  5
3FAE
330
1A
100
AcDbEntity
  8
TEKUSU
  6
DASHED2
 48
0.5
100
AcDbLine
 10
334.0595038783208
 20
373.3756916612999
 30
0.0000000000008935
 11
326.059503878321
 21
373.3756916612999
 31
0.0000000000008935
  0
LINE
  5
3FAF
330
1A
100
AcDbEntity
  8
TEKUSU
  6
CENTER2
 48
0.5
370
     5
100
AcDbLine
 10
330.0595038783208
 20
378.8595109850362
 30
0.0000000000008935
 11
330.0595038783208
 21
357.6136795263983
 31
0.0000000000008935
1001
ACAD
1000
ASC_BOUNDS
1002
{
1070
    19
1002
}
  0
LINE
  5
3FB0
330
1A
100
AcDbEntity
  8
TEKUSU
  6
DASHED2
 48
0.5
100
AcDbLine
 10
330.5368448210479
 20
363.8756916613004
 30
0.0000000000008935
 11
329.6104284522398
 21
360.7919079098626
 31
0.0000000000008935
  0
LINE
  5
3FB1
330
1A
100
AcDbEntity
  8
TEKUSU
  6
DASHED2
 48
0.5
100
AcDbLine
 10
332.1095038783223
 20
363.8756916613004
 30
0.0000000000008935
 11
332.1095038783223
 21
362.275691661295
 31
0.0000000000008935
1001
ACAD
1000
ASC_BOUNDS
1002
{
1070
    19
1002
}
  0
LINE
  5
3FB2
330
1A
100
AcDbEntity
  8
TEKUSU
  6
DASHED2
 48
0.5
100
AcDbLine
 10
328.0095038783197
 20
363.8756916613013
 30
0.0000000000008935
 11
328.0095038783197
 21
362.275691661295
 31
0.0000000000008935
1001
ACAD
1000
ASC_BOUNDS
1002
{
1070
    19
1002
}
  0
LINE
  5
3FB3
330
1A
100
AcDbEntity
  8
TEKUSU
  6
DASHED2
 48
0.5
100
AcDbLine
 10
332.3095038783193
 20
372.3756916613013
 30
0.0000000000008935
 11
332.3095038783199
 21
363.8756916612999
 31
0.0000000000008935
  0
LINE
  5
3FB4
330
1A
100
AcDbEntity
  8
TEKUSU
  6
DASHED2
 48
0.5
100
AcDbLine
 10
327.8095038783226
 20
372.3756916613008
 30
0.0000000000008935
 11
327.8095038783226
 21
363.8756916613008
 31
0.0000000000008935
  0
LINE
  5
3FB5
330
1A
100
AcDbEntity
  8
TEKUSU
  6
DASHED2
 48
0.5
100
AcDbLine
 10
327.8095038783226
 20
363.8756916613013
 30
0.0000000000008935
 11
332.3095038783193
 21
363.8756916613004
 31
0.0000000000008935
1001
ACAD
1000
ASC_BOUNDS
1002
{
1070
    19
1002
}
  0
ARC
  5
3FB6
330
1A
100
AcDbEntity
  8
TEKUSU
  6
DASHED2
 48
0.5
100
AcDbCircle
 10
333.8147277698204
 20
373.9365637669327
 30
0.0000000000008935
 40
0.7472595700539684
100
AcDbArc
 50
355.3274822477949
 51
94.80786604536492
  0
ARC
  5
3FB7
330
1A
100
AcDbEntity
  8
TEKUSU
  6
DASHED2
 48
0.5
100
AcDbCircle
 10
334.0595038783208
 20
373.8756916612999
 30
0.0000000000008935
 40
0.5
100
AcDbArc
 50
270.0
 51
0.0
  0
LINE
  5
3FB8
330
1A
100
AcDbEntity
  8
TEKUSU
  6
DASHED2
 48
0.5
100
AcDbLine
 10
330.0595038783208
 20
360.3756916613008
 30
0.0000000000008935
 11
328.0095038783197
 21
362.275691661295
 31
0.0000000000008935
1001
ACAD
1000
ASC_BOUNDS
1002
{
1070
    19
1002
}
  0
ARC
  5
3FB9
330
1A
100
AcDbEntity
  8
TEKUSU
  6
DASHED2
 48
0.5
100
AcDbCircle
 10
329.6472151362201
 20
360.3633074204193
 30
0.0000000000008935
 40
2.517798969140252
100
AcDbArc
 50
76.88920703430605
 51
130.5758057406363
  0
LINE
  5
3FBA
330
1A
100
AcDbEntity
  8
TEKUSU
  6
DASHED2
 48
0.5
100
AcDbLine
 10
330.0595038783208
 20
360.3756916613008
 30
0.0000000000008935
 11
332.1095038783223
 21
362.275691661295
 31
0.0000000000008935
1001
ACAD
1000
ASC_BOUNDS
1002
{
1070
    19
1002
}
  0
ARC
  5
3FBB
330
1A
100
AcDbEntity
  8
TEKUSU
  6
DASHED2
 48
0.5
100
AcDbCircle
 10
330.0595038783208
 20
369.5709222106933
 30
0.0000000000008935
 40
6.304769450606842
100
AcDbArc
 50
54.14878591570245
 51
125.8512140842975
  0
ARC
  5
3FBC
330
1A
100
AcDbEntity
  8
TEKUSU
  6
DASHED2
 48
0.5
100
AcDbCircle
 10
326.3042799868212
 20
373.9365637669333
 30
0.0000000000008935
 40
0.7472595700534376
100
AcDbArc
 50
85.19213395463507
 51
184.6725177522305
  0
ARC
  5
3FBD
330
1A
100
AcDbEntity
  8
TEKUSU
  6
DASHED2
 48
0.5
100
AcDbCircle
 10
326.0595038783208
 20
373.8756916612999
 30
0.0000000000008935
 40
0.5
100
AcDbArc
 50
180.0
 51
270.0
  0
LINE
  5
3FBE
330
1A
100
AcDbEntity
  8
TEKUSU
  6
DASHED2
 48
0.5
370
     5
100
AcDbLine
 10
327.9642298879389
 20
372.3755787033838
 30
0.0000000000008935
 11
327.9642298879389
 21
372.3755787033838
 31
0.0000000000008935
  0
LINE
  5
3FBF
330
1A
100
AcDbEntity
  8
TEKUSU
  6
DASHED2
 48
0.5
100
AcDbLine
 10
327.8095038783226
 20
372.3756916613008
 30
0.0000000000008935
 11
327.3095038783226
 21
373.3756916612963
 31
0.0000000000008935
  0
LINE
  5
3FC0
330
1A
100
AcDbEntity
  8
TEKUSU
  6
DASHED2
 48
0.5
100
AcDbLine
 10
332.3095038783199
 20
372.3756916613013
 30
0.0000000000008935
 11
332.8095038783199
 21
373.3756916612967
 31
0.0000000000008935
  0
LINE
  5
3FC1
330
1A
100
AcDbEntity
  8
TEKUSU
  6
DASHED2
 48
0.5
100
AcDbLine
 10
332.3095038783199
 20
372.3756916613013
 30
0.0000000000008935
 11
327.8095038783226
 21
372.3756916613008
 31
0.0000000000008935
  0
MULTILEADER
  5
3FC4
330
1A
100
AcDbEntity
  8
HIKIDASI
160
               568
310
38020000150000000C00000016000000000000C00C00000033000000000000000C00000013000000993A0000E0000000260000009128EF438F956040FC60B61593F97840B1DE64C8DAD0D3BC00000000000000000000000000000000000000000000F03F000000000000F03F00000000000000000000000000000000D130CD
310
30EB302C67534FFE7334580752AD65A052E55D00000B000000010000000000000000001440000000000000F03F0000000000000000000000000000F03F000000000000000000000000000000000000000000000000000000000100000000000000000000007400780074002E00730068007800000065007800740066006F00
310
6E0074002E0073006800780000000C00000033000000000000000C00000010000000090000000C00000016000000000000C00C00000012000000FF7F00000C00000013000000010000000C00000013000000891300003C000000060000000200000092FD556EE7A16C4080EA443D9AFA7540B1DE64C8DAD0D3BC16B177CC17
310
FE6840FB60B61593217940B1DE64C8DAD0D3BC0C00000013000000112700003C000000060000000200000016B177CC17FE6840FB60B61593217940B1DE64C8DAD0D3BCE37D4499E4EA6840FB60B61593217940B1DE64C8DAD0D3BC0C00000016000000000000C00C00000012000000FF7F00000C0000001700000000000000
310
0C000000130000009A3A00000C00000016000000000000C00C00000012000000FF7F00000C00000017000000FFFFFFFF0C0000003300000000000000
100
AcDbMLeader
270
     2
300
CONTEXT_DATA{
 40
1.0
 10
131.3404051149111
 20
402.0984093784496
 30
-0.0000000000000011
 41
5.0
140
0.0
145
2.0
174
     1
175
     3
176
     2
177
     0
290
     1
304
パネル本体現場切断加工
 11
0.0
 21
0.0
 31
1.0
340
10
 12
197.3404051149111
 22
404.5984093784498
 32
-0.0000000000000011
 13
1.0
 23
0.0
 33
0.0
 42
0.0
 43
0.0
 44
0.0
 45
1.0
170
     1
 90
-1073741824
171
     3
172
     5
 91
-1073741824
141
0.0
 92
        0
291
     0
292
     0
173
     0
293
     0
142
0.0
143
0.0
294
     0
295
     0
296
     0
110
229.0595008544447
120
351.6626560871155
130
-0.0000000000000011
111
1.0
121
0.0
131
0.0
112
0.0
122
1.0
132
0.0
297
     0
302
LEADER{
290
     1
291
     1
 10
199.940405114911
 20
402.0984093784496
 30
-0.0000000000000011
 11
-1.0
 21
0.0
 31
0.0
 90
        0
 40
0.6
304
LEADER_LINE{
 10
229.0595008544447
 20
351.6626560871155
 30
-0.0000000000000011
 91
        0
305
}
271
     0
303
}
272
     9
273
     9
301
}
340
2822
 90
   279552
170
     1
 91
-1056964608
341
14
171
    -2
290
     1
291
     1
 41
0.6
342
B0
 42
0.0
172
     2
343
10
173
     1
 95
        3
174
     1
175
     2
 92
-1056964608
292
     0
 93
-1056964608
 10
1.0
 20
1.0
 30
1.0
 43
0.0
176
     0
293
     0
294
     0
178
     0
179
     3
 45
1.0
271
     0
272
     9
273
     9
1001
ACAD_MLEADERVER
1070
     2
  0
MULTILEADER
  5
3FC6
330
1A
100
AcDbEntity
  8
HIKIDASI
160
               560
310
30020000150000000C00000016000000000000C00C00000033000000000000000C00000013000000993A0000D8000000260000006FABD6093C41644089D5A9CB81F477401A247C391C6C703D00000000000000000000000000000000000000000000F03F000000000000F03F00000000000000000000000000000000A230EB
310
30DF30C630FC30D7300000084006000000010000000000000000001440000000000000F03F0000000000000000000000000000F03F000000000000000000000000000000000000000000000000000000000100000000000000000000007400780074002E00730068007800000065007800740066006F006E0074002E007300
310
6800780000000C00000033000000000000000C00000010000000090000000C00000016000000000000C00C00000012000000FF7F00000C00000013000000010000000C00000013000000891300003C000000060000000200000028FD556EE7996C40E59DDFB1E1E874401A247C391C6C703DCFEACC6D7BE7684089D5A9CB81
310
1C78401A247C391C6C703D0C00000013000000112700003C0000000600000002000000CFEACC6D7BE7684089D5A9CB811C78401A247C391C6C703D9CB7993A48D4684089D5A9CB811C78401A247C391C6C703D0C00000016000000000000C00C00000012000000FF7F00000C00000017000000000000000C00000013000000
310
9A3A00000C00000016000000000000C00C00000012000000FF7F00000C00000017000000FFFFFFFF0C0000003300000000000000
100
AcDbMLeader
270
     2
300
CONTEXT_DATA{
 40
1.0
 10
160.7052455768044
 20
385.7816883691926
 30
0.0000000000009335
 41
5.0
140
0.0
145
2.0
174
     1
175
     3
176
     2
177
     0
290
     1
304
アルミテープ
 11
0.0
 21
0.0
 31
1.0
340
10
 12
196.6338170053759
 22
388.2816883691926
 32
0.0000000000009335
 13
1.0
 23
0.0
 33
0.0
 42
0.0
 43
0.0
 44
0.0
 45
1.0
170
     1
 90
-1073741824
171
     3
172
     5
 91
-1073741824
141
0.0
 92
        0
291
     0
292
     0
173
     0
293
     0
142
0.0
143
0.0
294
     0
295
     0
296
     0
110
253.0168853509881
120
292.626681407643
130
0.0000000000009335
111
1.0
121
0.0
131
0.0
112
0.0
122
1.0
132
0.0
297
     0
302
LEADER{
290
     1
291
     1
 10
199.2338170053758
 20
385.7816883691926
 30
0.0000000000009335
 11
-1.0
 21
0.0
 31
0.0
 90
        0
 40
0.6
304
LEADER_LINE{
 10
228.8095008544417
 20
334.5551012740164
 30
0.0000000000009335
 91
        0
305
}
271
     0
303
}
272
     9
273
     9
301
}
340
2822
 90
   345088
170
     1
 91
-1056964608
341
14
171
    -2
290
     1
291
     1
 41
0.6
342
B0
 42
0.0
172
     2
343
10
173
     1
 95
        3
174
     1
175
     2
 92
-1056964608
292
     0
 93
-1056964608
 10
1.0
 20
1.0
 30
1.0
 43
0.0
176
     0
293
     0
294
     0
178
     0
179
     3
 45
1.0
271
     0
272
     9
273
     9
1001
ACAD_MLEADERVER
1070
     2
  0
DIMENSION
  5
3FC7
330
1A
100
AcDbEntity
  8
SUNPOU
100
AcDbDimension
280
     0
  2
*D4
 10
190.3719569518047
 20
290.375688330719
 30
-0.0000000000000024
 11
187.2469569518048
 21
267.8756883307165
 31
-0.0000000000000024
 70
    32
 71
     5
 42
45.00000000000457
 73
     0
 74
     0
 75
     0
  3
STANDARD
100
AcDbAlignedDimension
 13
194.6047726428785
 23
245.3756883307143
 33
-0.0000000000000024
 14
229.059500854439
 24
290.3756883307189
 34
0.000000000002843
 50
90.0
100
AcDbRotatedDimension
  0
DIMENSION
  5
3FC8
330
1A
100
AcDbEntity
  8
SUNPOU
100
AcDbDimension
280
     0
  2
*D5
 10
190.3719569518047
 20
297.8756916613014
 30
-0.0000000000000024
 11
187.2469569518048
 21
294.1256899960091
 31
-0.0000000000000024
 70
    32
  1
5
 71
     5
 42
7.500003330584262
 73
     0
 74
     0
 75
     0
  3
STANDARD
100
AcDbAlignedDimension
 13
229.059500854439
 23
290.375688330717
 33
0.000000000002843
 14
229.059500854439
 24
297.8756916613012
 34
-0.0000000000000024
 50
90.0
100
AcDbRotatedDimension
  0
MULTILEADER
  5
40B0
330
1A
100
AcDbEntity
  8
HIKIDASI
160
               568
310
38020000150000000C00000016000000000000C00C00000033000000000000000C00000013000000993A0000E000000026000000447DA433027F7C400EA58DC22FC17840000000000000000000000000000000000000000000000000000000000000F03F000000000000F03F0000000000000000000000000000000010806B
310
70F430A130F330C93032FF3AFF17FF15FF36FF00000B000000010000000000000000001440000000000000F03F0000000000000000000000000000F03F000000000000000000000000000000000000000000000000000000000100000000000000000000007400780074002E00730068007800000065007800740066006F00
310
6E0074002E0073006800780000000C00000033000000000000000C00000010000000090000000C00000016000000000000C00C00000012000000FF7F00000C00000013000000010000000C00000013000000891300003C000000060000000200000068025F2D04687B40E56A42D5024E77400000000000000000ACE30A9A68
310
557C400EA58DC22FE9784000000000000000000C00000013000000112700003C0000000600000002000000ACE30A9A68557C400EA58DC22FE978400000000000000000467DA433025F7C400EA58DC22FE9784000000000000000000C00000016000000000000C00C00000012000000FF7F00000C0000001700000000000000
310
0C000000130000009A3A00000C00000016000000000000C00C00000012000000FF7F00000C00000017000000FFFFFFFF0C0000003300000000000000
100
AcDbMLeader
270
     2
300
CONTEXT_DATA{
 40
1.0
 10
453.9380375314106
 20
398.5741601498602
 30
0.0
 41
5.0
140
0.0
145
2.0
174
     1
175
     3
176
     0
177
     0
290
     1
304
耐火ヴァンドＲＺ７５Ｖ
 11
0.0
 21
0.0
 31
1.0
340
10
 12
455.9380375314106
 22
401.0741601498601
 32
0.0
 13
1.0
 23
0.0
 33
0.0
 42
0.0
 43
0.0
 44
0.0
 45
1.0
170
     1
 90
-1073741824
171
     1
172
     5
 91
-1073741824
141
0.0
 92
        0
291
     0
292
     0
173
     0
293
     0
142
0.0
143
0.0
294
     0
295
     0
296
     0
110
438.5010198317818
120
372.8756916613041
130
0.0
111
1.0
121
0.0
131
0.0
112
0.0
122
1.0
132
0.0
297
     0
302
LEADER{
290
     1
291
     1
 10
453.3380375314107
 20
398.5741601498602
 30
0.0
 11
1.0
 21
0.0
 31
0.0
 90
        0
 40
0.6
304
LEADER_LINE{
 10
438.5010198317818
 20
372.8756916613041
 30
0.0
 91
        0
305
}
271
     0
303
}
272
     9
273
     9
301
}
340
2822
 90
   279552
170
     1
 91
-1056964608
341
14
171
    -2
290
     1
291
     1
 41
0.6
342
B0
 42
0.0
172
     2
343
10
173
     1
 95
        3
174
     1
175
     0
 92
-1056964608
292
     0
 93
-1056964608
 10
1.0
 20
1.0
 30
1.0
 43
0.0
176
     0
293
     0
294
     0
178
     0
179
     1
 45
1.0
271
     0
272
     9
273
     9
  0
MULTILEADER
  5
40B2
330
1A
100
AcDbEntity
  8
HIKIDASI
160
               568
310
38020000150000000C00000016000000000000C00C00000033000000000000000C00000013000000993A0000E000000026000000A5A1F96162B97740E6FD945C88727940000000000000000000000000000000000000000000000000000000000000F03F000000000000F03F00000000000000000000000000000000B730FC
310
30EA30F330B03008FF25521490E55D8B4E09FF00000B000000010000000000000000001440000000000000F03F0000000000000000000000000000F03F000000000000000000000000000000000000000000000000000000000100000000000000000000007400780074002E00730068007800000065007800740066006F00
310
6E0074002E0073006800780000000C00000033000000000000000C00000010000000090000000C00000016000000000000C00C00000012000000FF7F00000C00000013000000010000000C00000013000000891300003C00000006000000020000004067C639DF7376401862068F4E9C77400000000000000000B8B20A7373
310
9A7740EAFD945C889A794000000000000000000C00000013000000112700003C0000000600000002000000B8B20A73739A7740EAFD945C889A79400000000000000000524CA40C0DA47740EAFD945C889A794000000000000000000C00000016000000000000C00C00000012000000FF7F00000C0000001700000000000000
310
0C000000130000009A3A00000C00000016000000000000C00C00000012000000FF7F00000C00000017000000FFFFFFFF0C0000003300000000000000
100
AcDbMLeader
270
     2
300
CONTEXT_DATA{
 40
1.0
 10
378.2531858842749
 20
409.658291418075
 30
0.0
 41
5.0
140
0.0
145
2.0
174
     1
175
     3
176
     0
177
     0
290
     1
304
シーリング（別途工事）
 11
0.0
 21
0.0
 31
1.0
340
10
 12
380.2531858842749
 22
412.1582914180748
 32
0.0
 13
1.0
 23
0.0
 33
0.0
 42
0.0
 43
0.0
 44
0.0
 45
1.0
170
     1
 90
-1073741824
171
     1
172
     5
 91
-1073741824
141
0.0
 92
        0
291
     0
292
     0
173
     0
293
     0
142
0.0
143
0.0
294
     0
295
     0
296
     0
110
359.241998457921
120
377.7691793679565
130
0.0
111
1.0
121
0.0
131
0.0
112
0.0
122
1.0
132
0.0
297
     0
302
LEADER{
290
     1
291
     1
 10
377.653185884275
 20
409.658291418075
 30
0.0
 11
1.0
 21
0.0
 31
0.0
 90
        0
 40
0.6
304
LEADER_LINE{
 10
359.241998457921
 20
377.7691793679565
 30
0.0
 91
        0
305
}
271
     0
303
}
272
     9
273
     9
301
}
340
2822
 90
   279552
170
     1
 91
-1056964608
341
14
171
    -2
290
     1
291
     1
 41
0.6
342
B0
 42
0.0
172
     2
343
10
173
     1
 95
        3
174
     1
175
     0
 92
-1056964608
292
     0
 93
-1056964608
 10
1.0
 20
1.0
 30
1.0
 43
0.0
176
     0
293
     0
294
     0
178
     0
179
     1
 45
1.0
271
     0
272
     9
273
     9
  0
MULTILEADER
  5
40B3
330
1A
100
AcDbEntity
  8
HIKIDASI
160
               572
310
3C020000150000000C00000016000000000000C00C00000033000000000000000C00000013000000993A0000E400000026000000E1D5DC2B41157740ABABBFDB8F0E7A40000000000000000000000000000000000000000000000000000000000000F03F000000000000F03F00000000000000000000000000000000D030C3
310
30AF30A230C330D730506708FF25521490E55D8B4E09FF00000D000000010000000000000000001440000000000000F03F0000000000000000000000000000F03F000000000000000000000000000000000000000000000000000000000100000000000000000000007400780074002E007300680078000000650078007400
310
66006F006E0074002E0073006800780000000C00000033000000000000000C00000010000000090000000C00000016000000000000C00C00000012000000FF7F00000C00000013000000010000000C00000013000000891300003C000000060000000200000061FE2AB7F3787540F36A42D502A277400000000000000000F6
310
E6ED3C52F67640ABABBFDB8F367A4000000000000000000C00000013000000112700003C0000000600000002000000F6E6ED3C52F67640ABABBFDB8F367A400000000000000000908087D6EBFF7640ABABBFDB8F367A4000000000000000000C00000016000000000000C00C00000012000000FF7F00000C00000017000000
310
000000000C000000130000009A3A00000C00000016000000000000C00C00000012000000FF7F00000C00000017000000FFFFFFFF0C0000003300000000000000
100
AcDbMLeader
270
     2
300
CONTEXT_DATA{
 40
1.0
 10
367.9950776379636
 20
419.4101216780788
 30
0.0
 41
5.0
140
0.0
145
2.0
174
     1
175
     3
176
     0
177
     0
290
     1
304
バックアップ材（別途工事）
 11
0.0
 21
0.0
 31
1.0
340
10
 12
369.9950776379635
 22
421.9101216780788
 32
0.0
 13
1.0
 23
0.0
 33
0.0
 42
0.0
 43
0.0
 44
0.0
 45
1.0
170
     1
 90
-1073741824
171
     1
172
     5
 91
-1073741824
141
0.0
 92
        0
291
     0
292
     0
173
     0
293
     0
142
0.0
143
0.0
294
     0
295
     0
296
     0
110
343.5595008544388
120
378.1256916613049
130
0.0
111
1.0
121
0.0
131
0.0
112
0.0
122
1.0
132
0.0
297
     0
302
LEADER{
290
     1
291
     1
 10
367.3950776379637
 20
419.4101216780788
 30
0.0
 11
1.0
 21
0.0
 31
0.0
 90
        0
 40
0.6
304
LEADER_LINE{
 10
343.5595008544388
 20
378.1256916613049
 30
0.0
 91
        0
305
}
271
     0
303
}
272
     9
273
     9
301
}
340
2822
 90
   279552
170
     1
 91
-1056964608
341
14
171
    -2
290
     1
291
     1
 41
0.6
342
B0
 42
0.0
172
     2
343
10
173
     1
 95
        3
174
     1
175
     0
 92
-1056964608
292
     0
 93
-1056964608
 10
1.0
 20
1.0
 30
1.0
 43
0.0
176
     0
293
     0
294
     0
178
     0
179
     1
 45
1.0
271
     0
272
     9
273
     9
  0
MULTILEADER
  5
40B4
330
1A
100
AcDbEntity
  8
HIKIDASI
160
               568
310
38020000150000000C00000016000000000000C00C00000033000000000000000C00000013000000993A0000E00000002600000086EBBAE9B6EB5E407B714C8E35587440000000000000000000000000000000000000000000000000000000000000F03F000000000000F03F00000000000000000000000000000000B730FC
310
30EA30F330B03008FF25521490E55D8B4E09FF00000B000000010000000000000000001440000000000000F03F0000000000000000000000000000F03F000000000000000000000000000000000000000000000000000000000100000000000000000000007400780074002E00730068007800000065007800740066006F00
310
6E0074002E0073006800780000000C00000033000000000000000C00000010000000090000000C00000016000000000000C00C00000012000000FF7F00000C00000013000000010000000C00000013000000891300003C0000000600000002000000703279D85C966B401765F884A3F47040000000000000000048FE65FD63
310
7E67407B714C8E3580744000000000000000000C00000013000000112700003C000000060000000200000048FE65FD637E67407B714C8E35807440000000000000000015CB32CA306B67407B714C8E3580744000000000000000000C00000016000000000000C00C00000012000000FF7F00000C0000001700000000000000
310
0C000000130000009A3A00000C00000016000000000000C00C00000012000000FF7F00000C00000017000000FFFFFFFF0C0000003300000000000000
100
AcDbMLeader
270
     2
300
CONTEXT_DATA{
 40
1.0
 10
122.3497057907158
 20
328.0130751596514
 30
0.0
 41
5.0
140
0.0
145
2.0
174
     1
175
     3
176
     2
177
     0
290
     1
304
シーリング（別途工事）
 11
0.0
 21
0.0
 31
1.0
340
10
 12
185.3497057907159
 22
330.5130751596514
 32
0.0
 13
1.0
 23
0.0
 33
0.0
 42
0.0
 43
0.0
 44
0.0
 45
1.0
170
     1
 90
-1073741824
171
     3
172
     5
 91
-1073741824
141
0.0
 92
        0
291
     0
292
     0
173
     0
293
     0
142
0.0
143
0.0
294
     0
295
     0
296
     0
110
220.6988336913232
120
271.2899217322278
130
0.0
111
1.0
121
0.0
131
0.0
112
0.0
122
1.0
132
0.0
297
     0
302
LEADER{
290
     1
291
     1
 10
187.9497057907158
 20
328.0130751596514
 30
0.0
 11
-1.0
 21
0.0
 31
0.0
 90
        0
 40
0.6
304
LEADER_LINE{
 10
220.6988336913232
 20
271.2899217322278
 30
0.0
 91
        0
305
}
271
     0
303
}
272
     9
273
     9
301
}
340
2822
 90
   279552
170
     1
 91
-1056964608
341
14
171
    -2
290
     1
291
     1
 41
0.6
342
B0
 42
0.0
172
     2
343
10
173
     1
 95
        3
174
     1
175
     2
 92
-1056964608
292
     0
 93
-1056964608
 10
1.0
 20
1.0
 30
1.0
 43
0.0
176
     0
293
     0
294
     0
178
     0
179
     3
 45
1.0
271
     0
272
     9
273
     9
  0
MULTILEADER
  5
40B5
330
1A
100
AcDbEntity
  8
HIKIDASI
160
               560
310
30020000150000000C00000016000000000000C00C00000033000000000000000C00000013000000993A0000D800000026000000029412FFB2A2634026B574CB79947640000000000000000000000000000000000000000000000000000000000000F03F000000000000F03F00000000000000000000000000000000FA5185
310
96AB30D030FC3017FF15FF000007000000010000000000000000001440000000000000F03F0000000000000000000000000000F03F000000000000000000000000000000000000000000000000000000000100000000000000000000007400780074002E00730068007800000065007800740066006F006E0074002E007300
310
6800780000000C00000033000000000000000C00000010000000090000000C00000016000000000000C00C00000012000000FF7F00000C00000013000000010000000C00000013000000891300003C0000000600000002000000F7FC556EE7416B40058FACD302B674400000000000000000861C9B873BEB684026B574CB79
310
BC764000000000000000000C00000013000000112700003C0000000600000002000000861C9B873BEB684026B574CB79BC7640000000000000000053E9675408D8684026B574CB79BC764000000000000000000C00000016000000000000C00C00000012000000FF7F00000C00000017000000000000000C00000013000000
310
9A3A00000C00000016000000000000C00C00000012000000FF7F00000C00000017000000FFFFFFFF0C0000003300000000000000
100
AcDbMLeader
270
     2
300
CONTEXT_DATA{
 40
1.0
 10
155.4176834770381
 20
363.779735046281
 30
0.0
 41
5.0
140
0.0
145
2.0
174
     1
175
     3
176
     2
177
     0
290
     1
304
出隅カバー７５
 11
0.0
 21
0.0
 31
1.0
340
10
 12
196.7510168103715
 22
366.279735046281
 32
0.0
 13
1.0
 23
0.0
 33
0.0
 42
0.0
 43
0.0
 44
0.0
 45
1.0
170
     1
 90
-1073741824
171
     3
172
     5
 91
-1073741824
141
0.0
 92
        0
291
     0
292
     0
173
     0
293
     0
142
0.0
143
0.0
294
     0
295
     0
296
     0
110
218.0595008544403
120
331.3756901493619
130
0.0
111
1.0
121
0.0
131
0.0
112
0.0
122
1.0
132
0.0
297
     0
302
LEADER{
290
     1
291
     1
 10
199.3510168103714
 20
363.779735046281
 30
0.0
 11
-1.0
 21
0.0
 31
0.0
 90
        0
 40
0.6
304
LEADER_LINE{
 10
218.0595008544403
 20
331.3756901493619
 30
0.0
 91
        0
305
}
271
     0
303
}
272
     9
273
     9
301
}
340
2822
 90
   279552
170
     1
 91
-1056964608
341
14
171
    -2
290
     1
291
     1
 41
0.6
342
B0
 42
0.0
172
     2
343
10
173
     1
 95
        3
174
     1
175
     2
 92
-1056964608
292
     0
 93
-1056964608
 10
1.0
 20
1.0
 30
1.0
 43
0.0
176
     0
293
     0
294
     0
178
     0
179
     3
 45
1.0
271
     0
272
     9
273
     9
  0
MULTILEADER
  5
40B6
330
1A
100
AcDbEntity
  8
HIKIDASI
160
               568
310
38020000150000000C00000016000000000000C00C00000033000000000000000C00000013000000993A0000E00000002600000009C39CC595B560407ED200E2E1EE6940000000000000000000000000000000000000000000000000000000000000F03F000000000000F03F00000000000000000000000000000000C930EA
310
30EB30D330B93008FF8485FC927F67287509FF00000B000000010000000000000000001440000000000000F03F0000000000000000000000000000F03F000000000000000000000000000000000000000000000000000000000100000000000000000000007400780074002E00730068007800000065007800740066006F00
310
6E0074002E0073006800780000000C00000033000000000000000C00000010000000090000000C00000016000000000000C00C00000012000000FF7F00000C00000013000000010000000C00000013000000891300003C0000000600000002000000BE2994D73E246D4084365023B2EE70400000000000000000914B254E1E
310
BE68407ED200E2E13E6A4000000000000000000C00000013000000112700003C0000000600000002000000914B254E1EBE68407ED200E2E13E6A4000000000000000005E18F21AEBAA68407ED200E2E13E6A4000000000000000000C00000016000000000000C00C00000012000000FF7F00000C0000001700000000000000
310
0C000000130000009A3A00000C00000016000000000000C00C00000012000000FF7F00000C00000017000000FFFFFFFF0C0000003300000000000000
100
AcDbMLeader
270
     2
300
CONTEXT_DATA{
 40
1.0
 10
134.0078660388077
 20
209.9650735870418
 30
0.0
 41
5.0
140
0.0
145
2.0
174
     1
175
     3
176
     2
177
     0
290
     1
304
ドリルビス（薄鋼板用）
 11
0.0
 21
0.0
 31
1.0
340
10
 12
195.341199372141
 22
212.4650735870418
 32
0.0
 13
1.0
 23
0.0
 33
0.0
 42
0.0
 43
0.0
 44
0.0
 45
1.0
170
     1
 90
-1073741824
171
     3
172
     5
 91
-1073741824
141
0.0
 92
        0
291
     0
292
     0
173
     0
293
     0
142
0.0
143
0.0
294
     0
295
     0
296
     0
110
233.1326711553392
120
270.9184907086676
130
0.0
111
1.0
121
0.0
131
0.0
112
0.0
122
1.0
132
0.0
297
     0
302
LEADER{
290
     1
291
     1
 10
197.941199372141
 20
209.9650735870418
 30
0.0
 11
-1.0
 21
0.0
 31
0.0
 90
        0
 40
0.6
304
LEADER_LINE{
 10
233.1326711553392
 20
270.9184907086676
 30
0.0
 91
        0
305
}
271
     0
303
}
272
     9
273
     9
301
}
340
2822
 90
   279552
170
     1
 91
-1056964608
341
14
171
    -2
290
     1
291
     1
 41
0.6
342
B0
 42
0.0
172
     2
343
10
173
     1
 95
        3
174
     1
175
     2
 92
-1056964608
292
     0
 93
-1056964608
 10
1.0
 20
1.0
 30
1.0
 43
0.0
176
     0
293
     0
294
     0
178
     0
179
     3
 45
1.0
271
     0
272
     9
273
     9
  0
MTEXT
  5
44CB
102
{ACAD_XDICTIONARY
360
44CC
102
}
330
1A
100
AcDbEntity
  8
WAKU
100
AcDbMText
 10
74.52519081084483
 20
23.21985646788348
 30
0.0
 40
5.0
 41
130.7517663064795
 46
0.0
 71
     1
 72
     5
  1
\pi17.11446;アイジーヴァンド参考ディテール
  7
WAKU
 73
     1
 44
1.0
  0
MTEXT
  5
44CD
102
{ACAD_XDICTIONARY
360
44CE
102
}
330
1A
100
AcDbEntity
  8
WAKU
100
AcDbMText
 10
-15.74930500466598
 20
23.21985646788348
 30
0.0
 40
5.0
 41
71.82723587241572
 46
0.0
 71
     1
 72
     5
  1
\pi3.9593;アイジー工業株式会社
  7
WAKU
 73
     1
 44
1.0
  0
DIMENSION
  5
4685
330
1A
100
AcDbEntity
  8
SUNPOU
100
AcDbDimension
280
     0
  2
*D13
 10
369.8030917923335
 20
250.3756886798121
 30
0.0000000000008935
 11
369.8030917923335
 21
272.8756885052628
 31
0.0000000000008935
 70
   160
 71
     5
 42
44.99999965090345
 73
     0
 74
     0
 75
     0
  3
STANDARD
100
AcDbAlignedDimension
 13
359.4054729191921
 23
295.3756883307154
 33
0.0
 14
332.6456813549833
 24
250.375688679812
 34
0.0000000000008935
 50
270.0
100
AcDbRotatedDimension
  0
DIMENSION
  5
469B
330
1A
100
AcDbEntity
  8
SUNPOU
100
AcDbDimension
280
     0
  2
*D14
 10
391.7898608772889
 20
372.8756916613019
 30
0.0
 11
388.6648608772889
 21
378.3756916613013
 31
0.0
 70
    33
 71
     5
 42
10.99999999999926
 73
     0
 74
     0
 75
     0
  3
STANDARD
100
AcDbAlignedDimension
 13
361.8095008544399
 23
383.8756916613009
 33
0.0000000000000007
 14
361.8095008544401
 24
372.8756916613018
 34
0.0
  0
DIMENSION
  5
46A9
330
1A
100
AcDbEntity
  8
SUNPOU
100
AcDbDimension
280
     0
  2
*D15
 10
379.2996808658648
 20
383.8756916613011
 30
0.0
 11
376.1746808658648
 21
389.1673583279677
 31
0.0
 70
    32
  1
3
 71
     5
 42
2.500000000000509
 73
     0
 74
     0
 75
     0
  3
STANDARD
100
AcDbAlignedDimension
 13
361.809500854439
 23
381.3756916613005
 33
0.0000000000000007
 14
361.8095008544409
 24
383.8756916613009
 34
0.0
 50
90.0
100
AcDbRotatedDimension
  0
MULTILEADER
  5
46F3
330
1A
100
AcDbEntity
  8
HIKIDASI
160
               580
310
44020000150000000C00000016000000000000C00C00000033000000000000000C00000013000000993A0000EC00000026000000E8DF434242617A4010DC1DF3EF7F5D40000000000000000000000000000000000000000000000000000000000000F03F000000000000F03F00000000000000000000000000000000430031
310
0030003000D70035003000D70032003000D70032002E003300E54E0A4E0000000010000000010000000000000000001440000000000000F03F0000000000000000000000000000F03F000000000000000000000000000000000000000000000000000000000100000000000000000000007400780074002E00730068007800
310
000065007800740066006F006E0074002E0073006800780000000C00000033000000000000000C00000010000000090000000C00000016000000000000C00C00000012000000FF7F00000C00000013000000010000000C00000013000000891300003C000000060000000200000020B488B7F368794039BD88A305DC614000
310
000000000000004E46AAA8A8377A4010DC1DF3EF1F5E4000000000000000000C00000013000000112700003C00000006000000020000004E46AAA8A8377A4010DC1DF3EF1F5E400000000000000000E8DF434242417A4010DC1DF3EF1F5E4000000000000000000C00000016000000000000C00C00000012000000FF7F0000
310
0C00000017000000000000000C000000130000009A3A00000C00000016000000000000C00C00000012000000FF7F00000C00000017000000FFFFFFFF0C0000003300000000000000
100
AcDbMLeader
270
     2
300
CONTEXT_DATA{
 40
1.0
 10
420.0786764766077
 20
120.4990203658674
 30
0.0
 41
5.0
140
0.0
145
2.0
174
     1
175
     3
176
     0
177
     0
290
     1
304
C100×50×20×2.3以上
 11
0.0
 21
0.0
 31
1.0
340
10
 12
422.0786764766075
 22
122.9990203658674
 32
0.0
 13
1.0
 23
0.0
 33
0.0
 42
0.0
 43
0.0
 44
0.0
 45
1.0
170
     1
 90
-1073741824
171
     1
172
     5
 91
-1073741824
141
0.0
 92
        0
291
     0
292
     0
173
     0
293
     0
142
0.0
143
0.0
294
     0
295
     0
296
     0
110
406.5595012035355
120
142.8756883307158
130
0.0
111
1.0
121
0.0
131
0.0
112
0.0
122
1.0
132
0.0
297
     0
302
LEADER{
290
     1
291
     1
 10
419.4786764766075
 20
120.4990203658674
 30
0.0
 11
1.0
 21
0.0
 31
0.0
 90
        0
 40
0.6
304
LEADER_LINE{
 10
406.5595012035355
 20
142.8756883307158
 30
0.0
 91
        0
305
}
271
     0
303
}
272
     9
273
     9
301
}
340
2822
 90
   279552
170
     1
 91
-1056964608
341
14
171
    -2
290
     1
291
     1
 41
0.6
342
B0
 42
0.0
172
     2
343
10
173
     1
 95
        3
174
     1
175
     0
 92
-1056964608
292
     0
 93
-1056964608
 10
1.0
 20
1.0
 30
1.0
 43
0.0
176
     0
293
     0
294
     0
178
     0
179
     1
 45
1.0
271
     0
272
     9
273
     9
  0
VIEWPORT
  5
22
330
17
100
AcDbEntity
 67
     1
  8
0
348
27F2
100
AcDbViewport
 10
261.5176991150442
 20
154.7242978687078
 30
0.0
 40
523.0353982300885
 41
309.4485957374157
 68
     1
 69
     1
 12
261.5176991150442
 22
154.7242978687078
 13
0.0
 23
0.0
 14
1.0
 24
1.0
 15
10.0
 25
10.0
 16
0.0
 26
0.0
 36
1.0
 17
0.0
 27
0.0
 37
0.0
 42
50.0
 43
0.0
 44
0.0
 45
309.4485957374157
 50
0.0
 51
0.0
 72
   100
 90
    32768
  1

281
     0
 71
     1
 74
     0
110
0.0
120
0.0
130
0.0
111
1.0
121
0.0
131
0.0
112
0.0
122
1.0
132
0.0
 79
     0
146
0.0
170
     0
 61
     5
292
     1
282
     1
141
0.0
142
0.0
 63
   250
421
  3355443
  0
ENDSEC
  0
SECTION
  2
OBJECTS
  0
DICTIONARY
  5
C
330
0
100
AcDbDictionary
281
     1
  3
ACAD_CIP_PREVIOUS_PRODUCT_INFO
350
28F7
  3
ACAD_COLOR
350
3B0
  3
ACAD_DETAILVIEWSTYLE
350
2A86
  3
ACAD_GROUP
350
D
  3
ACAD_LAYOUT
350
3B1
  3
ACAD_MATERIAL
350
3AF
  3
ACAD_MLEADERSTYLE
350
2821
  3
ACAD_MLINESTYLE
350
E
  3
ACAD_PLOTSETTINGS
350
3B2
  3
ACAD_PLOTSTYLENAME
350
3AD
  3
ACAD_SCALELIST
350
27FF
  3
ACAD_SECTIONVIEWSTYLE
350
2A84
  3
ACAD_TABLESTYLE
350
27FD
  3
ACAD_VISUALSTYLE
350
27EC
  3
AcadDim
350
D85
  3
ACDB_RECOMPOSE_DATA
350
47E0
  3
AcDbVariableDictionary
350
16B3
  3
AcDsDecomposeData
350
47E6
  0
DICTIONARY
  5
289B
330
8
100
AcDbDictionary
280
     1
281
     1
  0
DICTIONARY
  5
16F6
330
2
100
AcDbDictionary
280
     1
281
     1
  3
ACAD_LAYERFILTERS
360
20B3
  3
ACAD_LAYERSTATES
360
16F7
  0
DICTIONARY
  5
2891
330
F
100
AcDbDictionary
280
     1
281
     1
  3
ADSK_XREC_LAYER_RECONCILED
360
2892
  0
DICTIONARY
  5
2893
330
87
100
AcDbDictionary
280
     1
281
     1
  3
ADSK_XREC_LAYER_RECONCILED
360
2894
  0
DICTIONARY
  5
2895
330
1502
100
AcDbDictionary
280
     1
281
     1
  3
ADSK_XREC_LAYER_RECONCILED
360
2896
  0
DICTIONARY
  5
2342
330
2341
100
AcDbDictionary
280
     1
281
     1
  3
ADSK_XREC_LAYER_RECONCILED
360
2344
  0
DICTIONARY
  5
23C9
330
23C8
100
AcDbDictionary
280
     1
281
     1
  3
ADSK_XREC_LAYER_RECONCILED
360
23CB
  0
DICTIONARY
  5
23CD
330
23CC
100
AcDbDictionary
280
     1
281
     1
  3
ADSK_XREC_LAYER_RECONCILED
360
23CF
  0
DICTIONARY
  5
23D1
330
23D0
100
AcDbDictionary
280
     1
281
     1
  3
ADSK_XREC_LAYER_RECONCILED
360
23D3
  0
DICTIONARY
  5
23D5
330
23D4
100
AcDbDictionary
280
     1
281
     1
  3
ADSK_XREC_LAYER_RECONCILED
360
23D7
  0
DICTIONARY
  5
23D9
330
23D8
100
AcDbDictionary
280
     1
281
     1
  3
ADSK_XREC_LAYER_RECONCILED
360
23DB
  0
DICTIONARY
  5
23DD
330
23DC
100
AcDbDictionary
280
     1
281
     1
  3
ADSK_XREC_LAYER_RECONCILED
360
23DF
  0
DICTIONARY
  5
297E
330
1A
100
AcDbDictionary
280
     1
281
     1
  3
ACAD_SORTENTS
360
297F
  0
DICTIONARY
  5
471C
330
3EA7
100
AcDbDictionary
280
     1
281
     1
  3
ACAD_MTEXT_2008_RT
360
47DD
  0
DICTIONARY
  5
44CC
330
44CB
100
AcDbDictionary
280
     1
281
     1
  3
ACAD_MTEXT_2008_RT
360
47DE
  0
DICTIONARY
  5
44CE
330
44CD
100
AcDbDictionary
280
     1
281
     1
  3
ACAD_MTEXT_2008_RT
360
47DF
  0
XRECORD
  5
28F7
102
{ACAD_REACTORS
330
C
102
}
330
C
100
AcDbXrecord
280
     1
300
ACDLT
300
2017
300
86604ACDLT_2017_0F
  0
DICTIONARY
  5
3B0
102
{ACAD_REACTORS
330
C
102
}
330
C
100
AcDbDictionary
281
     1
  0
DICTIONARY
  5
2A86
102
{ACAD_REACTORS
330
C
102
}
330
C
100
AcDbDictionary
281
     1
  3
Metric50
350
2A87
  0
DICTIONARY
  5
D
102
{ACAD_REACTORS
330
C
102
}
330
C
100
AcDbDictionary
281
     1
  0
DICTIONARY
  5
3B1
102
{ACAD_REACTORS
330
C
102
}
330
C
100
AcDbDictionary
281
     1
  3
Model
350
3B3
  3
レイアウト1
350
3B4
  0
DICTIONARY
  5
3AF
102
{ACAD_REACTORS
330
C
102
}
330
C
100
AcDbDictionary
281
     1
  3
ByBlock
350
27E4
  3
ByLayer
350
27DC
  3
Global
350
16F3
  0
DICTIONARY
  5
2821
102
{ACAD_REACTORS
330
C
102
}
330
C
100
AcDbDictionary
281
     1
  3
Standard
350
2822
  0
DICTIONARY
  5
E
102
{ACAD_REACTORS
330
C
102
}
330
C
100
AcDbDictionary
281
     1
  3
STANDARD
350
13
  0
DICTIONARY
  5
3B2
102
{ACAD_REACTORS
330
C
102
}
330
C
100
AcDbDictionary
281
     1
  0
ACDBDICTIONARYWDFLT
  5
3AD
102
{ACAD_REACTORS
330
C
102
}
330
C
100
AcDbDictionary
281
     1
  3
Normal
350
3AE
100
AcDbDictionaryWithDefault
340
3AE
  0
DICTIONARY
  5
27FF
102
{ACAD_REACTORS
330
C
102
}
330
C
100
AcDbDictionary
281
     1
  3
A0
350
2800
  3
A1
350
2801
  3
A2
350
2802
  3
A3
350
2803
  3
A4
350
2804
  3
A5
350
2805
  3
A6
350
2806
  3
A7
350
2807
  3
A8
350
2808
  3
A9
350
2809
  3
B0
350
280A
  3
B1
350
280B
  3
B2
350
280C
  3
B3
350
280D
  3
B4
350
280E
  3
B5
350
280F
  3
B6
350
2810
  3
B7
350
2811
  3
B8
350
2812
  3
B9
350
2813
  3
C0
350
2814
  3
C1
350
2815
  3
C2
350
2816
  3
C3
350
2817
  3
C4
350
2818
  3
C5
350
2819
  3
C6
350
281A
  3
C7
350
281B
  3
C8
350
281C
  3
C9
350
281D
  3
D0
350
281E
  3
D1
350
281F
  3
D2
350
2820
  0
DICTIONARY
  5
2A84
102
{ACAD_REACTORS
330
C
102
}
330
C
100
AcDbDictionary
281
     1
  3
Metric50
350
2A85
  0
DICTIONARY
  5
27FD
102
{ACAD_REACTORS
330
C
102
}
330
C
100
AcDbDictionary
281
     1
  3
Standard
350
27FE
  0
DICTIONARY
  5
27EC
102
{ACAD_REACTORS
330
C
102
}
330
C
100
AcDbDictionary
281
     1
  3
2dWireframe
350
27F2
  3
3D Hidden
350
27F4
  3
3dWireframe
350
27F3
  3
Basic
350
27F1
  3
Brighten
350
27F8
  3
ColorChange
350
27FC
  3
Conceptual
350
27F5
  3
Dim
350
27F7
  3
EdgeColorOff
350
28F1
  3
Facepattern
350
27FB
  3
Flat
350
27ED
  3
FlatWithEdges
350
27EE
  3
Gouraud
350
27EF
  3
GouraudWithEdges
350
27F0
  3
Hidden
350
28E9
  3
JitterOff
350
28EF
  3
Linepattern
350
27FA
  3
OverhangOff
350
28F0
  3
Realistic
350
27F6
  3
Shaded
350
28EE
  3
Shaded with edges
350
28ED
  3
Shades of Gray
350
28EA
  3
Sketchy
350
28EB
  3
Thicken
350
27F9
  3
Wireframe
350
28E8
  3
X-Ray
350
28EC
  0
XRECORD
  5
D85
102
{ACAD_REACTORS
330
C
102
}
330
C
100
AcDbXrecord
280
     1
 90
   990106
  3
NONE
 60
     0
 61
     0
 62
     1
 63
     3
 64
     0
 65
     0
 66
     0
 67
     3
 68
     1
 69
     0
 70
     4
 71
     4
 72
     0
 40
0.0
170
     1
340
0
  0
XRECORD
  5
47E0
102
{ACAD_REACTORS
330
C
102
}
330
C
100
AcDbXrecord
280
     1
 90
        1
330
27FE
330
3EA7
330
3F92
330
3F93
330
44CB
330
44CD
  0
DICTIONARY
  5
16B3
102
{ACAD_REACTORS
330
C
102
}
330
C
100
AcDbDictionary
281
     1
  3
CANNOSCALE
350
28B6
  3
CMLEADERSTYLE
350
28B5
  3
CTABLESTYLE
350
28B4
  3
CVIEWDETAILSTYLE
350
2CBF
  3
CVIEWSECTIONSTYLE
350
2CC0
  3
DIMASSOC
350
16B4
  3
INDEXCTL
350
28B8
  3
LAYEREVAL
350
342E
  3
LAYERNOTIFY
350
342F
  3
LIGHTINGUNITS
350
342D
  3
MSLTSCALE
350
342C
  3
PROJECTNAME
350
16B5
  3
SORTENTS
350
28B7
  3
XCLIPFRAME
350
412E
  0
DICTIONARY
  5
47E6
102
{ACAD_REACTORS
330
C
102
}
330
C
100
AcDbDictionary
281
     1
  3
AcDsRecords
350
47E8
  3
AcDsSchemas
350
47E7
1001
ACAD
1070
     2
  0
DICTIONARY
  5
20B3
102
{ACAD_REACTORS
330
16F6
102
}
330
16F6
100
AcDbDictionary
281
     1
  0
DICTIONARY
  5
16F7
102
{ACAD_REACTORS
330
16F6
102
}
330
16F6
100
AcDbDictionary
281
     1
  0
XRECORD
  5
2892
102
{ACAD_REACTORS
330
2891
102
}
330
2891
100
AcDbXrecord
280
     1
290
     1
  0
XRECORD
  5
2894
102
{ACAD_REACTORS
330
2893
102
}
330
2893
100
AcDbXrecord
280
     1
290
     1
  0
XRECORD
  5
2896
102
{ACAD_REACTORS
330
2895
102
}
330
2895
100
AcDbXrecord
280
     1
290
     1
  0
XRECORD
  5
2344
102
{ACAD_REACTORS
330
2342
102
}
330
2342
100
AcDbXrecord
280
     1
290
     1
  0
XRECORD
  5
23CB
102
{ACAD_REACTORS
330
23C9
102
}
330
23C9
100
AcDbXrecord
280
     1
290
     1
  0
XRECORD
  5
23CF
102
{ACAD_REACTORS
330
23CD
102
}
330
23CD
100
AcDbXrecord
280
     1
290
     1
  0
XRECORD
  5
23D3
102
{ACAD_REACTORS
330
23D1
102
}
330
23D1
100
AcDbXrecord
280
     1
290
     1
  0
XRECORD
  5
23D7
102
{ACAD_REACTORS
330
23D5
102
}
330
23D5
100
AcDbXrecord
280
     1
290
     1
  0
XRECORD
  5
23DB
102
{ACAD_REACTORS
330
23D9
102
}
330
23D9
100
AcDbXrecord
280
     1
290
     1
  0
XRECORD
  5
23DF
102
{ACAD_REACTORS
330
23DD
102
}
330
23DD
100
AcDbXrecord
280
     1
290
     1
  0
SORTENTSTABLE
  5
297F
102
{ACAD_REACTORS
330
297E
102
}
330
297E
100
AcDbSortentsTable
330
1A
331
3FA2
  5
3F94
331
3FA6
  5
3F99
331
3F9A
  5
3F8C
331
3F9E
  5
3F90
331
3E82
  5
3E7E
331
3E86
  5
3E82
331
44CB
  5
3FC3
331
3F3B
  5
3F30
331
3F3F
  5
3F34
331
3EC3
  5
3EBE
331
3F70
  5
3F65
331
3F33
  5
3F28
331
3EC7
  5
3EC2
331
3EF8
  5
3EF2
331
3F74
  5
3F69
331
3F37
  5
3F2C
331
3EBB
  5
3EB6
331
3EFC
  5
3EF6
331
3EBF
  5
3EBA
331
3FB2
  5
3FA5
331
3FB6
  5
3FA9
331
3FAA
  5
3F9D
331
3FAE
  5
3FA1
331
3F48
  5
3F3D
331
3ED0
  5
3FBC
331
3F4C
  5
3F41
331
3F40
  5
3F35
331
3F03
  5
3EFD
331
3E97
  5
3E93
331
3ED4
  5
3ECE
331
3EC8
  5
3EC3
331
3F44
  5
3F39
331
3E8B
  5
3E87
331
3F07
  5
3F01
331
3ECC
  5
3EC7
331
3E8F
  5
3E8B
331
3F82
  5
3F77
331
3FC7
  5
3FB5
331
3F86
  5
3F7B
331
3FBB
  5
3FAE
331
3F7A
  5
3F6F
331
3FBF
  5
3FB2
331
3F7E
  5
3F73
331
469B
  5
3FC7
331
3F58
  5
3F4D
331
3F1B
  5
3F15
331
3EE0
  5
3EDA
331
3F5C
  5
3F51
331
3F1F
  5
3F18
331
3EA3
  5
3E9F
331
3F50
  5
3F45
331
3F13
  5
3F07
331
3EE4
  5
3EDE
331
3EA7
  5
3EA3
331
3F54
  5
3F49
331
3E9B
  5
3E97
331
3F17
  5
3F11
331
3ED8
  5
3ED2
331
3E9F
  5
3E9B
331
3EDC
  5
3ED6
331
3F92
  5
3F87
331
3F96
  5
3F8B
331
3F8A
  5
3F7F
331
3E79
  5
3E75
331
3E7D
  5
3E79
331
3E71
  5
3FB9
331
3E75
  5
3E71
331
40B2
  5
44CB
331
40B6
  5
46A9
331
3F6B
  5
3F60
331
3F2A
  5
3F22
331
3EB2
  5
3EAE
331
3F2E
  5
3FC1
331
3F6F
  5
3F64
331
3EF3
  5
3EED
331
3F63
  5
3F58
331
3F22
  5
3F1B
331
3EB6
  5
3EB1
331
3EF7
  5
3EF1
331
3F67
  5
3F5C
331
3F26
  5
3F1F
331
3EEB
  5
3EE5
331
3EAA
  5
3EA6
331
3EEF
  5
3EE9
331
3EAE
  5
3EAA
331
3FA1
  5
3F93
331
3FA5
  5
3F98
331
3F99
  5
40B3
331
3F9D
  5
3F8F
331
3E81
  5
3E7D
331
3E85
  5
3E81
331
4685
  5
3FC6
331
3F3A
  5
3F2F
331
3F3E
  5
3F33
331
3EC2
  5
3EBD
331
3F73
  5
3F68
331
3F32
  5
3F27
331
3EC6
  5
3EC1
331
3EBA
  5
3EB5
331
3F77
  5
3F6C
331
3F36
  5
3F2B
331
3EFB
  5
3EF5
331
3EBE
  5
3EB9
331
3EFF
  5
3EF9
331
3FB1
  5
3FA4
331
3FB5
  5
3FA8
331
3FA9
  5
3F9C
331
3FAD
  5
3FA0
331
3F4B
  5
3F40
331
3F0A
  5
3F04
331
3E92
  5
3E8E
331
3F4F
  5
3F44
331
3ED3
  5
3ECD
331
3F43
  5
3F38
331
3E96
  5
3E92
331
3F02
  5
3EFC
331
3ED7
  5
3ED1
331
3ECB
  5
3EC6
331
3F47
  5
3F3C
331
3F06
  5
3F00
331
3E8A
  5
3E86
331
3ECF
  5
3ECA
331
3F81
  5
3F76
331
3F85
  5
3F7A
331
3FC6
  5
40B5
331
3F79
  5
3F6E
331
3FBA
  5
3FAD
331
3F7D
  5
3F72
331
3FBE
  5
3FB1
331
3F5B
  5
3F50
331
3F1A
  5
3F14
331
3F5F
  5
3F54
331
3F1E
  5
3F17
331
3EE3
  5
3EDD
331
3EA2
  5
3E9E
331
3F53
  5
3F48
331
3F12
  5
3F06
331
3EE7
  5
3EE1
331
3EA6
  5
3EA2
331
3E9A
  5
3E96
331
3F57
  5
3F4C
331
3F16
  5
3F0A
331
3EDB
  5
3ED5
331
3E9E
  5
3E9A
331
3EDF
  5
3ED9
331
3F91
  5
3F86
331
3F95
  5
3F8A
331
3F89
  5
3F7E
331
3F8D
  5
3F82
331
3E78
  5
3E74
331
3E7C
  5
3E78
331
3E74
  5
3FB7
331
40B5
  5
469B
331
46A9
  5
3FC8
331
3F29
  5
3FBE
331
3F2D
  5
3FC0
331
3F6A
  5
3F5F
331
3EB1
  5
3EAD
331
3F21
  5
3F1A
331
3EB5
  5
3FBD
331
3F6E
  5
3F63
331
3EF2
  5
3EEC
331
3F62
  5
3F57
331
3F25
  5
3F1E
331
3EA9
  5
3EA5
331
3EF6
  5
3EF0
331
3F66
  5
3F5B
331
3EAD
  5
3EA9
331
3EEA
  5
3EE4
331
3EEE
  5
3EE8
331
3FA0
  5
3F92
331
3FA4
  5
3F96
331
3F98
  5
40B2
331
3F9C
  5
3F8E
331
3E80
  5
3E7C
331
3E84
  5
3E80
331
44CD
  5
3FC4
331
3F39
  5
3F2E
331
3F3D
  5
3F32
331
3EC1
  5
3EBC
331
3F31
  5
3F26
331
3EC5
  5
3EC0
331
3F72
  5
3F67
331
3EB9
  5
3EB4
331
3F35
  5
3F2A
331
3F76
  5
3F6B
331
3EBD
  5
3EB8
331
3EFA
  5
3EF4
331
3EFE
  5
3EF8
331
3FB0
  5
3FA3
331
3FB4
  5
3FA7
331
3FA8
  5
3F9B
331
3FAC
  5
3F9F
331
3F09
  5
3F03
331
3F4A
  5
3F3F
331
3E91
  5
3E8D
331
3F01
  5
3EFB
331
3F4E
  5
3F43
331
3E95
  5
3E91
331
3ED2
  5
3ECC
331
3F42
  5
3F37
331
3F05
  5
3EFF
331
3E89
  5
3E85
331
3ED6
  5
3ED0
331
3ECA
  5
3EC5
331
3F46
  5
3F3B
331
3E8D
  5
3E89
331
3ECE
  5
3EC9
331
3FC1
  5
3FB4
331
3F80
  5
3F75
331
3F84
  5
3F79
331
3FB9
  5
3FAC
331
3F78
  5
3F6D
331
3FBD
  5
3FB0
331
3F7C
  5
3F71
331
3F19
  5
3F13
331
3F5A
  5
3F4F
331
3EA1
  5
3E9D
331
3F1D
  5
3F16
331
3F11
  5
3F05
331
3F5E
  5
3F53
331
3EA5
  5
3EA1
331
3EE2
  5
3EDC
331
3F52
  5
3F47
331
3E99
  5
3E95
331
3F15
  5
3F09
331
3EE6
  5
3EE0
331
3F56
  5
3F4B
331
3E9D
  5
3E99
331
3EDA
  5
3ED4
331
3EDE
  5
3ED8
331
3F90
  5
3F85
331
3F94
  5
3F89
331
3F88
  5
3F7D
331
3F8C
  5
3F81
331
3E7B
  5
3E77
331
3E7F
  5
3E7B
331
3E73
  5
3FBB
331
3E77
  5
3E73
331
40B0
  5
40B6
331
40B4
  5
4685
331
3F69
  5
3F5E
331
3F28
  5
3F21
331
3F6D
  5
3F62
331
3F2C
  5
3F23
331
3EF1
  5
3EEB
331
3EB0
  5
3EAC
331
3F61
  5
3F56
331
3F20
  5
3F19
331
3EF5
  5
3EEF
331
3EB4
  5
3EB0
331
3F65
  5
3F5A
331
3F24
  5
3F1D
331
3EE9
  5
3EE3
331
3EA8
  5
3EA4
331
3EED
  5
3EE7
331
3EAC
  5
3EA8
331
3FA3
  5
3F95
331
3FA7
  5
3F9A
331
3F9B
  5
3F8D
331
3F9F
  5
3F91
331
3E83
  5
3E7F
331
3E87
  5
3E83
331
3F38
  5
3F2D
331
3F3C
  5
3F31
331
3EC0
  5
3EBB
331
3F71
  5
3F66
331
3F30
  5
3F25
331
3EC4
  5
3EBF
331
3EB8
  5
3EB3
331
3F75
  5
3F6A
331
3F34
  5
3F29
331
3EF9
  5
3EF3
331
3EBC
  5
3EB7
331
3EFD
  5
3EF7
331
3FB3
  5
3FA6
331
3FB7
  5
3FAA
331
3FAB
  5
3F9E
331
3FAF
  5
3FA2
331
3F49
  5
3F3E
331
3F08
  5
3F02
331
3E90
  5
3E8C
331
3F4D
  5
3F42
331
3ED1
  5
3ECB
331
3F41
  5
3F36
331
3E94
  5
3E90
331
3F00
  5
3EFA
331
3ED5
  5
3ECF
331
3EC9
  5
3EC4
331
3F45
  5
3F3A
331
3F04
  5
3EFE
331
3E88
  5
3E84
331
3ECD
  5
3EC8
331
3E8C
  5
3E88
331
46F3
  5
46F3
331
3FC0
  5
3FB3
331
3F83
  5
3F78
331
3FC4
  5
40B4
331
3F87
  5
3F7C
331
3FB8
  5
3FAB
331
3F7B
  5
3F70
331
3FBC
  5
3FAF
331
3F7F
  5
3F74
331
3F59
  5
3F4E
331
3F18
  5
3F12
331
3F1C
  5
40B0
331
3F5D
  5
3F52
331
3EE1
  5
3EDB
331
3EA0
  5
3E9C
331
3F51
  5
3F46
331
3EE5
  5
3EDF
331
3EA4
  5
3EA0
331
3E98
  5
3E94
331
3F55
  5
3F4A
331
3F14
  5
3F08
331
3ED9
  5
3ED3
331
3E9C
  5
3E98
331
3EDD
  5
3ED7
331
3F93
  5
3F88
331
3FC8
  5
3FB6
331
3F8B
  5
3F80
331
3F8F
  5
3F83
331
3E7A
  5
3E76
331
3E7E
  5
3E7A
331
3E72
  5
3FBA
331
3E76
  5
3E72
331
40B3
  5
44CD
331
3F2B
  5
3FBF
331
3F68
  5
3F5D
331
3EF0
  5
3EEA
331
3F6C
  5
3F61
331
3F2F
  5
3F24
331
3EB3
  5
3EAF
331
3F60
  5
3F55
331
3F23
  5
3F1C
331
3EF4
  5
3EEE
331
3EB7
  5
3EB2
331
3EE8
  5
3EE2
331
3F64
  5
3F59
331
3F27
  5
3F20
331
3EAB
  5
3EA7
331
3EEC
  5
3EE6
331
3EAF
  5
3EAB
  0
XRECORD
  5
47DD
102
{ACAD_REACTORS
330
471C
102
}
330
471C
100
AcDbXrecord
280
     1
 40
18373814.0
  1
\pxqc;耐火ヴァンドＲＺ７５Ｖ　出隅部・出隅カバー７５
  0
XRECORD
  5
47DE
102
{ACAD_REACTORS
330
44CC
102
}
330
44CC
100
AcDbXrecord
280
     1
 40
4386876.0
  1
\pxqc;アイジーヴァンド参考ディテール
  0
XRECORD
  5
47DF
102
{ACAD_REACTORS
330
44CE
102
}
330
44CE
100
AcDbXrecord
280
     1
 40
3316594.0
  1
\pxqc;アイジー工業株式会社
  0
ACDBDETAILVIEWSTYLE
  5
2A87
102
{ACAD_XDICTIONARY
360
47BD
102
}
102
{ACAD_REACTORS
330
2A86
102
}
330
2A86
100
AcDbModelDocViewStyle
 70
     0
  3
Metric50
290
     0
100
AcDbDetailViewStyle
 70
     0
 71
     0
 90
        3
 71
     1
340
10
 62
   256
 40
5.0
340
0
 62
   256
 40
5.0
300

 40
0.0
280
     1
 71
     2
340
16
 90
       25
 62
   256
 71
     3
340
10
 62
   256
 40
5.0
 90
        0
 40
15.0
 90
        1
300
%<\AcVar ViewDetailId>% (%<\AcVar ViewScale \f "%sn">%)
 71
     4
340
16
 90
       25
 62
   256
340
16
 90
       25
 62
   256
280
     0
1001
ACAD
1000
AcRTDxfName
1000
ACDBDETAILVIEWSTYLE
1000
AcRTDxfName
1000
ACDBDETAILVIEWSTYLE
1000
AcRTDxfName
1000
ACDBDETAILVIEWSTYLE
1000
AcRTDxfName
1000
ACDBDETAILVIEWSTYLE
1000
AcRTDxfName
1000
ACDBDETAILVIEWSTYLE
1000
AcRTDxfName
1000
ACDBDETAILVIEWSTYLE
  0
LAYOUT
  5
3B3
102
{ACAD_REACTORS
330
3B1
102
}
330
3B1
100
AcDbPlotSettings
  1

  2
none_device
  4
ISO_A3_(420.00_x_297.00_MM)
  6

 40
7.5
 41
20.0
 42
7.5
 43
20.0
 44
420.0
 45
297.0
 46
0.0
 47
0.0
 48
0.0
 49
0.0
140
0.0
141
0.0
142
1.0
143
2.0
 70
 11904
 72
     1
 73
     0
 74
     2
  7

 75
     0
147
0.4326599326599327
 76
     0
 77
     2
 78
   300
148
0.0
149
0.0
100
AcDbLayout
  1
Model
 70
     1
 71
     0
 10
0.0
 20
0.0
 11
12.0
 21
9.0
 12
0.0
 22
0.0
 32
0.0
 14
0.0
 24
0.0
 34
0.0
 15
0.0
 25
0.0
 35
0.0
146
0.0
 13
0.0
 23
0.0
 33
0.0
 16
1.0
 26
0.0
 36
0.0
 17
0.0
 27
1.0
 37
0.0
 76
     0
330
1A
331
28BE
1001
ACAD_PSEXT
1000
なし
1000
なし
1000
適切ではありません
1000
新しいプロッタ環境設定名を選択しない限り、レイアウトは印刷されません。
1070
     0
  0
LAYOUT
  5
3B4
102
{ACAD_REACTORS
330
3B1
102
}
330
3B1
100
AcDbPlotSettings
  1

  2
DocuCentre Color 400 (FAX)
  4

  6

 40
0.0
 41
0.0
 42
0.0
 43
0.0
 44
0.0
 45
0.0
 46
0.0
 47
0.0
 48
0.0
 49
0.0
140
0.0
141
0.0
142
1.0
143
1.0
 70
   688
 72
     0
 73
     0
 74
     5
  7
monochrome.ctb
 75
    16
147
1.0
 76
     0
 77
     2
 78
   300
148
0.0
149
0.0
100
AcDbLayout
  1
レイアウト1
 70
     1
 71
     1
 10
0.0
 20
0.0
 11
420.0
 21
297.0
 12
0.0
 22
0.0
 32
0.0
 14
1.000000000000000E+20
 24
1.000000000000000E+20
 34
1.000000000000000E+20
 15
-1.000000000000000E+20
 25
-1.000000000000000E+20
 35
-1.000000000000000E+20
146
0.0
 13
0.0
 23
0.0
 33
0.0
 16
1.0
 26
0.0
 36
0.0
 17
0.0
 27
1.0
 37
0.0
 76
     0
330
17
331
22
  0
MATERIAL
  5
27E4
102
{ACAD_XDICTIONARY
360
27E5
102
}
102
{ACAD_REACTORS
330
3AF
102
}
330
3AF
100
AcDbMaterial
  1
ByBlock
 72
     0
 43
0.0208333333333333
 43
0.0
 43
0.0
 43
0.0
 43
0.0
 43
0.0208333333333333
 43
0.0
 43
0.0
 43
0.0
 43
0.0
 43
1.0
 43
0.0
 43
0.0
 43
0.0
 43
0.0
 43
1.0
 77
     0
 47
0.0208333333333333
 47
0.0
 47
0.0
 47
0.0
 47
0.0
 47
0.0208333333333333
 47
0.0
 47
0.0
 47
0.0
 47
0.0
 47
1.0
 47
0.0
 47
0.0
 47
0.0
 47
0.0
 47
1.0
171
     0
 49
0.0208333333333333
 49
0.0
 49
0.0
 49
0.0
 49
0.0
 49
0.0208333333333333
 49
0.0
 49
0.0
 49
0.0
 49
0.0
 49
1.0
 49
0.0
 49
0.0
 49
0.0
 49
0.0
 49
1.0
175
     0
142
0.0208333333333333
142
0.0
142
0.0
142
0.0
142
0.0
142
0.0208333333333333
142
0.0
142
0.0
142
0.0
142
0.0
142
1.0
142
0.0
142
0.0
142
0.0
142
0.0
142
1.0
179
     0
144
0.0208333333333333
144
0.0
144
0.0
144
0.0
144
0.0
144
0.0208333333333333
144
0.0
144
0.0
144
0.0
144
0.0
144
1.0
144
0.0
144
0.0
144
0.0
144
0.0
144
1.0
147
0.0208333333333333
147
0.0
147
0.0
147
0.0
147
0.0
147
0.0208333333333333
147
0.0
147
0.0
147
0.0
147
0.0
147
1.0
147
0.0
147
0.0
147
0.0
147
0.0
147
1.0
  0
MATERIAL
  5
27DC
102
{ACAD_XDICTIONARY
360
27DD
102
}
102
{ACAD_REACTORS
330
3AF
102
}
330
3AF
100
AcDbMaterial
  1
ByLayer
 72
     0
 43
0.0208333333333333
 43
0.0
 43
0.0
 43
0.0
 43
0.0
 43
0.0208333333333333
 43
0.0
 43
0.0
 43
0.0
 43
0.0
 43
1.0
 43
0.0
 43
0.0
 43
0.0
 43
0.0
 43
1.0
 77
     0
 47
0.0208333333333333
 47
0.0
 47
0.0
 47
0.0
 47
0.0
 47
0.0208333333333333
 47
0.0
 47
0.0
 47
0.0
 47
0.0
 47
1.0
 47
0.0
 47
0.0
 47
0.0
 47
0.0
 47
1.0
171
     0
 49
0.0208333333333333
 49
0.0
 49
0.0
 49
0.0
 49
0.0
 49
0.0208333333333333
 49
0.0
 49
0.0
 49
0.0
 49
0.0
 49
1.0
 49
0.0
 49
0.0
 49
0.0
 49
0.0
 49
1.0
175
     0
142
0.0208333333333333
142
0.0
142
0.0
142
0.0
142
0.0
142
0.0208333333333333
142
0.0
142
0.0
142
0.0
142
0.0
142
1.0
142
0.0
142
0.0
142
0.0
142
0.0
142
1.0
179
     0
144
0.0208333333333333
144
0.0
144
0.0
144
0.0
144
0.0
144
0.0208333333333333
144
0.0
144
0.0
144
0.0
144
0.0
144
1.0
144
0.0
144
0.0
144
0.0
144
0.0
144
1.0
147
0.0208333333333333
147
0.0
147
0.0
147
0.0
147
0.0
147
0.0208333333333333
147
0.0
147
0.0
147
0.0
147
0.0
147
1.0
147
0.0
147
0.0
147
0.0
147
0.0
147
1.0
  0
MATERIAL
  5
16F3
102
{ACAD_XDICTIONARY
360
3E29
102
}
102
{ACAD_REACTORS
330
3AF
102
}
330
3AF
100
AcDbMaterial
  1
Global
 73
     1
 78
     1
172
     1
176
     1
270
     1
274
     1
  0
MLEADERSTYLE
  5
2822
102
{ACAD_REACTORS
330
2821
330
3FC4
330
3FC6
330
3F1C
330
3F98
330
3F99
330
40B0
330
40B2
330
40B3
330
40B4
330
40B5
330
40B6
330
46F3
102
}
330
2821
100
AcDbMLeaderStyle
179
     2
170
     2
171
     1
172
     0
 90
        2
 40
0.5235987755982988
 41
0.0
173
     1
 91
-1056964608
340
14
 92
       -2
290
     1
 42
2.0
291
     1
 43
0.6
  3
Standard
341
B0
 44
0.0
300

342
10
174
     1
178
     3
175
     1
176
     0
 93
-1056964608
 45
5.0
292
     0
297
     0
 46
4.0
 94
-1056964608
 47
1.0
 49
1.0
140
1.0
293
     1
141
0.0
294
     1
177
     0
142
1.0
295
     0
296
     0
143
0.2
271
     0
272
     9
273
     9
1001
ACAD
1000
AcRTDxfName
1000
MLEADERSTYLE
1001
ACAD_MLEADERVER
1070
     2
  0
MLINESTYLE
  5
13
102
{ACAD_REACTORS
330
E
102
}
330
E
100
AcDbMlineStyle
  2
STANDARD
 70
     0
  3

 62
     0
 51
90.0
 52
90.0
 71
     2
 49
0.5
 62
   256
  6
BYLAYER
 49
-0.5
 62
   256
  6
BYLAYER
  0
ACDBPLACEHOLDER
  5
3AE
102
{ACAD_REACTORS
330
3AD
102
}
330
3AD
  0
SCALE
  5
2800
102
{ACAD_REACTORS
330
27FF
102
}
330
27FF
100
AcDbScale
 70
     0
300
1:1
140
1.0
141
1.0
290
     1
1001
ACAD
1000
AcRTDxfName
1000
SCALE
  0
SCALE
  5
2801
102
{ACAD_REACTORS
330
27FF
102
}
330
27FF
100
AcDbScale
 70
     0
300
1:2
140
1.0
141
2.0
290
     0
1001
ACAD
1000
AcRTDxfName
1000
SCALE
  0
SCALE
  5
2802
102
{ACAD_REACTORS
330
27FF
102
}
330
27FF
100
AcDbScale
 70
     0
300
1:4
140
1.0
141
4.0
290
     0
1001
ACAD
1000
AcRTDxfName
1000
SCALE
  0
SCALE
  5
2803
102
{ACAD_REACTORS
330
27FF
102
}
330
27FF
100
AcDbScale
 70
     0
300
1:5
140
1.0
141
5.0
290
     0
1001
ACAD
1000
AcRTDxfName
1000
SCALE
  0
SCALE
  5
2804
102
{ACAD_REACTORS
330
27FF
102
}
330
27FF
100
AcDbScale
 70
     0
300
1:8
140
1.0
141
8.0
290
     0
1001
ACAD
1000
AcRTDxfName
1000
SCALE
  0
SCALE
  5
2805
102
{ACAD_REACTORS
330
27FF
102
}
330
27FF
100
AcDbScale
 70
     0
300
1:10
140
1.0
141
10.0
290
     0
1001
ACAD
1000
AcRTDxfName
1000
SCALE
  0
SCALE
  5
2806
102
{ACAD_REACTORS
330
27FF
102
}
330
27FF
100
AcDbScale
 70
     0
300
1:16
140
1.0
141
16.0
290
     0
1001
ACAD
1000
AcRTDxfName
1000
SCALE
  0
SCALE
  5
2807
102
{ACAD_REACTORS
330
27FF
102
}
330
27FF
100
AcDbScale
 70
     0
300
1:20
140
1.0
141
20.0
290
     0
1001
ACAD
1000
AcRTDxfName
1000
SCALE
  0
SCALE
  5
2808
102
{ACAD_REACTORS
330
27FF
102
}
330
27FF
100
AcDbScale
 70
     0
300
1:30
140
1.0
141
30.0
290
     0
1001
ACAD
1000
AcRTDxfName
1000
SCALE
  0
SCALE
  5
2809
102
{ACAD_REACTORS
330
27FF
102
}
330
27FF
100
AcDbScale
 70
     0
300
1:40
140
1.0
141
40.0
290
     0
1001
ACAD
1000
AcRTDxfName
1000
SCALE
  0
SCALE
  5
280A
102
{ACAD_REACTORS
330
27FF
102
}
330
27FF
100
AcDbScale
 70
     0
300
1:50
140
1.0
141
50.0
290
     0
1001
ACAD
1000
AcRTDxfName
1000
SCALE
  0
SCALE
  5
280B
102
{ACAD_REACTORS
330
27FF
102
}
330
27FF
100
AcDbScale
 70
     0
300
1:100
140
1.0
141
100.0
290
     0
1001
ACAD
1000
AcRTDxfName
1000
SCALE
  0
SCALE
  5
280C
102
{ACAD_REACTORS
330
27FF
102
}
330
27FF
100
AcDbScale
 70
     0
300
2:1
140
2.0
141
1.0
290
     0
1001
ACAD
1000
AcRTDxfName
1000
SCALE
  0
SCALE
  5
280D
102
{ACAD_REACTORS
330
27FF
102
}
330
27FF
100
AcDbScale
 70
     0
300
4:1
140
4.0
141
1.0
290
     0
1001
ACAD
1000
AcRTDxfName
1000
SCALE
  0
SCALE
  5
280E
102
{ACAD_REACTORS
330
27FF
102
}
330
27FF
100
AcDbScale
 70
     0
300
8:1
140
8.0
141
1.0
290
     0
1001
ACAD
1000
AcRTDxfName
1000
SCALE
  0
SCALE
  5
280F
102
{ACAD_REACTORS
330
27FF
102
}
330
27FF
100
AcDbScale
 70
     0
300
10:1
140
10.0
141
1.0
290
     0
1001
ACAD
1000
AcRTDxfName
1000
SCALE
  0
SCALE
  5
2810
102
{ACAD_REACTORS
330
27FF
102
}
330
27FF
100
AcDbScale
 70
     0
300
100:1
140
100.0
141
1.0
290
     0
1001
ACAD
1000
AcRTDxfName
1000
SCALE
  0
SCALE
  5
2811
102
{ACAD_REACTORS
330
27FF
102
}
330
27FF
100
AcDbScale
 70
     0
300
1/128" = 1'-0"
140
0.0078125
141
12.0
290
     0
1001
ACAD
1000
AcRTDxfName
1000
SCALE
  0
SCALE
  5
2812
102
{ACAD_REACTORS
330
27FF
102
}
330
27FF
100
AcDbScale
 70
     0
300
1/64" = 1'-0"
140
0.015625
141
12.0
290
     0
1001
ACAD
1000
AcRTDxfName
1000
SCALE
  0
SCALE
  5
2813
102
{ACAD_REACTORS
330
27FF
102
}
330
27FF
100
AcDbScale
 70
     0
300
1/32" = 1'-0"
140
0.03125
141
12.0
290
     0
1001
ACAD
1000
AcRTDxfName
1000
SCALE
  0
SCALE
  5
2814
102
{ACAD_REACTORS
330
27FF
102
}
330
27FF
100
AcDbScale
 70
     0
300
1/16" = 1'-0"
140
0.0625
141
12.0
290
     0
1001
ACAD
1000
AcRTDxfName
1000
SCALE
  0
SCALE
  5
2815
102
{ACAD_REACTORS
330
27FF
102
}
330
27FF
100
AcDbScale
 70
     0
300
3/32" = 1'-0"
140
0.09375
141
12.0
290
     0
1001
ACAD
1000
AcRTDxfName
1000
SCALE
  0
SCALE
  5
2816
102
{ACAD_REACTORS
330
27FF
102
}
330
27FF
100
AcDbScale
 70
     0
300
1/8" = 1'-0"
140
0.125
141
12.0
290
     0
1001
ACAD
1000
AcRTDxfName
1000
SCALE
  0
SCALE
  5
2817
102
{ACAD_REACTORS
330
27FF
102
}
330
27FF
100
AcDbScale
 70
     0
300
3/16" = 1'-0"
140
0.1875
141
12.0
290
     0
1001
ACAD
1000
AcRTDxfName
1000
SCALE
  0
SCALE
  5
2818
102
{ACAD_REACTORS
330
27FF
102
}
330
27FF
100
AcDbScale
 70
     0
300
1/4" = 1'-0"
140
0.25
141
12.0
290
     0
1001
ACAD
1000
AcRTDxfName
1000
SCALE
  0
SCALE
  5
2819
102
{ACAD_REACTORS
330
27FF
102
}
330
27FF
100
AcDbScale
 70
     0
300
3/8" = 1'-0"
140
0.375
141
12.0
290
     0
1001
ACAD
1000
AcRTDxfName
1000
SCALE
  0
SCALE
  5
281A
102
{ACAD_REACTORS
330
27FF
102
}
330
27FF
100
AcDbScale
 70
     0
300
1/2" = 1'-0"
140
0.5
141
12.0
290
     0
1001
ACAD
1000
AcRTDxfName
1000
SCALE
  0
SCALE
  5
281B
102
{ACAD_REACTORS
330
27FF
102
}
330
27FF
100
AcDbScale
 70
     0
300
3/4" = 1'-0"
140
0.75
141
12.0
290
     0
1001
ACAD
1000
AcRTDxfName
1000
SCALE
  0
SCALE
  5
281C
102
{ACAD_REACTORS
330
27FF
102
}
330
27FF
100
AcDbScale
 70
     0
300
1" = 1'-0"
140
1.0
141
12.0
290
     0
1001
ACAD
1000
AcRTDxfName
1000
SCALE
  0
SCALE
  5
281D
102
{ACAD_REACTORS
330
27FF
102
}
330
27FF
100
AcDbScale
 70
     0
300
1-1/2" = 1'-0"
140
1.5
141
12.0
290
     0
1001
ACAD
1000
AcRTDxfName
1000
SCALE
  0
SCALE
  5
281E
102
{ACAD_REACTORS
330
27FF
102
}
330
27FF
100
AcDbScale
 70
     0
300
3" = 1'-0"
140
3.0
141
12.0
290
     0
1001
ACAD
1000
AcRTDxfName
1000
SCALE
  0
SCALE
  5
281F
102
{ACAD_REACTORS
330
27FF
102
}
330
27FF
100
AcDbScale
 70
     0
300
6" = 1'-0"
140
6.0
141
12.0
290
     0
1001
ACAD
1000
AcRTDxfName
1000
SCALE
  0
SCALE
  5
2820
102
{ACAD_REACTORS
330
27FF
102
}
330
27FF
100
AcDbScale
 70
     0
300
1'-0" = 1'-0"
140
12.0
141
12.0
290
     0
1001
ACAD
1000
AcRTDxfName
1000
SCALE
  0
ACDBSECTIONVIEWSTYLE
  5
2A85
102
{ACAD_XDICTIONARY
360
47BB
102
}
102
{ACAD_REACTORS
330
2A84
102
}
330
2A84
100
AcDbModelDocViewStyle
 70
     0
  3
Metric50
290
     0
100
AcDbSectionViewStyle
 70
     0
 71
     0
 90
      102
 71
     1
340
10
 62
   256
 40
5.0
340
0
340
0
 62
   256
 40
5.0
300
I, O, Q, S, X, Z
 40
10.0
 90
        0
 40
2.5
 90
        0
 71
     2
340
16
 90
       25
 62
   256
340
16
 90
       50
 62
   256
 40
5.0
 40
2.5
 40
5.0
 71
     3
340
10
 62
   256
 40
5.0
 90
        0
 40
15.0
 90
        1
300
%<\AcVar ViewSectionStartId>%-%<\AcVar ViewSectionEndId>% (%<\AcVar ViewScale \f "%sn">%)
 71
     4
 62
   256
 62
   257
300
ANSI31
 40
1.0
 90
        0
290
     0
290
     0
 90
        6
 40
0.0
 40
1.570796326794896
 40
0.2617993877991494
 40
1.308996938995747
 40
-0.2617993877991494
 40
1.832595714594044
1001
ACAD
1000
AcRTDxfName
1000
ACDBSECTIONVIEWSTYLE
1000
AcRTDxfName
1000
ACDBSECTIONVIEWSTYLE
1000
AcRTDxfName
1000
ACDBSECTIONVIEWSTYLE
1000
AcRTDxfName
1000
ACDBSECTIONVIEWSTYLE
1000
AcRTDxfName
1000
ACDBSECTIONVIEWSTYLE
1000
AcRTDxfName
1000
ACDBSECTIONVIEWSTYLE
  0
TABLESTYLE
  5
27FE
102
{ACAD_XDICTIONARY
360
2897
102
}
102
{ACAD_REACTORS
330
27FD
102
}
330
27FD
100
AcDbTableStyle
280
     0
  3
Standard
 70
     0
 71
     0
 40
1.5
 41
1.5
280
     0
281
     0
  7
STANDARD
140
4.5
170
     2
 62
     0
 63
     7
283
     0
 90
      512
 91
        0
  1

274
    -2
284
     1
 64
     0
275
    -2
285
     1
 65
     0
276
    -2
286
     1
 66
     0
277
    -2
287
     1
 67
     0
278
    -2
288
     1
 68
     0
279
    -2
289
     1
 69
     0
  7
STANDARD
140
6.0
170
     5
 62
     0
 63
     7
283
     0
 90
      512
 91
        0
  1

274
    -2
284
     1
 64
     0
275
    -2
285
     1
 65
     0
276
    -2
286
     1
 66
     0
277
    -2
287
     1
 67
     0
278
    -2
288
     1
 68
     0
279
    -2
289
     1
 69
     0
  7
STANDARD
140
4.5
170
     5
 62
     0
 63
     7
283
     0
 90
      512
 91
        0
  1

274
    -2
284
     1
 64
     0
275
    -2
285
     1
 65
     0
276
    -2
286
     1
 66
     0
277
    -2
287
     1
 67
     0
278
    -2
288
     1
 68
     0
279
    -2
289
     1
 69
     0
1001
ACAD
1000
AcRTDxfName
1000
TABLESTYLE
  0
VISUALSTYLE
  5
27F2
102
{ACAD_XDICTIONARY
360
47F3
102
}
102
{ACAD_REACTORS
330
27EC
102
}
330
27EC
100
AcDbVisualStyle
  2

 70
     4
177
     2
291
     0
 71
     0
176
     1
 72
     2
176
     1
 73
     0
176
     1
 90
        0
176
     1
 40
0.6
176
     1
 41
30.0
176
     1
 63
     7
176
     1
 74
     1
176
     1
 91
        4
176
     1
 64
     7
176
     1
 65
   257
176
     1
 75
     1
176
     1
175
     1
176
     1
 42
1.0
176
     1
 92
        0
176
     1
 66
   257
176
     1
 43
1.0
176
     1
 76
     1
176
     1
 77
     6
176
     1
 78
     2
176
     1
 67
     7
176
     1
 79
     5
176
     1
170
     0
176
     1
171
     0
176
     1
290
     0
176
     1
 93
        1
176
     1
 44
0.0
176
     1
173
     0
176
     1
1001
ACAD
1000
AcRTDxfName
1000
VISUALSTYLE
1000
AcDbSavedByObjectVersion
1070
     0
  0
VISUALSTYLE
  5
27F4
102
{ACAD_XDICTIONARY
360
47F7
102
}
102
{ACAD_REACTORS
330
27EC
102
}
330
27EC
100
AcDbVisualStyle
  2

 70
     6
177
     2
291
     0
 71
     1
176
     1
 72
     2
176
     1
 73
     2
176
     1
 90
        0
176
     1
 40
0.6
176
     1
 41
30.0
176
     1
 63
     7
176
     1
 74
     2
176
     1
 91
        2
176
     1
 64
     7
176
     1
 65
   257
176
     1
 75
     2
176
     1
175
     1
176
     1
 42
40.0
176
     1
 92
        0
176
     1
 66
   257
176
     1
 43
1.0
176
     1
 76
     1
176
     1
 77
     6
176
     1
 78
     2
176
     1
 67
     7
176
     1
 79
     3
176
     1
170
     0
176
     1
171
     0
176
     1
290
     0
176
     1
 93
        1
176
     1
 44
0.0
176
     1
173
     0
176
     1
1001
ACAD
1000
AcRTDxfName
1000
VISUALSTYLE
1000
AcDbSavedByObjectVersion
1070
     0
  0
VISUALSTYLE
  5
27F3
102
{ACAD_XDICTIONARY
360
47F5
102
}
102
{ACAD_REACTORS
330
27EC
102
}
330
27EC
100
AcDbVisualStyle
  2

 70
     5
177
     2
291
     0
 71
     0
176
     1
 72
     2
176
     1
 73
     0
176
     1
 90
        0
176
     1
 40
0.6
176
     1
 41
30.0
176
     1
 63
     7
176
     1
 74
     1
176
     1
 91
        4
176
     1
 64
     7
176
     1
 65
   257
176
     1
 75
     1
176
     1
175
     1
176
     1
 42
1.0
176
     1
 92
        0
176
     1
 66
   257
176
     1
 43
1.0
176
     1
 76
     1
176
     1
 77
     6
176
     1
 78
     2
176
     1
 67
     7
176
     1
 79
     5
176
     1
170
     0
176
     1
171
     0
176
     1
290
     0
176
     1
 93
        1
176
     1
 44
0.0
176
     1
173
     0
176
     1
1001
ACAD
1000
AcRTDxfName
1000
VISUALSTYLE
1000
AcDbSavedByObjectVersion
1070
     0
  0
VISUALSTYLE
  5
27F1
102
{ACAD_XDICTIONARY
360
47F1
102
}
102
{ACAD_REACTORS
330
27EC
102
}
330
27EC
100
AcDbVisualStyle
  2

 70
     7
177
     2
291
     1
 71
     1
176
     1
 72
     0
176
     1
 73
     1
176
     1
 90
        0
176
     1
 40
0.6
176
     1
 41
30.0
176
     1
 63
     7
176
     1
 74
     0
176
     1
 91
        4
176
     1
 64
     7
176
     1
 65
   257
176
     1
 75
     1
176
     1
175
     1
176
     1
 42
1.0
176
     1
 92
        8
176
     1
 66
     7
176
     1
 43
1.0
176
     1
 76
     1
176
     1
 77
     6
176
     1
 78
     2
176
     1
 67
     7
176
     1
 79
     5
176
     1
170
     0
176
     1
171
     0
176
     1
290
     0
176
     1
 93
        1
176
     1
 44
0.0
176
     1
173
     0
176
     1
1001
ACAD
1000
AcRTDxfName
1000
VISUALSTYLE
1000
AcDbSavedByObjectVersion
1070
     0
  0
VISUALSTYLE
  5
27F8
102
{ACAD_XDICTIONARY
360
47FF
102
}
102
{ACAD_REACTORS
330
27EC
102
}
330
27EC
100
AcDbVisualStyle
  2

 70
    12
177
     2
291
     1
 71
     2
176
     1
 72
     2
176
     1
 73
     0
176
     1
 90
        0
176
     1
 40
0.6
176
     1
 41
30.0
176
     1
 63
     7
176
     1
 74
     1
176
     1
 91
        4
176
     1
 64
     7
176
     1
 65
   257
176
     1
 75
     1
176
     1
175
     1
176
     1
 42
1.0
176
     1
 92
        8
176
     1
 66
     7
176
     1
 43
1.0
176
     1
 76
     1
176
     1
 77
     6
176
     1
 78
     2
176
     1
 67
     7
176
     1
 79
     5
176
     1
170
     0
176
     1
171
     0
176
     1
290
     0
176
     1
 93
        1
176
     1
 44
50.0
176
     1
173
     0
176
     1
1001
ACAD
1000
AcRTDxfName
1000
VISUALSTYLE
1000
AcDbSavedByObjectVersion
1070
     0
  0
VISUALSTYLE
  5
27FC
102
{ACAD_XDICTIONARY
360
4807
102
}
102
{ACAD_REACTORS
330
27EC
102
}
330
27EC
100
AcDbVisualStyle
  2

 70
    16
177
     2
291
     1
 71
     2
176
     1
 72
     2
176
     1
 73
     3
176
     1
 90
        0
176
     1
 40
0.6
176
     1
 41
30.0
176
     1
 63
     8
176
     1
 74
     1
176
     1
 91
        4
176
     1
 64
     7
176
     1
 65
   257
176
     1
 75
     1
176
     1
175
     1
176
     1
 42
1.0
176
     1
 92
        8
176
     1
 66
     8
176
     1
 43
1.0
176
     1
 76
     1
176
     1
 77
     6
176
     1
 78
     2
176
     1
 67
     7
176
     1
 79
     5
176
     1
170
     0
176
     1
171
     0
176
     1
290
     0
176
     1
 93
        1
176
     1
 44
0.0
176
     1
173
     0
176
     1
1001
ACAD
1000
AcRTDxfName
1000
VISUALSTYLE
1000
AcDbSavedByObjectVersion
1070
     0
  0
VISUALSTYLE
  5
27F5
102
{ACAD_XDICTIONARY
360
47F9
102
}
102
{ACAD_REACTORS
330
27EC
102
}
330
27EC
100
AcDbVisualStyle
  2

 70
     9
177
     2
291
     0
 71
     3
176
     1
 72
     2
176
     1
 73
     0
176
     1
 90
        0
176
     1
 40
0.6
176
     1
 41
30.0
176
     1
 63
     7
176
     1
 74
     2
176
     1
 91
        2
176
     1
 64
     7
176
     1
 65
   257
176
     1
 75
     1
176
     1
175
     1
176
     1
 42
40.0
176
     1
 92
        8
176
     1
 66
     7
176
     1
 43
1.0
176
     1
 76
     1
176
     1
 77
     6
176
     1
 78
     2
176
     1
 67
     7
176
     1
 79
     3
176
     1
170
     0
176
     1
171
     0
176
     1
290
     0
176
     1
 93
        1
176
     1
 44
0.0
176
     1
173
     0
176
     1
1001
ACAD
1000
AcRTDxfName
1000
VISUALSTYLE
1000
AcDbSavedByObjectVersion
1070
     0
  0
VISUALSTYLE
  5
27F7
102
{ACAD_XDICTIONARY
360
47FD
102
}
102
{ACAD_REACTORS
330
27EC
102
}
330
27EC
100
AcDbVisualStyle
  2

 70
    11
177
     2
291
     1
 71
     2
176
     1
 72
     2
176
     1
 73
     0
176
     1
 90
        0
176
     1
 40
0.6
176
     1
 41
30.0
176
     1
 63
     7
176
     1
 74
     1
176
     1
 91
        4
176
     1
 64
     7
176
     1
 65
   257
176
     1
 75
     1
176
     1
175
     1
176
     1
 42
1.0
176
     1
 92
        8
176
     1
 66
     7
176
     1
 43
1.0
176
     1
 76
     1
176
     1
 77
     6
176
     1
 78
     2
176
     1
 67
     7
176
     1
 79
     5
176
     1
170
     0
176
     1
171
     0
176
     1
290
     0
176
     1
 93
        1
176
     1
 44
-50.0
176
     1
173
     0
176
     1
1001
ACAD
1000
AcRTDxfName
1000
VISUALSTYLE
1000
AcDbSavedByObjectVersion
1070
     0
  0
VISUALSTYLE
  5
28F1
102
{ACAD_XDICTIONARY
360
481B
102
}
102
{ACAD_REACTORS
330
27EC
102
}
330
27EC
100
AcDbVisualStyle
  2

 70
    22
177
     2
291
     1
 71
     2
176
     0
 72
     2
176
     0
 73
     0
176
     0
 90
        0
176
     0
 40
0.6
176
     0
 41
30.0
176
     0
 63
     7
176
     0
 74
     1
176
     0
 91
        4
176
     0
 64
     7
176
     0
 65
   257
176
     0
 75
     1
176
     0
175
     1
176
     0
 42
1.0
176
     0
 92
        8
176
     2
 66
     7
176
     0
 43
1.0
176
     0
 76
     1
176
     0
 77
     6
176
     0
 78
     2
176
     0
 67
     7
176
     0
 79
     5
176
     0
170
     0
176
     0
171
     0
176
     0
290
     0
176
     0
 93
        1
176
     0
 44
0.0
176
     0
173
     0
176
     0
1001
ACAD
1000
AcDbSavedByObjectVersion
1070
     0
  0
VISUALSTYLE
  5
27FB
102
{ACAD_XDICTIONARY
360
4805
102
}
102
{ACAD_REACTORS
330
27EC
102
}
330
27EC
100
AcDbVisualStyle
  2

 70
    15
177
     2
291
     1
 71
     2
176
     1
 72
     2
176
     1
 73
     0
176
     1
 90
        0
176
     1
 40
0.6
176
     1
 41
30.0
176
     1
 63
     7
176
     1
 74
     1
176
     1
 91
        4
176
     1
 64
     7
176
     1
 65
   257
176
     1
 75
     1
176
     1
175
     1
176
     1
 42
1.0
176
     1
 92
        8
176
     1
 66
     7
176
     1
 43
1.0
176
     1
 76
     1
176
     1
 77
     6
176
     1
 78
     2
176
     1
 67
     7
176
     1
 79
     5
176
     1
170
     0
176
     1
171
     0
176
     1
290
     0
176
     1
 93
        1
176
     1
 44
0.0
176
     1
173
     0
176
     1
1001
ACAD
1000
AcRTDxfName
1000
VISUALSTYLE
1000
AcDbSavedByObjectVersion
1070
     0
  0
VISUALSTYLE
  5
27ED
102
{ACAD_XDICTIONARY
360
47E9
102
}
102
{ACAD_REACTORS
330
27EC
102
}
330
27EC
100
AcDbVisualStyle
  2

 70
     0
177
     2
291
     1
 71
     2
176
     1
 72
     1
176
     1
 73
     1
176
     1
 90
        2
176
     1
 40
0.6
176
     1
 41
30.0
176
     1
 63
     7
176
     1
 74
     0
176
     1
 91
        4
176
     1
 64
     7
176
     1
 65
   257
176
     1
 75
     1
176
     1
175
     1
176
     1
 42
1.0
176
     1
 92
        8
176
     1
 66
     7
176
     1
 43
1.0
176
     1
 76
     1
176
     1
 77
     6
176
     1
 78
     2
176
     1
 67
     7
176
     1
 79
     5
176
     1
170
     0
176
     1
171
     0
176
     1
290
     0
176
     1
 93
       13
176
     1
 44
0.0
176
     1
173
     0
176
     1
1001
ACAD
1000
AcRTDxfName
1000
VISUALSTYLE
1000
AcDbSavedByObjectVersion
1070
     0
  0
VISUALSTYLE
  5
27EE
102
{ACAD_XDICTIONARY
360
47EB
102
}
102
{ACAD_REACTORS
330
27EC
102
}
330
27EC
100
AcDbVisualStyle
  2

 70
     1
177
     2
291
     1
 71
     2
176
     1
 72
     1
176
     1
 73
     1
176
     1
 90
        2
176
     1
 40
0.6
176
     1
 41
30.0
176
     1
 63
     7
176
     1
 74
     1
176
     1
 91
        4
176
     1
 64
     7
176
     1
 65
   257
176
     1
 75
     1
176
     1
175
     1
176
     1
 42
1.0
176
     1
 92
        0
176
     1
 66
   257
176
     1
 43
1.0
176
     1
 76
     1
176
     1
 77
     6
176
     1
 78
     2
176
     1
 67
     7
176
     1
 79
     5
176
     1
170
     0
176
     1
171
     0
176
     1
290
     0
176
     1
 93
       13
176
     1
 44
0.0
176
     1
173
     0
176
     1
1001
ACAD
1000
AcRTDxfName
1000
VISUALSTYLE
1000
AcDbSavedByObjectVersion
1070
     0
  0
VISUALSTYLE
  5
27EF
102
{ACAD_XDICTIONARY
360
47ED
102
}
102
{ACAD_REACTORS
330
27EC
102
}
330
27EC
100
AcDbVisualStyle
  2

 70
     2
177
     2
291
     1
 71
     2
176
     1
 72
     2
176
     1
 73
     1
176
     1
 90
        2
176
     1
 40
0.6
176
     1
 41
30.0
176
     1
 63
     7
176
     1
 74
     0
176
     1
 91
        4
176
     1
 64
     7
176
     1
 65
   257
176
     1
 75
     1
176
     1
175
     1
176
     1
 42
1.0
176
     1
 92
        0
176
     1
 66
     7
176
     1
 43
1.0
176
     1
 76
     1
176
     1
 77
     6
176
     1
 78
     2
176
     1
 67
     7
176
     1
 79
     5
176
     1
170
     0
176
     1
171
     0
176
     1
290
     0
176
     1
 93
       13
176
     1
 44
0.0
176
     1
173
     0
176
     1
1001
ACAD
1000
AcRTDxfName
1000
VISUALSTYLE
1000
AcDbSavedByObjectVersion
1070
     0
  0
VISUALSTYLE
  5
27F0
102
{ACAD_XDICTIONARY
360
47EF
102
}
102
{ACAD_REACTORS
330
27EC
102
}
330
27EC
100
AcDbVisualStyle
  2

 70
     3
177
     2
291
     1
 71
     2
176
     1
 72
     2
176
     1
 73
     1
176
     1
 90
        2
176
     1
 40
0.6
176
     1
 41
30.0
176
     1
 63
     7
176
     1
 74
     1
176
     1
 91
        4
176
     1
 64
     7
176
     1
 65
   257
176
     1
 75
     1
176
     1
175
     1
176
     1
 42
1.0
176
     1
 92
        0
176
     1
 66
   257
176
     1
 43
1.0
176
     1
 76
     1
176
     1
 77
     6
176
     1
 78
     2
176
     1
 67
     7
176
     1
 79
     5
176
     1
170
     0
176
     1
171
     0
176
     1
290
     0
176
     1
 93
       13
176
     1
 44
0.0
176
     1
173
     0
176
     1
1001
ACAD
1000
AcRTDxfName
1000
VISUALSTYLE
1000
AcDbSavedByObjectVersion
1070
     0
  0
VISUALSTYLE
  5
28E9
102
{ACAD_XDICTIONARY
360
480B
102
}
102
{ACAD_REACTORS
330
27EC
102
}
330
27EC
100
AcDbVisualStyle
  2

 70
     6
177
     2
291
     0
 71
     1
176
     1
 72
     2
176
     1
 73
     2
176
     1
 90
        0
176
     1
 40
0.6
176
     1
 41
30.0
176
     1
 63
     7
176
     1
 74
     2
176
     1
 91
        2
176
     1
 64
     7
176
     1
 65
   257
176
     1
 75
     2
176
     1
175
     1
176
     1
 42
40.0
176
     1
 92
        0
176
     1
 66
   257
176
     1
 43
1.0
176
     1
 76
     1
176
     1
 77
     6
176
     1
 78
     2
176
     1
 67
     7
176
     1
 79
     3
176
     1
170
     0
176
     1
171
     0
176
     1
290
     0
176
     1
 93
        1
176
     1
 44
0.0
176
     1
173
     0
176
     1
1001
ACAD
1000
AcDbSavedByObjectVersion
1070
     0
  0
VISUALSTYLE
  5
28EF
102
{ACAD_XDICTIONARY
360
4817
102
}
102
{ACAD_REACTORS
330
27EC
102
}
330
27EC
100
AcDbVisualStyle
  2

 70
    20
177
     2
291
     1
 71
     2
176
     0
 72
     2
176
     0
 73
     0
176
     0
 90
        0
176
     0
 40
0.6
176
     0
 41
30.0
176
     0
 63
     7
176
     0
 74
     1
176
     0
 91
        4
176
     0
 64
     7
176
     0
 65
   257
176
     0
 75
     1
176
     0
175
     1
176
     0
 42
1.0
176
     0
 92
       10
176
     2
 66
     7
176
     0
 43
1.0
176
     0
 76
     1
176
     0
 77
     6
176
     0
 78
     2
176
     0
 67
     7
176
     0
 79
     5
176
     0
170
     0
176
     0
171
     0
176
     0
290
     0
176
     0
 93
        1
176
     0
 44
0.0
176
     0
173
     0
176
     0
1001
ACAD
1000
AcDbSavedByObjectVersion
1070
     0
  0
VISUALSTYLE
  5
27FA
102
{ACAD_XDICTIONARY
360
4803
102
}
102
{ACAD_REACTORS
330
27EC
102
}
330
27EC
100
AcDbVisualStyle
  2

 70
    14
177
     2
291
     1
 71
     2
176
     1
 72
     2
176
     1
 73
     0
176
     1
 90
        0
176
     1
 40
0.6
176
     1
 41
30.0
176
     1
 63
     7
176
     1
 74
     1
176
     1
 91
        4
176
     1
 64
     7
176
     1
 65
   257
176
     1
 75
     7
176
     1
175
     7
176
     1
 42
1.0
176
     1
 92
        8
176
     1
 66
     7
176
     1
 43
1.0
176
     1
 76
     1
176
     1
 77
     6
176
     1
 78
     2
176
     1
 67
     7
176
     1
 79
     5
176
     1
170
     0
176
     1
171
     0
176
     1
290
     0
176
     1
 93
        1
176
     1
 44
0.0
176
     1
173
     0
176
     1
1001
ACAD
1000
AcRTDxfName
1000
VISUALSTYLE
1000
AcDbSavedByObjectVersion
1070
     0
  0
VISUALSTYLE
  5
28F0
102
{ACAD_XDICTIONARY
360
4819
102
}
102
{ACAD_REACTORS
330
27EC
102
}
330
27EC
100
AcDbVisualStyle
  2

 70
    21
177
     2
291
     1
 71
     2
176
     0
 72
     2
176
     0
 73
     0
176
     0
 90
        0
176
     0
 40
0.6
176
     0
 41
30.0
176
     0
 63
     7
176
     0
 74
     1
176
     0
 91
        4
176
     0
 64
     7
176
     0
 65
   257
176
     0
 75
     1
176
     0
175
     1
176
     0
 42
1.0
176
     0
 92
        9
176
     2
 66
     7
176
     0
 43
1.0
176
     0
 76
     1
176
     0
 77
     6
176
     0
 78
     2
176
     0
 67
     7
176
     0
 79
     5
176
     0
170
     0
176
     0
171
     0
176
     0
290
     0
176
     0
 93
        1
176
     0
 44
0.0
176
     0
173
     0
176
     0
1001
ACAD
1000
AcDbSavedByObjectVersion
1070
     0
  0
VISUALSTYLE
  5
27F6
102
{ACAD_XDICTIONARY
360
47FB
102
}
102
{ACAD_REACTORS
330
27EC
102
}
330
27EC
100
AcDbVisualStyle
  2

 70
     8
177
     2
291
     0
 71
     2
176
     1
 72
     2
176
     1
 73
     0
176
     1
 90
        0
176
     1
 40
0.6
176
     1
 41
30.0
176
     1
 63
     7
176
     1
 74
     1
176
     1
 91
        0
176
     1
 64
     7
176
     1
 65
   257
176
     1
 75
     1
176
     1
175
     1
176
     1
 42
1.0
176
     1
 92
        8
176
     1
 66
     8
176
     1
 43
1.0
176
     1
 76
     1
176
     1
 77
     6
176
     1
 78
     2
176
     1
 67
     7
176
     1
 79
     5
176
     1
170
     0
176
     1
171
     0
176
     1
290
     0
176
     1
 93
       13
176
     1
 44
0.0
176
     1
173
     0
176
     1
1001
ACAD
1000
AcRTDxfName
1000
VISUALSTYLE
1000
AcDbSavedByObjectVersion
1070
     0
  0
VISUALSTYLE
  5
28EE
102
{ACAD_XDICTIONARY
360
4815
102
}
102
{ACAD_REACTORS
330
27EC
102
}
330
27EC
100
AcDbVisualStyle
  2

 70
    27
177
     2
291
     0
 71
     2
176
     1
 72
     2
176
     1
 73
     1
176
     1
 90
        2
176
     1
 40
0.6
176
     1
 41
30.0
176
     1
 63
     7
176
     1
 74
     0
176
     1
 91
        4
176
     1
 64
     7
176
     1
 65
   257
176
     1
 75
     1
176
     1
175
     1
176
     1
 42
1.0
176
     1
 92
        8
176
     1
 66
   257
176
     1
 43
1.0
176
     1
 76
     1
176
     1
 77
     6
176
     1
 78
     2
176
     1
 67
     8
176
     1
 79
     3
176
     1
170
     0
176
     1
171
     0
176
     1
290
     0
176
     1
 93
        5
176
     1
 44
0.0
176
     1
173
     0
176
     1
1001
ACAD
1000
AcDbSavedByObjectVersion
1070
     0
  0
VISUALSTYLE
  5
28ED
102
{ACAD_XDICTIONARY
360
4813
102
}
102
{ACAD_REACTORS
330
27EC
102
}
330
27EC
100
AcDbVisualStyle
  2

 70
    26
177
     2
291
     0
 71
     2
176
     1
 72
     2
176
     1
 73
     1
176
     1
 90
        2
176
     1
 40
0.6
176
     1
 41
30.0
176
     1
 63
     7
176
     1
 74
     1
176
     1
 91
        2
176
     1
 64
     7
176
     1
 65
   257
176
     1
 75
     2
176
     1
175
     1
176
     1
 42
1.0
176
     1
 92
        8
176
     1
 66
   257
176
     1
 43
1.0
176
     1
 76
     1
176
     1
 77
     6
176
     1
 78
     2
176
     1
 67
     7
176
     1
 79
     3
176
     1
170
     0
176
     1
171
     0
176
     1
290
     0
176
     1
 93
        5
176
     1
 44
0.0
176
     1
173
     0
176
     1
1001
ACAD
1000
AcDbSavedByObjectVersion
1070
     0
  0
VISUALSTYLE
  5
28EA
102
{ACAD_XDICTIONARY
360
480D
102
}
102
{ACAD_REACTORS
330
27EC
102
}
330
27EC
100
AcDbVisualStyle
  2

 70
    23
177
     2
291
     0
 71
     2
176
     1
 72
     2
176
     1
 73
     3
176
     1
 90
        0
176
     1
 40
0.6
176
     1
 41
30.0
176
     1
 63
     7
176
     1
 74
     2
176
     1
 91
        2
176
     1
 64
     7
176
     1
 65
     7
176
     1
 75
     1
176
     1
175
     1
176
     1
 42
40.0
176
     1
 92
        8
176
     1
 66
     7
176
     1
 43
1.0
176
     1
 76
     1
176
     1
 77
     6
176
     1
 78
     2
176
     1
 67
     7
176
     1
 79
     3
176
     1
170
     0
176
     1
171
     0
176
     1
290
     0
176
     1
 93
        1
176
     1
 44
0.0
176
     1
173
     0
176
     1
1001
ACAD
1000
AcDbSavedByObjectVersion
1070
     0
  0
VISUALSTYLE
  5
28EB
102
{ACAD_XDICTIONARY
360
480F
102
}
102
{ACAD_REACTORS
330
27EC
102
}
330
27EC
100
AcDbVisualStyle
  2

 70
    24
177
     2
291
     0
 71
     1
176
     1
 72
     2
176
     1
 73
     2
176
     1
 90
        0
176
     1
 40
0.6
176
     1
 41
30.0
176
     1
 63
     7
176
     1
 74
     2
176
     1
 91
        2
176
     1
 64
     7
176
     1
 65
     7
176
     1
 75
     1
176
     1
175
     1
176
     1
 42
40.0
176
     1
 92
       11
176
     1
 66
     7
176
     1
 43
1.0
176
     1
 76
     1
176
     1
 77
     6
176
     1
 78
     2
176
     1
 67
     7
176
     1
 79
     6
176
     1
170
     0
176
     1
171
     0
176
     1
290
     0
176
     1
 93
        1
176
     1
 44
0.0
176
     1
173
     0
176
     1
1001
ACAD
1000
AcDbSavedByObjectVersion
1070
     0
  0
VISUALSTYLE
  5
27F9
102
{ACAD_XDICTIONARY
360
4801
102
}
102
{ACAD_REACTORS
330
27EC
102
}
330
27EC
100
AcDbVisualStyle
  2

 70
    13
177
     2
291
     1
 71
     2
176
     1
 72
     2
176
     1
 73
     0
176
     1
 90
        0
176
     1
 40
0.6
176
     1
 41
30.0
176
     1
 63
     7
176
     1
 74
     1
176
     1
 91
        4
176
     1
 64
     7
176
     1
 65
   257
176
     1
 75
     1
176
     1
175
     1
176
     1
 42
1.0
176
     1
 92
       12
176
     1
 66
     7
176
     1
 43
1.0
176
     1
 76
     1
176
     1
 77
     6
176
     1
 78
     2
176
     1
 67
     7
176
     1
 79
     5
176
     1
170
     0
176
     1
171
     0
176
     1
290
     0
176
     1
 93
        1
176
     1
 44
0.0
176
     1
173
     0
176
     1
1001
ACAD
1000
AcRTDxfName
1000
VISUALSTYLE
1000
AcDbSavedByObjectVersion
1070
     0
  0
VISUALSTYLE
  5
28E8
102
{ACAD_XDICTIONARY
360
4809
102
}
102
{ACAD_REACTORS
330
27EC
102
}
330
27EC
100
AcDbVisualStyle
  2

 70
     5
177
     2
291
     0
 71
     0
176
     1
 72
     2
176
     1
 73
     0
176
     1
 90
        0
176
     1
 40
0.6
176
     1
 41
30.0
176
     1
 63
     7
176
     1
 74
     1
176
     1
 91
        4
176
     1
 64
     7
176
     1
 65
   257
176
     1
 75
     1
176
     1
175
     1
176
     1
 42
1.0
176
     1
 92
        0
176
     1
 66
   257
176
     1
 43
1.0
176
     1
 76
     1
176
     1
 77
     6
176
     1
 78
     2
176
     1
 67
     7
176
     1
 79
     3
176
     1
170
     0
176
     1
171
     0
176
     1
290
     0
176
     1
 93
        1
176
     1
 44
0.0
176
     1
173
     0
176
     1
1001
ACAD
1000
AcDbSavedByObjectVersion
1070
     0
  0
VISUALSTYLE
  5
28EC
102
{ACAD_XDICTIONARY
360
4811
102
}
102
{ACAD_REACTORS
330
27EC
102
}
330
27EC
100
AcDbVisualStyle
  2

 70
    25
177
     2
291
     0
 71
     2
176
     1
 72
     2
176
     1
 73
     1
176
     1
 90
        1
176
     1
 40
0.5
176
     1
 41
30.0
176
     1
 63
     7
176
     1
 74
     1
176
     1
 91
        0
176
     1
 64
     7
176
     1
 65
   257
176
     1
 75
     1
176
     1
175
     1
176
     1
 42
1.0
176
     1
 92
        8
176
     1
 66
     7
176
     1
 43
1.0
176
     1
 76
     1
176
     1
 77
     6
176
     1
 78
     2
176
     1
 67
     7
176
     1
 79
     3
176
     1
170
     0
176
     1
171
     0
176
     1
290
     0
176
     1
 93
       13
176
     1
 44
0.0
176
     1
173
     0
176
     1
1001
ACAD
1000
AcDbSavedByObjectVersion
1070
     0
  0
DICTIONARYVAR
  5
28B6
102
{ACAD_REACTORS
330
16B3
102
}
330
16B3
100
DictionaryVariables
280
     0
  1
1:2
  0
DICTIONARYVAR
  5
28B5
102
{ACAD_REACTORS
330
16B3
102
}
330
16B3
100
DictionaryVariables
280
     0
  1
STANDARD
  0
DICTIONARYVAR
  5
28B4
102
{ACAD_REACTORS
330
16B3
102
}
330
16B3
100
DictionaryVariables
280
     0
  1
STANDARD
  0
DICTIONARYVAR
  5
2CBF
102
{ACAD_REACTORS
330
16B3
102
}
330
16B3
100
DictionaryVariables
280
     0
  1
Metric50
  0
DICTIONARYVAR
  5
2CC0
102
{ACAD_REACTORS
330
16B3
102
}
330
16B3
100
DictionaryVariables
280
     0
  1
Metric50
  0
DICTIONARYVAR
  5
16B4
102
{ACAD_REACTORS
330
16B3
102
}
330
16B3
100
DictionaryVariables
280
     0
  1
1
  0
DICTIONARYVAR
  5
28B8
102
{ACAD_REACTORS
330
16B3
102
}
330
16B3
100
DictionaryVariables
280
     0
  1
0
  0
DICTIONARYVAR
  5
342E
102
{ACAD_REACTORS
330
16B3
102
}
330
16B3
100
DictionaryVariables
280
     0
  1
1
  0
DICTIONARYVAR
  5
342F
102
{ACAD_REACTORS
330
16B3
102
}
330
16B3
100
DictionaryVariables
280
     0
  1
15
  0
DICTIONARYVAR
  5
342D
102
{ACAD_REACTORS
330
16B3
102
}
330
16B3
100
DictionaryVariables
280
     0
  1
0
  0
DICTIONARYVAR
  5
342C
102
{ACAD_REACTORS
330
16B3
102
}
330
16B3
100
DictionaryVariables
280
     0
  1
0
  0
DICTIONARYVAR
  5
16B5
102
{ACAD_REACTORS
330
16B3
102
}
330
16B3
100
DictionaryVariables
280
     0
  1

  0
DICTIONARYVAR
  5
28B7
102
{ACAD_REACTORS
330
16B3
102
}
330
16B3
100
DictionaryVariables
280
     0
  1
127
  0
DICTIONARYVAR
  5
412E
102
{ACAD_REACTORS
330
16B3
102
}
330
16B3
100
DictionaryVariables
280
     0
  1
2
  0
DICTIONARY
  5
47E8
102
{ACAD_REACTORS
330
47E6
102
}
330
47E6
100
AcDbDictionary
281
     1
  0
DICTIONARY
  5
47E7
102
{ACAD_REACTORS
330
47E6
102
}
330
47E6
100
AcDbDictionary
281
     1
  3
2832829680528
350
47E1
  3
2832829680544
350
47E2
  3
2832829680560
350
47E3
  3
2832829680576
350
47E4
  3
2832829680592
350
47E5
  0
DICTIONARY
  5
47BD
330
2A87
100
AcDbDictionary
280
     1
281
     1
  3
ACAD_XREC_ROUNDTRIP
360
481E
  0
DICTIONARY
  5
27E5
330
27E4
100
AcDbDictionary
280
     1
281
     1
  3
ACAD_XREC_ROUNDTRIP
360
3E2C
  3
BUMPTILE
360
27E7
  3
DIFFUSETILE
360
27E6
  3
OPACITYTILE
360
27EA
  3
REFLECTIONTILE
360
27E9
  3
REFRACTIONTILE
360
27EB
  3
SPECULARTILE
360
27E8
  0
DICTIONARY
  5
27DD
330
27DC
100
AcDbDictionary
280
     1
281
     1
  3
ACAD_XREC_ROUNDTRIP
360
3E2B
  3
BUMPTILE
360
27DF
  3
DIFFUSETILE
360
27DE
  3
OPACITYTILE
360
27E2
  3
REFLECTIONTILE
360
27E1
  3
REFRACTIONTILE
360
27E3
  3
SPECULARTILE
360
27E0
  0
DICTIONARY
  5
3E29
330
16F3
100
AcDbDictionary
280
     1
281
     1
  3
ACAD_XREC_ROUNDTRIP
360
3E2A
  0
DICTIONARY
  5
47BB
330
2A85
100
AcDbDictionary
280
     1
281
     1
  3
ACAD_XREC_ROUNDTRIP
360
481D
  0
DICTIONARY
  5
2897
330
27FE
100
AcDbDictionary
280
     1
281
     1
  3
ACAD_ROUNDTRIP_2008_TABLESTYLE_CELLSTYLEMAP
360
47DC
  0
DICTIONARY
  5
47F3
330
27F2
100
AcDbDictionary
280
     1
281
     1
  3
ACAD_XREC_ROUNDTRIP
360
47F4
  0
DICTIONARY
  5
47F7
330
27F4
100
AcDbDictionary
280
     1
281
     1
  3
ACAD_XREC_ROUNDTRIP
360
47F8
  0
DICTIONARY
  5
47F5
330
27F3
100
AcDbDictionary
280
     1
281
     1
  3
ACAD_XREC_ROUNDTRIP
360
47F6
  0
DICTIONARY
  5
47F1
330
27F1
100
AcDbDictionary
280
     1
281
     1
  3
ACAD_XREC_ROUNDTRIP
360
47F2
  0
DICTIONARY
  5
47FF
330
27F8
100
AcDbDictionary
280
     1
281
     1
  3
ACAD_XREC_ROUNDTRIP
360
4800
  0
DICTIONARY
  5
4807
330
27FC
100
AcDbDictionary
280
     1
281
     1
  3
ACAD_XREC_ROUNDTRIP
360
4808
  0
DICTIONARY
  5
47F9
330
27F5
100
AcDbDictionary
280
     1
281
     1
  3
ACAD_XREC_ROUNDTRIP
360
47FA
  0
DICTIONARY
  5
47FD
330
27F7
100
AcDbDictionary
280
     1
281
     1
  3
ACAD_XREC_ROUNDTRIP
360
47FE
  0
DICTIONARY
  5
481B
330
28F1
100
AcDbDictionary
280
     1
281
     1
  3
ACAD_XREC_ROUNDTRIP
360
481C
  0
DICTIONARY
  5
4805
330
27FB
100
AcDbDictionary
280
     1
281
     1
  3
ACAD_XREC_ROUNDTRIP
360
4806
  0
DICTIONARY
  5
47E9
330
27ED
100
AcDbDictionary
280
     1
281
     1
  3
ACAD_XREC_ROUNDTRIP
360
47EA
  0
DICTIONARY
  5
47EB
330
27EE
100
AcDbDictionary
280
     1
281
     1
  3
ACAD_XREC_ROUNDTRIP
360
47EC
  0
DICTIONARY
  5
47ED
330
27EF
100
AcDbDictionary
280
     1
281
     1
  3
ACAD_XREC_ROUNDTRIP
360
47EE
  0
DICTIONARY
  5
47EF
330
27F0
100
AcDbDictionary
280
     1
281
     1
  3
ACAD_XREC_ROUNDTRIP
360
47F0
  0
DICTIONARY
  5
480B
330
28E9
100
AcDbDictionary
280
     1
281
     1
  3
ACAD_XREC_ROUNDTRIP
360
480C
  0
DICTIONARY
  5
4817
330
28EF
100
AcDbDictionary
280
     1
281
     1
  3
ACAD_XREC_ROUNDTRIP
360
4818
  0
DICTIONARY
  5
4803
330
27FA
100
AcDbDictionary
280
     1
281
     1
  3
ACAD_XREC_ROUNDTRIP
360
4804
  0
DICTIONARY
  5
4819
330
28F0
100
AcDbDictionary
280
     1
281
     1
  3
ACAD_XREC_ROUNDTRIP
360
481A
  0
DICTIONARY
  5
47FB
330
27F6
100
AcDbDictionary
280
     1
281
     1
  3
ACAD_XREC_ROUNDTRIP
360
47FC
  0
DICTIONARY
  5
4815
330
28EE
100
AcDbDictionary
280
     1
281
     1
  3
ACAD_XREC_ROUNDTRIP
360
4816
  0
DICTIONARY
  5
4813
330
28ED
100
AcDbDictionary
280
     1
281
     1
  3
ACAD_XREC_ROUNDTRIP
360
4814
  0
DICTIONARY
  5
480D
330
28EA
100
AcDbDictionary
280
     1
281
     1
  3
ACAD_XREC_ROUNDTRIP
360
480E
  0
DICTIONARY
  5
480F
330
28EB
100
AcDbDictionary
280
     1
281
     1
  3
ACAD_XREC_ROUNDTRIP
360
4810
  0
DICTIONARY
  5
4801
330
27F9
100
AcDbDictionary
280
     1
281
     1
  3
ACAD_XREC_ROUNDTRIP
360
4802
  0
DICTIONARY
  5
4809
330
28E8
100
AcDbDictionary
280
     1
281
     1
  3
ACAD_XREC_ROUNDTRIP
360
480A
  0
DICTIONARY
  5
4811
330
28EC
100
AcDbDictionary
280
     1
281
     1
  3
ACAD_XREC_ROUNDTRIP
360
4812
  0
XRECORD
  5
47E1
102
{ACAD_REACTORS
330
47E7
102
}
330
47E7
100
AcDbXrecord
280
     1
  1
AcDb_Thumbnail_Schema
102
{ATTRRECORD
341
47E2
  2
AcDbDs::TreatedAsObjectData
280
     1
291
     1
102
ATTRRECORD}
102
{ATTRRECORD
341
47E3
  2
AcDbDs::Legacy
280
     1
291
     1
102
ATTRRECORD}
  2
AcDbDs::ID
280
    10
 91
        8
102
{ATTRRECORD
341
47E4
  2
AcDs:Indexable
280
     1
291
     1
102
ATTRRECORD}
102
{ATTRRECORD
341
47E5
  2
AcDbDs::HandleAttribute
280
     7
282
     1
102
ATTRRECORD}
  2
Thumbnail_Data
280
    15
 91
        0
  0
XRECORD
  5
47E2
102
{ACAD_REACTORS
330
47E7
102
}
330
47E7
100
AcDbXrecord
280
     1
  1
AcDbDs::TreatedAsObjectDataSchema
  2
AcDbDs::TreatedAsObjectData
280
     1
 91
        0
  0
XRECORD
  5
47E3
102
{ACAD_REACTORS
330
47E7
102
}
330
47E7
100
AcDbXrecord
280
     1
  1
AcDbDs::LegacySchema
  2
AcDbDs::Legacy
280
     1
 91
        0
  0
XRECORD
  5
47E4
102
{ACAD_REACTORS
330
47E7
102
}
330
47E7
100
AcDbXrecord
280
     1
  1
AcDbDs::IndexedPropertySchema
  2
AcDs:Indexable
280
     1
 91
        0
  0
XRECORD
  5
47E5
102
{ACAD_REACTORS
330
47E7
102
}
330
47E7
100
AcDbXrecord
280
     1
  1
AcDbDs::HandleAttributeSchema
  2
AcDbDs::HandleAttribute
280
     7
 91
        1
284
     1
  0
XRECORD
  5
481E
102
{ACAD_REACTORS
330
47BD
102
}
330
47BD
100
AcDbXrecord
280
     1
102
DISPLAYNAME
  1
Metric50
102
FLAGS
 90
        0
  0
XRECORD
  5
3E2C
102
{ACAD_REACTORS
330
27E5
102
}
330
27E5
100
AcDbXrecord
280
     1
102
MATERIAL
148
0.0
149
0.0
149
0.0
 93
        0
 94
      127
282
     0
 72
     0
 77
     0
171
     0
175
     0
179
     0
273
     0
  0
XRECORD
  5
27E7
102
{ACAD_REACTORS
330
27E5
102
}
330
27E5
100
AcDbXrecord
280
     1
270
     1
271
     1
  0
XRECORD
  5
27E6
102
{ACAD_REACTORS
330
27E5
102
}
330
27E5
100
AcDbXrecord
280
     1
270
     1
271
     1
  0
XRECORD
  5
27EA
102
{ACAD_REACTORS
330
27E5
102
}
330
27E5
100
AcDbXrecord
280
     1
270
     1
271
     1
  0
XRECORD
  5
27E9
102
{ACAD_REACTORS
330
27E5
102
}
330
27E5
100
AcDbXrecord
280
     1
270
     1
271
     1
  0
XRECORD
  5
27EB
102
{ACAD_REACTORS
330
27E5
102
}
330
27E5
100
AcDbXrecord
280
     1
270
     1
271
     1
  0
XRECORD
  5
27E8
102
{ACAD_REACTORS
330
27E5
102
}
330
27E5
100
AcDbXrecord
280
     1
270
     1
271
     1
  0
XRECORD
  5
3E2B
102
{ACAD_REACTORS
330
27DD
102
}
330
27DD
100
AcDbXrecord
280
     1
102
MATERIAL
148
0.0
149
0.0
149
0.0
 93
        0
 94
      127
282
     0
 72
     0
 77
     0
171
     0
175
     0
179
     0
273
     0
  0
XRECORD
  5
27DF
102
{ACAD_REACTORS
330
27DD
102
}
330
27DD
100
AcDbXrecord
280
     1
270
     1
271
     1
  0
XRECORD
  5
27DE
102
{ACAD_REACTORS
330
27DD
102
}
330
27DD
100
AcDbXrecord
280
     1
270
     1
271
     1
  0
XRECORD
  5
27E2
102
{ACAD_REACTORS
330
27DD
102
}
330
27DD
100
AcDbXrecord
280
     1
270
     1
271
     1
  0
XRECORD
  5
27E1
102
{ACAD_REACTORS
330
27DD
102
}
330
27DD
100
AcDbXrecord
280
     1
270
     1
271
     1
  0
XRECORD
  5
27E3
102
{ACAD_REACTORS
330
27DD
102
}
330
27DD
100
AcDbXrecord
280
     1
270
     1
271
     1
  0
XRECORD
  5
27E0
102
{ACAD_REACTORS
330
27DD
102
}
330
27DD
100
AcDbXrecord
280
     1
270
     1
271
     1
  0
XRECORD
  5
3E2A
102
{ACAD_REACTORS
330
3E29
102
}
330
3E29
100
AcDbXrecord
280
     1
102
MATERIAL
148
0.0
149
0.0
149
0.0
 93
        0
 94
       63
282
     0
 72
     1
 77
     1
171
     1
175
     1
179
     1
273
     0
  0
XRECORD
  5
481D
102
{ACAD_REACTORS
330
47BB
102
}
330
47BB
100
AcDbXrecord
280
     1
102
DISPLAYNAME
  1
Metric50
102
FLAGS
 90
        0
  0
CELLSTYLEMAP
  5
47DC
102
{ACAD_REACTORS
330
2897
102
}
330
2897
100
AcDbCellStyleMap
 90
        3
300
CELLSTYLE
  1
TABLEFORMAT_BEGIN
 90
        5
170
     1
 91
        0
 92
    32768
 62
   257
 93
        1
300
CONTENTFORMAT
  1
CONTENTFORMAT_BEGIN
 90
        0
 91
        0
 92
      512
 93
        0
300

 40
0.0
140
1.0
 94
        5
 62
     0
340
10
144
6.0
309
CONTENTFORMAT_END
171
     1
301
MARGIN
  1
CELLMARGIN_BEGIN
 40
1.5
 40
1.5
 40
1.5
 40
1.5
 40
0.18
 40
0.18
309
CELLMARGIN_END
 94
        6
 95
        1
302
GRIDFORMAT
  1
GRIDFORMAT_BEGIN
 90
        0
 91
        1
 62
     0
 92
       -2
340
0
 93
        0
 40
1.125
309
GRIDFORMAT_END
 95
        2
302
GRIDFORMAT
  1
GRIDFORMAT_BEGIN
 90
        0
 91
        1
 62
     0
 92
       -2
340
0
 93
        0
 40
1.125
309
GRIDFORMAT_END
 95
        4
302
GRIDFORMAT
  1
GRIDFORMAT_BEGIN
 90
        0
 91
        1
 62
     0
 92
       -2
340
0
 93
        0
 40
1.125
309
GRIDFORMAT_END
 95
        8
302
GRIDFORMAT
  1
GRIDFORMAT_BEGIN
 90
        0
 91
        1
 62
     0
 92
       -2
340
0
 93
        0
 40
1.125
309
GRIDFORMAT_END
 95
       16
302
GRIDFORMAT
  1
GRIDFORMAT_BEGIN
 90
        0
 91
        1
 62
     0
 92
       -2
340
0
 93
        0
 40
1.125
309
GRIDFORMAT_END
 95
       32
302
GRIDFORMAT
  1
GRIDFORMAT_BEGIN
 90
        0
 91
        1
 62
     0
 92
       -2
340
0
 93
        0
 40
1.125
309
GRIDFORMAT_END
309
TABLEFORMAT_END
  1
CELLSTYLE_BEGIN
 90
        1
 91
        1
300
_TITLE
309
CELLSTYLE_END
300
CELLSTYLE
  1
TABLEFORMAT_BEGIN
 90
        5
170
     1
 91
        0
 92
        0
 62
   257
 93
        1
300
CONTENTFORMAT
  1
CONTENTFORMAT_BEGIN
 90
        0
 91
        0
 92
      512
 93
        0
300

 40
0.0
140
1.0
 94
        5
 62
     0
340
10
144
4.5
309
CONTENTFORMAT_END
171
     1
301
MARGIN
  1
CELLMARGIN_BEGIN
 40
1.5
 40
1.5
 40
1.5
 40
1.5
 40
0.18
 40
0.18
309
CELLMARGIN_END
 94
        6
 95
        1
302
GRIDFORMAT
  1
GRIDFORMAT_BEGIN
 90
        0
 91
        1
 62
     0
 92
       -2
340
0
 93
        0
 40
1.125
309
GRIDFORMAT_END
 95
        2
302
GRIDFORMAT
  1
GRIDFORMAT_BEGIN
 90
        0
 91
        1
 62
     0
 92
       -2
340
0
 93
        0
 40
1.125
309
GRIDFORMAT_END
 95
        4
302
GRIDFORMAT
  1
GRIDFORMAT_BEGIN
 90
        0
 91
        1
 62
     0
 92
       -2
340
0
 93
        0
 40
1.125
309
GRIDFORMAT_END
 95
        8
302
GRIDFORMAT
  1
GRIDFORMAT_BEGIN
 90
        0
 91
        1
 62
     0
 92
       -2
340
0
 93
        0
 40
1.125
309
GRIDFORMAT_END
 95
       16
302
GRIDFORMAT
  1
GRIDFORMAT_BEGIN
 90
        0
 91
        1
 62
     0
 92
       -2
340
0
 93
        0
 40
1.125
309
GRIDFORMAT_END
 95
       32
302
GRIDFORMAT
  1
GRIDFORMAT_BEGIN
 90
        0
 91
        1
 62
     0
 92
       -2
340
0
 93
        0
 40
1.125
309
GRIDFORMAT_END
309
TABLEFORMAT_END
  1
CELLSTYLE_BEGIN
 90
        2
 91
        1
300
_HEADER
309
CELLSTYLE_END
300
CELLSTYLE
  1
TABLEFORMAT_BEGIN
 90
        5
170
     1
 91
        0
 92
        0
 62
   257
 93
        1
300
CONTENTFORMAT
  1
CONTENTFORMAT_BEGIN
 90
        0
 91
        0
 92
      512
 93
        0
300

 40
0.0
140
1.0
 94
        2
 62
     0
340
10
144
4.5
309
CONTENTFORMAT_END
171
     1
301
MARGIN
  1
CELLMARGIN_BEGIN
 40
1.5
 40
1.5
 40
1.5
 40
1.5
 40
0.18
 40
0.18
309
CELLMARGIN_END
 94
        6
 95
        1
302
GRIDFORMAT
  1
GRIDFORMAT_BEGIN
 90
        0
 91
        1
 62
     0
 92
       -2
340
0
 93
        0
 40
1.125
309
GRIDFORMAT_END
 95
        2
302
GRIDFORMAT
  1
GRIDFORMAT_BEGIN
 90
        0
 91
        1
 62
     0
 92
       -2
340
0
 93
        0
 40
1.125
309
GRIDFORMAT_END
 95
        4
302
GRIDFORMAT
  1
GRIDFORMAT_BEGIN
 90
        0
 91
        1
 62
     0
 92
       -2
340
0
 93
        0
 40
1.125
309
GRIDFORMAT_END
 95
        8
302
GRIDFORMAT
  1
GRIDFORMAT_BEGIN
 90
        0
 91
        1
 62
     0
 92
       -2
340
0
 93
        0
 40
1.125
309
GRIDFORMAT_END
 95
       16
302
GRIDFORMAT
  1
GRIDFORMAT_BEGIN
 90
        0
 91
        1
 62
     0
 92
       -2
340
0
 93
        0
 40
1.125
309
GRIDFORMAT_END
 95
       32
302
GRIDFORMAT
  1
GRIDFORMAT_BEGIN
 90
        0
 91
        1
 62
     0
 92
       -2
340
0
 93
        0
 40
1.125
309
GRIDFORMAT_END
309
TABLEFORMAT_END
  1
CELLSTYLE_BEGIN
 90
        3
 91
        2
300
_DATA
309
CELLSTYLE_END
  0
XRECORD
  5
47F4
102
{ACAD_REACTORS
330
47F3
102
}
330
47F3
100
AcDbXrecord
280
     1
102
RTVSPost2010Prop28
280
     1
102
RTVSPost2010PropOp28
 70
     1
102
RTVSPost2010Prop29
280
     1
102
RTVSPost2010PropOp29
 70
     1
102
RTVSPost2010Prop30
280
     0
102
RTVSPost2010PropOp30
 70
     1
102
RTVSPost2010Prop31
280
     0
102
RTVSPost2010PropOp31
 70
     1
102
RTVSPost2010Prop32
280
     0
102
RTVSPost2010PropOp32
 70
     1
102
RTVSPost2010Prop33
280
     0
102
RTVSPost2010PropOp33
 70
     1
102
RTVSPost2010Prop34
280
     0
102
RTVSPost2010PropOp34
 70
     1
102
RTVSPost2010Prop35
280
     0
102
RTVSPost2010PropOp35
 70
     1
102
RTVSPost2010Prop36
280
     0
102
RTVSPost2010PropOp36
 70
     1
102
RTVSPost2010Prop37
 90
       50
102
RTVSPost2010PropOp37
 70
     1
102
RTVSPost2010Prop38
140
0.0
102
RTVSPost2010PropOp38
 70
     1
102
RTVSPost2010Prop39
140
1.0
102
RTVSPost2010PropOp39
 70
     1
102
RTVSPost2010Prop40
 90
        0
102
RTVSPost2010PropOp40
 70
     1
102
RTVSPost2010Prop41ColorIndex
 90
       18
102
RTVSPost2010Prop41ColorRGB
 90
        0
102
RTVSPost2010PropOp41
 70
     1
102
RTVSPost2010Prop42
 90
       50
102
RTVSPost2010PropOp42
 70
     1
102
RTVSPost2010Prop43
 90
        3
102
RTVSPost2010PropOp43
 70
     1
102
RTVSPost2010Prop44ColorIndex
 90
        5
102
RTVSPost2010Prop44ColorRGB
 90
      255
102
RTVSPost2010PropOp44
 70
     1
102
RTVSPost2010Prop45
280
     0
102
RTVSPost2010PropOp45
 70
     1
102
RTVSPost2010Prop46
 90
       50
102
RTVSPost2010PropOp46
 70
     1
102
RTVSPost2010Prop47
 90
       50
102
RTVSPost2010PropOp47
 70
     1
102
RTVSPost2010Prop48
 90
       50
102
RTVSPost2010PropOp48
 70
     1
102
RTVSPost2010Prop49
280
     0
102
RTVSPost2010PropOp49
 70
     1
102
RTVSPost2010Prop50
 90
       50
102
RTVSPost2010PropOp50
 70
     1
102
RTVSPost2010Prop51ColorIndex
 90
      256
102
RTVSPost2010Prop51ColorRGB
 90
-16777216
102
RTVSPost2010PropOp51
 70
     0
102
RTVSPost2010Prop52
140
1.0
102
RTVSPost2010PropOp52
 70
     0
102
RTVSPost2010Prop53
 90
        2
102
RTVSPost2010PropOp53
 70
     1
102
RTVSPost2010Prop54
  1
strokes_ogs.tif
102
RTVSPost2010PropOp54
 70
     1
102
RTVSPost2010Prop55
280
     0
102
RTVSPost2010PropOp55
 70
     1
102
RTVSPost2010Prop56
140
1.0
102
RTVSPost2010PropOp56
 70
     1
102
RTVSPost2010Prop57
140
1.0
102
RTVSPost2010PropOp57
 70
     1
  0
XRECORD
  5
47F8
102
{ACAD_REACTORS
330
47F7
102
}
330
47F7
100
AcDbXrecord
280
     1
102
RTVSPost2010Prop28
280
     0
102
RTVSPost2010PropOp28
 70
     1
102
RTVSPost2010Prop29
280
     1
102
RTVSPost2010PropOp29
 70
     1
102
RTVSPost2010Prop30
280
     1
102
RTVSPost2010PropOp30
 70
     1
102
RTVSPost2010Prop31
280
     0
102
RTVSPost2010PropOp31
 70
     1
102
RTVSPost2010Prop32
280
     0
102
RTVSPost2010PropOp32
 70
     1
102
RTVSPost2010Prop33
280
     0
102
RTVSPost2010PropOp33
 70
     1
102
RTVSPost2010Prop34
280
     0
102
RTVSPost2010PropOp34
 70
     1
102
RTVSPost2010Prop35
280
     0
102
RTVSPost2010PropOp35
 70
     1
102
RTVSPost2010Prop36
280
     0
102
RTVSPost2010PropOp36
 70
     1
102
RTVSPost2010Prop37
 90
       50
102
RTVSPost2010PropOp37
 70
     1
102
RTVSPost2010Prop38
140
0.0
102
RTVSPost2010PropOp38
 70
     1
102
RTVSPost2010Prop39
140
1.0
102
RTVSPost2010PropOp39
 70
     1
102
RTVSPost2010Prop40
 90
        0
102
RTVSPost2010PropOp40
 70
     1
102
RTVSPost2010Prop41ColorIndex
 90
       18
102
RTVSPost2010Prop41ColorRGB
 90
        0
102
RTVSPost2010PropOp41
 70
     1
102
RTVSPost2010Prop42
 90
       50
102
RTVSPost2010PropOp42
 70
     1
102
RTVSPost2010Prop43
 90
        3
102
RTVSPost2010PropOp43
 70
     1
102
RTVSPost2010Prop44ColorIndex
 90
        5
102
RTVSPost2010Prop44ColorRGB
 90
      255
102
RTVSPost2010PropOp44
 70
     1
102
RTVSPost2010Prop45
280
     0
102
RTVSPost2010PropOp45
 70
     1
102
RTVSPost2010Prop46
 90
       50
102
RTVSPost2010PropOp46
 70
     1
102
RTVSPost2010Prop47
 90
       50
102
RTVSPost2010PropOp47
 70
     1
102
RTVSPost2010Prop48
 90
       50
102
RTVSPost2010PropOp48
 70
     1
102
RTVSPost2010Prop49
280
     0
102
RTVSPost2010PropOp49
 70
     1
102
RTVSPost2010Prop50
 90
       50
102
RTVSPost2010PropOp50
 70
     1
102
RTVSPost2010Prop51ColorIndex
 90
      256
102
RTVSPost2010Prop51ColorRGB
 90
-16777216
102
RTVSPost2010PropOp51
 70
     0
102
RTVSPost2010Prop52
140
1.0
102
RTVSPost2010PropOp52
 70
     0
102
RTVSPost2010Prop53
 90
        2
102
RTVSPost2010PropOp53
 70
     1
102
RTVSPost2010Prop54
  1
strokes_ogs.tif
102
RTVSPost2010PropOp54
 70
     1
102
RTVSPost2010Prop55
280
     0
102
RTVSPost2010PropOp55
 70
     1
102
RTVSPost2010Prop56
140
1.0
102
RTVSPost2010PropOp56
 70
     1
102
RTVSPost2010Prop57
140
1.0
102
RTVSPost2010PropOp57
 70
     1
  0
XRECORD
  5
47F6
102
{ACAD_REACTORS
330
47F5
102
}
330
47F5
100
AcDbXrecord
280
     1
102
RTVSPost2010Prop28
280
     0
102
RTVSPost2010PropOp28
 70
     1
102
RTVSPost2010Prop29
280
     1
102
RTVSPost2010PropOp29
 70
     1
102
RTVSPost2010Prop30
280
     1
102
RTVSPost2010PropOp30
 70
     1
102
RTVSPost2010Prop31
280
     0
102
RTVSPost2010PropOp31
 70
     1
102
RTVSPost2010Prop32
280
     0
102
RTVSPost2010PropOp32
 70
     1
102
RTVSPost2010Prop33
280
     0
102
RTVSPost2010PropOp33
 70
     1
102
RTVSPost2010Prop34
280
     0
102
RTVSPost2010PropOp34
 70
     1
102
RTVSPost2010Prop35
280
     0
102
RTVSPost2010PropOp35
 70
     1
102
RTVSPost2010Prop36
280
     0
102
RTVSPost2010PropOp36
 70
     1
102
RTVSPost2010Prop37
 90
       50
102
RTVSPost2010PropOp37
 70
     1
102
RTVSPost2010Prop38
140
0.0
102
RTVSPost2010PropOp38
 70
     1
102
RTVSPost2010Prop39
140
1.0
102
RTVSPost2010PropOp39
 70
     1
102
RTVSPost2010Prop40
 90
        0
102
RTVSPost2010PropOp40
 70
     1
102
RTVSPost2010Prop41ColorIndex
 90
       18
102
RTVSPost2010Prop41ColorRGB
 90
        0
102
RTVSPost2010PropOp41
 70
     1
102
RTVSPost2010Prop42
 90
       50
102
RTVSPost2010PropOp42
 70
     1
102
RTVSPost2010Prop43
 90
        3
102
RTVSPost2010PropOp43
 70
     1
102
RTVSPost2010Prop44ColorIndex
 90
        5
102
RTVSPost2010Prop44ColorRGB
 90
      255
102
RTVSPost2010PropOp44
 70
     1
102
RTVSPost2010Prop45
280
     0
102
RTVSPost2010PropOp45
 70
     1
102
RTVSPost2010Prop46
 90
       50
102
RTVSPost2010PropOp46
 70
     1
102
RTVSPost2010Prop47
 90
       50
102
RTVSPost2010PropOp47
 70
     1
102
RTVSPost2010Prop48
 90
       50
102
RTVSPost2010PropOp48
 70
     1
102
RTVSPost2010Prop49
280
     0
102
RTVSPost2010PropOp49
 70
     1
102
RTVSPost2010Prop50
 90
       50
102
RTVSPost2010PropOp50
 70
     1
102
RTVSPost2010Prop51ColorIndex
 90
      256
102
RTVSPost2010Prop51ColorRGB
 90
-16777216
102
RTVSPost2010PropOp51
 70
     0
102
RTVSPost2010Prop52
140
1.0
102
RTVSPost2010PropOp52
 70
     0
102
RTVSPost2010Prop53
 90
        2
102
RTVSPost2010PropOp53
 70
     1
102
RTVSPost2010Prop54
  1
strokes_ogs.tif
102
RTVSPost2010PropOp54
 70
     1
102
RTVSPost2010Prop55
280
     0
102
RTVSPost2010PropOp55
 70
     1
102
RTVSPost2010Prop56
140
1.0
102
RTVSPost2010PropOp56
 70
     1
102
RTVSPost2010Prop57
140
1.0
102
RTVSPost2010PropOp57
 70
     1
  0
XRECORD
  5
47F2
102
{ACAD_REACTORS
330
47F1
102
}
330
47F1
100
AcDbXrecord
280
     1
102
RTVSPost2010Prop28
280
     0
102
RTVSPost2010PropOp28
 70
     1
102
RTVSPost2010Prop29
280
     1
102
RTVSPost2010PropOp29
 70
     1
102
RTVSPost2010Prop30
280
     1
102
RTVSPost2010PropOp30
 70
     1
102
RTVSPost2010Prop31
280
     0
102
RTVSPost2010PropOp31
 70
     1
102
RTVSPost2010Prop32
280
     0
102
RTVSPost2010PropOp32
 70
     1
102
RTVSPost2010Prop33
280
     0
102
RTVSPost2010PropOp33
 70
     1
102
RTVSPost2010Prop34
280
     0
102
RTVSPost2010PropOp34
 70
     1
102
RTVSPost2010Prop35
280
     0
102
RTVSPost2010PropOp35
 70
     1
102
RTVSPost2010Prop36
280
     0
102
RTVSPost2010PropOp36
 70
     1
102
RTVSPost2010Prop37
 90
       50
102
RTVSPost2010PropOp37
 70
     1
102
RTVSPost2010Prop38
140
0.0
102
RTVSPost2010PropOp38
 70
     1
102
RTVSPost2010Prop39
140
1.0
102
RTVSPost2010PropOp39
 70
     1
102
RTVSPost2010Prop40
 90
        0
102
RTVSPost2010PropOp40
 70
     1
102
RTVSPost2010Prop41ColorIndex
 90
       18
102
RTVSPost2010Prop41ColorRGB
 90
        0
102
RTVSPost2010PropOp41
 70
     1
102
RTVSPost2010Prop42
 90
       50
102
RTVSPost2010PropOp42
 70
     1
102
RTVSPost2010Prop43
 90
        3
102
RTVSPost2010PropOp43
 70
     1
102
RTVSPost2010Prop44ColorIndex
 90
        5
102
RTVSPost2010Prop44ColorRGB
 90
      255
102
RTVSPost2010PropOp44
 70
     1
102
RTVSPost2010Prop45
280
     0
102
RTVSPost2010PropOp45
 70
     1
102
RTVSPost2010Prop46
 90
       50
102
RTVSPost2010PropOp46
 70
     1
102
RTVSPost2010Prop47
 90
       50
102
RTVSPost2010PropOp47
 70
     1
102
RTVSPost2010Prop48
 90
       50
102
RTVSPost2010PropOp48
 70
     1
102
RTVSPost2010Prop49
280
     0
102
RTVSPost2010PropOp49
 70
     1
102
RTVSPost2010Prop50
 90
       50
102
RTVSPost2010PropOp50
 70
     1
102
RTVSPost2010Prop51ColorIndex
 90
      256
102
RTVSPost2010Prop51ColorRGB
 90
-16777216
102
RTVSPost2010PropOp51
 70
     0
102
RTVSPost2010Prop52
140
1.0
102
RTVSPost2010PropOp52
 70
     0
102
RTVSPost2010Prop53
 90
        2
102
RTVSPost2010PropOp53
 70
     1
102
RTVSPost2010Prop54
  1
strokes_ogs.tif
102
RTVSPost2010PropOp54
 70
     1
102
RTVSPost2010Prop55
280
     0
102
RTVSPost2010PropOp55
 70
     1
102
RTVSPost2010Prop56
140
1.0
102
RTVSPost2010PropOp56
 70
     1
102
RTVSPost2010Prop57
140
1.0
102
RTVSPost2010PropOp57
 70
     1
  0
XRECORD
  5
4800
102
{ACAD_REACTORS
330
47FF
102
}
330
47FF
100
AcDbXrecord
280
     1
102
RTVSPost2010Prop28
280
     0
102
RTVSPost2010PropOp28
 70
     1
102
RTVSPost2010Prop29
280
     1
102
RTVSPost2010PropOp29
 70
     1
102
RTVSPost2010Prop30
280
     1
102
RTVSPost2010PropOp30
 70
     1
102
RTVSPost2010Prop31
280
     0
102
RTVSPost2010PropOp31
 70
     1
102
RTVSPost2010Prop32
280
     0
102
RTVSPost2010PropOp32
 70
     1
102
RTVSPost2010Prop33
280
     0
102
RTVSPost2010PropOp33
 70
     1
102
RTVSPost2010Prop34
280
     0
102
RTVSPost2010PropOp34
 70
     1
102
RTVSPost2010Prop35
280
     0
102
RTVSPost2010PropOp35
 70
     1
102
RTVSPost2010Prop36
280
     0
102
RTVSPost2010PropOp36
 70
     1
102
RTVSPost2010Prop37
 90
       50
102
RTVSPost2010PropOp37
 70
     1
102
RTVSPost2010Prop38
140
0.0
102
RTVSPost2010PropOp38
 70
     1
102
RTVSPost2010Prop39
140
1.0
102
RTVSPost2010PropOp39
 70
     1
102
RTVSPost2010Prop40
 90
        0
102
RTVSPost2010PropOp40
 70
     1
102
RTVSPost2010Prop41ColorIndex
 90
       18
102
RTVSPost2010Prop41ColorRGB
 90
        0
102
RTVSPost2010PropOp41
 70
     1
102
RTVSPost2010Prop42
 90
       50
102
RTVSPost2010PropOp42
 70
     1
102
RTVSPost2010Prop43
 90
        3
102
RTVSPost2010PropOp43
 70
     1
102
RTVSPost2010Prop44ColorIndex
 90
        5
102
RTVSPost2010Prop44ColorRGB
 90
      255
102
RTVSPost2010PropOp44
 70
     1
102
RTVSPost2010Prop45
280
     0
102
RTVSPost2010PropOp45
 70
     1
102
RTVSPost2010Prop46
 90
       50
102
RTVSPost2010PropOp46
 70
     1
102
RTVSPost2010Prop47
 90
       50
102
RTVSPost2010PropOp47
 70
     1
102
RTVSPost2010Prop48
 90
       50
102
RTVSPost2010PropOp48
 70
     1
102
RTVSPost2010Prop49
280
     0
102
RTVSPost2010PropOp49
 70
     1
102
RTVSPost2010Prop50
 90
       50
102
RTVSPost2010PropOp50
 70
     1
102
RTVSPost2010Prop51ColorIndex
 90
      256
102
RTVSPost2010Prop51ColorRGB
 90
-16777216
102
RTVSPost2010PropOp51
 70
     0
102
RTVSPost2010Prop52
140
1.0
102
RTVSPost2010PropOp52
 70
     0
102
RTVSPost2010Prop53
 90
        2
102
RTVSPost2010PropOp53
 70
     1
102
RTVSPost2010Prop54
  1
strokes_ogs.tif
102
RTVSPost2010PropOp54
 70
     1
102
RTVSPost2010Prop55
280
     0
102
RTVSPost2010PropOp55
 70
     1
102
RTVSPost2010Prop56
140
1.0
102
RTVSPost2010PropOp56
 70
     1
102
RTVSPost2010Prop57
140
1.0
102
RTVSPost2010PropOp57
 70
     1
  0
XRECORD
  5
4808
102
{ACAD_REACTORS
330
4807
102
}
330
4807
100
AcDbXrecord
280
     1
102
RTVSPost2010Prop28
280
     0
102
RTVSPost2010PropOp28
 70
     1
102
RTVSPost2010Prop29
280
     1
102
RTVSPost2010PropOp29
 70
     1
102
RTVSPost2010Prop30
280
     1
102
RTVSPost2010PropOp30
 70
     1
102
RTVSPost2010Prop31
280
     0
102
RTVSPost2010PropOp31
 70
     1
102
RTVSPost2010Prop32
280
     0
102
RTVSPost2010PropOp32
 70
     1
102
RTVSPost2010Prop33
280
     0
102
RTVSPost2010PropOp33
 70
     1
102
RTVSPost2010Prop34
280
     0
102
RTVSPost2010PropOp34
 70
     1
102
RTVSPost2010Prop35
280
     0
102
RTVSPost2010PropOp35
 70
     1
102
RTVSPost2010Prop36
280
     0
102
RTVSPost2010PropOp36
 70
     1
102
RTVSPost2010Prop37
 90
       50
102
RTVSPost2010PropOp37
 70
     1
102
RTVSPost2010Prop38
140
0.0
102
RTVSPost2010PropOp38
 70
     1
102
RTVSPost2010Prop39
140
1.0
102
RTVSPost2010PropOp39
 70
     1
102
RTVSPost2010Prop40
 90
        0
102
RTVSPost2010PropOp40
 70
     1
102
RTVSPost2010Prop41ColorIndex
 90
       18
102
RTVSPost2010Prop41ColorRGB
 90
        0
102
RTVSPost2010PropOp41
 70
     1
102
RTVSPost2010Prop42
 90
       50
102
RTVSPost2010PropOp42
 70
     1
102
RTVSPost2010Prop43
 90
        3
102
RTVSPost2010PropOp43
 70
     1
102
RTVSPost2010Prop44ColorIndex
 90
        5
102
RTVSPost2010Prop44ColorRGB
 90
      255
102
RTVSPost2010PropOp44
 70
     1
102
RTVSPost2010Prop45
280
     0
102
RTVSPost2010PropOp45
 70
     1
102
RTVSPost2010Prop46
 90
       50
102
RTVSPost2010PropOp46
 70
     1
102
RTVSPost2010Prop47
 90
       50
102
RTVSPost2010PropOp47
 70
     1
102
RTVSPost2010Prop48
 90
       50
102
RTVSPost2010PropOp48
 70
     1
102
RTVSPost2010Prop49
280
     0
102
RTVSPost2010PropOp49
 70
     1
102
RTVSPost2010Prop50
 90
       50
102
RTVSPost2010PropOp50
 70
     1
102
RTVSPost2010Prop51ColorIndex
 90
      256
102
RTVSPost2010Prop51ColorRGB
 90
-16777216
102
RTVSPost2010PropOp51
 70
     0
102
RTVSPost2010Prop52
140
1.0
102
RTVSPost2010PropOp52
 70
     0
102
RTVSPost2010Prop53
 90
        2
102
RTVSPost2010PropOp53
 70
     1
102
RTVSPost2010Prop54
  1
strokes_ogs.tif
102
RTVSPost2010PropOp54
 70
     1
102
RTVSPost2010Prop55
280
     0
102
RTVSPost2010PropOp55
 70
     1
102
RTVSPost2010Prop56
140
1.0
102
RTVSPost2010PropOp56
 70
     1
102
RTVSPost2010Prop57
140
1.0
102
RTVSPost2010PropOp57
 70
     1
  0
XRECORD
  5
47FA
102
{ACAD_REACTORS
330
47F9
102
}
330
47F9
100
AcDbXrecord
280
     1
102
RTVSPost2010Prop28
280
     0
102
RTVSPost2010PropOp28
 70
     1
102
RTVSPost2010Prop29
280
     1
102
RTVSPost2010PropOp29
 70
     1
102
RTVSPost2010Prop30
280
     1
102
RTVSPost2010PropOp30
 70
     1
102
RTVSPost2010Prop31
280
     0
102
RTVSPost2010PropOp31
 70
     1
102
RTVSPost2010Prop32
280
     0
102
RTVSPost2010PropOp32
 70
     1
102
RTVSPost2010Prop33
280
     0
102
RTVSPost2010PropOp33
 70
     1
102
RTVSPost2010Prop34
280
     0
102
RTVSPost2010PropOp34
 70
     1
102
RTVSPost2010Prop35
280
     0
102
RTVSPost2010PropOp35
 70
     1
102
RTVSPost2010Prop36
280
     0
102
RTVSPost2010PropOp36
 70
     1
102
RTVSPost2010Prop37
 90
       50
102
RTVSPost2010PropOp37
 70
     1
102
RTVSPost2010Prop38
140
0.0
102
RTVSPost2010PropOp38
 70
     1
102
RTVSPost2010Prop39
140
1.0
102
RTVSPost2010PropOp39
 70
     1
102
RTVSPost2010Prop40
 90
        0
102
RTVSPost2010PropOp40
 70
     1
102
RTVSPost2010Prop41ColorIndex
 90
       18
102
RTVSPost2010Prop41ColorRGB
 90
        0
102
RTVSPost2010PropOp41
 70
     1
102
RTVSPost2010Prop42
 90
       50
102
RTVSPost2010PropOp42
 70
     1
102
RTVSPost2010Prop43
 90
        3
102
RTVSPost2010PropOp43
 70
     1
102
RTVSPost2010Prop44ColorIndex
 90
        5
102
RTVSPost2010Prop44ColorRGB
 90
      255
102
RTVSPost2010PropOp44
 70
     1
102
RTVSPost2010Prop45
280
     0
102
RTVSPost2010PropOp45
 70
     1
102
RTVSPost2010Prop46
 90
       50
102
RTVSPost2010PropOp46
 70
     1
102
RTVSPost2010Prop47
 90
       50
102
RTVSPost2010PropOp47
 70
     1
102
RTVSPost2010Prop48
 90
       50
102
RTVSPost2010PropOp48
 70
     1
102
RTVSPost2010Prop49
280
     0
102
RTVSPost2010PropOp49
 70
     1
102
RTVSPost2010Prop50
 90
       50
102
RTVSPost2010PropOp50
 70
     1
102
RTVSPost2010Prop51ColorIndex
 90
      256
102
RTVSPost2010Prop51ColorRGB
 90
-16777216
102
RTVSPost2010PropOp51
 70
     0
102
RTVSPost2010Prop52
140
1.0
102
RTVSPost2010PropOp52
 70
     0
102
RTVSPost2010Prop53
 90
        2
102
RTVSPost2010PropOp53
 70
     1
102
RTVSPost2010Prop54
  1
strokes_ogs.tif
102
RTVSPost2010PropOp54
 70
     1
102
RTVSPost2010Prop55
280
     0
102
RTVSPost2010PropOp55
 70
     1
102
RTVSPost2010Prop56
140
1.0
102
RTVSPost2010PropOp56
 70
     1
102
RTVSPost2010Prop57
140
1.0
102
RTVSPost2010PropOp57
 70
     1
  0
XRECORD
  5
47FE
102
{ACAD_REACTORS
330
47FD
102
}
330
47FD
100
AcDbXrecord
280
     1
102
RTVSPost2010Prop28
280
     0
102
RTVSPost2010PropOp28
 70
     1
102
RTVSPost2010Prop29
280
     1
102
RTVSPost2010PropOp29
 70
     1
102
RTVSPost2010Prop30
280
     1
102
RTVSPost2010PropOp30
 70
     1
102
RTVSPost2010Prop31
280
     0
102
RTVSPost2010PropOp31
 70
     1
102
RTVSPost2010Prop32
280
     0
102
RTVSPost2010PropOp32
 70
     1
102
RTVSPost2010Prop33
280
     0
102
RTVSPost2010PropOp33
 70
     1
102
RTVSPost2010Prop34
280
     0
102
RTVSPost2010PropOp34
 70
     1
102
RTVSPost2010Prop35
280
     0
102
RTVSPost2010PropOp35
 70
     1
102
RTVSPost2010Prop36
280
     0
102
RTVSPost2010PropOp36
 70
     1
102
RTVSPost2010Prop37
 90
       50
102
RTVSPost2010PropOp37
 70
     1
102
RTVSPost2010Prop38
140
0.0
102
RTVSPost2010PropOp38
 70
     1
102
RTVSPost2010Prop39
140
1.0
102
RTVSPost2010PropOp39
 70
     1
102
RTVSPost2010Prop40
 90
        0
102
RTVSPost2010PropOp40
 70
     1
102
RTVSPost2010Prop41ColorIndex
 90
       18
102
RTVSPost2010Prop41ColorRGB
 90
        0
102
RTVSPost2010PropOp41
 70
     1
102
RTVSPost2010Prop42
 90
       50
102
RTVSPost2010PropOp42
 70
     1
102
RTVSPost2010Prop43
 90
        3
102
RTVSPost2010PropOp43
 70
     1
102
RTVSPost2010Prop44ColorIndex
 90
        5
102
RTVSPost2010Prop44ColorRGB
 90
      255
102
RTVSPost2010PropOp44
 70
     1
102
RTVSPost2010Prop45
280
     0
102
RTVSPost2010PropOp45
 70
     1
102
RTVSPost2010Prop46
 90
       50
102
RTVSPost2010PropOp46
 70
     1
102
RTVSPost2010Prop47
 90
       50
102
RTVSPost2010PropOp47
 70
     1
102
RTVSPost2010Prop48
 90
       50
102
RTVSPost2010PropOp48
 70
     1
102
RTVSPost2010Prop49
280
     0
102
RTVSPost2010PropOp49
 70
     1
102
RTVSPost2010Prop50
 90
       50
102
RTVSPost2010PropOp50
 70
     1
102
RTVSPost2010Prop51ColorIndex
 90
      256
102
RTVSPost2010Prop51ColorRGB
 90
-16777216
102
RTVSPost2010PropOp51
 70
     0
102
RTVSPost2010Prop52
140
1.0
102
RTVSPost2010PropOp52
 70
     0
102
RTVSPost2010Prop53
 90
        2
102
RTVSPost2010PropOp53
 70
     1
102
RTVSPost2010Prop54
  1
strokes_ogs.tif
102
RTVSPost2010PropOp54
 70
     1
102
RTVSPost2010Prop55
280
     0
102
RTVSPost2010PropOp55
 70
     1
102
RTVSPost2010Prop56
140
1.0
102
RTVSPost2010PropOp56
 70
     1
102
RTVSPost2010Prop57
140
1.0
102
RTVSPost2010PropOp57
 70
     1
  0
XRECORD
  5
481C
102
{ACAD_REACTORS
330
481B
102
}
330
481B
100
AcDbXrecord
280
     1
102
RTVSPost2010Prop28
280
     0
102
RTVSPost2010PropOp28
 70
     1
102
RTVSPost2010Prop29
280
     1
102
RTVSPost2010PropOp29
 70
     1
102
RTVSPost2010Prop30
280
     1
102
RTVSPost2010PropOp30
 70
     1
102
RTVSPost2010Prop31
280
     0
102
RTVSPost2010PropOp31
 70
     1
102
RTVSPost2010Prop32
280
     0
102
RTVSPost2010PropOp32
 70
     1
102
RTVSPost2010Prop33
280
     0
102
RTVSPost2010PropOp33
 70
     1
102
RTVSPost2010Prop34
280
     0
102
RTVSPost2010PropOp34
 70
     1
102
RTVSPost2010Prop35
280
     0
102
RTVSPost2010PropOp35
 70
     1
102
RTVSPost2010Prop36
280
     0
102
RTVSPost2010PropOp36
 70
     1
102
RTVSPost2010Prop37
 90
       50
102
RTVSPost2010PropOp37
 70
     1
102
RTVSPost2010Prop38
140
0.0
102
RTVSPost2010PropOp38
 70
     1
102
RTVSPost2010Prop39
140
1.0
102
RTVSPost2010PropOp39
 70
     1
102
RTVSPost2010Prop40
 90
        0
102
RTVSPost2010PropOp40
 70
     1
102
RTVSPost2010Prop41ColorIndex
 90
       18
102
RTVSPost2010Prop41ColorRGB
 90
        0
102
RTVSPost2010PropOp41
 70
     1
102
RTVSPost2010Prop42
 90
       50
102
RTVSPost2010PropOp42
 70
     1
102
RTVSPost2010Prop43
 90
        3
102
RTVSPost2010PropOp43
 70
     1
102
RTVSPost2010Prop44ColorIndex
 90
        5
102
RTVSPost2010Prop44ColorRGB
 90
      255
102
RTVSPost2010PropOp44
 70
     1
102
RTVSPost2010Prop45
280
     0
102
RTVSPost2010PropOp45
 70
     1
102
RTVSPost2010Prop46
 90
       50
102
RTVSPost2010PropOp46
 70
     1
102
RTVSPost2010Prop47
 90
       50
102
RTVSPost2010PropOp47
 70
     1
102
RTVSPost2010Prop48
 90
       50
102
RTVSPost2010PropOp48
 70
     1
102
RTVSPost2010Prop49
280
     0
102
RTVSPost2010PropOp49
 70
     1
102
RTVSPost2010Prop50
 90
       50
102
RTVSPost2010PropOp50
 70
     1
102
RTVSPost2010Prop51ColorIndex
 90
      256
102
RTVSPost2010Prop51ColorRGB
 90
-16777216
102
RTVSPost2010PropOp51
 70
     0
102
RTVSPost2010Prop52
140
1.0
102
RTVSPost2010PropOp52
 70
     0
102
RTVSPost2010Prop53
 90
        2
102
RTVSPost2010PropOp53
 70
     1
102
RTVSPost2010Prop54
  1
strokes_ogs.tif
102
RTVSPost2010PropOp54
 70
     1
102
RTVSPost2010Prop55
280
     0
102
RTVSPost2010PropOp55
 70
     1
102
RTVSPost2010Prop56
140
1.0
102
RTVSPost2010PropOp56
 70
     1
102
RTVSPost2010Prop57
140
1.0
102
RTVSPost2010PropOp57
 70
     1
  0
XRECORD
  5
4806
102
{ACAD_REACTORS
330
4805
102
}
330
4805
100
AcDbXrecord
280
     1
102
RTVSPost2010Prop28
280
     0
102
RTVSPost2010PropOp28
 70
     1
102
RTVSPost2010Prop29
280
     1
102
RTVSPost2010PropOp29
 70
     1
102
RTVSPost2010Prop30
280
     1
102
RTVSPost2010PropOp30
 70
     1
102
RTVSPost2010Prop31
280
     0
102
RTVSPost2010PropOp31
 70
     1
102
RTVSPost2010Prop32
280
     0
102
RTVSPost2010PropOp32
 70
     1
102
RTVSPost2010Prop33
280
     0
102
RTVSPost2010PropOp33
 70
     1
102
RTVSPost2010Prop34
280
     0
102
RTVSPost2010PropOp34
 70
     1
102
RTVSPost2010Prop35
280
     0
102
RTVSPost2010PropOp35
 70
     1
102
RTVSPost2010Prop36
280
     0
102
RTVSPost2010PropOp36
 70
     1
102
RTVSPost2010Prop37
 90
       50
102
RTVSPost2010PropOp37
 70
     1
102
RTVSPost2010Prop38
140
0.0
102
RTVSPost2010PropOp38
 70
     1
102
RTVSPost2010Prop39
140
1.0
102
RTVSPost2010PropOp39
 70
     1
102
RTVSPost2010Prop40
 90
        0
102
RTVSPost2010PropOp40
 70
     1
102
RTVSPost2010Prop41ColorIndex
 90
       18
102
RTVSPost2010Prop41ColorRGB
 90
        0
102
RTVSPost2010PropOp41
 70
     1
102
RTVSPost2010Prop42
 90
       50
102
RTVSPost2010PropOp42
 70
     1
102
RTVSPost2010Prop43
 90
        3
102
RTVSPost2010PropOp43
 70
     1
102
RTVSPost2010Prop44ColorIndex
 90
        5
102
RTVSPost2010Prop44ColorRGB
 90
      255
102
RTVSPost2010PropOp44
 70
     1
102
RTVSPost2010Prop45
280
     0
102
RTVSPost2010PropOp45
 70
     1
102
RTVSPost2010Prop46
 90
       50
102
RTVSPost2010PropOp46
 70
     1
102
RTVSPost2010Prop47
 90
       50
102
RTVSPost2010PropOp47
 70
     1
102
RTVSPost2010Prop48
 90
       50
102
RTVSPost2010PropOp48
 70
     1
102
RTVSPost2010Prop49
280
     0
102
RTVSPost2010PropOp49
 70
     1
102
RTVSPost2010Prop50
 90
       50
102
RTVSPost2010PropOp50
 70
     1
102
RTVSPost2010Prop51ColorIndex
 90
      256
102
RTVSPost2010Prop51ColorRGB
 90
-16777216
102
RTVSPost2010PropOp51
 70
     0
102
RTVSPost2010Prop52
140
1.0
102
RTVSPost2010PropOp52
 70
     0
102
RTVSPost2010Prop53
 90
        2
102
RTVSPost2010PropOp53
 70
     1
102
RTVSPost2010Prop54
  1
strokes_ogs.tif
102
RTVSPost2010PropOp54
 70
     1
102
RTVSPost2010Prop55
280
     0
102
RTVSPost2010PropOp55
 70
     1
102
RTVSPost2010Prop56
140
1.0
102
RTVSPost2010PropOp56
 70
     1
102
RTVSPost2010Prop57
140
1.0
102
RTVSPost2010PropOp57
 70
     1
  0
XRECORD
  5
47EA
102
{ACAD_REACTORS
330
47E9
102
}
330
47E9
100
AcDbXrecord
280
     1
102
RTVSPost2010Prop28
280
     0
102
RTVSPost2010PropOp28
 70
     1
102
RTVSPost2010Prop29
280
     1
102
RTVSPost2010PropOp29
 70
     1
102
RTVSPost2010Prop30
280
     1
102
RTVSPost2010PropOp30
 70
     1
102
RTVSPost2010Prop31
280
     0
102
RTVSPost2010PropOp31
 70
     1
102
RTVSPost2010Prop32
280
     0
102
RTVSPost2010PropOp32
 70
     1
102
RTVSPost2010Prop33
280
     0
102
RTVSPost2010PropOp33
 70
     1
102
RTVSPost2010Prop34
280
     0
102
RTVSPost2010PropOp34
 70
     1
102
RTVSPost2010Prop35
280
     0
102
RTVSPost2010PropOp35
 70
     1
102
RTVSPost2010Prop36
280
     0
102
RTVSPost2010PropOp36
 70
     1
102
RTVSPost2010Prop37
 90
       50
102
RTVSPost2010PropOp37
 70
     1
102
RTVSPost2010Prop38
140
0.0
102
RTVSPost2010PropOp38
 70
     1
102
RTVSPost2010Prop39
140
1.0
102
RTVSPost2010PropOp39
 70
     1
102
RTVSPost2010Prop40
 90
        0
102
RTVSPost2010PropOp40
 70
     1
102
RTVSPost2010Prop41ColorIndex
 90
       18
102
RTVSPost2010Prop41ColorRGB
 90
        0
102
RTVSPost2010PropOp41
 70
     1
102
RTVSPost2010Prop42
 90
       50
102
RTVSPost2010PropOp42
 70
     1
102
RTVSPost2010Prop43
 90
        3
102
RTVSPost2010PropOp43
 70
     1
102
RTVSPost2010Prop44ColorIndex
 90
        5
102
RTVSPost2010Prop44ColorRGB
 90
      255
102
RTVSPost2010PropOp44
 70
     1
102
RTVSPost2010Prop45
280
     0
102
RTVSPost2010PropOp45
 70
     1
102
RTVSPost2010Prop46
 90
       50
102
RTVSPost2010PropOp46
 70
     1
102
RTVSPost2010Prop47
 90
       50
102
RTVSPost2010PropOp47
 70
     1
102
RTVSPost2010Prop48
 90
       50
102
RTVSPost2010PropOp48
 70
     1
102
RTVSPost2010Prop49
280
     0
102
RTVSPost2010PropOp49
 70
     1
102
RTVSPost2010Prop50
 90
       50
102
RTVSPost2010PropOp50
 70
     1
102
RTVSPost2010Prop51ColorIndex
 90
      256
102
RTVSPost2010Prop51ColorRGB
 90
-16777216
102
RTVSPost2010PropOp51
 70
     0
102
RTVSPost2010Prop52
140
1.0
102
RTVSPost2010PropOp52
 70
     0
102
RTVSPost2010Prop53
 90
        2
102
RTVSPost2010PropOp53
 70
     1
102
RTVSPost2010Prop54
  1
strokes_ogs.tif
102
RTVSPost2010PropOp54
 70
     1
102
RTVSPost2010Prop55
280
     0
102
RTVSPost2010PropOp55
 70
     1
102
RTVSPost2010Prop56
140
1.0
102
RTVSPost2010PropOp56
 70
     1
102
RTVSPost2010Prop57
140
1.0
102
RTVSPost2010PropOp57
 70
     1
  0
XRECORD
  5
47EC
102
{ACAD_REACTORS
330
47EB
102
}
330
47EB
100
AcDbXrecord
280
     1
102
RTVSPost2010Prop28
280
     0
102
RTVSPost2010PropOp28
 70
     1
102
RTVSPost2010Prop29
280
     1
102
RTVSPost2010PropOp29
 70
     1
102
RTVSPost2010Prop30
280
     1
102
RTVSPost2010PropOp30
 70
     1
102
RTVSPost2010Prop31
280
     0
102
RTVSPost2010PropOp31
 70
     1
102
RTVSPost2010Prop32
280
     0
102
RTVSPost2010PropOp32
 70
     1
102
RTVSPost2010Prop33
280
     0
102
RTVSPost2010PropOp33
 70
     1
102
RTVSPost2010Prop34
280
     0
102
RTVSPost2010PropOp34
 70
     1
102
RTVSPost2010Prop35
280
     0
102
RTVSPost2010PropOp35
 70
     1
102
RTVSPost2010Prop36
280
     0
102
RTVSPost2010PropOp36
 70
     1
102
RTVSPost2010Prop37
 90
       50
102
RTVSPost2010PropOp37
 70
     1
102
RTVSPost2010Prop38
140
0.0
102
RTVSPost2010PropOp38
 70
     1
102
RTVSPost2010Prop39
140
1.0
102
RTVSPost2010PropOp39
 70
     1
102
RTVSPost2010Prop40
 90
        0
102
RTVSPost2010PropOp40
 70
     1
102
RTVSPost2010Prop41ColorIndex
 90
       18
102
RTVSPost2010Prop41ColorRGB
 90
        0
102
RTVSPost2010PropOp41
 70
     1
102
RTVSPost2010Prop42
 90
       50
102
RTVSPost2010PropOp42
 70
     1
102
RTVSPost2010Prop43
 90
        3
102
RTVSPost2010PropOp43
 70
     1
102
RTVSPost2010Prop44ColorIndex
 90
        5
102
RTVSPost2010Prop44ColorRGB
 90
      255
102
RTVSPost2010PropOp44
 70
     1
102
RTVSPost2010Prop45
280
     0
102
RTVSPost2010PropOp45
 70
     1
102
RTVSPost2010Prop46
 90
       50
102
RTVSPost2010PropOp46
 70
     1
102
RTVSPost2010Prop47
 90
       50
102
RTVSPost2010PropOp47
 70
     1
102
RTVSPost2010Prop48
 90
       50
102
RTVSPost2010PropOp48
 70
     1
102
RTVSPost2010Prop49
280
     0
102
RTVSPost2010PropOp49
 70
     1
102
RTVSPost2010Prop50
 90
       50
102
RTVSPost2010PropOp50
 70
     1
102
RTVSPost2010Prop51ColorIndex
 90
      256
102
RTVSPost2010Prop51ColorRGB
 90
-16777216
102
RTVSPost2010PropOp51
 70
     0
102
RTVSPost2010Prop52
140
1.0
102
RTVSPost2010PropOp52
 70
     0
102
RTVSPost2010Prop53
 90
        2
102
RTVSPost2010PropOp53
 70
     1
102
RTVSPost2010Prop54
  1
strokes_ogs.tif
102
RTVSPost2010PropOp54
 70
     1
102
RTVSPost2010Prop55
280
     0
102
RTVSPost2010PropOp55
 70
     1
102
RTVSPost2010Prop56
140
1.0
102
RTVSPost2010PropOp56
 70
     1
102
RTVSPost2010Prop57
140
1.0
102
RTVSPost2010PropOp57
 70
     1
  0
XRECORD
  5
47EE
102
{ACAD_REACTORS
330
47ED
102
}
330
47ED
100
AcDbXrecord
280
     1
102
RTVSPost2010Prop28
280
     0
102
RTVSPost2010PropOp28
 70
     1
102
RTVSPost2010Prop29
280
     1
102
RTVSPost2010PropOp29
 70
     1
102
RTVSPost2010Prop30
280
     1
102
RTVSPost2010PropOp30
 70
     1
102
RTVSPost2010Prop31
280
     0
102
RTVSPost2010PropOp31
 70
     1
102
RTVSPost2010Prop32
280
     0
102
RTVSPost2010PropOp32
 70
     1
102
RTVSPost2010Prop33
280
     0
102
RTVSPost2010PropOp33
 70
     1
102
RTVSPost2010Prop34
280
     0
102
RTVSPost2010PropOp34
 70
     1
102
RTVSPost2010Prop35
280
     0
102
RTVSPost2010PropOp35
 70
     1
102
RTVSPost2010Prop36
280
     0
102
RTVSPost2010PropOp36
 70
     1
102
RTVSPost2010Prop37
 90
       50
102
RTVSPost2010PropOp37
 70
     1
102
RTVSPost2010Prop38
140
0.0
102
RTVSPost2010PropOp38
 70
     1
102
RTVSPost2010Prop39
140
1.0
102
RTVSPost2010PropOp39
 70
     1
102
RTVSPost2010Prop40
 90
        0
102
RTVSPost2010PropOp40
 70
     1
102
RTVSPost2010Prop41ColorIndex
 90
       18
102
RTVSPost2010Prop41ColorRGB
 90
        0
102
RTVSPost2010PropOp41
 70
     1
102
RTVSPost2010Prop42
 90
       50
102
RTVSPost2010PropOp42
 70
     1
102
RTVSPost2010Prop43
 90
        3
102
RTVSPost2010PropOp43
 70
     1
102
RTVSPost2010Prop44ColorIndex
 90
        5
102
RTVSPost2010Prop44ColorRGB
 90
      255
102
RTVSPost2010PropOp44
 70
     1
102
RTVSPost2010Prop45
280
     0
102
RTVSPost2010PropOp45
 70
     1
102
RTVSPost2010Prop46
 90
       50
102
RTVSPost2010PropOp46
 70
     1
102
RTVSPost2010Prop47
 90
       50
102
RTVSPost2010PropOp47
 70
     1
102
RTVSPost2010Prop48
 90
       50
102
RTVSPost2010PropOp48
 70
     1
102
RTVSPost2010Prop49
280
     0
102
RTVSPost2010PropOp49
 70
     1
102
RTVSPost2010Prop50
 90
       50
102
RTVSPost2010PropOp50
 70
     1
102
RTVSPost2010Prop51ColorIndex
 90
      256
102
RTVSPost2010Prop51ColorRGB
 90
-16777216
102
RTVSPost2010PropOp51
 70
     0
102
RTVSPost2010Prop52
140
1.0
102
RTVSPost2010PropOp52
 70
     0
102
RTVSPost2010Prop53
 90
        2
102
RTVSPost2010PropOp53
 70
     1
102
RTVSPost2010Prop54
  1
strokes_ogs.tif
102
RTVSPost2010PropOp54
 70
     1
102
RTVSPost2010Prop55
280
     0
102
RTVSPost2010PropOp55
 70
     1
102
RTVSPost2010Prop56
140
1.0
102
RTVSPost2010PropOp56
 70
     1
102
RTVSPost2010Prop57
140
1.0
102
RTVSPost2010PropOp57
 70
     1
  0
XRECORD
  5
47F0
102
{ACAD_REACTORS
330
47EF
102
}
330
47EF
100
AcDbXrecord
280
     1
102
RTVSPost2010Prop28
280
     0
102
RTVSPost2010PropOp28
 70
     1
102
RTVSPost2010Prop29
280
     1
102
RTVSPost2010PropOp29
 70
     1
102
RTVSPost2010Prop30
280
     1
102
RTVSPost2010PropOp30
 70
     1
102
RTVSPost2010Prop31
280
     0
102
RTVSPost2010PropOp31
 70
     1
102
RTVSPost2010Prop32
280
     0
102
RTVSPost2010PropOp32
 70
     1
102
RTVSPost2010Prop33
280
     0
102
RTVSPost2010PropOp33
 70
     1
102
RTVSPost2010Prop34
280
     0
102
RTVSPost2010PropOp34
 70
     1
102
RTVSPost2010Prop35
280
     0
102
RTVSPost2010PropOp35
 70
     1
102
RTVSPost2010Prop36
280
     0
102
RTVSPost2010PropOp36
 70
     1
102
RTVSPost2010Prop37
 90
       50
102
RTVSPost2010PropOp37
 70
     1
102
RTVSPost2010Prop38
140
0.0
102
RTVSPost2010PropOp38
 70
     1
102
RTVSPost2010Prop39
140
1.0
102
RTVSPost2010PropOp39
 70
     1
102
RTVSPost2010Prop40
 90
        0
102
RTVSPost2010PropOp40
 70
     1
102
RTVSPost2010Prop41ColorIndex
 90
       18
102
RTVSPost2010Prop41ColorRGB
 90
        0
102
RTVSPost2010PropOp41
 70
     1
102
RTVSPost2010Prop42
 90
       50
102
RTVSPost2010PropOp42
 70
     1
102
RTVSPost2010Prop43
 90
        3
102
RTVSPost2010PropOp43
 70
     1
102
RTVSPost2010Prop44ColorIndex
 90
        5
102
RTVSPost2010Prop44ColorRGB
 90
      255
102
RTVSPost2010PropOp44
 70
     1
102
RTVSPost2010Prop45
280
     0
102
RTVSPost2010PropOp45
 70
     1
102
RTVSPost2010Prop46
 90
       50
102
RTVSPost2010PropOp46
 70
     1
102
RTVSPost2010Prop47
 90
       50
102
RTVSPost2010PropOp47
 70
     1
102
RTVSPost2010Prop48
 90
       50
102
RTVSPost2010PropOp48
 70
     1
102
RTVSPost2010Prop49
280
     0
102
RTVSPost2010PropOp49
 70
     1
102
RTVSPost2010Prop50
 90
       50
102
RTVSPost2010PropOp50
 70
     1
102
RTVSPost2010Prop51ColorIndex
 90
      256
102
RTVSPost2010Prop51ColorRGB
 90
-16777216
102
RTVSPost2010PropOp51
 70
     0
102
RTVSPost2010Prop52
140
1.0
102
RTVSPost2010PropOp52
 70
     0
102
RTVSPost2010Prop53
 90
        2
102
RTVSPost2010PropOp53
 70
     1
102
RTVSPost2010Prop54
  1
strokes_ogs.tif
102
RTVSPost2010PropOp54
 70
     1
102
RTVSPost2010Prop55
280
     0
102
RTVSPost2010PropOp55
 70
     1
102
RTVSPost2010Prop56
140
1.0
102
RTVSPost2010PropOp56
 70
     1
102
RTVSPost2010Prop57
140
1.0
102
RTVSPost2010PropOp57
 70
     1
  0
XRECORD
  5
480C
102
{ACAD_REACTORS
330
480B
102
}
330
480B
100
AcDbXrecord
280
     1
102
RTVSPost2010Prop28
280
     0
102
RTVSPost2010PropOp28
 70
     1
102
RTVSPost2010Prop29
280
     1
102
RTVSPost2010PropOp29
 70
     1
102
RTVSPost2010Prop30
280
     1
102
RTVSPost2010PropOp30
 70
     1
102
RTVSPost2010Prop31
280
     0
102
RTVSPost2010PropOp31
 70
     1
102
RTVSPost2010Prop32
280
     0
102
RTVSPost2010PropOp32
 70
     1
102
RTVSPost2010Prop33
280
     0
102
RTVSPost2010PropOp33
 70
     1
102
RTVSPost2010Prop34
280
     0
102
RTVSPost2010PropOp34
 70
     1
102
RTVSPost2010Prop35
280
     0
102
RTVSPost2010PropOp35
 70
     1
102
RTVSPost2010Prop36
280
     0
102
RTVSPost2010PropOp36
 70
     1
102
RTVSPost2010Prop37
 90
       50
102
RTVSPost2010PropOp37
 70
     1
102
RTVSPost2010Prop38
140
0.0
102
RTVSPost2010PropOp38
 70
     1
102
RTVSPost2010Prop39
140
1.0
102
RTVSPost2010PropOp39
 70
     1
102
RTVSPost2010Prop40
 90
        0
102
RTVSPost2010PropOp40
 70
     1
102
RTVSPost2010Prop41ColorIndex
 90
       18
102
RTVSPost2010Prop41ColorRGB
 90
        0
102
RTVSPost2010PropOp41
 70
     1
102
RTVSPost2010Prop42
 90
       50
102
RTVSPost2010PropOp42
 70
     1
102
RTVSPost2010Prop43
 90
        3
102
RTVSPost2010PropOp43
 70
     1
102
RTVSPost2010Prop44ColorIndex
 90
        5
102
RTVSPost2010Prop44ColorRGB
 90
      255
102
RTVSPost2010PropOp44
 70
     1
102
RTVSPost2010Prop45
280
     0
102
RTVSPost2010PropOp45
 70
     1
102
RTVSPost2010Prop46
 90
       50
102
RTVSPost2010PropOp46
 70
     1
102
RTVSPost2010Prop47
 90
       50
102
RTVSPost2010PropOp47
 70
     1
102
RTVSPost2010Prop48
 90
       50
102
RTVSPost2010PropOp48
 70
     1
102
RTVSPost2010Prop49
280
     0
102
RTVSPost2010PropOp49
 70
     1
102
RTVSPost2010Prop50
 90
       50
102
RTVSPost2010PropOp50
 70
     1
102
RTVSPost2010Prop51ColorIndex
 90
      256
102
RTVSPost2010Prop51ColorRGB
 90
-16777216
102
RTVSPost2010PropOp51
 70
     0
102
RTVSPost2010Prop52
140
1.0
102
RTVSPost2010PropOp52
 70
     0
102
RTVSPost2010Prop53
 90
        2
102
RTVSPost2010PropOp53
 70
     1
102
RTVSPost2010Prop54
  1
strokes_ogs.tif
102
RTVSPost2010PropOp54
 70
     1
102
RTVSPost2010Prop55
280
     0
102
RTVSPost2010PropOp55
 70
     1
102
RTVSPost2010Prop56
140
1.0
102
RTVSPost2010PropOp56
 70
     1
102
RTVSPost2010Prop57
140
1.0
102
RTVSPost2010PropOp57
 70
     1
  0
XRECORD
  5
4818
102
{ACAD_REACTORS
330
4817
102
}
330
4817
100
AcDbXrecord
280
     1
102
RTVSPost2010Prop28
280
     0
102
RTVSPost2010PropOp28
 70
     1
102
RTVSPost2010Prop29
280
     1
102
RTVSPost2010PropOp29
 70
     1
102
RTVSPost2010Prop30
280
     1
102
RTVSPost2010PropOp30
 70
     1
102
RTVSPost2010Prop31
280
     0
102
RTVSPost2010PropOp31
 70
     1
102
RTVSPost2010Prop32
280
     0
102
RTVSPost2010PropOp32
 70
     1
102
RTVSPost2010Prop33
280
     0
102
RTVSPost2010PropOp33
 70
     1
102
RTVSPost2010Prop34
280
     0
102
RTVSPost2010PropOp34
 70
     1
102
RTVSPost2010Prop35
280
     0
102
RTVSPost2010PropOp35
 70
     1
102
RTVSPost2010Prop36
280
     0
102
RTVSPost2010PropOp36
 70
     1
102
RTVSPost2010Prop37
 90
       50
102
RTVSPost2010PropOp37
 70
     1
102
RTVSPost2010Prop38
140
0.0
102
RTVSPost2010PropOp38
 70
     1
102
RTVSPost2010Prop39
140
1.0
102
RTVSPost2010PropOp39
 70
     1
102
RTVSPost2010Prop40
 90
        0
102
RTVSPost2010PropOp40
 70
     1
102
RTVSPost2010Prop41ColorIndex
 90
       18
102
RTVSPost2010Prop41ColorRGB
 90
        0
102
RTVSPost2010PropOp41
 70
     1
102
RTVSPost2010Prop42
 90
       50
102
RTVSPost2010PropOp42
 70
     1
102
RTVSPost2010Prop43
 90
        3
102
RTVSPost2010PropOp43
 70
     1
102
RTVSPost2010Prop44ColorIndex
 90
        5
102
RTVSPost2010Prop44ColorRGB
 90
      255
102
RTVSPost2010PropOp44
 70
     1
102
RTVSPost2010Prop45
280
     0
102
RTVSPost2010PropOp45
 70
     1
102
RTVSPost2010Prop46
 90
       50
102
RTVSPost2010PropOp46
 70
     1
102
RTVSPost2010Prop47
 90
       50
102
RTVSPost2010PropOp47
 70
     1
102
RTVSPost2010Prop48
 90
       50
102
RTVSPost2010PropOp48
 70
     1
102
RTVSPost2010Prop49
280
     0
102
RTVSPost2010PropOp49
 70
     1
102
RTVSPost2010Prop50
 90
       50
102
RTVSPost2010PropOp50
 70
     1
102
RTVSPost2010Prop51ColorIndex
 90
      256
102
RTVSPost2010Prop51ColorRGB
 90
-16777216
102
RTVSPost2010PropOp51
 70
     0
102
RTVSPost2010Prop52
140
1.0
102
RTVSPost2010PropOp52
 70
     0
102
RTVSPost2010Prop53
 90
        2
102
RTVSPost2010PropOp53
 70
     1
102
RTVSPost2010Prop54
  1
strokes_ogs.tif
102
RTVSPost2010PropOp54
 70
     1
102
RTVSPost2010Prop55
280
     0
102
RTVSPost2010PropOp55
 70
     1
102
RTVSPost2010Prop56
140
1.0
102
RTVSPost2010PropOp56
 70
     1
102
RTVSPost2010Prop57
140
1.0
102
RTVSPost2010PropOp57
 70
     1
  0
XRECORD
  5
4804
102
{ACAD_REACTORS
330
4803
102
}
330
4803
100
AcDbXrecord
280
     1
102
RTVSPost2010Prop28
280
     0
102
RTVSPost2010PropOp28
 70
     1
102
RTVSPost2010Prop29
280
     1
102
RTVSPost2010PropOp29
 70
     1
102
RTVSPost2010Prop30
280
     1
102
RTVSPost2010PropOp30
 70
     1
102
RTVSPost2010Prop31
280
     0
102
RTVSPost2010PropOp31
 70
     1
102
RTVSPost2010Prop32
280
     0
102
RTVSPost2010PropOp32
 70
     1
102
RTVSPost2010Prop33
280
     0
102
RTVSPost2010PropOp33
 70
     1
102
RTVSPost2010Prop34
280
     0
102
RTVSPost2010PropOp34
 70
     1
102
RTVSPost2010Prop35
280
     0
102
RTVSPost2010PropOp35
 70
     1
102
RTVSPost2010Prop36
280
     0
102
RTVSPost2010PropOp36
 70
     1
102
RTVSPost2010Prop37
 90
       50
102
RTVSPost2010PropOp37
 70
     1
102
RTVSPost2010Prop38
140
0.0
102
RTVSPost2010PropOp38
 70
     1
102
RTVSPost2010Prop39
140
1.0
102
RTVSPost2010PropOp39
 70
     1
102
RTVSPost2010Prop40
 90
        0
102
RTVSPost2010PropOp40
 70
     1
102
RTVSPost2010Prop41ColorIndex
 90
       18
102
RTVSPost2010Prop41ColorRGB
 90
        0
102
RTVSPost2010PropOp41
 70
     1
102
RTVSPost2010Prop42
 90
       50
102
RTVSPost2010PropOp42
 70
     1
102
RTVSPost2010Prop43
 90
        3
102
RTVSPost2010PropOp43
 70
     1
102
RTVSPost2010Prop44ColorIndex
 90
        5
102
RTVSPost2010Prop44ColorRGB
 90
      255
102
RTVSPost2010PropOp44
 70
     1
102
RTVSPost2010Prop45
280
     0
102
RTVSPost2010PropOp45
 70
     1
102
RTVSPost2010Prop46
 90
       50
102
RTVSPost2010PropOp46
 70
     1
102
RTVSPost2010Prop47
 90
       50
102
RTVSPost2010PropOp47
 70
     1
102
RTVSPost2010Prop48
 90
       50
102
RTVSPost2010PropOp48
 70
     1
102
RTVSPost2010Prop49
280
     0
102
RTVSPost2010PropOp49
 70
     1
102
RTVSPost2010Prop50
 90
       50
102
RTVSPost2010PropOp50
 70
     1
102
RTVSPost2010Prop51ColorIndex
 90
      256
102
RTVSPost2010Prop51ColorRGB
 90
-16777216
102
RTVSPost2010PropOp51
 70
     0
102
RTVSPost2010Prop52
140
1.0
102
RTVSPost2010PropOp52
 70
     0
102
RTVSPost2010Prop53
 90
        2
102
RTVSPost2010PropOp53
 70
     1
102
RTVSPost2010Prop54
  1
strokes_ogs.tif
102
RTVSPost2010PropOp54
 70
     1
102
RTVSPost2010Prop55
280
     0
102
RTVSPost2010PropOp55
 70
     1
102
RTVSPost2010Prop56
140
1.0
102
RTVSPost2010PropOp56
 70
     1
102
RTVSPost2010Prop57
140
1.0
102
RTVSPost2010PropOp57
 70
     1
  0
XRECORD
  5
481A
102
{ACAD_REACTORS
330
4819
102
}
330
4819
100
AcDbXrecord
280
     1
102
RTVSPost2010Prop28
280
     0
102
RTVSPost2010PropOp28
 70
     1
102
RTVSPost2010Prop29
280
     1
102
RTVSPost2010PropOp29
 70
     1
102
RTVSPost2010Prop30
280
     1
102
RTVSPost2010PropOp30
 70
     1
102
RTVSPost2010Prop31
280
     0
102
RTVSPost2010PropOp31
 70
     1
102
RTVSPost2010Prop32
280
     0
102
RTVSPost2010PropOp32
 70
     1
102
RTVSPost2010Prop33
280
     0
102
RTVSPost2010PropOp33
 70
     1
102
RTVSPost2010Prop34
280
     0
102
RTVSPost2010PropOp34
 70
     1
102
RTVSPost2010Prop35
280
     0
102
RTVSPost2010PropOp35
 70
     1
102
RTVSPost2010Prop36
280
     0
102
RTVSPost2010PropOp36
 70
     1
102
RTVSPost2010Prop37
 90
       50
102
RTVSPost2010PropOp37
 70
     1
102
RTVSPost2010Prop38
140
0.0
102
RTVSPost2010PropOp38
 70
     1
102
RTVSPost2010Prop39
140
1.0
102
RTVSPost2010PropOp39
 70
     1
102
RTVSPost2010Prop40
 90
        0
102
RTVSPost2010PropOp40
 70
     1
102
RTVSPost2010Prop41ColorIndex
 90
       18
102
RTVSPost2010Prop41ColorRGB
 90
        0
102
RTVSPost2010PropOp41
 70
     1
102
RTVSPost2010Prop42
 90
       50
102
RTVSPost2010PropOp42
 70
     1
102
RTVSPost2010Prop43
 90
        3
102
RTVSPost2010PropOp43
 70
     1
102
RTVSPost2010Prop44ColorIndex
 90
        5
102
RTVSPost2010Prop44ColorRGB
 90
      255
102
RTVSPost2010PropOp44
 70
     1
102
RTVSPost2010Prop45
280
     0
102
RTVSPost2010PropOp45
 70
     1
102
RTVSPost2010Prop46
 90
       50
102
RTVSPost2010PropOp46
 70
     1
102
RTVSPost2010Prop47
 90
       50
102
RTVSPost2010PropOp47
 70
     1
102
RTVSPost2010Prop48
 90
       50
102
RTVSPost2010PropOp48
 70
     1
102
RTVSPost2010Prop49
280
     0
102
RTVSPost2010PropOp49
 70
     1
102
RTVSPost2010Prop50
 90
       50
102
RTVSPost2010PropOp50
 70
     1
102
RTVSPost2010Prop51ColorIndex
 90
      256
102
RTVSPost2010Prop51ColorRGB
 90
-16777216
102
RTVSPost2010PropOp51
 70
     0
102
RTVSPost2010Prop52
140
1.0
102
RTVSPost2010PropOp52
 70
     0
102
RTVSPost2010Prop53
 90
        2
102
RTVSPost2010PropOp53
 70
     1
102
RTVSPost2010Prop54
  1
strokes_ogs.tif
102
RTVSPost2010PropOp54
 70
     1
102
RTVSPost2010Prop55
280
     0
102
RTVSPost2010PropOp55
 70
     1
102
RTVSPost2010Prop56
140
1.0
102
RTVSPost2010PropOp56
 70
     1
102
RTVSPost2010Prop57
140
1.0
102
RTVSPost2010PropOp57
 70
     1
  0
XRECORD
  5
47FC
102
{ACAD_REACTORS
330
47FB
102
}
330
47FB
100
AcDbXrecord
280
     1
102
RTVSPost2010Prop28
280
     0
102
RTVSPost2010PropOp28
 70
     1
102
RTVSPost2010Prop29
280
     1
102
RTVSPost2010PropOp29
 70
     1
102
RTVSPost2010Prop30
280
     1
102
RTVSPost2010PropOp30
 70
     1
102
RTVSPost2010Prop31
280
     0
102
RTVSPost2010PropOp31
 70
     1
102
RTVSPost2010Prop32
280
     0
102
RTVSPost2010PropOp32
 70
     1
102
RTVSPost2010Prop33
280
     0
102
RTVSPost2010PropOp33
 70
     1
102
RTVSPost2010Prop34
280
     0
102
RTVSPost2010PropOp34
 70
     1
102
RTVSPost2010Prop35
280
     0
102
RTVSPost2010PropOp35
 70
     1
102
RTVSPost2010Prop36
280
     0
102
RTVSPost2010PropOp36
 70
     1
102
RTVSPost2010Prop37
 90
       50
102
RTVSPost2010PropOp37
 70
     1
102
RTVSPost2010Prop38
140
0.0
102
RTVSPost2010PropOp38
 70
     1
102
RTVSPost2010Prop39
140
1.0
102
RTVSPost2010PropOp39
 70
     1
102
RTVSPost2010Prop40
 90
        0
102
RTVSPost2010PropOp40
 70
     1
102
RTVSPost2010Prop41ColorIndex
 90
       18
102
RTVSPost2010Prop41ColorRGB
 90
        0
102
RTVSPost2010PropOp41
 70
     1
102
RTVSPost2010Prop42
 90
       50
102
RTVSPost2010PropOp42
 70
     1
102
RTVSPost2010Prop43
 90
        3
102
RTVSPost2010PropOp43
 70
     1
102
RTVSPost2010Prop44ColorIndex
 90
        5
102
RTVSPost2010Prop44ColorRGB
 90
      255
102
RTVSPost2010PropOp44
 70
     1
102
RTVSPost2010Prop45
280
     0
102
RTVSPost2010PropOp45
 70
     1
102
RTVSPost2010Prop46
 90
       50
102
RTVSPost2010PropOp46
 70
     1
102
RTVSPost2010Prop47
 90
       50
102
RTVSPost2010PropOp47
 70
     1
102
RTVSPost2010Prop48
 90
       50
102
RTVSPost2010PropOp48
 70
     1
102
RTVSPost2010Prop49
280
     0
102
RTVSPost2010PropOp49
 70
     1
102
RTVSPost2010Prop50
 90
       50
102
RTVSPost2010PropOp50
 70
     1
102
RTVSPost2010Prop51ColorIndex
 90
      256
102
RTVSPost2010Prop51ColorRGB
 90
-16777216
102
RTVSPost2010PropOp51
 70
     0
102
RTVSPost2010Prop52
140
1.0
102
RTVSPost2010PropOp52
 70
     0
102
RTVSPost2010Prop53
 90
        2
102
RTVSPost2010PropOp53
 70
     1
102
RTVSPost2010Prop54
  1
strokes_ogs.tif
102
RTVSPost2010PropOp54
 70
     1
102
RTVSPost2010Prop55
280
     0
102
RTVSPost2010PropOp55
 70
     1
102
RTVSPost2010Prop56
140
1.0
102
RTVSPost2010PropOp56
 70
     1
102
RTVSPost2010Prop57
140
1.0
102
RTVSPost2010PropOp57
 70
     1
  0
XRECORD
  5
4816
102
{ACAD_REACTORS
330
4815
102
}
330
4815
100
AcDbXrecord
280
     1
102
RTVSPost2010Prop28
280
     0
102
RTVSPost2010PropOp28
 70
     1
102
RTVSPost2010Prop29
280
     1
102
RTVSPost2010PropOp29
 70
     1
102
RTVSPost2010Prop30
280
     1
102
RTVSPost2010PropOp30
 70
     1
102
RTVSPost2010Prop31
280
     0
102
RTVSPost2010PropOp31
 70
     1
102
RTVSPost2010Prop32
280
     0
102
RTVSPost2010PropOp32
 70
     1
102
RTVSPost2010Prop33
280
     0
102
RTVSPost2010PropOp33
 70
     1
102
RTVSPost2010Prop34
280
     0
102
RTVSPost2010PropOp34
 70
     1
102
RTVSPost2010Prop35
280
     0
102
RTVSPost2010PropOp35
 70
     1
102
RTVSPost2010Prop36
280
     0
102
RTVSPost2010PropOp36
 70
     1
102
RTVSPost2010Prop37
 90
       50
102
RTVSPost2010PropOp37
 70
     1
102
RTVSPost2010Prop38
140
0.0
102
RTVSPost2010PropOp38
 70
     1
102
RTVSPost2010Prop39
140
1.0
102
RTVSPost2010PropOp39
 70
     1
102
RTVSPost2010Prop40
 90
        0
102
RTVSPost2010PropOp40
 70
     1
102
RTVSPost2010Prop41ColorIndex
 90
       18
102
RTVSPost2010Prop41ColorRGB
 90
        0
102
RTVSPost2010PropOp41
 70
     1
102
RTVSPost2010Prop42
 90
       50
102
RTVSPost2010PropOp42
 70
     1
102
RTVSPost2010Prop43
 90
        3
102
RTVSPost2010PropOp43
 70
     1
102
RTVSPost2010Prop44ColorIndex
 90
        5
102
RTVSPost2010Prop44ColorRGB
 90
      255
102
RTVSPost2010PropOp44
 70
     1
102
RTVSPost2010Prop45
280
     0
102
RTVSPost2010PropOp45
 70
     1
102
RTVSPost2010Prop46
 90
       50
102
RTVSPost2010PropOp46
 70
     1
102
RTVSPost2010Prop47
 90
       50
102
RTVSPost2010PropOp47
 70
     1
102
RTVSPost2010Prop48
 90
       50
102
RTVSPost2010PropOp48
 70
     1
102
RTVSPost2010Prop49
280
     0
102
RTVSPost2010PropOp49
 70
     1
102
RTVSPost2010Prop50
 90
       50
102
RTVSPost2010PropOp50
 70
     1
102
RTVSPost2010Prop51ColorIndex
 90
      256
102
RTVSPost2010Prop51ColorRGB
 90
-16777216
102
RTVSPost2010PropOp51
 70
     0
102
RTVSPost2010Prop52
140
1.0
102
RTVSPost2010PropOp52
 70
     0
102
RTVSPost2010Prop53
 90
        2
102
RTVSPost2010PropOp53
 70
     1
102
RTVSPost2010Prop54
  1
strokes_ogs.tif
102
RTVSPost2010PropOp54
 70
     1
102
RTVSPost2010Prop55
280
     0
102
RTVSPost2010PropOp55
 70
     1
102
RTVSPost2010Prop56
140
1.0
102
RTVSPost2010PropOp56
 70
     1
102
RTVSPost2010Prop57
140
1.0
102
RTVSPost2010PropOp57
 70
     1
  0
XRECORD
  5
4814
102
{ACAD_REACTORS
330
4813
102
}
330
4813
100
AcDbXrecord
280
     1
102
RTVSPost2010Prop28
280
     0
102
RTVSPost2010PropOp28
 70
     1
102
RTVSPost2010Prop29
280
     1
102
RTVSPost2010PropOp29
 70
     1
102
RTVSPost2010Prop30
280
     1
102
RTVSPost2010PropOp30
 70
     1
102
RTVSPost2010Prop31
280
     0
102
RTVSPost2010PropOp31
 70
     1
102
RTVSPost2010Prop32
280
     0
102
RTVSPost2010PropOp32
 70
     1
102
RTVSPost2010Prop33
280
     0
102
RTVSPost2010PropOp33
 70
     1
102
RTVSPost2010Prop34
280
     0
102
RTVSPost2010PropOp34
 70
     1
102
RTVSPost2010Prop35
280
     0
102
RTVSPost2010PropOp35
 70
     1
102
RTVSPost2010Prop36
280
     0
102
RTVSPost2010PropOp36
 70
     1
102
RTVSPost2010Prop37
 90
       50
102
RTVSPost2010PropOp37
 70
     1
102
RTVSPost2010Prop38
140
0.0
102
RTVSPost2010PropOp38
 70
     1
102
RTVSPost2010Prop39
140
1.0
102
RTVSPost2010PropOp39
 70
     1
102
RTVSPost2010Prop40
 90
        0
102
RTVSPost2010PropOp40
 70
     1
102
RTVSPost2010Prop41ColorIndex
 90
       18
102
RTVSPost2010Prop41ColorRGB
 90
        0
102
RTVSPost2010PropOp41
 70
     1
102
RTVSPost2010Prop42
 90
       50
102
RTVSPost2010PropOp42
 70
     1
102
RTVSPost2010Prop43
 90
        3
102
RTVSPost2010PropOp43
 70
     1
102
RTVSPost2010Prop44ColorIndex
 90
        5
102
RTVSPost2010Prop44ColorRGB
 90
      255
102
RTVSPost2010PropOp44
 70
     1
102
RTVSPost2010Prop45
280
     0
102
RTVSPost2010PropOp45
 70
     1
102
RTVSPost2010Prop46
 90
       50
102
RTVSPost2010PropOp46
 70
     1
102
RTVSPost2010Prop47
 90
       50
102
RTVSPost2010PropOp47
 70
     1
102
RTVSPost2010Prop48
 90
       50
102
RTVSPost2010PropOp48
 70
     1
102
RTVSPost2010Prop49
280
     0
102
RTVSPost2010PropOp49
 70
     1
102
RTVSPost2010Prop50
 90
       50
102
RTVSPost2010PropOp50
 70
     1
102
RTVSPost2010Prop51ColorIndex
 90
      256
102
RTVSPost2010Prop51ColorRGB
 90
-16777216
102
RTVSPost2010PropOp51
 70
     0
102
RTVSPost2010Prop52
140
1.0
102
RTVSPost2010PropOp52
 70
     0
102
RTVSPost2010Prop53
 90
        2
102
RTVSPost2010PropOp53
 70
     1
102
RTVSPost2010Prop54
  1
strokes_ogs.tif
102
RTVSPost2010PropOp54
 70
     1
102
RTVSPost2010Prop55
280
     0
102
RTVSPost2010PropOp55
 70
     1
102
RTVSPost2010Prop56
140
1.0
102
RTVSPost2010PropOp56
 70
     1
102
RTVSPost2010Prop57
140
1.0
102
RTVSPost2010PropOp57
 70
     1
  0
XRECORD
  5
480E
102
{ACAD_REACTORS
330
480D
102
}
330
480D
100
AcDbXrecord
280
     1
102
RTVSPost2010Prop28
280
     0
102
RTVSPost2010PropOp28
 70
     1
102
RTVSPost2010Prop29
280
     1
102
RTVSPost2010PropOp29
 70
     1
102
RTVSPost2010Prop30
280
     1
102
RTVSPost2010PropOp30
 70
     1
102
RTVSPost2010Prop31
280
     0
102
RTVSPost2010PropOp31
 70
     1
102
RTVSPost2010Prop32
280
     0
102
RTVSPost2010PropOp32
 70
     1
102
RTVSPost2010Prop33
280
     0
102
RTVSPost2010PropOp33
 70
     1
102
RTVSPost2010Prop34
280
     0
102
RTVSPost2010PropOp34
 70
     1
102
RTVSPost2010Prop35
280
     0
102
RTVSPost2010PropOp35
 70
     1
102
RTVSPost2010Prop36
280
     0
102
RTVSPost2010PropOp36
 70
     1
102
RTVSPost2010Prop37
 90
       50
102
RTVSPost2010PropOp37
 70
     1
102
RTVSPost2010Prop38
140
0.0
102
RTVSPost2010PropOp38
 70
     1
102
RTVSPost2010Prop39
140
1.0
102
RTVSPost2010PropOp39
 70
     1
102
RTVSPost2010Prop40
 90
        0
102
RTVSPost2010PropOp40
 70
     1
102
RTVSPost2010Prop41ColorIndex
 90
       18
102
RTVSPost2010Prop41ColorRGB
 90
        0
102
RTVSPost2010PropOp41
 70
     1
102
RTVSPost2010Prop42
 90
       50
102
RTVSPost2010PropOp42
 70
     1
102
RTVSPost2010Prop43
 90
        3
102
RTVSPost2010PropOp43
 70
     1
102
RTVSPost2010Prop44ColorIndex
 90
        5
102
RTVSPost2010Prop44ColorRGB
 90
      255
102
RTVSPost2010PropOp44
 70
     1
102
RTVSPost2010Prop45
280
     0
102
RTVSPost2010PropOp45
 70
     1
102
RTVSPost2010Prop46
 90
       50
102
RTVSPost2010PropOp46
 70
     1
102
RTVSPost2010Prop47
 90
       50
102
RTVSPost2010PropOp47
 70
     1
102
RTVSPost2010Prop48
 90
       50
102
RTVSPost2010PropOp48
 70
     1
102
RTVSPost2010Prop49
280
     0
102
RTVSPost2010PropOp49
 70
     1
102
RTVSPost2010Prop50
 90
       50
102
RTVSPost2010PropOp50
 70
     1
102
RTVSPost2010Prop51ColorIndex
 90
      256
102
RTVSPost2010Prop51ColorRGB
 90
-16777216
102
RTVSPost2010PropOp51
 70
     0
102
RTVSPost2010Prop52
140
1.0
102
RTVSPost2010PropOp52
 70
     0
102
RTVSPost2010Prop53
 90
        2
102
RTVSPost2010PropOp53
 70
     1
102
RTVSPost2010Prop54
  1
strokes_ogs.tif
102
RTVSPost2010PropOp54
 70
     1
102
RTVSPost2010Prop55
280
     0
102
RTVSPost2010PropOp55
 70
     1
102
RTVSPost2010Prop56
140
1.0
102
RTVSPost2010PropOp56
 70
     1
102
RTVSPost2010Prop57
140
1.0
102
RTVSPost2010PropOp57
 70
     1
  0
XRECORD
  5
4810
102
{ACAD_REACTORS
330
480F
102
}
330
480F
100
AcDbXrecord
280
     1
102
RTVSPost2010Prop28
280
     0
102
RTVSPost2010PropOp28
 70
     1
102
RTVSPost2010Prop29
280
     1
102
RTVSPost2010PropOp29
 70
     1
102
RTVSPost2010Prop30
280
     1
102
RTVSPost2010PropOp30
 70
     1
102
RTVSPost2010Prop31
280
     0
102
RTVSPost2010PropOp31
 70
     1
102
RTVSPost2010Prop32
280
     0
102
RTVSPost2010PropOp32
 70
     1
102
RTVSPost2010Prop33
280
     0
102
RTVSPost2010PropOp33
 70
     1
102
RTVSPost2010Prop34
280
     0
102
RTVSPost2010PropOp34
 70
     1
102
RTVSPost2010Prop35
280
     0
102
RTVSPost2010PropOp35
 70
     1
102
RTVSPost2010Prop36
280
     0
102
RTVSPost2010PropOp36
 70
     1
102
RTVSPost2010Prop37
 90
       50
102
RTVSPost2010PropOp37
 70
     1
102
RTVSPost2010Prop38
140
0.0
102
RTVSPost2010PropOp38
 70
     1
102
RTVSPost2010Prop39
140
1.0
102
RTVSPost2010PropOp39
 70
     1
102
RTVSPost2010Prop40
 90
        0
102
RTVSPost2010PropOp40
 70
     1
102
RTVSPost2010Prop41ColorIndex
 90
       18
102
RTVSPost2010Prop41ColorRGB
 90
        0
102
RTVSPost2010PropOp41
 70
     1
102
RTVSPost2010Prop42
 90
       50
102
RTVSPost2010PropOp42
 70
     1
102
RTVSPost2010Prop43
 90
        3
102
RTVSPost2010PropOp43
 70
     1
102
RTVSPost2010Prop44ColorIndex
 90
        5
102
RTVSPost2010Prop44ColorRGB
 90
      255
102
RTVSPost2010PropOp44
 70
     1
102
RTVSPost2010Prop45
280
     0
102
RTVSPost2010PropOp45
 70
     1
102
RTVSPost2010Prop46
 90
       50
102
RTVSPost2010PropOp46
 70
     1
102
RTVSPost2010Prop47
 90
       50
102
RTVSPost2010PropOp47
 70
     1
102
RTVSPost2010Prop48
 90
       50
102
RTVSPost2010PropOp48
 70
     1
102
RTVSPost2010Prop49
280
     0
102
RTVSPost2010PropOp49
 70
     1
102
RTVSPost2010Prop50
 90
       50
102
RTVSPost2010PropOp50
 70
     1
102
RTVSPost2010Prop51ColorIndex
 90
      256
102
RTVSPost2010Prop51ColorRGB
 90
-16777216
102
RTVSPost2010PropOp51
 70
     0
102
RTVSPost2010Prop52
140
1.0
102
RTVSPost2010PropOp52
 70
     0
102
RTVSPost2010Prop53
 90
        2
102
RTVSPost2010PropOp53
 70
     1
102
RTVSPost2010Prop54
  1
strokes_ogs.tif
102
RTVSPost2010PropOp54
 70
     1
102
RTVSPost2010Prop55
280
     0
102
RTVSPost2010PropOp55
 70
     1
102
RTVSPost2010Prop56
140
1.0
102
RTVSPost2010PropOp56
 70
     1
102
RTVSPost2010Prop57
140
1.0
102
RTVSPost2010PropOp57
 70
     1
  0
XRECORD
  5
4802
102
{ACAD_REACTORS
330
4801
102
}
330
4801
100
AcDbXrecord
280
     1
102
RTVSPost2010Prop28
280
     0
102
RTVSPost2010PropOp28
 70
     1
102
RTVSPost2010Prop29
280
     1
102
RTVSPost2010PropOp29
 70
     1
102
RTVSPost2010Prop30
280
     1
102
RTVSPost2010PropOp30
 70
     1
102
RTVSPost2010Prop31
280
     0
102
RTVSPost2010PropOp31
 70
     1
102
RTVSPost2010Prop32
280
     0
102
RTVSPost2010PropOp32
 70
     1
102
RTVSPost2010Prop33
280
     0
102
RTVSPost2010PropOp33
 70
     1
102
RTVSPost2010Prop34
280
     0
102
RTVSPost2010PropOp34
 70
     1
102
RTVSPost2010Prop35
280
     0
102
RTVSPost2010PropOp35
 70
     1
102
RTVSPost2010Prop36
280
     0
102
RTVSPost2010PropOp36
 70
     1
102
RTVSPost2010Prop37
 90
       50
102
RTVSPost2010PropOp37
 70
     1
102
RTVSPost2010Prop38
140
0.0
102
RTVSPost2010PropOp38
 70
     1
102
RTVSPost2010Prop39
140
1.0
102
RTVSPost2010PropOp39
 70
     1
102
RTVSPost2010Prop40
 90
        0
102
RTVSPost2010PropOp40
 70
     1
102
RTVSPost2010Prop41ColorIndex
 90
       18
102
RTVSPost2010Prop41ColorRGB
 90
        0
102
RTVSPost2010PropOp41
 70
     1
102
RTVSPost2010Prop42
 90
       50
102
RTVSPost2010PropOp42
 70
     1
102
RTVSPost2010Prop43
 90
        3
102
RTVSPost2010PropOp43
 70
     1
102
RTVSPost2010Prop44ColorIndex
 90
        5
102
RTVSPost2010Prop44ColorRGB
 90
      255
102
RTVSPost2010PropOp44
 70
     1
102
RTVSPost2010Prop45
280
     0
102
RTVSPost2010PropOp45
 70
     1
102
RTVSPost2010Prop46
 90
       50
102
RTVSPost2010PropOp46
 70
     1
102
RTVSPost2010Prop47
 90
       50
102
RTVSPost2010PropOp47
 70
     1
102
RTVSPost2010Prop48
 90
       50
102
RTVSPost2010PropOp48
 70
     1
102
RTVSPost2010Prop49
280
     0
102
RTVSPost2010PropOp49
 70
     1
102
RTVSPost2010Prop50
 90
       50
102
RTVSPost2010PropOp50
 70
     1
102
RTVSPost2010Prop51ColorIndex
 90
      256
102
RTVSPost2010Prop51ColorRGB
 90
-16777216
102
RTVSPost2010PropOp51
 70
     0
102
RTVSPost2010Prop52
140
1.0
102
RTVSPost2010PropOp52
 70
     0
102
RTVSPost2010Prop53
 90
        2
102
RTVSPost2010PropOp53
 70
     1
102
RTVSPost2010Prop54
  1
strokes_ogs.tif
102
RTVSPost2010PropOp54
 70
     1
102
RTVSPost2010Prop55
280
     0
102
RTVSPost2010PropOp55
 70
     1
102
RTVSPost2010Prop56
140
1.0
102
RTVSPost2010PropOp56
 70
     1
102
RTVSPost2010Prop57
140
1.0
102
RTVSPost2010PropOp57
 70
     1
  0
XRECORD
  5
480A
102
{ACAD_REACTORS
330
4809
102
}
330
4809
100
AcDbXrecord
280
     1
102
RTVSPost2010Prop28
280
     0
102
RTVSPost2010PropOp28
 70
     1
102
RTVSPost2010Prop29
280
     1
102
RTVSPost2010PropOp29
 70
     1
102
RTVSPost2010Prop30
280
     1
102
RTVSPost2010PropOp30
 70
     1
102
RTVSPost2010Prop31
280
     0
102
RTVSPost2010PropOp31
 70
     1
102
RTVSPost2010Prop32
280
     0
102
RTVSPost2010PropOp32
 70
     1
102
RTVSPost2010Prop33
280
     0
102
RTVSPost2010PropOp33
 70
     1
102
RTVSPost2010Prop34
280
     0
102
RTVSPost2010PropOp34
 70
     1
102
RTVSPost2010Prop35
280
     0
102
RTVSPost2010PropOp35
 70
     1
102
RTVSPost2010Prop36
280
     0
102
RTVSPost2010PropOp36
 70
     1
102
RTVSPost2010Prop37
 90
       50
102
RTVSPost2010PropOp37
 70
     1
102
RTVSPost2010Prop38
140
0.0
102
RTVSPost2010PropOp38
 70
     1
102
RTVSPost2010Prop39
140
1.0
102
RTVSPost2010PropOp39
 70
     1
102
RTVSPost2010Prop40
 90
        0
102
RTVSPost2010PropOp40
 70
     1
102
RTVSPost2010Prop41ColorIndex
 90
       18
102
RTVSPost2010Prop41ColorRGB
 90
        0
102
RTVSPost2010PropOp41
 70
     1
102
RTVSPost2010Prop42
 90
       50
102
RTVSPost2010PropOp42
 70
     1
102
RTVSPost2010Prop43
 90
        3
102
RTVSPost2010PropOp43
 70
     1
102
RTVSPost2010Prop44ColorIndex
 90
        5
102
RTVSPost2010Prop44ColorRGB
 90
      255
102
RTVSPost2010PropOp44
 70
     1
102
RTVSPost2010Prop45
280
     0
102
RTVSPost2010PropOp45
 70
     1
102
RTVSPost2010Prop46
 90
       50
102
RTVSPost2010PropOp46
 70
     1
102
RTVSPost2010Prop47
 90
       50
102
RTVSPost2010PropOp47
 70
     1
102
RTVSPost2010Prop48
 90
       50
102
RTVSPost2010PropOp48
 70
     1
102
RTVSPost2010Prop49
280
     0
102
RTVSPost2010PropOp49
 70
     1
102
RTVSPost2010Prop50
 90
       50
102
RTVSPost2010PropOp50
 70
     1
102
RTVSPost2010Prop51ColorIndex
 90
      256
102
RTVSPost2010Prop51ColorRGB
 90
-16777216
102
RTVSPost2010PropOp51
 70
     0
102
RTVSPost2010Prop52
140
1.0
102
RTVSPost2010PropOp52
 70
     0
102
RTVSPost2010Prop53
 90
        2
102
RTVSPost2010PropOp53
 70
     1
102
RTVSPost2010Prop54
  1
strokes_ogs.tif
102
RTVSPost2010PropOp54
 70
     1
102
RTVSPost2010Prop55
280
     0
102
RTVSPost2010PropOp55
 70
     1
102
RTVSPost2010Prop56
140
1.0
102
RTVSPost2010PropOp56
 70
     1
102
RTVSPost2010Prop57
140
1.0
102
RTVSPost2010PropOp57
 70
     1
  0
XRECORD
  5
4812
102
{ACAD_REACTORS
330
4811
102
}
330
4811
100
AcDbXrecord
280
     1
102
RTVSPost2010Prop28
280
     0
102
RTVSPost2010PropOp28
 70
     1
102
RTVSPost2010Prop29
280
     1
102
RTVSPost2010PropOp29
 70
     1
102
RTVSPost2010Prop30
280
     1
102
RTVSPost2010PropOp30
 70
     1
102
RTVSPost2010Prop31
280
     0
102
RTVSPost2010PropOp31
 70
     1
102
RTVSPost2010Prop32
280
     0
102
RTVSPost2010PropOp32
 70
     1
102
RTVSPost2010Prop33
280
     0
102
RTVSPost2010PropOp33
 70
     1
102
RTVSPost2010Prop34
280
     0
102
RTVSPost2010PropOp34
 70
     1
102
RTVSPost2010Prop35
280
     0
102
RTVSPost2010PropOp35
 70
     1
102
RTVSPost2010Prop36
280
     0
102
RTVSPost2010PropOp36
 70
     1
102
RTVSPost2010Prop37
 90
       50
102
RTVSPost2010PropOp37
 70
     1
102
RTVSPost2010Prop38
140
0.0
102
RTVSPost2010PropOp38
 70
     1
102
RTVSPost2010Prop39
140
1.0
102
RTVSPost2010PropOp39
 70
     1
102
RTVSPost2010Prop40
 90
        0
102
RTVSPost2010PropOp40
 70
     1
102
RTVSPost2010Prop41ColorIndex
 90
       18
102
RTVSPost2010Prop41ColorRGB
 90
        0
102
RTVSPost2010PropOp41
 70
     1
102
RTVSPost2010Prop42
 90
       50
102
RTVSPost2010PropOp42
 70
     1
102
RTVSPost2010Prop43
 90
        3
102
RTVSPost2010PropOp43
 70
     1
102
RTVSPost2010Prop44ColorIndex
 90
        5
102
RTVSPost2010Prop44ColorRGB
 90
      255
102
RTVSPost2010PropOp44
 70
     1
102
RTVSPost2010Prop45
280
     0
102
RTVSPost2010PropOp45
 70
     1
102
RTVSPost2010Prop46
 90
       50
102
RTVSPost2010PropOp46
 70
     1
102
RTVSPost2010Prop47
 90
       50
102
RTVSPost2010PropOp47
 70
     1
102
RTVSPost2010Prop48
 90
       50
102
RTVSPost2010PropOp48
 70
     1
102
RTVSPost2010Prop49
280
     0
102
RTVSPost2010PropOp49
 70
     1
102
RTVSPost2010Prop50
 90
       50
102
RTVSPost2010PropOp50
 70
     1
102
RTVSPost2010Prop51ColorIndex
 90
      256
102
RTVSPost2010Prop51ColorRGB
 90
-16777216
102
RTVSPost2010PropOp51
 70
     0
102
RTVSPost2010Prop52
140
1.0
102
RTVSPost2010PropOp52
 70
     0
102
RTVSPost2010Prop53
 90
        2
102
RTVSPost2010PropOp53
 70
     1
102
RTVSPost2010Prop54
  1
strokes_ogs.tif
102
RTVSPost2010PropOp54
 70
     1
102
RTVSPost2010Prop55
280
     0
102
RTVSPost2010PropOp55
 70
     1
102
RTVSPost2010Prop56
140
1.0
102
RTVSPost2010PropOp56
 70
     1
102
RTVSPost2010Prop57
140
1.0
102
RTVSPost2010PropOp57
 70
     1
  0
ENDSEC
  0
EOF
