  0
SECTION
  2
HEADER
  9
$ACADVER
  1
AC1024
  9
$ACADMAINTVER
 70
   225
  9
$DWGCODEPAGE
  3
ANSI_932
  9
$LASTSAVEDBY
  1
takanashi
  9
$INSBASE
 10
0.0
 20
0.0
 30
0.0
  9
$EXTMIN
 10
2041.266118335487
 20
9.997285330199247
 30
-0.000000000005043
  9
$EXTMAX
 10
2821.599531534927
 20
560.0291761481542
 30
0.0000000000009284
  9
$LIMMIN
 10
0.0
 20
0.0
  9
$LIMMAX
 10
840.0
 20
594.0
  9
$ORTHOMODE
 70
     1
  9
$REGENMODE
 70
     1
  9
$FILLMODE
 70
     1
  9
$QTEXTMODE
 70
     0
  9
$MIRRTEXT
 70
     0
  9
$LTSCALE
 40
1.0
  9
$ATTMODE
 70
     1
  9
$TEXTSIZE
 40
5.0
  9
$TRACEWID
 40
1.0
  9
$TEXTSTYLE
  7
STANDARD
  9
$CLAYER
  8
0
  9
$CELTYPE
  6
BYLAYER
  9
$CECOLOR
 62
   256
  9
$CELTSCALE
 40
1.0
  9
$DISPSILH
 70
     0
  9
$DIMSCALE
 40
1.0
  9
$DIMASZ
 40
1.5
  9
$DIMEXO
 40
5.0
  9
$DIMDLI
 40
3.75
  9
$DIMRND
 40
0.0
  9
$DIMDLE
 40
0.0
  9
$DIMEXE
 40
0.0
  9
$DIMTP
 40
0.0
  9
$DIMTM
 40
0.0
  9
$DIMTXT
 40
5.0
  9
$DIMCEN
 40
2.5
  9
$DIMTSZ
 40
0.0
  9
$DIMTOL
 70
     0
  9
$DIMLIM
 70
     0
  9
$DIMTIH
 70
     0
  9
$DIMTOH
 70
     0
  9
$DIMSE1
 70
     0
  9
$DIMSE2
 70
     0
  9
$DIMTAD
 70
     1
  9
$DIMZIN
 70
     8
  9
$DIMBLK
  1
DotBlank
  9
$DIMASO
 70
     1
  9
$DIMSHO
 70
     1
  9
$DIMPOST
  1

  9
$DIMAPOST
  1

  9
$DIMALT
 70
     0
  9
$DIMALTD
 70
     2
  9
$DIMALTF
 40
25.4
  9
$DIMLFAC
 40
1.0
  9
$DIMTOFL
 70
     1
  9
$DIMTVP
 40
0.0
  9
$DIMTIX
 70
     0
  9
$DIMSOXD
 70
     0
  9
$DIMSAH
 70
     0
  9
$DIMBLK1
  1

  9
$DIMBLK2
  1

  9
$DIMSTYLE
  2
STANDARD
  9
$DIMCLRD
 70
     0
  9
$DIMCLRE
 70
     0
  9
$DIMCLRT
 70
     0
  9
$DIMTFAC
 40
1.0
  9
$DIMGAP
 40
0.625
  9
$DIMJUST
 70
     0
  9
$DIMSD1
 70
     0
  9
$DIMSD2
 70
     0
  9
$DIMTOLJ
 70
     1
  9
$DIMTZIN
 70
     0
  9
$DIMALTZ
 70
     0
  9
$DIMALTTZ
 70
     0
  9
$DIMUPT
 70
     0
  9
$DIMDEC
 70
     4
  9
$DIMTDEC
 70
     4
  9
$DIMALTU
 70
     2
  9
$DIMALTTD
 70
     2
  9
$DIMTXSTY
  7
STANDARD
  9
$DIMAUNIT
 70
     0
  9
$DIMADEC
 70
     0
  9
$DIMALTRND
 40
0.0
  9
$DIMAZIN
 70
     0
  9
$DIMDSEP
 70
    46
  9
$DIMATFIT
 70
     3
  9
$DIMFRAC
 70
     0
  9
$DIMLDRBLK
  1
NONE
  9
$DIMLUNIT
 70
     2
  9
$DIMLWD
 70
    -2
  9
$DIMLWE
 70
    -2
  9
$DIMTMOVE
 70
     0
  9
$DIMFXL
 40
1.0
  9
$DIMFXLON
 70
     0
  9
$DIMJOGANG
 40
0.7853981633974483
  9
$DIMTFILL
 70
     0
  9
$DIMTFILLCLR
 70
     0
  9
$DIMARCSYM
 70
     0
  9
$DIMLTYPE
  6

  9
$DIMLTEX1
  6

  9
$DIMLTEX2
  6

  9
$DIMTXTDIRECTION
 70
     0
  9
$LUNITS
 70
     2
  9
$LUPREC
 70
     4
  9
$SKETCHINC
 40
1.0
  9
$FILLETRAD
 40
1.0
  9
$AUNITS
 70
     0
  9
$AUPREC
 70
     1
  9
$MENU
  1
.
  9
$ELEVATION
 40
0.0
  9
$PELEVATION
 40
0.0
  9
$THICKNESS
 40
0.0
  9
$LIMCHECK
 70
     0
  9
$CHAMFERA
 40
10.0
  9
$CHAMFERB
 40
10.0
  9
$CHAMFERC
 40
20.0
  9
$CHAMFERD
 40
0.0
  9
$SKPOLY
 70
     0
  9
$TDCREATE
 40
2450431.623194444
  9
$TDUCREATE
 40
2450431.248202778
  9
$TDUPDATE
 40
2459486.419918981
  9
$TDUUPDATE
 40
2459486.044918981
  9
$TDINDWG
 40
1.3743248958
  9
$TDUSRTIMER
 40
1.3743248032
  9
$USRTIMER
 70
     1
  9
$ANGBASE
 50
0.0
  9
$ANGDIR
 70
     0
  9
$PDMODE
 70
     0
  9
$PDSIZE
 40
0.0
  9
$PLINEWID
 40
0.0
  9
$SPLFRAME
 70
     0
  9
$SPLINETYPE
 70
     6
  9
$SPLINESEGS
 70
     8
  9
$HANDSEED
  5
5C66
  9
$SURFTAB1
 70
     6
  9
$SURFTAB2
 70
     6
  9
$SURFTYPE
 70
     6
  9
$SURFU
 70
     6
  9
$SURFV
 70
     6
  9
$UCSBASE
  2

  9
$UCSNAME
  2

  9
$UCSORG
 10
0.0
 20
0.0
 30
0.0
  9
$UCSXDIR
 10
1.0
 20
0.0
 30
0.0
  9
$UCSYDIR
 10
0.0
 20
1.0
 30
0.0
  9
$UCSORTHOREF
  2

  9
$UCSORTHOVIEW
 70
     1
  9
$UCSORGTOP
 10
0.0
 20
0.0
 30
0.0
  9
$UCSORGBOTTOM
 10
0.0
 20
0.0
 30
0.0
  9
$UCSORGLEFT
 10
0.0
 20
0.0
 30
0.0
  9
$UCSORGRIGHT
 10
0.0
 20
0.0
 30
0.0
  9
$UCSORGFRONT
 10
0.0
 20
0.0
 30
0.0
  9
$UCSORGBACK
 10
0.0
 20
0.0
 30
0.0
  9
$PUCSBASE
  2

  9
$PUCSNAME
  2

  9
$PUCSORG
 10
0.0
 20
0.0
 30
0.0
  9
$PUCSXDIR
 10
1.0
 20
0.0
 30
0.0
  9
$PUCSYDIR
 10
0.0
 20
1.0
 30
0.0
  9
$PUCSORTHOREF
  2

  9
$PUCSORTHOVIEW
 70
     0
  9
$PUCSORGTOP
 10
0.0
 20
0.0
 30
0.0
  9
$PUCSORGBOTTOM
 10
0.0
 20
0.0
 30
0.0
  9
$PUCSORGLEFT
 10
0.0
 20
0.0
 30
0.0
  9
$PUCSORGRIGHT
 10
0.0
 20
0.0
 30
0.0
  9
$PUCSORGFRONT
 10
0.0
 20
0.0
 30
0.0
  9
$PUCSORGBACK
 10
0.0
 20
0.0
 30
0.0
  9
$USERI1
 70
     0
  9
$USERI2
 70
     0
  9
$USERI3
 70
     0
  9
$USERI4
 70
     0
  9
$USERI5
 70
     0
  9
$USERR1
 40
0.0
  9
$USERR2
 40
0.0
  9
$USERR3
 40
0.0
  9
$USERR4
 40
0.0
  9
$USERR5
 40
0.0
  9
$WORLDVIEW
 70
     1
  9
$SHADEDGE
 70
     3
  9
$SHADEDIF
 70
    70
  9
$TILEMODE
 70
     1
  9
$MAXACTVP
 70
    16
  9
$PINSBASE
 10
0.0
 20
0.0
 30
0.0
  9
$PLIMCHECK
 70
     0
  9
$PEXTMIN
 10
1.000000000000000E+20
 20
1.000000000000000E+20
 30
1.000000000000000E+20
  9
$PEXTMAX
 10
-1.000000000000000E+20
 20
-1.000000000000000E+20
 30
-1.000000000000000E+20
  9
$PLIMMIN
 10
0.0
 20
0.0
  9
$PLIMMAX
 10
420.0
 20
297.0
  9
$UNITMODE
 70
     0
  9
$VISRETAIN
 70
     0
  9
$PLINEGEN
 70
     0
  9
$PSLTSCALE
 70
     1
  9
$TREEDEPTH
 70
  3020
  9
$CMLSTYLE
  2
STANDARD
  9
$CMLJUST
 70
     0
  9
$CMLSCALE
 40
1.0
  9
$PROXYGRAPHICS
 70
     1
  9
$MEASUREMENT
 70
     1
  9
$CELWEIGHT
370
    -1
  9
$ENDCAPS
280
     0
  9
$JOINSTYLE
280
     0
  9
$LWDISPLAY
290
     0
  9
$INSUNITS
 70
     0
  9
$HYPERLINKBASE
  1

  9
$STYLESHEET
  1
MONOCHROME.CTB
  9
$XEDIT
290
     1
  9
$CEPSNTYPE
380
     0
  9
$PSTYLEMODE
290
     1
  9
$FINGERPRINTGUID
  2
{87E49A17-DA8C-4230-82A7-C569D142D783}
  9
$VERSIONGUID
  2
{481DB824-D010-4C4C-8DB8-7C5ABB3D6D9A}
  9
$EXTNAMES
290
     1
  9
$PSVPSCALE
 40
0.0
  9
$OLESTARTUP
290
     0
  9
$SORTENTS
280
   127
  9
$INDEXCTL
280
     0
  9
$HIDETEXT
280
     0
  9
$XCLIPFRAME
280
     2
  9
$HALOGAP
280
     0
  9
$OBSCOLOR
 70
   257
  9
$OBSLTYPE
280
     0
  9
$INTERSECTIONDISPLAY
280
     0
  9
$INTERSECTIONCOLOR
 70
   257
  9
$DIMASSOC
280
     1
  9
$PROJECTNAME
  1

  9
$CAMERADISPLAY
290
     0
  9
$LENSLENGTH
 40
50.0
  9
$CAMERAHEIGHT
 40
0.0
  9
$STEPSPERSEC
 40
2.0
  9
$STEPSIZE
 40
6.0
  9
$3DDWFPREC
 40
2.0
  9
$PSOLWIDTH
 40
0.25
  9
$PSOLHEIGHT
 40
4.0
  9
$LOFTANG1
 40
1.570796326794896
  9
$LOFTANG2
 40
1.570796326794896
  9
$LOFTMAG1
 40
0.0
  9
$LOFTMAG2
 40
0.0
  9
$LOFTPARAM
 70
     7
  9
$LOFTNORMALS
280
     1
  9
$LATITUDE
 40
37.795
  9
$LONGITUDE
 40
-122.394
  9
$NORTHDIRECTION
 40
0.0
  9
$TIMEZONE
 70
 -8000
  9
$LIGHTGLYPHDISPLAY
280
     1
  9
$TILEMODELIGHTSYNCH
280
     1
  9
$CMATERIAL
347
23E6
  9
$SOLIDHIST
280
     0
  9
$SHOWHIST
280
     1
  9
$DWFFRAME
280
     2
  9
$DGNFRAME
280
     0
  9
$REALWORLDSCALE
290
     1
  9
$INTERFERECOLOR
 62
     1
  9
$INTERFEREOBJVS
345
23F3
  9
$INTERFEREVPVS
346
2FD1
  9
$CSHADOW
280
     0
  9
$SHADOWPLANELOCATION
 40
0.0
  0
ENDSEC
  0
SECTION
  2
CLASSES
  0
CLASS
  1
ACDBDICTIONARYWDFLT
  2
AcDbDictionaryWithDefault
  3
ObjectDBX Classes
 90
        0
 91
        1
280
     0
281
     0
  0
CLASS
  1
TABLESTYLE
  2
AcDbTableStyle
  3
ObjectDBX Classes
 90
     4095
 91
        1
280
     0
281
     0
  0
CLASS
  1
SORTENTSTABLE
  2
AcDbSortentsTable
  3
ObjectDBX Classes
 90
        0
 91
        1
280
     0
281
     0
  0
CLASS
  1
DIMASSOC
  2
AcDbDimAssoc
  3
"AcDbDimAssoc|Product Desc:     AcDim ARX App For Dimension|Company:          Autodesk, Inc.|WEB Address:      www.autodesk.com"
 90
        0
 91
        2
280
     0
281
     0
  0
CLASS
  1
DICTIONARYVAR
  2
AcDbDictionaryVar
  3
ObjectDBX Classes
 90
        0
 91
       13
280
     0
281
     0
  0
CLASS
  1
MATERIAL
  2
AcDbMaterial
  3
ObjectDBX Classes
 90
     1153
 91
        3
280
     0
281
     0
  0
CLASS
  1
VISUALSTYLE
  2
AcDbVisualStyle
  3
ObjectDBX Classes
 90
     4095
 91
       26
280
     0
281
     0
  0
CLASS
  1
SCALE
  2
AcDbScale
  3
ObjectDBX Classes
 90
     1153
 91
       17
280
     0
281
     0
  0
CLASS
  1
MLEADERSTYLE
  2
AcDbMLeaderStyle
  3
ACDB_MLEADERSTYLE_CLASS
 90
     4095
 91
        1
280
     0
281
     0
  0
CLASS
  1
CELLSTYLEMAP
  2
AcDbCellStyleMap
  3
ObjectDBX Classes
 90
     1152
 91
        1
280
     0
281
     0
  0
CLASS
  1
MULTILEADER
  2
AcDbMLeader
  3
ACDB_MLEADER_CLASS
 90
     1025
 91
       13
280
     0
281
     1
  0
CLASS
  1
ACDBSECTIONVIEWSTYLE
  2
AcDbSectionViewStyle
  3
ObjectDBX Classes
 90
     1025
 91
        1
280
     0
281
     0
  0
CLASS
  1
ACDBDETAILVIEWSTYLE
  2
AcDbDetailViewStyle
  3
ObjectDBX Classes
 90
     1025
 91
        1
280
     0
281
     0
  0
ENDSEC
  0
SECTION
  2
TABLES
  0
TABLE
  2
VPORT
  5
8
102
{ACAD_XDICTIONARY
360
2421
102
}
330
0
100
AcDbSymbolTable
 70
     1
  0
VPORT
  5
2FCF
330
8
100
AcDbSymbolTableRecord
100
AcDbViewportTableRecord
  2
*Active
 70
     0
 10
0.0
 20
0.0
 11
1.0
 21
1.0
 12
2431.432824935207
 22
285.0132307391767
 13
0.0
 23
0.0
 14
5.0
 24
5.0
 15
10.0
 25
10.0
 16
0.0
 26
0.0
 36
1.0
 17
0.0
 27
0.0
 37
0.0
 40
553.8917637359757
 41
1.879391100702575
 42
50.0
 43
0.0
 44
0.0
 50
0.0
 51
0.0
 71
     0
 72
   100
 73
     1
 74
     0
 75
     0
 76
     0
 77
     0
 78
     0
281
     0
 65
     1
110
0.0
120
0.0
130
0.0
111
1.0
121
0.0
131
0.0
112
0.0
122
1.0
132
0.0
 79
     0
146
0.0
348
23EF
 60
     3
 61
     5
292
     1
282
     1
141
0.0
142
0.0
 63
   250
421
  3355443
1001
ACAD_NAV_VCDISPLAY
1070
     3
  0
ENDTAB
  0
TABLE
  2
LTYPE
  5
5
330
0
100
AcDbSymbolTable
 70
     4
  0
LTYPE
  5
14
330
5
100
AcDbSymbolTableRecord
100
AcDbLinetypeTableRecord
  2
BYBLOCK
 70
     0
  3

 72
    65
 73
     0
 40
0.0
  0
LTYPE
  5
15
330
5
100
AcDbSymbolTableRecord
100
AcDbLinetypeTableRecord
  2
BYLAYER
 70
     0
  3

 72
    65
 73
     0
 40
0.0
  0
LTYPE
  5
16
330
5
100
AcDbSymbolTableRecord
100
AcDbLinetypeTableRecord
  2
CONTINUOUS
 70
     0
  3
Solid line
 72
    65
 73
     0
 40
0.0
  0
LTYPE
  5
E7E
330
5
100
AcDbSymbolTableRecord
100
AcDbLinetypeTableRecord
  2
DASHED2
 70
     0
  3
Dashed (.5x) _ _ _ _ _ _ _ _ _ _ _ _ _ _ _ _ _
 72
    65
 73
     2
 40
9.524999999999996
 49
6.349999999999997
 74
     0
 49
-3.174999999999998
 74
     0
  0
LTYPE
  5
1547
330
5
100
AcDbSymbolTableRecord
100
AcDbLinetypeTableRecord
  2
CENTER2
 70
     0
  3
Center (.5x) ___ _ ___ _ ___ _ ___ _ ___ _ ___
 72
    65
 73
     4
 40
28.575
 49
19.05
 74
     0
 49
-3.174999999999998
 74
     0
 49
3.174999999999998
 74
     0
 49
-3.174999999999998
 74
     0
  0
ENDTAB
  0
TABLE
  2
LAYER
  5
2
102
{ACAD_XDICTIONARY
360
181F
102
}
330
0
100
AcDbSymbolTable
 70
    11
  0
LAYER
  5
F
102
{ACAD_XDICTIONARY
360
3036
102
}
330
2
100
AcDbSymbolTableRecord
100
AcDbLayerTableRecord
  2
0
 70
     0
 62
     7
  6
CONTINUOUS
370
    -3
390
3AE
347
23E8
  0
LAYER
  5
87
102
{ACAD_XDICTIONARY
360
3038
102
}
330
2
100
AcDbSymbolTableRecord
100
AcDbLayerTableRecord
  2
WAKU
 70
     0
 62
     7
  6
CONTINUOUS
370
    -3
390
3AE
347
23E8
  0
LAYER
  5
9C
330
2
100
AcDbSymbolTableRecord
100
AcDbLayerTableRecord
  2
DEFPOINTS
 70
     0
 62
     7
  6
CONTINUOUS
290
     0
370
    -3
390
3AE
347
23E8
  0
LAYER
  5
1548
102
{ACAD_XDICTIONARY
360
303A
102
}
330
2
100
AcDbSymbolTableRecord
100
AcDbLayerTableRecord
  2
SITAJI
 70
     0
 62
     7
  6
CONTINUOUS
370
    -3
390
3AE
347
23E8
  0
LAYER
  5
1549
102
{ACAD_XDICTIONARY
360
303C
102
}
330
2
100
AcDbSymbolTableRecord
100
AcDbLayerTableRecord
  2
YAKUMONO
 70
     0
 62
     1
  6
CONTINUOUS
370
    -3
390
3AE
347
23E8
  0
LAYER
  5
154A
102
{ACAD_XDICTIONARY
360
303E
102
}
330
2
100
AcDbSymbolTableRecord
100
AcDbLayerTableRecord
  2
SEIHIN
 70
     0
 62
     4
  6
CONTINUOUS
370
    -3
390
3AE
347
23E8
  0
LAYER
  5
154B
102
{ACAD_XDICTIONARY
360
3040
102
}
330
2
100
AcDbSymbolTableRecord
100
AcDbLayerTableRecord
  2
TEKUSU
 70
     0
 62
     7
  6
CONTINUOUS
370
    -3
390
3AE
347
23E8
  0
LAYER
  5
154C
102
{ACAD_XDICTIONARY
360
3042
102
}
330
2
100
AcDbSymbolTableRecord
100
AcDbLayerTableRecord
  2
SEALING
 70
     0
 62
     7
  6
CONTINUOUS
370
     9
390
3AE
347
23E8
  0
LAYER
  5
154D
102
{ACAD_XDICTIONARY
360
3044
102
}
330
2
100
AcDbSymbolTableRecord
100
AcDbLayerTableRecord
  2
SUNPOU
 70
     0
 62
     7
  6
CONTINUOUS
370
     5
390
3AE
347
23E8
  0
LAYER
  5
154E
102
{ACAD_XDICTIONARY
360
3046
102
}
330
2
100
AcDbSymbolTableRecord
100
AcDbLayerTableRecord
  2
HIKIDASI
 70
     0
 62
     7
  6
CONTINUOUS
370
     5
390
3AE
347
23E8
  0
LAYER
  5
181D
102
{ACAD_XDICTIONARY
360
3048
102
}
330
2
100
AcDbSymbolTableRecord
100
AcDbLayerTableRecord
  2
PACKING
 70
     0
 62
     7
  6
CONTINUOUS
370
     9
390
3AE
347
23E8
1001
AcAecLayerStandard
1000

1000

  0
ENDTAB
  0
TABLE
  2
STYLE
  5
3
330
0
100
AcDbSymbolTable
 70
     3
  0
STYLE
  5
10
330
3
100
AcDbSymbolTableRecord
100
AcDbTextStyleTableRecord
  2
STANDARD
 70
     0
 40
5.0
 41
1.0
 50
0.0
 71
     0
 42
5.0
  3
txt.shx
  4
extfont.shx
  0
STYLE
  5
EA1
330
3
100
AcDbSymbolTableRecord
100
AcDbTextStyleTableRecord
  2
WAKU
 70
     0
 40
5.0
 41
1.0
 50
0.0
 71
     0
 42
5.0
  3

  4

1001
ACAD
1000
MS Gothic
1071
    32817
  0
STYLE
  5
247D
330
3
100
AcDbSymbolTableRecord
100
AcDbTextStyleTableRecord
  2
STYLE2
 70
     0
 40
0.0
 41
0.7
 50
0.0
 71
     0
 42
5.0
  3
MONOTXT.SHX
  4
BigFont.shx
  0
ENDTAB
  0
TABLE
  2
VIEW
  5
6
330
0
100
AcDbSymbolTable
 70
     3
  0
ENDTAB
  0
TABLE
  2
UCS
  5
7
330
0
100
AcDbSymbolTable
 70
     0
  0
ENDTAB
  0
TABLE
  2
APPID
  5
9
330
0
100
AcDbSymbolTable
 70
    14
  0
APPID
  5
11
330
9
100
AcDbSymbolTableRecord
100
AcDbRegAppTableRecord
  2
ACAD
 70
     0
  0
APPID
  5
181E
330
9
100
AcDbSymbolTableRecord
100
AcDbRegAppTableRecord
  2
AcAecLayerStandard
 70
     0
  0
APPID
  5
1F74
330
9
100
AcDbSymbolTableRecord
100
AcDbRegAppTableRecord
  2
ACAD_EXEMPT_FROM_CAD_STANDARDS
 70
     0
  0
APPID
  5
2483
330
9
100
AcDbSymbolTableRecord
100
AcDbRegAppTableRecord
  2
ACAD_PSEXT
 70
     0
  0
APPID
  5
2484
330
9
100
AcDbSymbolTableRecord
100
AcDbRegAppTableRecord
  2
ACAD_DSTYLE_DIMJAG
 70
     0
  0
APPID
  5
2485
330
9
100
AcDbSymbolTableRecord
100
AcDbRegAppTableRecord
  2
ACAD_DSTYLE_DIMBREAK
 70
     0
  0
APPID
  5
2486
330
9
100
AcDbSymbolTableRecord
100
AcDbRegAppTableRecord
  2
ACAD_DSTYLE_DIMTALN
 70
     0
  0
APPID
  5
2487
330
9
100
AcDbSymbolTableRecord
100
AcDbRegAppTableRecord
  2
GENIUS_GENODEF_13
 70
     0
  0
APPID
  5
2488
330
9
100
AcDbSymbolTableRecord
100
AcDbRegAppTableRecord
  2
GENIUS_GENOBJ-N-FIL_13
 70
     0
  0
APPID
  5
3001
330
9
100
AcDbSymbolTableRecord
100
AcDbRegAppTableRecord
  2
ACAD_NAV_VCDISPLAY
 70
     0
  0
APPID
  5
3032
330
9
100
AcDbSymbolTableRecord
100
AcDbRegAppTableRecord
  2
GradientColor1ACI
 70
     0
  0
APPID
  5
3033
330
9
100
AcDbSymbolTableRecord
100
AcDbRegAppTableRecord
  2
GradientColor2ACI
 70
     0
  0
APPID
  5
30F7
330
9
100
AcDbSymbolTableRecord
100
AcDbRegAppTableRecord
  2
ACAD_MLEADERVER
 70
     0
  0
APPID
  5
4F80
330
9
100
AcDbSymbolTableRecord
100
AcDbRegAppTableRecord
  2
AcCmTransparency
 70
     0
  0
ENDTAB
  0
TABLE
  2
DIMSTYLE
  5
A
330
0
100
AcDbSymbolTable
 70
     2
100
AcDbDimStyleTable
 71
     1
340
1D
  0
DIMSTYLE
105
1D
102
{ACAD_REACTORS
330
503B
330
503F
330
504D
330
50D3
330
50D4
330
50D5
330
50D6
330
5AC7
102
}
330
A
100
AcDbSymbolTableRecord
100
AcDbDimStyleTableRecord
  2
STANDARD
 70
     0
 41
1.5
 42
5.0
 43
3.75
 44
0.0
 73
     0
 74
     0
 77
     1
 78
     8
140
5.0
141
2.5
147
0.625
172
     1
340
10
341
B0
342
14C3
  0
DIMSTYLE
105
2482
330
A
100
AcDbSymbolTableRecord
100
AcDbDimStyleTableRecord
  2
ISO-25
 70
     0
 41
2.5
 42
3.0
 43
3.75
 44
1.25
 73
     0
 74
     0
 77
     1
 78
     8
140
5.0
141
2.5
143
0.03937007874016
147
0.625
171
     3
172
     1
271
     2
272
     2
274
     3
278
    44
283
     0
284
     8
340
247D
  0
ENDTAB
  0
TABLE
  2
BLOCK_RECORD
  5
1
330
0
100
AcDbSymbolTable
 70
    11
  0
BLOCK_RECORD
  5
1A
102
{ACAD_XDICTIONARY
360
1FFD
102
}
330
1
100
AcDbSymbolTableRecord
100
AcDbBlockTableRecord
  2
*MODEL_SPACE
340
3B3
 70
     0
280
     1
281
     0
  0
BLOCK_RECORD
  5
17
330
1
100
AcDbSymbolTableRecord
100
AcDbBlockTableRecord
  2
*PAPER_SPACE
340
3B4
 70
     0
280
     1
281
     0
  0
BLOCK_RECORD
  5
B0
330
1
100
AcDbSymbolTableRecord
100
AcDbBlockTableRecord
  2
_NONE
340
0
 70
     0
280
     1
281
     0
  0
BLOCK_RECORD
  5
E1F
330
1
100
AcDbSymbolTableRecord
100
AcDbBlockTableRecord
  2
IGロゴ
340
0
 70
     0
280
     1
281
     0
  0
BLOCK_RECORD
  5
14C3
330
1
100
AcDbSymbolTableRecord
100
AcDbBlockTableRecord
  2
_DotBlank
340
0
102
{BLKREFS
331
516E
331
516F
331
5177
331
5178
331
5180
331
5181
331
5189
331
518A
331
5192
331
5193
331
5159
331
515A
331
5165
331
5166
331
5AE0
331
5AE1
102
}
 70
     0
280
     1
281
     0
  0
BLOCK_RECORD
  5
5117
330
1
100
AcDbSymbolTableRecord
100
AcDbBlockTableRecord
  2
*D3
340
0
 70
     0
280
     1
281
     0
  0
BLOCK_RECORD
  5
5123
330
1
100
AcDbSymbolTableRecord
100
AcDbBlockTableRecord
  2
*D4
340
0
 70
     0
280
     1
281
     0
  0
BLOCK_RECORD
  5
512F
330
1
100
AcDbSymbolTableRecord
100
AcDbBlockTableRecord
  2
*D5
340
0
 70
     0
280
     1
281
     0
  0
BLOCK_RECORD
  5
513B
330
1
100
AcDbSymbolTableRecord
100
AcDbBlockTableRecord
  2
*D6
340
0
 70
     0
280
     1
281
     0
  0
BLOCK_RECORD
  5
5147
330
1
100
AcDbSymbolTableRecord
100
AcDbBlockTableRecord
  2
*D7
340
0
 70
     0
280
     1
281
     0
  0
BLOCK_RECORD
  5
5153
330
1
100
AcDbSymbolTableRecord
100
AcDbBlockTableRecord
  2
*D8
340
0
 70
     0
280
     1
281
     0
  0
BLOCK_RECORD
  5
515F
330
1
100
AcDbSymbolTableRecord
100
AcDbBlockTableRecord
  2
*D9
340
0
 70
     0
280
     1
281
     0
  0
BLOCK_RECORD
  5
5AC8
330
1
100
AcDbSymbolTableRecord
100
AcDbBlockTableRecord
  2
*D10
340
0
 70
     0
280
     1
281
     0
  0
ENDTAB
  0
ENDSEC
  0
SECTION
  2
BLOCKS
  0
BLOCK
  5
1B
330
1A
100
AcDbEntity
  8
0
100
AcDbBlockBegin
  2
*MODEL_SPACE
 70
     0
 10
0.0
 20
0.0
 30
0.0
  3
*MODEL_SPACE
  1

  0
ENDBLK
  5
1C
330
1A
100
AcDbEntity
  8
0
100
AcDbBlockEnd
  0
BLOCK
  5
18
330
17
100
AcDbEntity
 67
     1
  8
0
100
AcDbBlockBegin
  2
*PAPER_SPACE
 70
     0
 10
0.0
 20
0.0
 30
0.0
  3
*PAPER_SPACE
  1

  0
ENDBLK
  5
19
330
17
100
AcDbEntity
 67
     1
  8
0
100
AcDbBlockEnd
  0
BLOCK
  5
B1
330
B0
100
AcDbEntity
  8
0
100
AcDbBlockBegin
  2
_NONE
 70
     0
 10
0.0
 20
0.0
 30
0.0
  3
_NONE
  1

  0
CIRCLE
  5
B2
330
B0
100
AcDbEntity
  8
0
  6
ByBlock
 62
     0
100
AcDbCircle
 10
0.0
 20
0.0
 30
0.0
 40
0.25
  0
ENDBLK
  5
B3
330
B0
100
AcDbEntity
  8
0
100
AcDbBlockEnd
  0
BLOCK
  5
E20
330
E1F
100
AcDbEntity
  8
0
100
AcDbBlockBegin
  2
IGロゴ
 70
     0
 10
0.0
 20
0.0
 30
0.0
  3
IGロゴ
  1

  0
CIRCLE
  5
E21
330
E1F
100
AcDbEntity
  8
WAKU
100
AcDbCircle
 10
-7.133294257549736
 20
40.74217652150603
 30
0.0
 40
0.8702311197916666
  0
POLYLINE
  5
E22
330
E1F
100
AcDbEntity
  8
WAKU
100
AcDb2dPolyline
 66
     1
 10
0.0
 20
0.0
 30
0.0
 70
     1
  0
VERTEX
  5
E23
330
E22
100
AcDbEntity
  8
WAKU
100
AcDbVertex
100
AcDb2dVertex
 10
-6.558996840015013
 20
36.03789863522132
 30
0.0
  0
VERTEX
  5
E24
330
E22
100
AcDbEntity
  8
WAKU
100
AcDbVertex
100
AcDb2dVertex
 10
-7.774082017966402
 20
36.03789863522132
 30
0.0
  0
VERTEX
  5
E25
330
E22
100
AcDbEntity
  8
WAKU
100
AcDbVertex
100
AcDb2dVertex
 10
-7.774082017966402
 20
38.72059449025604
 30
0.0
  0
VERTEX
  5
E26
330
E22
100
AcDbEntity
  8
WAKU
100
AcDbVertex
100
AcDb2dVertex
 10
-6.558996840015013
 20
38.72059449025604
 30
0.0
  0
SEQEND
  5
E27
330
E22
100
AcDbEntity
  8
WAKU
  0
SPLINE
  5
E28
330
E1F
100
AcDbEntity
  8
WAKU
100
AcDbSpline
210
0.0
220
0.0
230
1.0
 70
     9
 71
     3
 72
    56
 73
    52
 74
     0
 42
0.000000001
 43
0.0000000001
 40
0.0
 40
0.0
 40
0.0
 40
0.0
 40
1.0
 40
1.0
 40
1.0
 40
2.0
 40
2.0
 40
2.0
 40
3.0
 40
3.0
 40
3.0
 40
4.0
 40
4.0
 40
4.0
 40
5.0
 40
5.0
 40
5.0
 40
6.0
 40
6.0
 40
6.0
 40
7.0
 40
7.0
 40
7.0
 40
8.0
 40
8.0
 40
8.0
 40
9.0
 40
9.0
 40
9.0
 40
10.0
 40
10.0
 40
10.0
 40
11.0
 40
11.0
 40
11.0
 40
12.0
 40
12.0
 40
12.0
 40
13.0
 40
13.0
 40
13.0
 40
14.0
 40
14.0
 40
14.0
 40
15.0
 40
15.0
 40
15.0
 40
16.0
 40
16.0
 40
16.0
 40
17.0
 40
17.0
 40
17.0
 40
17.0
 10
-3.33025335043168
 20
41.50009752845046
 30
0.0
 10
-3.33025335043168
 20
41.50009752845046
 30
0.0
 10
-3.254805759285846
 20
41.50698771942269
 30
0.0
 10
-3.254805759285846
 20
41.50698771942269
 30
0.0
 10
-3.014682603903903
 20
41.57795668643657
 30
0.0
 10
-2.824513333070568
 20
41.68785523244353
 30
0.0
 10
-2.840016262758068
 20
42.06302613088103
 30
0.0
 10
-2.853107625605291
 20
42.38342001108935
 30
0.0
 10
-3.100120971959456
 20
42.65248196855464
 30
0.0
 10
-3.420170342619181
 20
42.65248196855464
 30
0.0
 10
-3.420170342619181
 20
42.65248196855464
 30
0.0
 10
-7.55359590685529
 20
42.652137459006
 30
0.0
 10
-7.55359590685529
 20
42.652137459006
 30
0.0
 10
-8.404534491924735
 20
42.68383233747825
 30
0.0
 10
-8.989167195917787
 20
42.06509318817269
 30
0.0
 10
-8.989167195917787
 20
41.3305988305338
 30
0.0
 10
-8.989167195917787
 20
40.88411445553381
 30
0.0
 10
-8.740431301820567
 20
40.46932495900603
 30
0.0
 10
-8.381796861716402
 20
40.22816827497825
 30
0.0
 10
-8.381796861716402
 20
40.22816827497825
 30
0.0
 10
-8.354925116924736
 20
40.20715319251297
 30
0.0
 10
-8.354925116924736
 20
40.20715319251297
 30
0.0
 10
-8.607450616056681
 20
40.05798055796435
 30
0.0
 10
-8.748355021438625
 20
39.8075221161241
 30
0.0
 10
-8.771781670744179
 20
39.50090861786021
 30
0.0
 10
-8.794863810501125
 20
39.19601766733936
 30
0.0
 10
-8.621230998001124
 20
38.83669420813798
 30
0.0
 10
-8.330464938973346
 20
38.69854587914492
 30
0.0
 10
-8.330464938973346
 20
38.69854587914492
 30
0.0
 10
-8.350446492792791
 20
38.68407647810325
 30
0.0
 10
-8.350446492792791
 20
38.68407647810325
 30
0.0
 10
-9.024996188973343
 20
38.26515286699215
 30
0.0
 10
-9.494562703730293
 20
37.59198120900604
 30
0.0
 10
-9.243070733244179
 20
36.46681302324215
 30
0.0
 10
-9.13076062039696
 20
35.96176202497826
 30
0.0
 10
-8.617441392966401
 20
35.58314603105465
 30
0.0
 10
-8.290501831334458
 20
35.41468086178382
 30
0.0
 10
-7.829203545744178
 20
35.17765829233937
 30
0.0
 10
-6.996523966751125
 20
35.05983602671437
 30
0.0
 10
-6.482860229771957
 20
35.04467760657548
 30
0.0
 10
-6.482860229771957
 20
35.04467760657548
 30
0.0
 10
-3.647891154251123
 20
34.73668607011715
 30
0.0
 10
-3.247571058765013
 20
36.70865872636714
 30
0.0
 10
-2.847250963278903
 20
38.68028687306853
 30
0.0
 10
-4.534658732376124
 20
39.39479967688798
 30
0.0
 10
-4.775126397306681
 20
39.40513496334631
 30
0.0
 10
-5.015594062237235
 20
39.41478123070742
 30
0.0
 10
-3.57830022543168
 20
39.8912379364366
 30
0.0
 10
-3.738497165535846
 20
41.33438843556853
 30
0.0
 10
-3.738497165535846
 20
41.33438843556853
 30
0.0
 10
-3.640656453730291
 20
41.4573783444227
 30
0.0
 10
-3.33025335043168
 20
41.50009752845046
 30
0.0
  0
ELLIPSE
  5
E29
330
E1F
100
AcDbEntity
  8
WAKU
100
AcDbEllipse
 10
-6.072204847827513
 20
38.96691881751298
 30
0.0
 11
-5.716791449652776
 21
-5.716791449652776
 31
0.0
210
0.0
220
0.0
230
1.0
 40
0.7036880800289264
 41
0.0
 42
6.283185307179584
  0
POLYLINE
  5
E2A
330
E1F
100
AcDbEntity
  8
WAKU
100
AcDb2dPolyline
 66
     1
 10
0.0
 20
0.0
 30
0.0
 70
     1
  0
VERTEX
  5
E2B
330
E2A
100
AcDbEntity
  8
WAKU
100
AcDbVertex
100
AcDb2dVertex
 10
38.86320910616554
 20
39.71657159529075
 30
0.0
  0
VERTEX
  5
E2C
330
E2A
100
AcDbEntity
  8
WAKU
100
AcDbVertex
100
AcDb2dVertex
 10
38.86320910616554
 20
38.31097263695742
 30
0.0
  0
VERTEX
  5
E2D
330
E2A
100
AcDbEntity
  8
WAKU
100
AcDbVertex
100
AcDb2dVertex
 10
31.17513401935998
 20
38.31097263695742
 30
0.0
  0
VERTEX
  5
E2E
330
E2A
100
AcDbEntity
  8
WAKU
100
AcDbVertex
100
AcDb2dVertex
 10
31.17513401935998
 20
39.71657159529075
 30
0.0
  0
SEQEND
  5
E2F
330
E2A
100
AcDbEntity
  8
WAKU
  0
SPLINE
  5
E30
330
E1F
100
AcDbEntity
  8
WAKU
100
AcDbSpline
210
0.0
220
0.0
230
1.0
 70
     9
 71
     3
 72
    53
 73
    49
 74
     0
 42
0.000000001
 43
0.0000000001
 40
0.0
 40
0.0
 40
0.0
 40
0.0
 40
1.0
 40
1.0
 40
1.0
 40
2.0
 40
2.0
 40
2.0
 40
3.0
 40
3.0
 40
3.0
 40
4.0
 40
4.0
 40
4.0
 40
5.0
 40
5.0
 40
5.0
 40
6.0
 40
6.0
 40
6.0
 40
7.0
 40
7.0
 40
7.0
 40
8.0
 40
8.0
 40
8.0
 40
9.0
 40
9.0
 40
9.0
 40
10.0
 40
10.0
 40
10.0
 40
11.0
 40
11.0
 40
11.0
 40
12.0
 40
12.0
 40
12.0
 40
13.0
 40
13.0
 40
13.0
 40
14.0
 40
14.0
 40
14.0
 40
15.0
 40
15.0
 40
15.0
 40
16.0
 40
16.0
 40
16.0
 40
16.0
 10
92.00725207491553
 20
42.91637628279075
 30
0.0
 10
92.00725207491553
 20
42.87055651282547
 30
0.0
 10
92.00725207491553
 20
40.82899292775603
 30
0.0
 10
92.00725207491553
 20
40.82899292775603
 30
0.0
 10
92.00725207491553
 20
40.82899292775603
 30
0.0
 10
90.36945368081831
 20
40.82899292775603
 30
0.0
 10
90.32397842040165
 20
40.82899292775603
 30
0.0
 10
90.32397842040165
 20
40.78489570553379
 30
0.0
 10
90.32397842040165
 20
39.62424303626298
 30
0.0
 10
90.32397842040165
 20
39.57980130449215
 30
0.0
 10
90.36945368081831
 20
39.57980130449215
 30
0.0
 10
92.00725207491553
 20
39.57980130449215
 30
0.0
 10
92.00725207491553
 20
39.57980130449215
 30
0.0
 10
92.00725207491553
 20
39.57980130449215
 30
0.0
 10
92.00725207491553
 20
36.45303264129771
 30
0.0
 10
92.00725207491553
 20
36.45303264129771
 30
0.0
 10
92.00725207491553
 20
36.45303264129771
 30
0.0
 10
89.91194500026276
 20
36.45303264129771
 30
0.0
 10
89.86646973984608
 20
36.45303264129771
 30
0.0
 10
89.86646973984608
 20
36.40893541907548
 30
0.0
 10
89.86646973984608
 20
35.26481920813797
 30
0.0
 10
89.86646973984608
 20
35.22037747636714
 30
0.0
 10
89.91228950981136
 20
35.22037747636714
 30
0.0
 10
95.3272905948808
 20
35.22037747636714
 30
0.0
 10
95.3734548743947
 20
35.22037747636714
 30
0.0
 10
95.3734548743947
 20
35.26481920813797
 30
0.0
 10
95.3734548743947
 20
36.40893541907548
 30
0.0
 10
95.3734548743947
 20
36.45303264129771
 30
0.0
 10
95.32763510442942
 20
36.45303264129771
 30
0.0
 10
93.41905220512387
 20
36.45303264129771
 30
0.0
 10
93.41905220512387
 20
36.45303264129771
 30
0.0
 10
93.41905220512387
 20
36.45303264129771
 30
0.0
 10
93.41905220512387
 20
39.57980130449215
 30
0.0
 10
93.41905220512387
 20
39.57980130449215
 30
0.0
 10
93.41905220512387
 20
39.57980130449215
 30
0.0
 10
95.18776422769331
 20
39.57980130449215
 30
0.0
 10
95.23323948810995
 20
39.57980130449215
 30
0.0
 10
95.23323948810995
 20
39.62424303626298
 30
0.0
 10
95.23323948810995
 20
40.78489570553379
 30
0.0
 10
95.23323948810995
 20
40.82899292775603
 30
0.0
 10
95.18776422769331
 20
40.82899292775603
 30
0.0
 10
93.41905220512387
 20
40.82899292775603
 30
0.0
 10
93.41905220512387
 20
40.82899292775603
 30
0.0
 10
93.41905220512387
 20
40.82899292775603
 30
0.0
 10
93.41905220512387
 20
42.87055651282547
 30
0.0
 10
93.41905220512387
 20
42.91637628279075
 30
0.0
 10
93.37461047335304
 20
42.91637628279075
 30
0.0
 10
92.05134929713777
 20
42.91637628279075
 30
0.0
 10
92.00725207491553
 20
42.91637628279075
 30
0.0
  0
SPLINE
  5
E31
330
E1F
100
AcDbEntity
  8
WAKU
100
AcDbSpline
210
0.0
220
0.0
230
1.0
 70
     9
 71
     3
 72
    74
 73
    70
 74
     0
 42
0.000000001
 43
0.0000000001
 40
0.0
 40
0.0
 40
0.0
 40
0.0
 40
1.0
 40
1.0
 40
1.0
 40
2.0
 40
2.0
 40
2.0
 40
3.0
 40
3.0
 40
3.0
 40
4.0
 40
4.0
 40
4.0
 40
5.0
 40
5.0
 40
5.0
 40
6.0
 40
6.0
 40
6.0
 40
7.0
 40
7.0
 40
7.0
 40
8.0
 40
8.0
 40
8.0
 40
9.0
 40
9.0
 40
9.0
 40
10.0
 40
10.0
 40
10.0
 40
11.0
 40
11.0
 40
11.0
 40
12.0
 40
12.0
 40
12.0
 40
13.0
 40
13.0
 40
13.0
 40
14.0
 40
14.0
 40
14.0
 40
15.0
 40
15.0
 40
15.0
 40
16.0
 40
16.0
 40
16.0
 40
17.0
 40
17.0
 40
17.0
 40
18.0
 40
18.0
 40
18.0
 40
19.0
 40
19.0
 40
19.0
 40
20.0
 40
20.0
 40
20.0
 40
21.0
 40
21.0
 40
21.0
 40
22.0
 40
22.0
 40
22.0
 40
23.0
 40
23.0
 40
23.0
 40
23.0
 10
87.80871420599192
 20
42.92464451195741
 30
0.0
 10
87.80871420599192
 20
42.87951376108935
 30
0.0
 10
87.80871420599192
 20
41.76330282358935
 30
0.0
 10
87.80871420599192
 20
41.76330282358935
 30
0.0
 10
87.80871420599192
 20
41.76330282358935
 30
0.0
 10
86.67562230060999
 20
41.76330282358935
 30
0.0
 10
86.63083605929054
 20
41.76330282358935
 30
0.0
 10
86.63083605929054
 20
41.71920560136714
 30
0.0
 10
86.63083605929054
 20
40.67603068817269
 30
0.0
 10
86.63083605929054
 20
40.63193346595046
 30
0.0
 10
86.6763113197072
 20
40.63193346595046
 30
0.0
 10
88.69479276501968
 20
40.63193346595046
 30
0.0
 10
88.69479276501968
 20
40.63193346595046
 30
0.0
 10
88.69479276501968
 20
40.63193346595046
 30
0.0
 10
88.67550023029748
 20
40.59713800154074
 30
0.0
 10
88.67550023029748
 20
40.59713800154074
 30
0.0
 10
88.34959419731138
 20
40.01112725935325
 30
0.0
 10
87.48694228758914
 20
39.1315943817491
 30
0.0
 10
86.4654714759572
 20
38.57727851803382
 30
0.0
 10
86.47305068602666
 20
38.54558363956158
 30
0.0
 10
86.79516711397804
 20
37.19545071855464
 30
0.0
 10
86.8092920054711
 20
37.13585056664492
 30
0.0
 10
87.15896919731136
 20
37.34944648678381
 30
0.0
 10
87.41011665824888
 20
37.51377754147132
 30
0.0
 10
87.77116266519332
 20
37.79076321855465
 30
0.0
 10
87.77116266519332
 20
37.79076321855465
 30
0.0
 10
87.80871420599192
 20
37.81970202063798
 30
0.0
 10
87.80871420599192
 20
37.81970202063798
 30
0.0
 10
87.80871420599192
 20
37.81970202063798
 30
0.0
 10
87.80871420599192
 20
35.03089722463104
 30
0.0
 10
87.80871420599192
 20
34.98507745466576
 30
0.0
 10
87.85315593776275
 20
34.98507745466576
 30
0.0
 10
89.13886557317942
 20
34.98507745466576
 30
0.0
 10
89.18330730495027
 20
34.98507745466576
 30
0.0
 10
89.18330730495027
 20
35.03089722463104
 30
0.0
 10
89.18330730495027
 20
38.15973294511714
 30
0.0
 10
89.18330730495027
 20
38.15973294511714
 30
0.0
 10
89.18330730495027
 20
38.15973294511714
 30
0.0
 10
89.22499296033221
 20
38.10667847463103
 30
0.0
 10
89.22499296033221
 20
38.10667847463103
 30
0.0
 10
89.51128039522803
 20
37.74494344858937
 30
0.0
 10
89.71695259574886
 20
37.5471949676866
 30
0.0
 10
89.98635906276275
 20
37.32050768470048
 30
0.0
 10
90.01323080755442
 20
37.36598294511714
 30
0.0
 10
90.63782661918637
 20
38.43051745032548
 30
0.0
 10
90.6609087589433
 20
38.47013604841576
 30
0.0
 10
90.28470433186001
 20
38.66168335744354
 30
0.0
 10
89.8726709117211
 20
38.9052516083116
 30
0.0
 10
89.40551596380442
 20
39.37171753713104
 30
0.0
 10
89.40551596380442
 20
39.37171753713104
 30
0.0
 10
89.39070205321415
 20
39.38618693817272
 30
0.0
 10
89.39070205321415
 20
39.38618693817272
 30
0.0
 10
89.39070205321415
 20
39.38618693817272
 30
0.0
 10
89.40344890651275
 20
39.40237888695742
 30
0.0
 10
89.40344890651275
 20
39.40237888695742
 30
0.0
 10
89.81479330755439
 20
39.93740221595048
 30
0.0
 10
89.99256023463775
 20
40.29224705101992
 30
0.0
 10
90.13932130234607
 20
40.60988485483934
 30
0.0
 10
90.13932130234607
 20
40.60988485483934
 30
0.0
 10
90.13725424505443
 20
41.71851658226992
 30
0.0
 10
90.13725424505443
 20
41.76330282358935
 30
0.0
 10
90.09281251328358
 20
41.76330282358935
 30
0.0
 10
89.18330730495027
 20
41.76330282358935
 30
0.0
 10
89.18330730495027
 20
41.76330282358935
 30
0.0
 10
89.18330730495027
 20
41.76330282358935
 30
0.0
 10
89.18330730495027
 20
42.87951376108935
 30
0.0
 10
89.18330730495027
 20
42.92464451195741
 30
0.0
 10
89.13886557317942
 20
42.92464451195741
 30
0.0
 10
87.85315593776275
 20
42.92464451195741
 30
0.0
 10
87.80871420599192
 20
42.92464451195741
 30
0.0
  0
SPLINE
  5
E32
330
E1F
100
AcDbEntity
  8
WAKU
100
AcDbSpline
210
0.0
220
0.0
230
1.0
 70
     9
 71
     3
 72
    35
 73
    31
 74
     0
 42
0.000000001
 43
0.0000000001
 40
0.0
 40
0.0
 40
0.0
 40
0.0
 40
1.0
 40
1.0
 40
1.0
 40
2.0
 40
2.0
 40
2.0
 40
3.0
 40
3.0
 40
3.0
 40
4.0
 40
4.0
 40
4.0
 40
5.0
 40
5.0
 40
5.0
 40
6.0
 40
6.0
 40
6.0
 40
7.0
 40
7.0
 40
7.0
 40
8.0
 40
8.0
 40
8.0
 40
9.0
 40
9.0
 40
9.0
 40
10.0
 40
10.0
 40
10.0
 40
10.0
 10
80.33940268255442
 20
36.44579794077686
 30
0.0
 10
80.62155600286692
 20
36.95360501542964
 30
0.0
 10
80.80621312092246
 20
37.32808689476993
 30
0.0
 10
81.06804037786693
 20
37.88343628713104
 30
0.0
 10
81.06804037786693
 20
37.88343628713104
 30
0.0
 10
81.07424154974195
 20
37.89652764997825
 30
0.0
 10
81.07424154974195
 20
37.89652764997825
 30
0.0
 10
81.07424154974195
 20
37.89652764997825
 30
0.0
 10
83.71697429713776
 20
37.89652764997825
 30
0.0
 10
83.71697429713776
 20
37.89652764997825
 30
0.0
 10
83.71697429713776
 20
37.89652764997825
 30
0.0
 10
83.72593154540162
 20
37.85174140865882
 30
0.0
 10
83.72593154540162
 20
37.85174140865882
 30
0.0
 10
83.72593154540162
 20
37.85174140865882
 30
0.0
 10
82.7082503388044
 20
37.41731486786021
 30
0.0
 10
82.65209528238081
 20
37.39354370900603
 30
0.0
 10
82.69309191866554
 20
37.34669041039492
 30
0.0
 10
83.43034235269332
 20
36.50505358313797
 30
0.0
 10
83.43034235269332
 20
36.50505358313797
 30
0.0
 10
83.43034235269332
 20
36.50505358313797
 30
0.0
 10
83.38073297769332
 20
36.50367554494354
 30
0.0
 10
83.38073297769332
 20
36.50367554494354
 30
0.0
 10
83.38073297769332
 20
36.50367554494354
 30
0.0
 10
81.27750218342248
 20
36.41927070553381
 30
0.0
 10
81.27750218342248
 20
36.41927070553381
 30
0.0
 10
81.27750218342248
 20
36.41927070553381
 30
0.0
 10
80.3197656382836
 20
36.41065796681854
 30
0.0
 10
80.3197656382836
 20
36.41065796681854
 30
0.0
 10
80.3197656382836
 20
36.41065796681854
 30
0.0
 10
80.33940268255442
 20
36.44579794077686
 30
0.0
 10
80.33940268255442
 20
36.44579794077686
 30
0.0
  0
SPLINE
  5
E33
330
E1F
100
AcDbEntity
  8
WAKU
100
AcDbSpline
210
0.0
220
0.0
230
1.0
 70
     9
 71
     3
 72
    56
 73
    52
 74
     0
 42
0.000000001
 43
0.0000000001
 40
0.0
 40
0.0
 40
0.0
 40
0.0
 40
1.0
 40
1.0
 40
1.0
 40
2.0
 40
2.0
 40
2.0
 40
3.0
 40
3.0
 40
3.0
 40
4.0
 40
4.0
 40
4.0
 40
5.0
 40
5.0
 40
5.0
 40
6.0
 40
6.0
 40
6.0
 40
7.0
 40
7.0
 40
7.0
 40
8.0
 40
8.0
 40
8.0
 40
9.0
 40
9.0
 40
9.0
 40
10.0
 40
10.0
 40
10.0
 40
11.0
 40
11.0
 40
11.0
 40
12.0
 40
12.0
 40
12.0
 40
13.0
 40
13.0
 40
13.0
 40
14.0
 40
14.0
 40
14.0
 40
15.0
 40
15.0
 40
15.0
 40
16.0
 40
16.0
 40
16.0
 40
17.0
 40
17.0
 40
17.0
 40
17.0
 10
77.46619304713775
 20
39.06165894338104
 30
0.0
 10
77.46619304713775
 20
39.01756172115881
 30
0.0
 10
77.46619304713775
 20
37.94062487220048
 30
0.0
 10
77.46619304713775
 20
37.89652764997825
 30
0.0
 10
77.51166830755443
 20
37.89652764997825
 30
0.0
 10
79.56081110269329
 20
37.89652764997825
 30
0.0
 10
79.56081110269329
 20
37.89652764997825
 30
0.0
 10
79.56081110269329
 20
37.89652764997825
 30
0.0
 10
79.54978679713774
 20
37.86552179060326
 30
0.0
 10
79.54978679713774
 20
37.86552179060326
 30
0.0
 10
79.3306787242211
 20
37.2557398895616
 30
0.0
 10
79.0891775306447
 20
36.76998142601993
 30
0.0
 10
78.9031423743947
 20
36.41513659095048
 30
0.0
 10
78.9031423743947
 20
36.41513659095048
 30
0.0
 10
78.8965966929711
 20
36.40273424720048
 30
0.0
 10
78.8965966929711
 20
36.40273424720048
 30
0.0
 10
78.8965966929711
 20
36.40273424720048
 30
0.0
 10
77.83481826415166
 20
36.39446601803382
 30
0.0
 10
77.83481826415166
 20
36.39446601803382
 30
0.0
 10
77.83481826415166
 20
36.39446601803382
 30
0.0
 10
77.58367080321416
 20
36.40066718990882
 30
0.0
 10
77.53543946640859
 20
36.40170071855465
 30
0.0
 10
77.54474122422109
 20
36.34899075761715
 30
0.0
 10
77.74524578151275
 20
35.18317044511714
 30
0.0
 10
77.75179146293637
 20
35.14527439476992
 30
0.0
 10
79.81230307317942
 20
35.20280748938797
 30
0.0
 10
80.21331218776275
 20
35.23140178192271
 30
0.0
 10
83.93367080321414
 20
35.4980521725477
 30
0.0
 10
83.93367080321414
 20
35.4980521725477
 30
0.0
 10
84.18688532144331
 20
35.51596666907548
 30
0.0
 10
84.18688532144331
 20
35.51596666907548
 30
0.0
 10
84.18688532144331
 20
35.51596666907548
 30
0.0
 10
84.54483074245024
 20
34.9585502194227
 30
0.0
 10
84.56653484401275
 20
34.92409926456159
 30
0.0
 10
84.60236383706831
 20
34.94098023244354
 30
0.0
 10
85.82123862005444
 20
35.52010078365881
 30
0.0
 10
85.86946995685995
 20
35.54283841386715
 30
0.0
 10
85.40300402804053
 20
36.20670831404075
 30
0.0
 10
84.80769152804054
 20
36.99804674720048
 30
0.0
 10
83.92505806449888
 20
37.85656454233937
 30
0.0
 10
83.92505806449888
 20
37.85656454233937
 30
0.0
 10
83.88337240911694
 20
37.89652764997825
 30
0.0
 10
83.88337240911694
 20
37.89652764997825
 30
0.0
 10
83.88337240911694
 20
37.89652764997825
 30
0.0
 10
85.80814725720719
 20
37.89652764997825
 30
0.0
 10
85.85362251762388
 20
37.89652764997825
 30
0.0
 10
85.85362251762388
 20
37.94062487220048
 30
0.0
 10
85.85362251762388
 20
39.01756172115881
 30
0.0
 10
85.85362251762388
 20
39.06165894338104
 30
0.0
 10
85.80711372856137
 20
39.06165894338104
 30
0.0
 10
77.51235732665165
 20
39.06165894338104
 30
0.0
 10
77.46619304713775
 20
39.06165894338104
 30
0.0
  0
SPLINE
  5
E34
330
E1F
100
AcDbEntity
  8
WAKU
100
AcDbSpline
210
0.0
220
0.0
230
1.0
 70
     9
 71
     3
 72
    26
 73
    22
 74
     0
 42
0.000000001
 43
0.0000000001
 40
0.0
 40
0.0
 40
0.0
 40
0.0
 40
1.0
 40
1.0
 40
1.0
 40
2.0
 40
2.0
 40
2.0
 40
3.0
 40
3.0
 40
3.0
 40
4.0
 40
4.0
 40
4.0
 40
5.0
 40
5.0
 40
5.0
 40
6.0
 40
6.0
 40
6.0
 40
7.0
 40
7.0
 40
7.0
 40
7.0
 10
80.22502551241553
 20
40.82141371768659
 30
0.0
 10
81.11627171467246
 20
41.42912856143659
 30
0.0
 10
81.43356500894331
 20
41.75055597029075
 30
0.0
 10
81.66094131102665
 20
42.00445950761714
 30
0.0
 10
81.66094131102665
 20
42.00445950761714
 30
0.0
 10
81.67747776935998
 20
42.02237400414492
 30
0.0
 10
81.67747776935998
 20
42.02237400414492
 30
0.0
 10
81.67747776935998
 20
42.02237400414492
 30
0.0
 10
81.69504775633914
 20
42.00514852671434
 30
0.0
 10
81.69504775633914
 20
42.00514852671434
 30
0.0
 10
81.95584148463778
 20
41.74676636525602
 30
0.0
 10
82.3137869056447
 20
41.39226603973519
 30
0.0
 10
83.14991158012388
 20
40.82141371768659
 30
0.0
 10
83.14991158012388
 20
40.82141371768659
 30
0.0
 10
83.21261231797109
 20
40.77869453365879
 30
0.0
 10
83.21261231797109
 20
40.77869453365879
 30
0.0
 10
83.21261231797109
 20
40.77869453365879
 30
0.0
 10
80.1623247745683
 20
40.77869453365879
 30
0.0
 10
80.1623247745683
 20
40.77869453365879
 30
0.0
 10
80.1623247745683
 20
40.77869453365879
 30
0.0
 10
80.22502551241553
 20
40.82141371768659
 30
0.0
 10
80.22502551241553
 20
40.82141371768659
 30
0.0
  0
SPLINE
  5
E35
330
E1F
100
AcDbEntity
  8
WAKU
100
AcDbSpline
210
0.0
220
0.0
230
1.0
 70
     9
 71
     3
 72
    44
 73
    40
 74
     0
 42
0.000000001
 43
0.0000000001
 40
0.0
 40
0.0
 40
0.0
 40
0.0
 40
1.0
 40
1.0
 40
1.0
 40
2.0
 40
2.0
 40
2.0
 40
3.0
 40
3.0
 40
3.0
 40
4.0
 40
4.0
 40
4.0
 40
5.0
 40
5.0
 40
5.0
 40
6.0
 40
6.0
 40
6.0
 40
7.0
 40
7.0
 40
7.0
 40
8.0
 40
8.0
 40
8.0
 40
9.0
 40
9.0
 40
9.0
 40
10.0
 40
10.0
 40
10.0
 40
11.0
 40
11.0
 40
11.0
 40
12.0
 40
12.0
 40
12.0
 40
13.0
 40
13.0
 40
13.0
 40
13.0
 10
80.86581327283218
 20
42.98355564476993
 30
0.0
 10
80.20504395859608
 20
42.15363214216576
 30
0.0
 10
79.03681207925581
 20
41.47322578365881
 30
0.0
 10
77.08344293863081
 20
40.78110610049907
 30
0.0
 10
77.10859213567943
 20
40.73597534963103
 30
0.0
 10
77.7528249915822
 20
39.57635620900603
 30
0.0
 10
77.7714285072072
 20
39.54328329233937
 30
0.0
 10
77.7776296790822
 20
39.54535034963104
 30
0.0
 10
77.7838308509572
 20
39.54776191647132
 30
0.0
 10
77.7838308509572
 20
39.54776191647132
 30
0.0
 10
78.0573714325544
 20
39.64594713782548
 30
0.0
 10
78.46974936224192
 20
39.79443075327687
 30
0.0
 10
79.17048178411693
 20
40.17476929494352
 30
0.0
 10
79.17048178411693
 20
40.17476929494352
 30
0.0
 10
79.20493273897804
 20
40.19337281056853
 30
0.0
 10
79.20493273897804
 20
40.19337281056853
 30
0.0
 10
79.20493273897804
 20
40.19337281056853
 30
0.0
 10
79.20493273897804
 20
39.73999824459632
 30
0.0
 10
79.20493273897804
 20
39.69762357011715
 30
0.0
 10
79.25075250894329
 20
39.69762357011715
 30
0.0
 10
84.08663304279745
 20
39.69762357011715
 30
0.0
 10
84.13279732231137
 20
39.69762357011715
 30
0.0
 10
84.13279732231137
 20
39.74034275414492
 30
0.0
 10
84.13279732231137
 20
40.22679023678381
 30
0.0
 10
84.13279732231137
 20
40.22679023678381
 30
0.0
 10
84.13279732231137
 20
40.22679023678381
 30
0.0
 10
84.16724827717247
 20
40.20818672115882
 30
0.0
 10
84.16724827717247
 20
40.20818672115882
 30
0.0
 10
84.8438650306447
 20
39.83956150414492
 30
0.0
 10
85.26003256536695
 20
39.67695299720047
 30
0.0
 10
85.53874079019331
 20
39.5687769989366
 30
0.0
 10
85.55803332491553
 20
39.60219442515187
 30
0.0
 10
86.21845812960302
 20
40.75216729841574
 30
0.0
 10
86.2446408552975
 20
40.79798706838103
 30
0.0
 10
84.61338814262388
 20
41.35195842254769
 30
0.0
 10
83.39106826415164
 20
42.06681573591575
 30
0.0
 10
82.51015734835304
 20
42.98355564476993
 30
0.0
 10
82.49155383272805
 20
42.98355564476993
 30
0.0
 10
80.88648384574886
 20
42.98355564476993
 30
0.0
 10
80.86581327283218
 20
42.98355564476993
 30
0.0
  0
SPLINE
  5
E36
330
E1F
100
AcDbEntity
  8
WAKU
100
AcDbSpline
210
0.0
220
0.0
230
1.0
 70
     9
 71
     3
 72
    50
 73
    46
 74
     0
 42
0.000000001
 43
0.0000000001
 40
0.0
 40
0.0
 40
0.0
 40
0.0
 40
1.0
 40
1.0
 40
1.0
 40
2.0
 40
2.0
 40
2.0
 40
3.0
 40
3.0
 40
3.0
 40
4.0
 40
4.0
 40
4.0
 40
5.0
 40
5.0
 40
5.0
 40
6.0
 40
6.0
 40
6.0
 40
7.0
 40
7.0
 40
7.0
 40
8.0
 40
8.0
 40
8.0
 40
9.0
 40
9.0
 40
9.0
 40
10.0
 40
10.0
 40
10.0
 40
11.0
 40
11.0
 40
11.0
 40
12.0
 40
12.0
 40
12.0
 40
13.0
 40
13.0
 40
13.0
 40
14.0
 40
14.0
 40
14.0
 40
15.0
 40
15.0
 40
15.0
 40
15.0
 10
68.10483508272804
 20
39.81096721161021
 30
0.0
 10
68.10483508272804
 20
39.76686998938798
 30
0.0
 10
68.10483508272804
 20
38.68166491126298
 30
0.0
 10
68.10483508272804
 20
38.63756768904075
 30
0.0
 10
68.1499658335961
 20
38.63756768904075
 30
0.0
 10
69.59139378498497
 20
38.63756768904075
 30
0.0
 10
69.59139378498497
 20
38.63756768904075
 30
0.0
 10
69.59139378498497
 20
38.63756768904075
 30
0.0
 10
69.59139378498497
 20
36.56396471595048
 30
0.0
 10
69.59139378498497
 20
36.56396471595048
 30
0.0
 10
69.59139378498497
 20
36.56396471595048
 30
0.0
 10
68.2130110809919
 20
36.46991360917964
 30
0.0
 10
68.2130110809919
 20
36.46991360917964
 30
0.0
 10
68.21370010008914
 20
36.46991360917964
 30
0.0
 10
68.00596084227665
 20
36.46026734181854
 30
0.0
 10
68.00596084227665
 20
36.46026734181854
 30
0.0
 10
68.00596084227665
 20
36.46026734181854
 30
0.0
 10
67.88297093342248
 20
36.45578871768659
 30
0.0
 10
67.84541939262386
 20
36.45441067949214
 30
0.0
 10
67.85127605495026
 20
36.40686836178382
 30
0.0
 10
67.99355849852665
 20
35.22347806230464
 30
0.0
 10
67.99872614175581
 20
35.18041436872825
 30
0.0
 10
71.1575341929711
 20
35.4825492428602
 30
0.0
 10
71.73286513915164
 20
35.54077135657548
 30
0.0
 10
72.7794851478322
 20
35.73851983747825
 30
0.0
 10
72.77914063828359
 20
35.77572686872826
 30
0.0
 10
72.76260417995023
 20
36.83509373070742
 30
0.0
 10
72.76191516085304
 20
36.88642565345047
 30
0.0
 10
72.42085070772803
 20
36.82820353973522
 30
0.0
 10
72.03121040824886
 20
36.76205770640186
 30
0.0
 10
71.00078234835304
 20
36.67179620466575
 30
0.0
 10
71.00078234835304
 20
36.67179620466575
 30
0.0
 10
70.9749441322072
 20
36.6697291473741
 30
0.0
 10
70.9749441322072
 20
36.6697291473741
 30
0.0
 10
70.9749441322072
 20
36.6697291473741
 30
0.0
 10
70.9749441322072
 20
38.63756768904075
 30
0.0
 10
70.9749441322072
 20
38.63756768904075
 30
0.0
 10
70.9749441322072
 20
38.63756768904075
 30
0.0
 10
72.3888113197072
 20
38.63756768904075
 30
0.0
 10
72.43394207057527
 20
38.63756768904075
 30
0.0
 10
72.43394207057527
 20
38.68166491126298
 30
0.0
 10
72.43394207057527
 20
39.76686998938798
 30
0.0
 10
72.43394207057527
 20
39.81096721161021
 30
0.0
 10
72.38812230060998
 20
39.81096721161021
 30
0.0
 10
68.15065485269332
 20
39.81096721161021
 30
0.0
 10
68.10483508272804
 20
39.81096721161021
 30
0.0
  0
SPLINE
  5
E37
330
E1F
100
AcDbEntity
  8
WAKU
100
AcDbSpline
210
0.0
220
0.0
230
1.0
 70
     9
 71
     3
 72
    89
 73
    85
 74
     0
 42
0.000000001
 43
0.0000000001
 40
0.0
 40
0.0
 40
0.0
 40
0.0
 40
1.0
 40
1.0
 40
1.0
 40
2.0
 40
2.0
 40
2.0
 40
3.0
 40
3.0
 40
3.0
 40
4.0
 40
4.0
 40
4.0
 40
5.0
 40
5.0
 40
5.0
 40
6.0
 40
6.0
 40
6.0
 40
7.0
 40
7.0
 40
7.0
 40
8.0
 40
8.0
 40
8.0
 40
9.0
 40
9.0
 40
9.0
 40
10.0
 40
10.0
 40
10.0
 40
11.0
 40
11.0
 40
11.0
 40
12.0
 40
12.0
 40
12.0
 40
13.0
 40
13.0
 40
13.0
 40
14.0
 40
14.0
 40
14.0
 40
15.0
 40
15.0
 40
15.0
 40
16.0
 40
16.0
 40
16.0
 40
17.0
 40
17.0
 40
17.0
 40
18.0
 40
18.0
 40
18.0
 40
19.0
 40
19.0
 40
19.0
 40
20.0
 40
20.0
 40
20.0
 40
21.0
 40
21.0
 40
21.0
 40
22.0
 40
22.0
 40
22.0
 40
23.0
 40
23.0
 40
23.0
 40
24.0
 40
24.0
 40
24.0
 40
25.0
 40
25.0
 40
25.0
 40
26.0
 40
26.0
 40
26.0
 40
27.0
 40
27.0
 40
27.0
 40
28.0
 40
28.0
 40
28.0
 40
28.0
 10
74.36939671467247
 20
42.55980889997824
 30
0.0
 10
74.59573948810998
 20
42.36481649546436
 30
0.0
 10
74.79762208359609
 20
42.10436727671435
 30
0.0
 10
75.02844348116553
 20
41.80085436438797
 30
0.0
 10
75.02844348116553
 20
41.80085436438797
 30
0.0
 10
75.05703777370027
 20
41.76330282358935
 30
0.0
 10
75.05703777370027
 20
41.76330282358935
 30
0.0
 10
75.05703777370027
 20
41.76330282358935
 30
0.0
 10
74.07036242647802
 20
41.76330282358935
 30
0.0
 10
74.07036242647802
 20
41.76330282358935
 30
0.0
 10
74.07036242647802
 20
41.76330282358935
 30
0.0
 10
74.07036242647802
 20
42.88743748070742
 30
0.0
 10
74.07036242647802
 20
42.93325725067268
 30
0.0
 10
74.0259206947072
 20
42.93325725067268
 30
0.0
 10
72.6678640540822
 20
42.93325725067268
 30
0.0
 10
72.62169977456832
 20
42.93325725067268
 30
0.0
 10
72.62307781276277
 20
42.89122708574214
 30
0.0
 10
72.6306570228322
 20
42.66178372636714
 30
0.0
 10
72.6306570228322
 20
42.66178372636714
 30
0.0
 10
72.6303125132836
 20
42.66316176456157
 30
0.0
 10
72.64857151935998
 20
42.2325248287977
 30
0.0
 10
72.64857151935998
 20
42.2325248287977
 30
0.0
 10
72.64857151935998
 20
42.2325248287977
 30
0.0
 10
72.66855307317944
 20
41.76399184268658
 30
0.0
 10
72.66855307317944
 20
41.76399184268658
 30
0.0
 10
72.66855307317944
 20
41.76399184268658
 30
0.0
 10
72.64409289522801
 20
41.76330282358935
 30
0.0
 10
72.64409289522801
 20
41.76330282358935
 30
0.0
 10
72.64409289522801
 20
41.76330282358935
 30
0.0
 10
67.97288792560998
 20
41.76330282358935
 30
0.0
 10
67.92672364609609
 20
41.76330282358935
 30
0.0
 10
67.92672364609609
 20
41.71920560136714
 30
0.0
 10
67.92672364609609
 20
40.63400052324214
 30
0.0
 10
67.92672364609609
 20
40.58990330101992
 30
0.0
 10
67.97288792560998
 20
40.58990330101992
 30
0.0
 10
72.71333931449887
 20
40.58990330101992
 30
0.0
 10
72.71333931449887
 20
40.58990330101992
 30
0.0
 10
72.71333931449887
 20
40.58990330101992
 30
0.0
 10
72.71540637179054
 20
40.54511705970047
 30
0.0
 10
72.71540637179054
 20
40.54511705970047
 30
0.0
 10
72.7698388804711
 20
39.22702352671436
 30
0.0
 10
72.87112468776277
 20
36.77411554060326
 30
0.0
 10
74.21333388915164
 20
35.44086358747826
 30
0.0
 10
74.44415528672109
 20
35.21004218990881
 30
0.0
 10
74.88133790390858
 20
34.97646471595048
 30
0.0
 10
75.33712403672109
 20
34.97646471595048
 30
0.0
 10
76.16050185790166
 20
34.97646471595048
 30
0.0
 10
76.64005914956831
 20
35.85393053626297
 30
0.0
 10
76.85503310790164
 20
36.38344171247825
 30
0.0
 10
76.84676487873497
 20
36.40135620900603
 30
0.0
 10
76.32104330755443
 20
37.58371297983936
 30
0.0
 10
76.28176921901277
 20
37.67259644338103
 30
0.0
 10
76.0533593882836
 20
37.11449097463103
 30
0.0
 10
75.56966798203359
 20
36.56224216820742
 30
0.0
 10
75.2999170054711
 20
36.56224216820742
 30
0.0
 10
75.01294055147804
 20
36.56224216820742
 30
0.0
 10
74.7576589759572
 20
37.16754544511714
 30
0.0
 10
74.6611963023461
 20
37.42765015431853
 30
0.0
 10
74.25088542995027
 20
38.53455933400603
 30
0.0
 10
74.14512099852666
 20
39.68591024546436
 30
0.0
 10
74.09861220946416
 20
40.56509861351992
 30
0.0
 10
74.09861220946416
 20
40.56509861351992
 30
0.0
 10
74.0972341712697
 20
40.58990330101992
 30
0.0
 10
74.0972341712697
 20
40.58990330101992
 30
0.0
 10
74.0972341712697
 20
40.58990330101992
 30
0.0
 10
76.6521169837697
 20
40.58990330101992
 30
0.0
 10
76.69793675373495
 20
40.58990330101992
 30
0.0
 10
76.69793675373495
 20
40.63400052324214
 30
0.0
 10
76.69793675373495
 20
41.71920560136714
 30
0.0
 10
76.69793675373495
 20
41.76330282358935
 30
0.0
 10
76.65349502196416
 20
41.76330282358935
 30
0.0
 10
75.84217503498497
 20
41.76330282358935
 30
0.0
 10
75.84217503498497
 20
41.76330282358935
 30
0.0
 10
75.84217503498497
 20
41.76330282358935
 30
0.0
 10
75.83390680581832
 20
41.80843357445739
 30
0.0
 10
75.83390680581832
 20
41.80843357445739
 30
0.0
 10
75.83390680581832
 20
41.80843357445739
 30
0.0
 10
76.34929309054053
 20
42.01169420813797
 30
0.0
 10
76.40269207057524
 20
42.03270929060325
 30
0.0
 10
75.78636448810998
 20
42.81061185136714
 30
0.0
 10
75.65889595512387
 20
42.89639472897131
 30
0.0
 10
75.52625977890859
 20
42.98424466386713
 30
0.0
 10
75.52591526935998
 20
42.97976603973518
 30
0.0
 10
74.53579482665166
 20
42.6200980709852
 30
0.0
 10
74.36939671467247
 20
42.55980889997824
 30
0.0
  0
SPLINE
  5
E38
330
E1F
100
AcDbEntity
  8
WAKU
100
AcDbSpline
210
0.0
220
0.0
230
1.0
 70
     9
 71
     3
 72
   197
 73
   193
 74
     0
 42
0.000000001
 43
0.0000000001
 40
0.0
 40
0.0
 40
0.0
 40
0.0
 40
1.0
 40
1.0
 40
1.0
 40
2.0
 40
2.0
 40
2.0
 40
3.0
 40
3.0
 40
3.0
 40
4.0
 40
4.0
 40
4.0
 40
5.0
 40
5.0
 40
5.0
 40
6.0
 40
6.0
 40
6.0
 40
7.0
 40
7.0
 40
7.0
 40
8.0
 40
8.0
 40
8.0
 40
9.0
 40
9.0
 40
9.0
 40
10.0
 40
10.0
 40
10.0
 40
11.0
 40
11.0
 40
11.0
 40
12.0
 40
12.0
 40
12.0
 40
13.0
 40
13.0
 40
13.0
 40
14.0
 40
14.0
 40
14.0
 40
15.0
 40
15.0
 40
15.0
 40
16.0
 40
16.0
 40
16.0
 40
17.0
 40
17.0
 40
17.0
 40
18.0
 40
18.0
 40
18.0
 40
19.0
 40
19.0
 40
19.0
 40
20.0
 40
20.0
 40
20.0
 40
21.0
 40
21.0
 40
21.0
 40
22.0
 40
22.0
 40
22.0
 40
23.0
 40
23.0
 40
23.0
 40
24.0
 40
24.0
 40
24.0
 40
25.0
 40
25.0
 40
25.0
 40
26.0
 40
26.0
 40
26.0
 40
27.0
 40
27.0
 40
27.0
 40
28.0
 40
28.0
 40
28.0
 40
29.0
 40
29.0
 40
29.0
 40
30.0
 40
30.0
 40
30.0
 40
31.0
 40
31.0
 40
31.0
 40
32.0
 40
32.0
 40
32.0
 40
33.0
 40
33.0
 40
33.0
 40
34.0
 40
34.0
 40
34.0
 40
35.0
 40
35.0
 40
35.0
 40
36.0
 40
36.0
 40
36.0
 40
37.0
 40
37.0
 40
37.0
 40
38.0
 40
38.0
 40
38.0
 40
39.0
 40
39.0
 40
39.0
 40
40.0
 40
40.0
 40
40.0
 40
41.0
 40
41.0
 40
41.0
 40
42.0
 40
42.0
 40
42.0
 40
43.0
 40
43.0
 40
43.0
 40
44.0
 40
44.0
 40
44.0
 40
45.0
 40
45.0
 40
45.0
 40
46.0
 40
46.0
 40
46.0
 40
47.0
 40
47.0
 40
47.0
 40
48.0
 40
48.0
 40
48.0
 40
49.0
 40
49.0
 40
49.0
 40
50.0
 40
50.0
 40
50.0
 40
51.0
 40
51.0
 40
51.0
 40
52.0
 40
52.0
 40
52.0
 40
53.0
 40
53.0
 40
53.0
 40
54.0
 40
54.0
 40
54.0
 40
55.0
 40
55.0
 40
55.0
 40
56.0
 40
56.0
 40
56.0
 40
57.0
 40
57.0
 40
57.0
 40
58.0
 40
58.0
 40
58.0
 40
59.0
 40
59.0
 40
59.0
 40
60.0
 40
60.0
 40
60.0
 40
61.0
 40
61.0
 40
61.0
 40
62.0
 40
62.0
 40
62.0
 40
63.0
 40
63.0
 40
63.0
 40
64.0
 40
64.0
 40
64.0
 40
64.0
 10
64.0265310462697
 20
42.91637628279075
 30
0.0
 10
64.0265310462697
 20
42.87193455101991
 30
0.0
 10
64.0265310462697
 20
41.85563138261714
 30
0.0
 10
64.0265310462697
 20
41.85563138261714
 30
0.0
 10
64.0265310462697
 20
41.85563138261714
 30
0.0
 10
63.48737360269332
 20
41.85563138261714
 30
0.0
 10
63.48737360269332
 20
41.85563138261714
 30
0.0
 10
63.48737360269332
 20
41.85563138261714
 30
0.0
 10
63.66341798203359
 20
42.60872925588103
 30
0.0
 10
63.67478679713776
 20
42.65730510223519
 30
0.0
 10
63.6237993839433
 20
42.66143921681853
 30
0.0
 10
62.49966472682526
 20
42.75170071855463
 30
0.0
 10
62.4603906382836
 20
42.75480130449214
 30
0.0
 10
62.36013835963776
 20
42.10781237220047
 30
0.0
 10
62.1599783118947
 20
41.52317966820739
 30
0.0
 10
61.86301108099192
 20
41.01778416039493
 30
0.0
 10
61.86301108099192
 20
41.01778416039493
 30
0.0
 10
61.81960287786693
 20
40.94337009789492
 30
0.0
 10
61.81960287786693
 20
40.94337009789492
 30
0.0
 10
61.81960287786693
 20
40.94337009789492
 30
0.0
 10
61.81960287786693
 20
41.48493910831159
 30
0.0
 10
61.81960287786693
 20
41.52765829233937
 30
0.0
 10
61.77516114609609
 20
41.52765829233937
 30
0.0
 10
60.93145726154748
 20
41.52765829233937
 30
0.0
 10
60.93145726154748
 20
41.52765829233937
 30
0.0
 10
60.93145726154748
 20
41.52765829233937
 30
0.0
 10
60.93145726154748
 20
42.8712455319227
 30
0.0
 10
60.93145726154748
 20
42.91637628279075
 30
0.0
 10
60.88736003932526
 20
42.91637628279075
 30
0.0
 10
59.73187501328361
 20
42.91637628279075
 30
0.0
 10
59.68777779106137
 20
42.91637628279075
 30
0.0
 10
59.68777779106137
 20
42.8712455319227
 30
0.0
 10
59.68777779106137
 20
41.52765829233937
 30
0.0
 10
59.68777779106137
 20
41.52765829233937
 30
0.0
 10
59.68777779106137
 20
41.52765829233937
 30
0.0
 10
58.59154840738082
 20
41.52765829233937
 30
0.0
 10
58.54710667560998
 20
41.52765829233937
 30
0.0
 10
58.54710667560998
 20
41.48390557966575
 30
0.0
 10
58.54710667560998
 20
40.45692261525603
 30
0.0
 10
58.54710667560998
 20
40.41282539303379
 30
0.0
 10
58.59154840738082
 20
40.41282539303379
 30
0.0
 10
59.59372668429054
 20
40.41282539303379
 30
0.0
 10
59.59372668429054
 20
40.41282539303379
 30
0.0
 10
59.59372668429054
 20
40.41282539303379
 30
0.0
 10
59.58373590738081
 20
40.38250855275602
 30
0.0
 10
59.58373590738081
 20
40.38250855275602
 30
0.0
 10
59.15378799071415
 20
39.0327201412977
 30
0.0
 10
58.73314183185998
 20
38.4835719208116
 30
0.0
 10
58.37140680581832
 20
38.0777396725477
 30
0.0
 10
58.3776079776933
 20
38.05500204233937
 30
0.0
 10
58.77276042995024
 20
36.56534275414492
 30
0.0
 10
58.7958425697072
 20
36.47818183834632
 30
0.0
 10
58.99462457925581
 20
36.74035360483936
 30
0.0
 10
59.3350000132836
 20
37.21164266733936
 30
0.0
 10
59.64230253064471
 20
38.16662313608937
 30
0.0
 10
59.64230253064471
 20
38.16662313608937
 30
0.0
 10
59.68777779106137
 20
38.15973294511714
 30
0.0
 10
59.68777779106137
 20
38.15973294511714
 30
0.0
 10
59.68777779106137
 20
38.15973294511714
 30
0.0
 10
59.68777779106137
 20
35.0391654537977
 30
0.0
 10
59.68777779106137
 20
34.99334568383242
 30
0.0
 10
59.73187501328361
 20
34.99334568383242
 30
0.0
 10
60.88736003932526
 20
34.99334568383242
 30
0.0
 10
60.93145726154748
 20
34.99334568383242
 30
0.0
 10
60.93145726154748
 20
35.0391654537977
 30
0.0
 10
60.93145726154748
 20
38.47943780622826
 30
0.0
 10
60.93145726154748
 20
38.47943780622826
 30
0.0
 10
60.93145726154748
 20
38.47943780622826
 30
0.0
 10
60.97899957925581
 20
38.47943780622826
 30
0.0
 10
60.97899957925581
 20
38.47943780622826
 30
0.0
 10
61.07063911918636
 20
38.14112942949214
 30
0.0
 10
61.11921496554053
 20
37.96611857879771
 30
0.0
 10
61.49128527804053
 20
37.34152276716576
 30
0.0
 10
61.5305593665822
 20
37.38872057532547
 30
0.0
 10
62.2312917884572
 20
38.22450074025603
 30
0.0
 10
62.2591970618947
 20
38.25791816647131
 30
0.0
 10
62.13689617213774
 20
38.36092652150603
 30
0.0
 10
62.03044272161693
 20
38.45601115692272
 30
0.0
 10
61.84440756536693
 20
38.66581747202687
 30
0.0
 10
61.84440756536693
 20
38.66581747202687
 30
0.0
 10
61.8099566105058
 20
38.70474705101992
 30
0.0
 10
61.8099566105058
 20
38.70474705101992
 30
0.0
 10
61.8099566105058
 20
38.70474705101992
 30
0.0
 10
61.81719131102664
 20
38.70474705101992
 30
0.0
 10
61.82098091606136
 20
38.70474705101992
 30
0.0
 10
61.5832693275197
 20
38.98207723765187
 30
0.0
 10
61.15642199679054
 20
39.51572252845048
 30
0.0
 10
60.93386882838776
 20
40.00974922115879
 30
0.0
 10
60.93386882838776
 20
40.00974922115879
 30
0.0
 10
60.93145726154748
 20
40.01422784529075
 30
0.0
 10
60.93145726154748
 20
40.01422784529075
 30
0.0
 10
60.93145726154748
 20
40.01422784529075
 30
0.0
 10
60.93145726154748
 20
40.41282539303379
 30
0.0
 10
60.93145726154748
 20
40.41282539303379
 30
0.0
 10
60.93145726154748
 20
40.41282539303379
 30
0.0
 10
61.81512425373497
 20
40.41282539303379
 30
0.0
 10
61.81512425373497
 20
40.41282539303379
 30
0.0
 10
61.82856012613082
 20
40.40869127845048
 30
0.0
 10
62.54824057317943
 20
39.90364028018659
 30
0.0
 10
62.54824057317943
 20
39.90364028018659
 30
0.0
 10
62.54824057317943
 20
39.90364028018659
 30
0.0
 10
62.5940603431447
 20
39.87228991126297
 30
0.0
 10
62.6033621009572
 20
39.86574422983937
 30
0.0
 10
62.60818523463774
 20
39.87194540171437
 30
0.0
 10
62.62885580755442
 20
39.89916165605464
 30
0.0
 10
62.62885580755442
 20
39.89916165605464
 30
0.0
 10
62.74323297769331
 20
40.05040134789489
 30
0.0
 10
62.91721029974192
 20
40.31085056664492
 30
0.0
 10
63.09359918863082
 20
40.69394518470047
 30
0.0
 10
63.09359918863082
 20
40.69394518470047
 30
0.0
 10
63.10014487005442
 20
40.70738105709629
 30
0.0
 10
63.10014487005442
 20
40.70738105709629
 30
0.0
 10
63.10014487005442
 20
40.70738105709629
 30
0.0
 10
64.0265310462697
 20
40.70738105709629
 30
0.0
 10
64.0265310462697
 20
40.70738105709629
 30
0.0
 10
64.0265310462697
 20
40.70738105709629
 30
0.0
 10
64.0265310462697
 20
39.86161011525604
 30
0.0
 10
64.0265310462697
 20
39.86161011525604
 30
0.0
 10
64.0265310462697
 20
39.86161011525604
 30
0.0
 10
61.90986437960305
 20
39.86161011525604
 30
0.0
 10
61.86645617647805
 20
39.86161011525604
 30
0.0
 10
61.86645617647805
 20
39.8168238739366
 30
0.0
 10
61.86645617647805
 20
38.70750312740881
 30
0.0
 10
61.86645617647805
 20
38.70474705101992
 30
0.0
 10
61.87506891519332
 20
38.70474705101992
 30
0.0
 10
63.55868707925582
 20
38.70474705101992
 30
0.0
 10
63.55868707925582
 20
38.70474705101992
 30
0.0
 10
63.55868707925582
 20
38.70474705101992
 30
0.0
 10
63.53698297769331
 20
38.66891805796436
 30
0.0
 10
63.53698297769331
 20
38.66891805796436
 30
0.0
 10
63.00816082057526
 20
37.8045436004991
 30
0.0
 10
62.30398330321413
 20
37.1165580319227
 30
0.0
 10
61.44581001762386
 20
36.62184232011714
 30
0.0
 10
61.47130372422109
 20
36.58429077931854
 30
0.0
 10
62.21096572508916
 20
35.51768921681853
 30
0.0
 10
62.23956001762386
 20
35.4763480709852
 30
0.0
 10
62.98749024765861
 20
36.09474271074214
 30
0.0
 10
63.5583425697072
 20
36.7940970944227
 30
0.0
 10
63.98208931449886
 20
37.61471883921436
 30
0.0
 10
63.98208931449886
 20
37.61471883921436
 30
0.0
 10
64.0265310462697
 20
37.60403904320742
 30
0.0
 10
64.0265310462697
 20
37.60403904320742
 30
0.0
 10
64.0265310462697
 20
37.60403904320742
 30
0.0
 10
64.0265310462697
 20
35.0391654537977
 30
0.0
 10
64.0265310462697
 20
34.99334568383242
 30
0.0
 10
64.07062826849193
 20
34.99334568383242
 30
0.0
 10
65.27262208359609
 20
34.99334568383242
 30
0.0
 10
65.31671930581831
 20
34.99334568383242
 30
0.0
 10
65.31671930581831
 20
35.0391654537977
 30
0.0
 10
65.31671930581831
 20
37.41042467688798
 30
0.0
 10
65.31671930581831
 20
37.41042467688798
 30
0.0
 10
65.31671930581831
 20
37.41042467688798
 30
0.0
 10
65.36081652804054
 20
37.42144898244354
 30
0.0
 10
65.36081652804054
 20
37.42144898244354
 30
0.0
 10
65.78800836831831
 20
36.60668389997825
 30
0.0
 10
66.33474502196415
 20
35.96038398678382
 30
0.0
 10
66.9848345401933
 20
35.49632962480465
 30
0.0
 10
67.00688315130442
 20
35.55248468122825
 30
0.0
 10
67.50504395859609
 20
36.83612725935326
 30
0.0
 10
67.51813532144331
 20
36.87092272376297
 30
0.0
 10
67.1488210853322
 20
37.09761000674909
 30
0.0
 10
66.40399144123498
 20
37.56373142601992
 30
0.0
 10
65.7039480384572
 20
38.66891805796436
 30
0.0
 10
65.7039480384572
 20
38.66891805796436
 30
0.0
 10
65.68121040824888
 20
38.70474705101992
 30
0.0
 10
65.68121040824888
 20
38.70474705101992
 30
0.0
 10
65.68121040824888
 20
38.70474705101992
 30
0.0
 10
67.31005155408221
 20
38.70474705101992
 30
0.0
 10
67.35552681449886
 20
38.70474705101992
 30
0.0
 10
67.35552681449886
 20
38.74884427324214
 30
0.0
 10
67.35552681449886
 20
39.81751289303382
 30
0.0
 10
67.35552681449886
 20
39.86161011525604
 30
0.0
 10
67.30970704453359
 20
39.86161011525604
 30
0.0
 10
65.31671930581831
 20
39.86161011525604
 30
0.0
 10
65.31671930581831
 20
39.86161011525604
 30
0.0
 10
65.31671930581831
 20
39.86161011525604
 30
0.0
 10
65.31671930581831
 20
40.70738105709629
 30
0.0
 10
65.31671930581831
 20
40.70738105709629
 30
0.0
 10
65.31671930581831
 20
40.70738105709629
 30
0.0
 10
67.16949165824885
 20
40.70738105709629
 30
0.0
 10
67.21496691866554
 20
40.70738105709629
 30
0.0
 10
67.21496691866554
 20
40.75147827931853
 30
0.0
 10
67.21496691866554
 20
41.81187866994353
 30
0.0
 10
67.21496691866554
 20
41.85563138261714
 30
0.0
 10
67.16949165824885
 20
41.85563138261714
 30
0.0
 10
65.31671930581831
 20
41.85563138261714
 30
0.0
 10
65.31671930581831
 20
41.85563138261714
 30
0.0
 10
65.31671930581831
 20
41.85563138261714
 30
0.0
 10
65.31671930581831
 20
42.87193455101991
 30
0.0
 10
65.31671930581831
 20
42.91637628279075
 30
0.0
 10
65.27262208359609
 20
42.91637628279075
 30
0.0
 10
64.07062826849193
 20
42.91637628279075
 30
0.0
 10
64.0265310462697
 20
42.91637628279075
 30
0.0
  0
SPLINE
  5
E39
330
E1F
100
AcDbEntity
  8
WAKU
100
AcDbSpline
210
0.0
220
0.0
230
1.0
 70
     9
 71
     3
 72
    29
 73
    25
 74
     0
 42
0.000000001
 43
0.0000000001
 40
0.0
 40
0.0
 40
0.0
 40
0.0
 40
1.0
 40
1.0
 40
1.0
 40
2.0
 40
2.0
 40
2.0
 40
3.0
 40
3.0
 40
3.0
 40
4.0
 40
4.0
 40
4.0
 40
5.0
 40
5.0
 40
5.0
 40
6.0
 40
6.0
 40
6.0
 40
7.0
 40
7.0
 40
7.0
 40
8.0
 40
8.0
 40
8.0
 40
8.0
 10
52.86201010442942
 20
40.47552613088103
 30
0.0
 10
52.84340658880442
 20
40.53271471595047
 30
0.0
 10
52.72213922769331
 20
40.83450508053378
 30
0.0
 10
52.68596572508915
 20
40.89996189476992
 30
0.0
 10
52.68596572508915
 20
40.89996189476992
 30
0.0
 10
52.66632868081831
 20
40.93475735917964
 30
0.0
 10
52.66632868081831
 20
40.93475735917964
 30
0.0
 10
52.66632868081831
 20
40.93475735917964
 30
0.0
 10
54.5883474525197
 20
40.93475735917964
 30
0.0
 10
54.5883474525197
 20
40.93475735917964
 30
0.0
 10
54.5883474525197
 20
40.93475735917964
 30
0.0
 10
54.58042373290165
 20
40.9054740475477
 30
0.0
 10
54.58042373290165
 20
40.9054740475477
 30
0.0
 10
54.5015310462697
 20
40.61401896942268
 30
0.0
 10
54.46329048637386
 20
40.53374824459631
 30
0.0
 10
54.42815051241554
 20
40.47104750674907
 30
0.0
 10
54.42815051241554
 20
40.47104750674907
 30
0.0
 10
54.42126032144331
 20
40.45898967254768
 30
0.0
 10
54.42126032144331
 20
40.45898967254768
 30
0.0
 10
54.42126032144331
 20
40.45898967254768
 30
0.0
 10
52.86683323810998
 20
40.45898967254768
 30
0.0
 10
52.86683323810998
 20
40.45898967254768
 30
0.0
 10
52.86683323810998
 20
40.45898967254768
 30
0.0
 10
52.86201010442942
 20
40.47552613088103
 30
0.0
 10
52.86201010442942
 20
40.47552613088103
 30
0.0
  0
SPLINE
  5
E3A
330
E1F
100
AcDbEntity
  8
WAKU
100
AcDbSpline
210
0.0
220
0.0
230
1.0
 70
     9
 71
     3
 72
   203
 73
   199
 74
     0
 42
0.000000001
 43
0.0000000001
 40
0.0
 40
0.0
 40
0.0
 40
0.0
 40
1.0
 40
1.0
 40
1.0
 40
2.0
 40
2.0
 40
2.0
 40
3.0
 40
3.0
 40
3.0
 40
4.0
 40
4.0
 40
4.0
 40
5.0
 40
5.0
 40
5.0
 40
6.0
 40
6.0
 40
6.0
 40
7.0
 40
7.0
 40
7.0
 40
8.0
 40
8.0
 40
8.0
 40
9.0
 40
9.0
 40
9.0
 40
10.0
 40
10.0
 40
10.0
 40
11.0
 40
11.0
 40
11.0
 40
12.0
 40
12.0
 40
12.0
 40
13.0
 40
13.0
 40
13.0
 40
14.0
 40
14.0
 40
14.0
 40
15.0
 40
15.0
 40
15.0
 40
16.0
 40
16.0
 40
16.0
 40
17.0
 40
17.0
 40
17.0
 40
18.0
 40
18.0
 40
18.0
 40
19.0
 40
19.0
 40
19.0
 40
20.0
 40
20.0
 40
20.0
 40
21.0
 40
21.0
 40
21.0
 40
22.0
 40
22.0
 40
22.0
 40
23.0
 40
23.0
 40
23.0
 40
24.0
 40
24.0
 40
24.0
 40
25.0
 40
25.0
 40
25.0
 40
26.0
 40
26.0
 40
26.0
 40
27.0
 40
27.0
 40
27.0
 40
28.0
 40
28.0
 40
28.0
 40
29.0
 40
29.0
 40
29.0
 40
30.0
 40
30.0
 40
30.0
 40
31.0
 40
31.0
 40
31.0
 40
32.0
 40
32.0
 40
32.0
 40
33.0
 40
33.0
 40
33.0
 40
34.0
 40
34.0
 40
34.0
 40
35.0
 40
35.0
 40
35.0
 40
36.0
 40
36.0
 40
36.0
 40
37.0
 40
37.0
 40
37.0
 40
38.0
 40
38.0
 40
38.0
 40
39.0
 40
39.0
 40
39.0
 40
40.0
 40
40.0
 40
40.0
 40
41.0
 40
41.0
 40
41.0
 40
42.0
 40
42.0
 40
42.0
 40
43.0
 40
43.0
 40
43.0
 40
44.0
 40
44.0
 40
44.0
 40
45.0
 40
45.0
 40
45.0
 40
46.0
 40
46.0
 40
46.0
 40
47.0
 40
47.0
 40
47.0
 40
48.0
 40
48.0
 40
48.0
 40
49.0
 40
49.0
 40
49.0
 40
50.0
 40
50.0
 40
50.0
 40
51.0
 40
51.0
 40
51.0
 40
52.0
 40
52.0
 40
52.0
 40
53.0
 40
53.0
 40
53.0
 40
54.0
 40
54.0
 40
54.0
 40
55.0
 40
55.0
 40
55.0
 40
56.0
 40
56.0
 40
56.0
 40
57.0
 40
57.0
 40
57.0
 40
58.0
 40
58.0
 40
58.0
 40
59.0
 40
59.0
 40
59.0
 40
60.0
 40
60.0
 40
60.0
 40
61.0
 40
61.0
 40
61.0
 40
62.0
 40
62.0
 40
62.0
 40
63.0
 40
63.0
 40
63.0
 40
64.0
 40
64.0
 40
64.0
 40
65.0
 40
65.0
 40
65.0
 40
66.0
 40
66.0
 40
66.0
 40
66.0
 10
50.02221789522804
 20
42.70346938174909
 30
0.0
 10
50.17380209661692
 20
42.45611152584632
 30
0.0
 10
50.30471572508915
 20
42.2077201412977
 30
0.0
 10
50.40841309922109
 20
41.96449639997825
 30
0.0
 10
50.40841309922109
 20
41.96449639997825
 30
0.0
 10
50.42253799071414
 20
41.93176799286018
 30
0.0
 10
50.42253799071414
 20
41.93176799286018
 30
0.0
 10
50.42253799071414
 20
41.93176799286018
 30
0.0
 10
49.28669000894331
 20
41.93176799286018
 30
0.0
 10
49.24190376762386
 20
41.93176799286018
 30
0.0
 10
49.24190376762386
 20
41.88801528018657
 30
0.0
 10
49.24190376762386
 20
40.97816556230464
 30
0.0
 10
49.24190376762386
 20
40.93475735917964
 30
0.0
 10
49.28737902804054
 20
40.93475735917964
 30
0.0
 10
51.28829048637386
 20
40.93475735917964
 30
0.0
 10
51.28829048637386
 20
40.93475735917964
 30
0.0
 10
51.28829048637386
 20
40.93475735917964
 30
0.0
 10
51.29518067734609
 20
40.9237330536241
 30
0.0
 10
51.29518067734609
 20
40.9237330536241
 30
0.0
 10
51.38130806449886
 20
40.78661825327685
 30
0.0
 10
51.40921333793636
 20
40.7104816430338
 30
0.0
 10
51.48500543863081
 20
40.4899955319227
 30
0.0
 10
51.48500543863081
 20
40.4899955319227
 30
0.0
 10
51.49568523463774
 20
40.45898967254768
 30
0.0
 10
51.49568523463774
 20
40.45898967254768
 30
0.0
 10
51.49568523463774
 20
40.45898967254768
 30
0.0
 10
49.6518701304711
 20
40.45898967254768
 30
0.0
 10
49.60639487005442
 20
40.45898967254768
 30
0.0
 10
49.60639487005442
 20
40.41558146942271
 30
0.0
 10
49.60639487005442
 20
39.6063285397352
 30
0.0
 10
49.60639487005442
 20
39.56326484615882
 30
0.0
 10
49.65255914956832
 20
39.56326484615882
 30
0.0
 10
52.95399415390861
 20
39.56326484615882
 30
0.0
 10
52.95399415390861
 20
39.56326484615882
 30
0.0
 10
52.95399415390861
 20
39.56326484615882
 30
0.0
 10
52.95399415390861
 20
39.17982571855464
 30
0.0
 10
52.95399415390861
 20
39.17982571855464
 30
0.0
 10
52.95399415390861
 20
39.17982571855464
 30
0.0
 10
49.89578289088774
 20
39.17982571855464
 30
0.0
 10
49.84961861137386
 20
39.17982571855464
 30
0.0
 10
49.84961861137386
 20
39.13676202497825
 30
0.0
 10
49.84961861137386
 20
38.46117880015187
 30
0.0
 10
49.84961861137386
 20
38.4184596161241
 30
0.0
 10
49.89578289088774
 20
38.4184596161241
 30
0.0
 10
52.95399415390861
 20
38.4184596161241
 30
0.0
 10
52.95399415390861
 20
38.4184596161241
 30
0.0
 10
52.95399415390861
 20
38.4184596161241
 30
0.0
 10
52.95399415390861
 20
38.03502048851992
 30
0.0
 10
52.95399415390861
 20
38.03502048851992
 30
0.0
 10
52.95399415390861
 20
38.03502048851992
 30
0.0
 10
49.28806804713776
 20
38.03502048851992
 30
0.0
 10
49.24190376762386
 20
38.03502048851992
 30
0.0
 10
49.24190376762386
 20
37.99161228539492
 30
0.0
 10
49.24190376762386
 20
37.14067370032547
 30
0.0
 10
49.24190376762386
 20
37.09726549720048
 30
0.0
 10
49.28772353758915
 20
37.09726549720048
 30
0.0
 10
51.88325847682524
 20
37.09726549720048
 30
0.0
 10
51.88325847682524
 20
37.09726549720048
 30
0.0
 10
51.88325847682524
 20
37.09726549720048
 30
0.0
 10
51.8935937632836
 20
37.05316827497826
 30
0.0
 10
51.8935937632836
 20
37.05316827497826
 30
0.0
 10
50.77669380668638
 20
36.51573337914492
 30
0.0
 10
49.73799751762386
 20
36.26286337046437
 30
0.0
 10
49.19884007404748
 20
36.15709893904075
 30
0.0
 10
49.22915691432526
 20
36.10438897810325
 30
0.0
 10
49.8103445228322
 20
35.10358873938797
 30
0.0
 10
49.82791450981136
 20
35.0732718991102
 30
0.0
 10
51.74442112873498
 20
35.62276462914493
 30
0.0
 10
52.36109322074886
 20
36.04582235483937
 30
0.0
 10
52.91575359401274
 20
36.50264201629771
 30
0.0
 10
52.91575359401274
 20
36.50264201629771
 30
0.0
 10
52.95399415390861
 20
36.53433689476992
 30
0.0
 10
52.95399415390861
 20
36.53433689476992
 30
0.0
 10
52.95399415390861
 20
36.53433689476992
 30
0.0
 10
52.95399415390861
 20
35.04674466386715
 30
0.0
 10
52.95399415390861
 20
35.00161391299909
 30
0.0
 10
52.99809137613081
 20
35.00161391299909
 30
0.0
 10
54.24659398029748
 20
35.00161391299909
 30
0.0
 10
54.2910357120683
 20
35.00161391299909
 30
0.0
 10
54.2910357120683
 20
35.04674466386715
 30
0.0
 10
54.2910357120683
 20
36.5674098114366
 30
0.0
 10
54.2910357120683
 20
36.5674098114366
 30
0.0
 10
54.2910357120683
 20
36.5674098114366
 30
0.0
 10
54.32927627196415
 20
36.5367484616102
 30
0.0
 10
54.32927627196415
 20
36.5367484616102
 30
0.0
 10
55.1619558509572
 20
35.86116523678381
 30
0.0
 10
55.75451227456831
 20
35.53663724199215
 30
0.0
 10
57.39920085963776
 20
35.0732718991102
 30
0.0
 10
57.41642633706831
 20
35.10255521074215
 30
0.0
 10
58.03998862005443
 20
36.13505032792964
 30
0.0
 10
58.07306153672111
 20
36.18982734615882
 30
0.0
 10
57.60142796467248
 20
36.27113159963104
 30
0.0
 10
56.43422961397804
 20
36.47887085744353
 30
0.0
 10
55.3324880775197
 20
37.05316827497826
 30
0.0
 10
55.3324880775197
 20
37.05316827497826
 30
0.0
 10
55.34316787352665
 20
37.09726549720048
 30
0.0
 10
55.34316787352665
 20
37.09726549720048
 30
0.0
 10
55.34316787352665
 20
37.09726549720048
 30
0.0
 10
57.93870281276276
 20
37.09726549720048
 30
0.0
 10
57.98486709227663
 20
37.09726549720048
 30
0.0
 10
57.98486709227663
 20
37.14067370032547
 30
0.0
 10
57.98486709227663
 20
37.99161228539492
 30
0.0
 10
57.98486709227663
 20
38.03502048851992
 30
0.0
 10
57.93870281276276
 20
38.03502048851992
 30
0.0
 10
54.2910357120683
 20
38.03502048851992
 30
0.0
 10
54.2910357120683
 20
38.03502048851992
 30
0.0
 10
54.2910357120683
 20
38.03502048851992
 30
0.0
 10
54.2910357120683
 20
38.4184596161241
 30
0.0
 10
54.2910357120683
 20
38.4184596161241
 30
0.0
 10
54.2910357120683
 20
38.4184596161241
 30
0.0
 10
57.36819500026276
 20
38.4184596161241
 30
0.0
 10
57.41435927977665
 20
38.4184596161241
 30
0.0
 10
57.41435927977665
 20
38.46117880015187
 30
0.0
 10
57.41435927977665
 20
39.13676202497825
 30
0.0
 10
57.41435927977665
 20
39.17982571855464
 30
0.0
 10
57.36819500026276
 20
39.17982571855464
 30
0.0
 10
54.2910357120683
 20
39.17982571855464
 30
0.0
 10
54.2910357120683
 20
39.17982571855464
 30
0.0
 10
54.2910357120683
 20
39.17982571855464
 30
0.0
 10
54.2910357120683
 20
39.56326484615882
 30
0.0
 10
54.2910357120683
 20
39.56326484615882
 30
0.0
 10
54.2910357120683
 20
39.56326484615882
 30
0.0
 10
57.62037598984609
 20
39.56326484615882
 30
0.0
 10
57.66654026935999
 20
39.56326484615882
 30
0.0
 10
57.66654026935999
 20
39.6063285397352
 30
0.0
 10
57.66654026935999
 20
40.41558146942271
 30
0.0
 10
57.66654026935999
 20
40.45898967254768
 30
0.0
 10
57.62140951849192
 20
40.45898967254768
 30
0.0
 10
55.77759441432526
 20
40.45898967254768
 30
0.0
 10
55.77759441432526
 20
40.45898967254768
 30
0.0
 10
55.77759441432526
 20
40.45898967254768
 30
0.0
 10
55.77759441432526
 20
40.48241632185325
 30
0.0
 10
55.77759441432526
 20
40.48241632185325
 30
0.0
 10
55.77759441432526
 20
40.50033081838103
 30
0.0
 10
55.94605958359609
 20
40.91684286265186
 30
0.0
 10
55.94812664088776
 20
40.92097697723519
 30
0.0
 10
55.94812664088776
 20
40.92097697723519
 30
0.0
 10
55.95432781276276
 20
40.93475735917964
 30
0.0
 10
55.95432781276276
 20
40.93475735917964
 30
0.0
 10
55.95432781276276
 20
40.93475735917964
 30
0.0
 10
57.93904732231136
 20
40.93475735917964
 30
0.0
 10
57.98452258272803
 20
40.93475735917964
 30
0.0
 10
57.98452258272803
 20
40.97816556230464
 30
0.0
 10
57.98452258272803
 20
41.88801528018657
 30
0.0
 10
57.98452258272803
 20
41.93176799286018
 30
0.0
 10
57.9400808509572
 20
41.93176799286018
 30
0.0
 10
56.83489421901274
 20
41.93176799286018
 30
0.0
 10
56.83489421901274
 20
41.93176799286018
 30
0.0
 10
56.83489421901274
 20
41.93176799286018
 30
0.0
 10
56.85659832057526
 20
41.96725247636714
 30
0.0
 10
56.85659832057526
 20
41.96725247636714
 30
0.0
 10
57.00645997422109
 20
42.21254327497825
 30
0.0
 10
57.1370290931447
 20
42.49883070987407
 30
0.0
 10
57.22625706623498
 20
42.70243585310325
 30
0.0
 10
57.17044651935998
 20
42.71208212046436
 30
0.0
 10
55.96707466606137
 20
42.91534275414489
 30
0.0
 10
55.92952312526275
 20
42.92154392601992
 30
0.0
 10
55.85993219644332
 20
42.69141154754769
 30
0.0
 10
55.69697917995025
 20
42.24079305796435
 30
0.0
 10
55.53195910616555
 20
41.94382582706157
 30
0.0
 10
55.53195910616555
 20
41.94382582706157
 30
0.0
 10
55.52506891519332
 20
41.93176799286018
 30
0.0
 10
55.52506891519332
 20
41.93176799286018
 30
0.0
 10
55.52506891519332
 20
41.93176799286018
 30
0.0
 10
55.11372451415165
 20
41.93176799286018
 30
0.0
 10
55.11372451415165
 20
41.93176799286018
 30
0.0
 10
55.11372451415165
 20
41.93176799286018
 30
0.0
 10
55.11372451415165
 20
42.85470907358936
 30
0.0
 10
55.11372451415165
 20
42.89949531490881
 30
0.0
 10
55.06997180147804
 20
42.89949531490881
 30
0.0
 10
53.96168458359611
 20
42.89949531490881
 30
0.0
 10
53.91724285182526
 20
42.89949531490881
 30
0.0
 10
53.91724285182526
 20
42.85470907358936
 30
0.0
 10
53.91724285182526
 20
41.93176799286018
 30
0.0
 10
53.91724285182526
 20
41.93176799286018
 30
0.0
 10
53.91724285182526
 20
41.93176799286018
 30
0.0
 10
53.34639052977665
 20
41.93176799286018
 30
0.0
 10
53.34639052977665
 20
41.93176799286018
 30
0.0
 10
53.34639052977665
 20
41.93176799286018
 30
0.0
 10
53.34639052977665
 20
42.85470907358936
 30
0.0
 10
53.34639052977665
 20
42.89949531490881
 30
0.0
 10
53.30229330755443
 20
42.89949531490881
 30
0.0
 10
52.20330784748497
 20
42.89949531490881
 30
0.0
 10
52.15921062526276
 20
42.89949531490881
 30
0.0
 10
52.15921062526276
 20
42.85470907358936
 30
0.0
 10
52.15921062526276
 20
41.93176799286018
 30
0.0
 10
52.15921062526276
 20
41.93176799286018
 30
0.0
 10
52.15921062526276
 20
41.93176799286018
 30
0.0
 10
51.72616212265859
 20
41.93176799286018
 30
0.0
 10
51.72616212265859
 20
41.93176799286018
 30
0.0
 10
51.72616212265859
 20
41.93176799286018
 30
0.0
 10
51.72099447942943
 20
41.94795994164493
 30
0.0
 10
51.72099447942943
 20
41.94795994164493
 30
0.0
 10
51.57836752630442
 20
42.40064548851992
 30
0.0
 10
51.46467937526274
 20
42.65007040171435
 30
0.0
 10
51.31860732665165
 20
42.92188843556853
 30
0.0
 10
51.28691244817943
 20
42.91672079233936
 30
0.0
 10
50.08422961397805
 20
42.7138046682074
 30
0.0
 10
50.02221789522804
 20
42.70346938174909
 30
0.0
  0
SPLINE
  5
E3B
330
E1F
100
AcDbEntity
  8
WAKU
100
AcDbSpline
210
0.0
220
0.0
230
1.0
 70
     9
 71
     3
 72
    41
 73
    37
 74
     0
 42
0.000000001
 43
0.0000000001
 40
0.0
 40
0.0
 40
0.0
 40
0.0
 40
1.0
 40
1.0
 40
1.0
 40
2.0
 40
2.0
 40
2.0
 40
3.0
 40
3.0
 40
3.0
 40
4.0
 40
4.0
 40
4.0
 40
5.0
 40
5.0
 40
5.0
 40
6.0
 40
6.0
 40
6.0
 40
7.0
 40
7.0
 40
7.0
 40
8.0
 40
8.0
 40
8.0
 40
9.0
 40
9.0
 40
9.0
 40
10.0
 40
10.0
 40
10.0
 40
11.0
 40
11.0
 40
11.0
 40
12.0
 40
12.0
 40
12.0
 40
12.0
 10
40.24538141519331
 20
42.52087932098517
 30
0.0
 10
40.24538141519331
 20
42.47678209876297
 30
0.0
 10
40.24538141519331
 20
41.33232137827685
 30
0.0
 10
40.24538141519331
 20
41.28822415605464
 30
0.0
 10
40.2912011851586
 20
41.28822415605464
 30
0.0
 10
43.54647190998497
 20
41.28822415605464
 30
0.0
 10
43.54647190998497
 20
41.28822415605464
 30
0.0
 10
43.54647190998497
 20
41.28822415605464
 30
0.0
 10
43.54647190998497
 20
36.63011054928381
 30
0.0
 10
43.54647190998497
 20
36.63011054928381
 30
0.0
 10
43.54647190998497
 20
36.63011054928381
 30
0.0
 10
39.91740832491553
 20
36.63011054928381
 30
0.0
 10
39.87124404540166
 20
36.63011054928381
 30
0.0
 10
39.87124404540166
 20
36.58566881751298
 30
0.0
 10
39.87124404540166
 20
35.43293986786022
 30
0.0
 10
39.87124404540166
 20
35.38884264563797
 30
0.0
 10
39.91775283446415
 20
35.38884264563797
 30
0.0
 10
48.60525012179054
 20
35.38884264563797
 30
0.0
 10
48.65141440130443
 20
35.38884264563797
 30
0.0
 10
48.65141440130443
 20
35.43293986786022
 30
0.0
 10
48.65141440130443
 20
36.58566881751298
 30
0.0
 10
48.65141440130443
 20
36.63011054928381
 30
0.0
 10
48.60525012179054
 20
36.63011054928381
 30
0.0
 10
44.9765310462697
 20
36.63011054928381
 30
0.0
 10
44.9765310462697
 20
36.63011054928381
 30
0.0
 10
44.9765310462697
 20
36.63011054928381
 30
0.0
 10
44.9765310462697
 20
41.28822415605464
 30
0.0
 10
44.9765310462697
 20
41.28822415605464
 30
0.0
 10
44.9765310462697
 20
41.28822415605464
 30
0.0
 10
48.24075901935998
 20
41.28822415605464
 30
0.0
 10
48.28692329887386
 20
41.28822415605464
 30
0.0
 10
48.28692329887386
 20
41.33232137827685
 30
0.0
 10
48.28692329887386
 20
42.47678209876297
 30
0.0
 10
48.28692329887386
 20
42.52087932098517
 30
0.0
 10
48.24041450981138
 20
42.52087932098517
 30
0.0
 10
40.29154569470721
 20
42.52087932098517
 30
0.0
 10
40.24538141519331
 20
42.52087932098517
 30
0.0
  0
SPLINE
  5
E3C
330
E1F
100
AcDbEntity
  8
WAKU
100
AcDbSpline
210
0.0
220
0.0
230
1.0
 70
     9
 71
     3
 72
    17
 73
    13
 74
     0
 42
0.000000001
 43
0.0000000001
 40
0.0
 40
0.0
 40
0.0
 40
0.0
 40
1.0
 40
1.0
 40
1.0
 40
2.0
 40
2.0
 40
2.0
 40
3.0
 40
3.0
 40
3.0
 40
4.0
 40
4.0
 40
4.0
 40
4.0
 10
22.23166613741554
 20
36.78789592254771
 30
0.0
 10
25.25198135008916
 20
37.05695788001297
 30
0.0
 10
27.22498753498499
 20
37.56200887827687
 30
0.0
 10
28.49691678845721
 20
41.30717218122825
 30
0.0
 10
28.49691678845721
 20
41.30717218122825
 30
0.0
 10
29.86186362005443
 20
40.66741794945742
 30
0.0
 10
29.86186362005443
 20
40.66741794945742
 30
0.0
 10
28.41251194904748
 20
36.82992608747826
 30
0.0
 10
26.33684191866554
 20
35.7860621551866
 30
0.0
 10
22.65265680581832
 20
35.3488795379991
 30
0.0
 10
22.65265680581832
 20
35.3488795379991
 30
0.0
 10
22.23166613741554
 20
36.78789592254771
 30
0.0
 10
22.23166613741554
 20
36.78789592254771
 30
0.0
  0
SPLINE
  5
E3D
330
E1F
100
AcDbEntity
  8
WAKU
100
AcDbSpline
210
0.0
220
0.0
230
1.0
 70
     9
 71
     3
 72
    17
 73
    13
 74
     0
 42
0.000000001
 43
0.0000000001
 40
0.0
 40
0.0
 40
0.0
 40
0.0
 40
1.0
 40
1.0
 40
1.0
 40
2.0
 40
2.0
 40
2.0
 40
3.0
 40
3.0
 40
3.0
 40
4.0
 40
4.0
 40
4.0
 40
4.0
 10
24.45719782144332
 20
38.40364570553381
 30
0.0
 10
23.34443197942943
 20
38.92523316213104
 30
0.0
 10
22.37188152370026
 20
39.2029078583116
 30
0.0
 10
21.70801162352665
 20
39.3799857662977
 30
0.0
 10
21.70801162352665
 20
39.3799857662977
 30
0.0
 10
22.20341635442943
 20
40.52444648678378
 30
0.0
 10
22.20341635442943
 20
40.52444648678378
 30
0.0
 10
22.75532065130443
 20
40.40662422115882
 30
0.0
 10
24.08306045165165
 20
40.06969388261715
 30
0.0
 10
25.00875760876971
 20
39.63216675588103
 30
0.0
 10
25.00875760876971
 20
39.63216675588103
 30
0.0
 10
24.45719782144332
 20
38.40364570553381
 30
0.0
 10
24.45719782144332
 20
38.40364570553381
 30
0.0
  0
SPLINE
  5
E3E
330
E1F
100
AcDbEntity
  8
WAKU
100
AcDbSpline
210
0.0
220
0.0
230
1.0
 70
     9
 71
     3
 72
    17
 73
    13
 74
     0
 42
0.000000001
 43
0.0000000001
 40
0.0
 40
0.0
 40
0.0
 40
0.0
 40
1.0
 40
1.0
 40
1.0
 40
2.0
 40
2.0
 40
2.0
 40
3.0
 40
3.0
 40
3.0
 40
4.0
 40
4.0
 40
4.0
 40
4.0
 10
29.31960559054054
 20
41.70266914303382
 30
0.0
 10
29.24484701849193
 20
42.03925497202686
 30
0.0
 10
29.09532987439471
 20
42.53569323157547
 30
0.0
 10
28.90826118949887
 20
42.92292196421437
 30
0.0
 10
28.90826118949887
 20
42.92292196421437
 30
0.0
 10
29.72130372422109
 20
43.04074422983936
 30
0.0
 10
29.72130372422109
 20
43.04074422983936
 30
0.0
 10
29.96487197508915
 20
42.56945516733935
 30
0.0
 10
30.13299263481137
 20
41.92970093556853
 30
0.0
 10
30.15159615043637
 20
41.85425334442268
 30
0.0
 10
30.15159615043637
 20
41.85425334442268
 30
0.0
 10
29.31960559054054
 20
41.70266914303382
 30
0.0
 10
29.31960559054054
 20
41.70266914303382
 30
0.0
  0
SPLINE
  5
E3F
330
E1F
100
AcDbEntity
  8
WAKU
100
AcDbSpline
210
0.0
220
0.0
230
1.0
 70
     9
 71
     3
 72
    17
 73
    13
 74
     0
 42
0.000000001
 43
0.0000000001
 40
0.0
 40
0.0
 40
0.0
 40
0.0
 40
1.0
 40
1.0
 40
1.0
 40
2.0
 40
2.0
 40
2.0
 40
3.0
 40
3.0
 40
3.0
 40
4.0
 40
4.0
 40
4.0
 40
4.0
 10
27.95431424939471
 20
41.50905477671435
 30
0.0
 10
27.91710721814471
 20
41.70266914303382
 30
0.0
 10
27.78584908012387
 20
42.36722806230464
 30
0.0
 10
27.58982314696415
 20
42.83851712480464
 30
0.0
 10
27.58982314696415
 20
42.83851712480464
 30
0.0
 10
28.42181370685999
 20
42.94772665171436
 30
0.0
 10
28.42181370685999
 20
42.94772665171436
 30
0.0
 10
28.5058740367211
 20
42.75445679494352
 30
0.0
 10
28.63678766519332
 20
42.48505032792964
 30
0.0
 10
28.83315810790165
 20
41.66890720726992
 30
0.0
 10
28.83315810790165
 20
41.66890720726992
 30
0.0
 10
27.95431424939471
 20
41.50905477671435
 30
0.0
 10
27.95431424939471
 20
41.50905477671435
 30
0.0
  0
SPLINE
  5
E40
330
E1F
100
AcDbEntity
  8
WAKU
100
AcDbSpline
210
0.0
220
0.0
230
1.0
 70
     9
 71
     3
 72
    17
 73
    13
 74
     0
 42
0.000000001
 43
0.0000000001
 40
0.0
 40
0.0
 40
0.0
 40
0.0
 40
1.0
 40
1.0
 40
1.0
 40
2.0
 40
2.0
 40
2.0
 40
3.0
 40
3.0
 40
3.0
 40
4.0
 40
4.0
 40
4.0
 40
4.0
 10
25.27988662352665
 20
40.4403861569227
 30
0.0
 10
24.27012913654749
 20
40.88618151282547
 30
0.0
 10
23.50359539088776
 20
41.11355781490881
 30
0.0
 10
22.45594185356138
 20
41.35747057532547
 30
0.0
 10
22.45594185356138
 20
41.35747057532547
 30
0.0
 10
22.98924263481137
 20
42.49366306664492
 30
0.0
 10
22.98924263481137
 20
42.49366306664492
 30
0.0
 10
24.05481066866554
 20
42.28316773244353
 30
0.0
 10
24.84993870685999
 20
42.06440416907547
 30
0.0
 10
25.86899795165165
 20
41.66890720726992
 30
0.0
 10
25.86899795165165
 20
41.66890720726992
 30
0.0
 10
25.27988662352665
 20
40.4403861569227
 30
0.0
 10
25.27988662352665
 20
40.4403861569227
 30
0.0
  0
SPLINE
  5
E41
330
E1F
100
AcDbEntity
  8
WAKU
100
AcDbSpline
210
0.0
220
0.0
230
1.0
 70
    11
 71
     3
 72
    32
 73
    28
 74
     0
 42
0.000000001
 43
0.0000000001
 40
0.0
 40
0.0
 40
0.0
 40
0.0
 40
1.0
 40
1.0
 40
1.0
 40
2.0
 40
2.0
 40
2.0
 40
3.0
 40
3.0
 40
3.0
 40
4.0
 40
4.0
 40
4.0
 40
5.0
 40
5.0
 40
5.0
 40
6.0
 40
6.0
 40
6.0
 40
7.0
 40
7.0
 40
7.0
 40
8.0
 40
8.0
 40
8.0
 40
9.0
 40
9.0
 40
9.0
 40
9.0
 10
17.82917861571415
 20
35.36541599633242
 30
0.0
 10
17.82917861571415
 20
35.36541599633242
 30
0.0
 10
16.24891331623498
 20
35.36541599633242
 30
0.0
 10
16.24891331623498
 20
35.36541599633242
 30
0.0
 10
16.24891331623498
 20
35.36541599633242
 30
0.0
 10
16.24891331623498
 20
38.79914266733937
 30
0.0
 10
16.24891331623498
 20
38.79914266733937
 30
0.0
 10
14.98663033012387
 20
38.13423923851992
 30
0.0
 10
13.86421822074886
 20
37.77250421247825
 30
0.0
 10
13.12558974852665
 20
37.54512791039493
 30
0.0
 10
13.12558974852665
 20
37.54512791039493
 30
0.0
 10
12.30290094644331
 20
38.68132040171437
 30
0.0
 10
12.30290094644331
 20
38.68132040171437
 30
0.0
 10
13.72400283446415
 20
39.04305542775603
 30
0.0
 10
15.06138890217249
 20
39.64077949459632
 30
0.0
 10
16.2864648570336
 20
40.3811305145616
 30
0.0
 10
17.63280817300582
 20
41.19761814476992
 30
0.0
 10
18.52129829887387
 20
42.06440416907547
 30
0.0
 10
19.20377171467248
 20
42.77133776282545
 30
0.0
 10
19.20377171467248
 20
42.77133776282545
 30
0.0
 10
20.54081327283221
 20
41.93831367428381
 30
0.0
 10
20.54081327283221
 20
41.93831367428381
 30
0.0
 10
19.74602974418637
 20
41.16385620900604
 30
0.0
 10
19.02600478758914
 20
40.5582084225477
 30
0.0
 10
17.82917861571415
 20
39.74998902150603
 30
0.0
 10
17.82917861571415
 20
39.74998902150603
 30
0.0
 10
17.82917861571415
 20
35.36541599633242
 30
0.0
 10
17.82917861571415
 20
35.36541599633242
 30
0.0
  0
SPLINE
  5
E42
330
E1F
100
AcDbEntity
  8
WAKU
100
AcDbSpline
210
0.0
220
0.0
230
1.0
 70
     9
 71
     3
 72
    41
 73
    37
 74
     0
 42
0.000000001
 43
0.0000000001
 40
0.0
 40
0.0
 40
0.0
 40
0.0
 40
1.0
 40
1.0
 40
1.0
 40
2.0
 40
2.0
 40
2.0
 40
3.0
 40
3.0
 40
3.0
 40
4.0
 40
4.0
 40
4.0
 40
5.0
 40
5.0
 40
5.0
 40
6.0
 40
6.0
 40
6.0
 40
7.0
 40
7.0
 40
7.0
 40
8.0
 40
8.0
 40
8.0
 40
9.0
 40
9.0
 40
9.0
 40
10.0
 40
10.0
 40
10.0
 40
11.0
 40
11.0
 40
11.0
 40
12.0
 40
12.0
 40
12.0
 40
12.0
 10
3.74907336397804
 20
36.2914576629991
 30
0.0
 10
4.515951619186372
 20
36.56051962046436
 30
0.0
 10
6.133423949915536
 20
37.12448175154076
 30
0.0
 10
6.526509344880821
 20
38.98448880449215
 30
0.0
 10
6.666724731165542
 20
39.62389852671437
 30
0.0
 10
6.657078463804432
 20
40.14548598331159
 30
0.0
 10
6.648121215540541
 20
40.58335761959629
 30
0.0
 10
6.648121215540541
 20
40.58335761959629
 30
0.0
 10
8.2094384898461
 20
40.57508939042963
 30
0.0
 10
8.2094384898461
 20
40.57508939042963
 30
0.0
 10
8.200136732033596
 20
40.21300985483935
 30
0.0
 10
8.190834974221097
 20
39.94360338782548
 30
0.0
 10
8.134335408248871
 20
39.48919529320742
 30
0.0
 10
8.836101358769711
 20
39.78375095726992
 30
0.0
 10
9.54682455755443
 20
40.21300985483935
 30
0.0
 10
9.9767724742211
 20
41.1473197506727
 30
0.0
 10
9.9767724742211
 20
41.1473197506727
 30
0.0
 10
3.67431479192943
 20
41.1473197506727
 30
0.0
 10
3.67431479192943
 20
41.1473197506727
 30
0.0
 10
3.67431479192943
 20
41.1473197506727
 30
0.0
 10
3.67431479192943
 20
42.43440742428381
 30
0.0
 10
3.67431479192943
 20
42.43440742428381
 30
0.0
 10
3.67431479192943
 20
42.43440742428381
 30
0.0
 10
11.88432184488082
 20
42.43440742428381
 30
0.0
 10
11.88432184488082
 20
42.43440742428381
 30
0.0
 10
11.59458931449887
 20
40.36424954667963
 30
0.0
 10
10.65924589001971
 20
39.27869995900604
 30
0.0
 10
9.097928615714151
 20
38.46255683834632
 30
0.0
 10
9.097928615714151
 20
38.46255683834632
 30
0.0
 10
8.115731892623877
 20
39.3799857662977
 30
0.0
 10
8.115731892623877
 20
39.3799857662977
 30
0.0
 10
7.86355090304054
 20
37.67121840518659
 30
0.0
 10
7.246189791929432
 20
36.34175605709631
 30
0.0
 10
4.721623819707209
 20
35.22244453365882
 30
0.0
 10
4.721623819707209
 20
35.22244453365882
 30
0.0
 10
3.74907336397804
 20
36.2914576629991
 30
0.0
 10
3.74907336397804
 20
36.2914576629991
 30
0.0
  0
ENDBLK
  5
E43
330
E1F
100
AcDbEntity
  8
0
100
AcDbBlockEnd
  0
BLOCK
  5
14C6
330
14C3
100
AcDbEntity
  8
0
100
AcDbBlockBegin
  2
_DotBlank
 70
     0
 10
0.0
 20
0.0
 30
0.0
  3
_DotBlank
  1

  0
CIRCLE
  5
14C4
330
14C3
100
AcDbEntity
  8
0
  6
ByBlock
 62
     0
370
    -2
100
AcDbCircle
 10
0.0
 20
0.0
 30
0.0
 40
0.5
  0
LINE
  5
14C5
330
14C3
100
AcDbEntity
  8
0
  6
ByBlock
 62
     0
370
    -2
100
AcDbLine
 10
-0.5
 20
0.0
 30
0.0
 11
-1.0
 21
0.0
 31
0.0
  0
ENDBLK
  5
14C7
330
14C3
100
AcDbEntity
  8
0
100
AcDbBlockEnd
  0
BLOCK
  5
5118
330
5117
100
AcDbEntity
  8
0
100
AcDbBlockBegin
  2
*D3
 70
     1
 10
0.0
 20
0.0
 30
0.0
  3
*D3
  1

  0
LINE
  5
516B
330
5117
100
AcDbEntity
  8
SUNPOU
 62
     0
440
 16777216
370
    -2
100
AcDbLine
 10
2609.434864625111
 20
377.483538855123
 30
0.0
 11
2634.434864625111
 21
377.483538855123
 31
0.0
  0
LINE
  5
516C
330
5117
100
AcDbEntity
  8
SUNPOU
 62
     0
440
 16777216
370
    -2
100
AcDbLine
 10
2609.434864625111
 20
477.4835388551228
 30
0.0
 11
2634.434864625111
 21
477.4835388551228
 31
0.0
  0
LINE
  5
516D
330
5117
100
AcDbEntity
  8
SUNPOU
 62
     0
440
 16777216
370
    -2
100
AcDbLine
 10
2634.434864625111
 20
378.9835388551229
 30
0.0
 11
2634.434864625111
 21
475.983538855123
 31
0.0
  0
INSERT
  5
516E
330
5117
100
AcDbEntity
  8
SUNPOU
 62
     0
440
 16777216
370
    -2
100
AcDbBlockReference
  2
_DotBlank
 10
2634.434864625111
 20
377.483538855123
 30
0.0
 41
1.5
 42
1.5
 43
1.5
 50
270.0
  0
INSERT
  5
516F
330
5117
100
AcDbEntity
  8
SUNPOU
 62
     0
440
 16777216
370
    -2
100
AcDbBlockReference
  2
_DotBlank
 10
2634.434864625111
 20
477.4835388551228
 30
0.0
 41
1.5
 42
1.5
 43
1.5
 50
90.0
  0
MTEXT
  5
5170
330
5117
100
AcDbEntity
  8
SUNPOU
 62
     0
440
 16777216
100
AcDbMText
 10
2631.309864625111
 20
427.4835388551228
 30
0.0
 40
5.0
 41
0.0
 46
0.0
 71
     5
 72
     1
  1
\A1;100
 11
0.0000000000000001
 21
1.0
 31
0.0
 73
     1
 44
1.0
  0
POINT
  5
5171
330
5117
100
AcDbEntity
  8
DEFPOINTS
 62
     0
440
 16777216
100
AcDbPoint
 10
2604.434864625111
 20
377.483538855123
 30
0.0
  0
POINT
  5
5172
330
5117
100
AcDbEntity
  8
DEFPOINTS
 62
     0
440
 16777216
100
AcDbPoint
 10
2604.434864625111
 20
477.4835388551228
 30
0.0
  0
POINT
  5
5173
330
5117
100
AcDbEntity
  8
DEFPOINTS
 62
     0
440
 16777216
100
AcDbPoint
 10
2634.434864625111
 20
477.4835388551228
 30
0.0
  0
ENDBLK
  5
5119
330
5117
100
AcDbEntity
  8
0
100
AcDbBlockEnd
  0
BLOCK
  5
5124
330
5123
100
AcDbEntity
  8
0
100
AcDbBlockBegin
  2
*D4
 70
     1
 10
0.0
 20
0.0
 30
0.0
  3
*D4
  1

  0
LINE
  5
5174
330
5123
100
AcDbEntity
  8
SUNPOU
 62
     0
440
 16777216
370
    -2
100
AcDbLine
 10
2423.934864625107
 20
482.4835388551228
 30
0.0
 11
2423.934864625107
 21
489.0610528878652
 31
0.0
  0
LINE
  5
5175
330
5123
100
AcDbEntity
  8
SUNPOU
 62
     0
440
 16777216
370
    -2
100
AcDbLine
 10
2273.934864625111
 20
490.2291743796797
 30
0.0
 11
2273.934864625111
 21
489.0610528878652
 31
0.0
  0
LINE
  5
5176
330
5123
100
AcDbEntity
  8
SUNPOU
 62
     0
440
 16777216
370
    -2
100
AcDbLine
 10
2422.434864625107
 20
489.0610528878652
 30
0.0
 11
2275.434864625111
 21
489.0610528878652
 31
0.0
  0
INSERT
  5
5177
330
5123
100
AcDbEntity
  8
SUNPOU
 62
     0
440
 16777216
370
    -2
100
AcDbBlockReference
  2
_DotBlank
 10
2423.934864625107
 20
489.0610528878652
 30
0.0
 41
1.5
 42
1.5
 43
1.5
  0
INSERT
  5
5178
330
5123
100
AcDbEntity
  8
SUNPOU
 62
     0
440
 16777216
370
    -2
100
AcDbBlockReference
  2
_DotBlank
 10
2273.934864625111
 20
489.0610528878652
 30
0.0
 41
1.5
 42
1.5
 43
1.5
 50
180.0
  0
MTEXT
  5
5179
330
5123
100
AcDbEntity
  8
SUNPOU
 62
     0
440
 16777216
100
AcDbMText
 10
2348.934864625109
 20
492.1860528878652
 30
0.0
 40
5.0
 41
0.0
 46
0.0
 71
     5
 72
     1
  1
\A1;150
 73
     1
 44
1.0
  0
POINT
  5
517A
330
5123
100
AcDbEntity
  8
DEFPOINTS
 62
     0
440
 16777216
100
AcDbPoint
 10
2423.934864625107
 20
477.4835388551228
 30
0.0000000000016747
  0
POINT
  5
517B
330
5123
100
AcDbEntity
  8
DEFPOINTS
 62
     0
440
 16777216
100
AcDbPoint
 10
2273.934864625111
 20
485.2291743796796
 30
0.0
  0
POINT
  5
517C
330
5123
100
AcDbEntity
  8
DEFPOINTS
 62
     0
440
 16777216
100
AcDbPoint
 10
2273.934864625111
 20
489.0610528878652
 30
0.0
  0
ENDBLK
  5
5125
330
5123
100
AcDbEntity
  8
0
100
AcDbBlockEnd
  0
BLOCK
  5
5130
330
512F
100
AcDbEntity
  8
0
100
AcDbBlockBegin
  2
*D5
 70
     1
 10
0.0
 20
0.0
 30
0.0
  3
*D5
  1

  0
LINE
  5
517D
330
512F
100
AcDbEntity
  8
SUNPOU
 62
     0
440
 16777216
370
    -2
100
AcDbLine
 10
2204.778304751266
 20
277.4835388551259
 30
0.0
 11
2204.258059118195
 21
277.4835388551259
 31
0.0
  0
LINE
  5
517E
330
512F
100
AcDbEntity
  8
SUNPOU
 62
     0
440
 16777216
370
    -2
100
AcDbLine
 10
2214.153304751265
 20
427.4835388551228
 30
0.0
 11
2204.258059118195
 21
427.4835388551228
 31
0.0
  0
LINE
  5
517F
330
512F
100
AcDbEntity
  8
SUNPOU
 62
     0
440
 16777216
370
    -2
100
AcDbLine
 10
2204.258059118195
 20
278.983538855126
 30
0.0
 11
2204.258059118195
 21
425.9835388551228
 31
0.0
  0
INSERT
  5
5180
330
512F
100
AcDbEntity
  8
SUNPOU
 62
     0
440
 16777216
370
    -2
100
AcDbBlockReference
  2
_DotBlank
 10
2204.258059118195
 20
277.4835388551259
 30
0.0
 41
1.5
 42
1.5
 43
1.5
 50
270.0
  0
INSERT
  5
5181
330
512F
100
AcDbEntity
  8
SUNPOU
 62
     0
440
 16777216
370
    -2
100
AcDbBlockReference
  2
_DotBlank
 10
2204.258059118195
 20
427.4835388551228
 30
0.0
 41
1.5
 42
1.5
 43
1.5
 50
90.0
  0
MTEXT
  5
5182
330
512F
100
AcDbEntity
  8
SUNPOU
 62
     0
440
 16777216
100
AcDbMText
 10
2201.133059118195
 20
352.4835388551248
 30
0.0
 40
5.0
 41
0.0
 46
0.0
 71
     5
 72
     1
  1
\A1;150
 11
0.0000000000000001
 21
1.0
 31
0.0
 73
     1
 44
1.0
  0
POINT
  5
5183
330
512F
100
AcDbEntity
  8
DEFPOINTS
 62
     0
440
 16777216
100
AcDbPoint
 10
2209.778304751266
 20
277.4835388551259
 30
0.0
  0
POINT
  5
5184
330
512F
100
AcDbEntity
  8
DEFPOINTS
 62
     0
440
 16777216
100
AcDbPoint
 10
2219.153304751265
 20
427.4835388551228
 30
0.0
  0
POINT
  5
5185
330
512F
100
AcDbEntity
  8
DEFPOINTS
 62
     0
440
 16777216
100
AcDbPoint
 10
2204.258059118195
 20
427.4835388551228
 30
0.0
  0
ENDBLK
  5
5131
330
512F
100
AcDbEntity
  8
0
100
AcDbBlockEnd
  0
BLOCK
  5
513C
330
513B
100
AcDbEntity
  8
0
100
AcDbBlockBegin
  2
*D6
 70
     1
 10
0.0
 20
0.0
 30
0.0
  3
*D6
  1

  0
LINE
  5
5186
330
513B
100
AcDbEntity
  8
SUNPOU
 62
     0
440
 16777216
370
    -2
100
AcDbLine
 10
2296.315946623174
 20
277.4835388551259
 30
0.0
 11
2292.98858145473
 21
277.4835388551259
 31
0.0
  0
LINE
  5
5187
330
513B
100
AcDbEntity
  8
SUNPOU
 62
     0
440
 16777216
370
    -2
100
AcDbLine
 10
2350.634859640814
 20
352.483574461937
 30
0.0
 11
2292.98858145473
 21
352.483574461937
 31
0.0
  0
LINE
  5
5188
330
513B
100
AcDbEntity
  8
SUNPOU
 62
     0
440
 16777216
370
    -2
100
AcDbLine
 10
2292.98858145473
 20
278.983538855126
 30
0.0
 11
2292.98858145473
 21
350.983574461937
 31
0.0
  0
INSERT
  5
5189
330
513B
100
AcDbEntity
  8
SUNPOU
 62
     0
440
 16777216
370
    -2
100
AcDbBlockReference
  2
_DotBlank
 10
2292.98858145473
 20
277.4835388551259
 30
0.0
 41
1.5
 42
1.5
 43
1.5
 50
270.0
  0
INSERT
  5
518A
330
513B
100
AcDbEntity
  8
SUNPOU
 62
     0
440
 16777216
370
    -2
100
AcDbBlockReference
  2
_DotBlank
 10
2292.98858145473
 20
352.483574461937
 30
0.0
 41
1.5
 42
1.5
 43
1.5
 50
90.0
  0
MTEXT
  5
518B
330
513B
100
AcDbEntity
  8
SUNPOU
 62
     0
440
 16777216
100
AcDbMText
 10
2289.863581454731
 20
314.9835566585319
 30
0.0
 40
5.0
 41
0.0
 46
0.0
 71
     5
 72
     1
  1
\A1;75
 11
0.0000000000000001
 21
1.0
 31
0.0
 73
     1
 44
1.0
  0
POINT
  5
518C
330
513B
100
AcDbEntity
  8
DEFPOINTS
 62
     0
440
 16777216
100
AcDbPoint
 10
2301.315946623174
 20
277.4835388551259
 30
0.0000000000016747
  0
POINT
  5
518D
330
513B
100
AcDbEntity
  8
DEFPOINTS
 62
     0
440
 16777216
100
AcDbPoint
 10
2355.634859640814
 20
352.483574461937
 30
0.0000000000016761
  0
POINT
  5
518E
330
513B
100
AcDbEntity
  8
DEFPOINTS
 62
     0
440
 16777216
100
AcDbPoint
 10
2292.98858145473
 20
352.483574461937
 30
0.0
  0
ENDBLK
  5
513D
330
513B
100
AcDbEntity
  8
0
100
AcDbBlockEnd
  0
BLOCK
  5
5148
330
5147
100
AcDbEntity
  8
0
100
AcDbBlockBegin
  2
*D7
 70
     1
 10
0.0
 20
0.0
 30
0.0
  3
*D7
  1

  0
LINE
  5
518F
330
5147
100
AcDbEntity
  8
SUNPOU
 62
     0
440
 16777216
370
    -2
100
AcDbLine
 10
2423.934864625107
 20
384.7835388551229
 30
0.0000000000000348
 11
2423.934864625107
 21
409.992711051978
 31
0.0000000000000348
  0
LINE
  5
5190
330
5147
100
AcDbEntity
  8
SUNPOU
 62
     0
440
 16777216
370
    -2
100
AcDbLine
 10
2401.434864625111
 20
349.2835388551016
 30
0.0000000000000348
 11
2401.434864625111
 21
409.992711051978
 31
0.0000000000000348
  0
LINE
  5
5191
330
5147
100
AcDbEntity
  8
SUNPOU
 62
     0
440
 16777216
370
    -2
100
AcDbLine
 10
2422.434864625107
 20
409.992711051978
 30
0.0000000000000348
 11
2402.934864625111
 21
409.992711051978
 31
0.0000000000000348
  0
INSERT
  5
5192
330
5147
100
AcDbEntity
  8
SUNPOU
 62
     0
440
 16777216
370
    -2
100
AcDbBlockReference
  2
_DotBlank
 10
2423.934864625107
 20
409.992711051978
 30
0.0000000000000348
 41
1.5
 42
1.5
 43
1.5
  0
INSERT
  5
5193
330
5147
100
AcDbEntity
  8
SUNPOU
 62
     0
440
 16777216
370
    -2
100
AcDbBlockReference
  2
_DotBlank
 10
2401.434864625111
 20
409.992711051978
 30
0.0000000000000348
 41
1.5
 42
1.5
 43
1.5
 50
180.0
  0
MTEXT
  5
5194
330
5147
100
AcDbEntity
  8
SUNPOU
 62
     0
440
 16777216
100
AcDbMText
 10
2412.684864625109
 20
413.117711051978
 30
0.0000000000000348
 40
5.0
 41
0.0
 46
0.0
 71
     5
 72
     1
  1
\A1;25
 73
     1
 44
1.0
  0
POINT
  5
5195
330
5147
100
AcDbEntity
  8
DEFPOINTS
 62
     0
440
 16777216
100
AcDbPoint
 10
2423.934864625107
 20
379.7835388551229
 30
-0.0000000000016415
  0
POINT
  5
5196
330
5147
100
AcDbEntity
  8
DEFPOINTS
 62
     0
440
 16777216
100
AcDbPoint
 10
2401.434864625111
 20
344.2835388551016
 30
0.0000000000008809
  0
POINT
  5
5197
330
5147
100
AcDbEntity
  8
DEFPOINTS
 62
     0
440
 16777216
100
AcDbPoint
 10
2401.434864625111
 20
409.992711051978
 30
0.0000000000000348
  0
ENDBLK
  5
5149
330
5147
100
AcDbEntity
  8
0
100
AcDbBlockEnd
  0
BLOCK
  5
5154
330
5153
100
AcDbEntity
  8
0
100
AcDbBlockBegin
  2
*D8
 70
     1
 10
0.0
 20
0.0
 30
0.0
  3
*D8
  1

  0
LINE
  5
5156
330
5153
100
AcDbEntity
  8
SUNPOU
 62
     0
440
 16777216
370
    -2
100
AcDbLine
 10
2401.434864625108
 20
321.183538855122
 30
0.0
 11
2401.434864625108
 21
296.183538855122
 31
0.0
  0
LINE
  5
5157
330
5153
100
AcDbEntity
  8
SUNPOU
 62
     0
440
 16777216
370
    -2
100
AcDbLine
 10
2376.434861509922
 20
346.2835744619378
 30
0.0
 11
2376.434861509922
 21
296.183538855122
 31
0.0
  0
LINE
  5
5158
330
5153
100
AcDbEntity
  8
SUNPOU
 62
     0
440
 16777216
370
    -2
100
AcDbLine
 10
2399.934864625108
 20
296.183538855122
 30
0.0
 11
2377.934861509922
 21
296.183538855122
 31
0.0
  0
INSERT
  5
5159
330
5153
100
AcDbEntity
  8
SUNPOU
 62
     0
440
 16777216
370
    -2
100
AcDbBlockReference
  2
_DotBlank
 10
2401.434864625108
 20
296.183538855122
 30
0.0
 41
1.5
 42
1.5
 43
1.5
  0
INSERT
  5
515A
330
5153
100
AcDbEntity
  8
SUNPOU
 62
     0
440
 16777216
370
    -2
100
AcDbBlockReference
  2
_DotBlank
 10
2376.434861509922
 20
296.183538855122
 30
0.0
 41
1.5
 42
1.5
 43
1.5
 50
180.0
  0
MTEXT
  5
515B
330
5153
100
AcDbEntity
  8
SUNPOU
 62
     0
440
 16777216
100
AcDbMText
 10
2388.593589257378
 20
299.308538855122
 30
0.0
 40
5.0
 41
0.0
 46
0.0
 71
     5
 72
     1
  1
\A1;25
 73
     1
 44
1.0
  0
POINT
  5
515C
330
5153
100
AcDbEntity
  8
DEFPOINTS
 62
     0
440
 16777216
100
AcDbPoint
 10
2401.434864625108
 20
326.183538855122
 30
0.0000000000016808
  0
POINT
  5
515D
330
5153
100
AcDbEntity
  8
DEFPOINTS
 62
     0
440
 16777216
100
AcDbPoint
 10
2376.434861509922
 20
351.2835744619378
 30
0.0000000000016808
  0
POINT
  5
515E
330
5153
100
AcDbEntity
  8
DEFPOINTS
 62
     0
440
 16777216
100
AcDbPoint
 10
2376.434861509922
 20
296.183538855122
 30
0.0
  0
ENDBLK
  5
5155
330
5153
100
AcDbEntity
  8
0
100
AcDbBlockEnd
  0
BLOCK
  5
5160
330
515F
100
AcDbEntity
  8
0
100
AcDbBlockBegin
  2
*D9
 70
     1
 10
0.0
 20
0.0
 30
0.0
  3
*D9
  1

  0
LINE
  5
5162
330
515F
100
AcDbEntity
  8
SUNPOU
 62
     0
440
 16777216
370
    -2
100
AcDbLine
 10
2609.434864625111
 20
374.9835388551229
 30
0.0
 11
2634.434864625111
 21
374.9835388551229
 31
0.0
  0
LINE
  5
5163
330
515F
100
AcDbEntity
  8
SUNPOU
 62
     0
440
 16777216
370
    -2
100
AcDbLine
 10
2609.434864625111
 20
324.9835388551212
 30
0.0
 11
2634.434864625111
 21
324.9835388551212
 31
0.0
  0
LINE
  5
5164
330
515F
100
AcDbEntity
  8
SUNPOU
 62
     0
440
 16777216
370
    -2
100
AcDbLine
 10
2634.434864625111
 20
373.483538855123
 30
0.0
 11
2634.434864625111
 21
326.4835388551211
 31
0.0
  0
INSERT
  5
5165
330
515F
100
AcDbEntity
  8
SUNPOU
 62
     0
440
 16777216
370
    -2
100
AcDbBlockReference
  2
_DotBlank
 10
2634.434864625111
 20
374.9835388551229
 30
0.0
 41
1.5
 42
1.5
 43
1.5
 50
90.0
  0
INSERT
  5
5166
330
515F
100
AcDbEntity
  8
SUNPOU
 62
     0
440
 16777216
370
    -2
100
AcDbBlockReference
  2
_DotBlank
 10
2634.434864625111
 20
324.9835388551212
 30
0.0
 41
1.5
 42
1.5
 43
1.5
 50
270.0
  0
MTEXT
  5
5167
330
515F
100
AcDbEntity
  8
SUNPOU
 62
     0
440
 16777216
100
AcDbMText
 10
2631.309864625111
 20
350.1502055217893
 30
0.0
 40
5.0
 41
0.0
 46
0.0
 71
     5
 72
     1
  1
\A1;50
 11
0.0000000000000001
 21
1.0
 31
0.0
 73
     1
 44
1.0
  0
POINT
  5
5168
330
515F
100
AcDbEntity
  8
DEFPOINTS
 62
     0
440
 16777216
100
AcDbPoint
 10
2604.434864625111
 20
374.9835388551229
 30
0.0
  0
POINT
  5
5169
330
515F
100
AcDbEntity
  8
DEFPOINTS
 62
     0
440
 16777216
100
AcDbPoint
 10
2604.434864625111
 20
324.9835388551212
 30
0.0000000000000031
  0
POINT
  5
516A
330
515F
100
AcDbEntity
  8
DEFPOINTS
 62
     0
440
 16777216
100
AcDbPoint
 10
2634.434864625111
 20
324.9835388551212
 30
0.0
  0
ENDBLK
  5
5161
330
515F
100
AcDbEntity
  8
0
100
AcDbBlockEnd
  0
BLOCK
  5
5AC9
330
5AC8
100
AcDbEntity
  8
0
100
AcDbBlockBegin
  2
*D10
 70
     1
 10
0.0
 20
0.0
 30
0.0
  3
*D10
  1

  0
LINE
  5
5ADD
330
5AC8
100
AcDbEntity
  8
SUNPOU
 62
     0
440
 16777216
370
    -2
100
AcDbLine
 10
2350.634861509917
 20
352.4835744619372
 30
0.0
 11
2292.988581454733
 21
352.4835744619372
 31
0.0
  0
LINE
  5
5ADE
330
5AC8
100
AcDbEntity
  8
SUNPOU
 62
     0
440
 16777216
370
    -2
100
AcDbLine
 10
2320.434864625112
 20
377.4835388551233
 30
0.0
 11
2292.988581454733
 21
377.4835388551233
 31
0.0
  0
LINE
  5
5ADF
330
5AC8
100
AcDbEntity
  8
SUNPOU
 62
     0
440
 16777216
370
    -2
100
AcDbLine
 10
2292.988581454733
 20
353.9835744619372
 30
0.0
 11
2292.988581454733
 21
375.9835388551233
 31
0.0
  0
INSERT
  5
5AE0
330
5AC8
100
AcDbEntity
  8
SUNPOU
 62
     0
440
 16777216
370
    -2
100
AcDbBlockReference
  2
_DotBlank
 10
2292.988581454733
 20
352.4835744619372
 30
0.0
 41
1.5
 42
1.5
 43
1.5
 50
270.0
  0
INSERT
  5
5AE1
330
5AC8
100
AcDbEntity
  8
SUNPOU
 62
     0
440
 16777216
370
    -2
100
AcDbBlockReference
  2
_DotBlank
 10
2292.988581454733
 20
377.4835388551233
 30
0.0
 41
1.5
 42
1.5
 43
1.5
 50
90.0
  0
MTEXT
  5
5AE2
330
5AC8
100
AcDbEntity
  8
SUNPOU
 62
     0
440
 16777216
100
AcDbMText
 10
2289.863581454733
 20
364.9835566585295
 30
0.0
 40
5.0
 41
0.0
 46
0.0
 71
     5
 72
     1
  1
\A1;25
 11
0.0000000000000001
 21
1.0
 31
0.0
 73
     1
 44
1.0
  0
POINT
  5
5AE3
330
5AC8
100
AcDbEntity
  8
DEFPOINTS
 62
     0
440
 16777216
100
AcDbPoint
 10
2355.634861509917
 20
352.4835744619372
 30
0.0
  0
POINT
  5
5AE4
330
5AC8
100
AcDbEntity
  8
DEFPOINTS
 62
     0
440
 16777216
100
AcDbPoint
 10
2325.434864625112
 20
377.4835388551233
 30
0.0
  0
POINT
  5
5AE5
330
5AC8
100
AcDbEntity
  8
DEFPOINTS
 62
     0
440
 16777216
100
AcDbPoint
 10
2292.988581454733
 20
377.4835388551233
 30
0.0
  0
ENDBLK
  5
5ACA
330
5AC8
100
AcDbEntity
  8
0
100
AcDbBlockEnd
  0
ENDSEC
  0
SECTION
  2
ENTITIES
  0
LINE
  5
4FC9
330
1A
100
AcDbEntity
  8
SEIHIN
 62
     7
100
AcDbLine
 10
2400.73486462511
 20
345.4835388551023
 30
0.0000000000008809
 11
2383.434864625111
 21
345.4835388551042
 31
0.0000000000000408
  0
LINE
  5
4FCA
330
1A
100
AcDbEntity
  8
PACKING
  6
DASHED2
 48
0.5
100
AcDbLine
 10
2363.934862756009
 20
346.9835388551235
 30
-0.0000000000016369
 11
2355.634862756007
 21
346.9835388551231
 31
-0.0000000000016369
  0
LINE
  5
4FCC
330
1A
100
AcDbEntity
  8
SEALING
  6
DASHED2
 48
0.5
100
AcDbLine
 10
2326.434864625111
 20
287.4835388551231
 30
-0.00000000000164
 11
2326.434864625111
 21
277.4835388551231
 31
-0.00000000000164
  0
LINE
  5
4FCD
330
1A
100
AcDbEntity
  8
SEALING
  6
DASHED2
 48
0.5
100
AcDbLine
 10
2413.934864625111
 20
374.9835388551229
 30
-0.00000000000164
 11
2423.934864625111
 21
374.9835388551229
 31
-0.00000000000164
  0
LINE
  5
4FCE
330
1A
100
AcDbEntity
  8
YAKUMONO
 62
     7
100
AcDbLine
 10
2423.934864625111
 20
374.9835388551229
 30
-0.00000000000164
 11
2413.934864625111
 21
374.9835388551229
 31
-0.00000000000164
  0
ARC
  5
4FCF
330
1A
100
AcDbEntity
  8
SEIHIN
100
AcDbCircle
 10
2402.634864625111
 20
326.1835388551219
 30
-0.000000000001637
 40
0.6999999999999888
100
AcDbArc
 50
179.9999999999953
 51
270.0
  0
LINE
  5
4FD0
330
1A
100
AcDbEntity
  8
WAKU
100
AcDbLine
 10
2041.427309511688
 20
10.0
 30
0.0
 11
2821.427309511689
 21
10.0
 31
0.0
  0
LINE
  5
4FD1
330
1A
100
AcDbEntity
  8
WAKU
100
AcDbLine
 10
2821.427309511689
 20
10.0
 30
0.0
 11
2821.427309511689
 21
560.0
 31
0.0
  0
LINE
  5
4FD2
330
1A
100
AcDbEntity
  8
WAKU
100
AcDbLine
 10
2821.427309511689
 20
560.0
 30
0.0
 11
2041.427309511688
 21
560.0
 31
0.0
  0
LINE
  5
4FD3
330
1A
100
AcDbEntity
  8
WAKU
100
AcDbLine
 10
2041.427309511688
 20
560.0
 30
0.0
 11
2041.427309511688
 21
10.0
 31
0.0
  0
LINE
  5
4FD4
330
1A
100
AcDbEntity
  8
WAKU
100
AcDbLine
 10
2041.427309511688
 20
30.0
 30
0.0
 11
2821.427309511689
 21
30.0
 31
0.0
  0
LINE
  5
4FD5
330
1A
100
AcDbEntity
  8
WAKU
100
AcDbLine
 10
2141.427309511688
 20
30.0
 30
0.0
 11
2141.427309511688
 21
10.0
 31
0.0
  0
LINE
  5
4FD7
330
1A
100
AcDbEntity
  8
WAKU
100
AcDbLine
 10
2043.427309511688
 20
28.0
 30
0.0
 11
2139.427309511688
 21
28.0
 31
0.0
  0
LINE
  5
4FD8
330
1A
100
AcDbEntity
  8
WAKU
100
AcDbLine
 10
2043.427309511688
 20
28.0
 30
0.0
 11
2043.427309511688
 21
12.0
 31
0.0
  0
LINE
  5
4FD9
330
1A
100
AcDbEntity
  8
WAKU
100
AcDbLine
 10
2043.427309511688
 20
12.0
 30
0.0
 11
2139.427309511688
 21
12.0
 31
0.0
  0
LINE
  5
4FDA
330
1A
100
AcDbEntity
  8
WAKU
100
AcDbLine
 10
2139.427309511688
 20
28.0
 30
0.0
 11
2139.427309511688
 21
12.0
 31
0.0
  0
LINE
  5
4FDC
330
1A
100
AcDbEntity
  8
WAKU
100
AcDbLine
 10
2281.427309511688
 20
30.0
 30
0.0
 11
2281.427309511688
 21
10.0
 31
0.0
  0
LINE
  5
4FDD
330
1A
100
AcDbEntity
  8
WAKU
100
AcDbLine
 10
2291.427309511688
 20
30.0
 30
0.0
 11
2291.427309511688
 21
10.0
 31
0.0
  0
MTEXT
  5
4FDE
330
1A
100
AcDbEntity
  8
WAKU
100
AcDbMText
 10
2283.245927374219
 20
27.72724847366113
 30
0.0
 40
5.0
 41
10.0
 46
0.0
 71
     1
 72
     5
  1
名称
  7
WAKU
 73
     1
 44
1.0
  0
LINE
  5
4FDF
330
1A
100
AcDbEntity
  8
WAKU
100
AcDbLine
 10
2041.427309511688
 20
30.0
 30
0.0
 11
2041.427309511688
 21
10.0
 31
0.0
  0
LINE
  5
4FE0
330
1A
100
AcDbEntity
  8
WAKU
100
AcDbLine
 10
2541.427309511688
 20
30.0
 30
0.0
 11
2541.427309511688
 21
10.0
 31
0.0
  0
LINE
  5
4FE1
330
1A
100
AcDbEntity
  8
WAKU
100
AcDbLine
 10
2551.427309511688
 20
30.0
 30
0.0
 11
2551.427309511688
 21
10.0
 31
0.0
  0
MTEXT
  5
4FE2
330
1A
100
AcDbEntity
  8
WAKU
100
AcDbMText
 10
2543.245927374218
 20
27.72724847366113
 30
0.0
 40
5.0
 41
10.0
 46
0.0
 71
     1
 72
     5
  1
縮尺
  7
WAKU
 73
     1
 44
1.0
  0
MTEXT
  5
4FE3
102
{ACAD_XDICTIONARY
360
5B70
102
}
330
1A
100
AcDbEntity
  8
WAKU
100
AcDbMText
 10
2295.751850080694
 20
23.21985646788335
 30
0.0
 40
5.0
 41
190.5002997985425
 46
0.0
 71
     1
 72
     5
  1
\pi30.59279;耐火ヴァンドＲＺ５０　入隅部・シーリング
  7
WAKU
 73
     1
 44
1.0
  0
MTEXT
  5
4FE4
330
1A
100
AcDbEntity
  8
WAKU
100
AcDbMText
 10
2560.751850080694
 20
23.21985646788335
 30
0.0
 40
5.0
 41
190.5002997985425
 46
0.0
 71
     1
 72
     5
  1
1/2（A3）
  7
WAKU
 73
     1
 44
1.0
  0
MTEXT
  5
4FE5
330
1A
100
AcDbEntity
  8
WAKU
100
AcDbMText
 10
2603.245927374219
 20
27.72724847366113
 30
0.0
 40
5.0
 41
10.0
 46
0.0
 71
     1
 72
     5
  1
図番
  7
WAKU
 73
     1
 44
1.0
  0
LINE
  5
4FE6
330
1A
100
AcDbEntity
  8
WAKU
100
AcDbLine
 10
2611.427309511688
 20
30.0
 30
0.0
 11
2611.427309511688
 21
10.0
 31
0.0
  0
LINE
  5
4FE7
330
1A
100
AcDbEntity
  8
WAKU
100
AcDbLine
 10
2601.427309511688
 20
30.0
 30
0.0
 11
2601.427309511688
 21
10.0
 31
0.0
  0
MTEXT
  5
4FE8
330
1A
100
AcDbEntity
  8
WAKU
100
AcDbMText
 10
2625.751850080694
 20
23.21985646788335
 30
0.0
 40
5.0
 41
190.5002997985425
 46
0.0
 71
     1
 72
     5
  1
IGRZ5004_01
  7
WAKU
 73
     1
 44
1.0
  0
LINE
  5
4FE9
330
1A
100
AcDbEntity
  8
WAKU
100
AcDbLine
 10
2681.427309511688
 20
30.0
 30
0.0
 11
2681.427309511688
 21
10.0
 31
0.0
  0
LINE
  5
4FEA
330
1A
100
AcDbEntity
  8
WAKU
100
AcDbLine
 10
2691.427309511688
 20
30.0
 30
0.0
 11
2691.427309511688
 21
10.0
 31
0.0
  0
MTEXT
  5
4FEB
330
1A
100
AcDbEntity
  8
WAKU
100
AcDbMText
 10
2683.245927374219
 20
27.72724847366113
 30
0.0
 40
5.0
 41
10.0
 46
0.0
 71
     1
 72
     5
  1
特記
  7
WAKU
 73
     1
 44
1.0
  0
LINE
  5
4FEC
330
1A
100
AcDbEntity
  8
WAKU
  6
DASHED2
 48
0.5
100
AcDbLine
 10
2691.427309511688
 20
20.0
 30
0.0
 11
2821.427309511689
 21
20.0
 31
0.0
  0
LINE
  5
4FED
330
1A
100
AcDbEntity
  8
WAKU
100
AcDbLine
 10
2491.427309511688
 20
10.0
 30
0.0
 11
2491.427309511688
 21
30.0
 31
0.0
  0
MTEXT
  5
4FEE
330
1A
100
AcDbEntity
  8
WAKU
100
AcDbMText
 10
2517.794756427012
 20
23.21985646788335
 30
0.0
 40
5.0
 41
190.5002997985425
 46
0.0
 71
     1
 72
     5
  1
mm
  7
WAKU
 73
     1
 44
1.0
  0
MTEXT
  5
4FEF
330
1A
100
AcDbEntity
  8
WAKU
100
AcDbMText
 10
2493.245927374218
 20
27.72724847366113
 30
0.0
 40
5.0
 41
10.0
 46
0.0
 71
     1
 72
     5
  1
単位
  7
WAKU
 73
     1
 44
1.0
  0
LINE
  5
4FF0
330
1A
100
AcDbEntity
  8
WAKU
100
AcDbLine
 10
2501.427309511688
 20
30.0
 30
0.0
 11
2501.427309511688
 21
10.0
 31
0.0
  0
LINE
  5
4FF1
330
1A
100
AcDbEntity
  8
YAKUMONO
 62
     7
100
AcDbLine
 10
2326.434864625111
 20
287.4835388551231
 30
-0.00000000000164
 11
2326.434864625111
 21
277.4835388551231
 31
-0.00000000000164
  0
HATCH
  5
4FF2
330
1A
100
AcDbEntity
  8
YAKUMONO
 62
     7
370
     9
100
AcDbHatch
 10
0.0
 20
0.0
 30
-0.00000000000164
210
0.0
220
0.0
230
1.0
  2
ANSI31
 70
     0
 71
     0
 91
        1
 92
        7
 72
     0
 73
     1
 93
        4
 10
2326.434864625111
 20
287.4835388551231
 10
2324.434864625111
 20
287.4835388551231
 10
2324.434864625111
 20
277.4835388551231
 10
2326.434864625111
 20
277.4835388551231
 97
        0
 75
     0
 76
     1
 52
0.0
 41
0.5
 77
     0
 78
     1
 53
45.0
 43
2021.427309511688
 44
24.48353885512165
 45
-1.122532015133643
 46
1.122532015133643
 79
     0
 47
0.0679910891342631
 98
        1
 10
2324.852281190082
 20
288.7634475408932
1001
ACAD
1010
0.0
1020
0.0
1030
0.0
  0
LINE
  5
4FF3
330
1A
100
AcDbEntity
  8
YAKUMONO
 62
     7
100
AcDbLine
 10
2324.434864625111
 20
287.4835388551231
 30
-0.00000000000164
 11
2326.434864625111
 21
287.4835388551231
 31
-0.00000000000164
  0
LINE
  5
4FF4
330
1A
100
AcDbEntity
  8
YAKUMONO
 62
     7
100
AcDbLine
 10
2324.434864625111
 20
277.4835388551231
 30
-0.00000000000164
 11
2324.434864625111
 21
287.4835388551231
 31
-0.00000000000164
  0
LINE
  5
4FF5
330
1A
100
AcDbEntity
  8
YAKUMONO
 62
     7
100
AcDbLine
 10
2326.434864625111
 20
277.4835388551231
 30
-0.00000000000164
 11
2324.434864625111
 21
277.4835388551231
 31
-0.00000000000164
  0
HATCH
  5
4FF6
330
1A
100
AcDbEntity
  8
YAKUMONO
 62
     7
370
     9
100
AcDbHatch
 10
0.0
 20
0.0
 30
-0.00000000000164
210
0.0
220
0.0
230
1.0
  2
ANSI31
 70
     0
 71
     0
 91
        1
 92
        7
 72
     0
 73
     1
 93
        4
 10
2423.934864625111
 20
376.9835388551229
 10
2413.934864625111
 20
376.9835388551229
 10
2413.934864625111
 20
374.9835388551229
 10
2423.934864625111
 20
374.9835388551229
 97
        0
 75
     0
 76
     1
 52
0.0
 41
0.5
 77
     0
 78
     1
 53
45.0
 43
2021.427309511688
 44
24.48353885512165
 45
-1.122532015133643
 46
1.122532015133643
 79
     0
 47
0.1224333071633665
 98
        1
 10
2411.931199469192
 20
375.6849889038905
1001
ACAD
1010
0.0
1020
0.0
1030
0.0
  0
LINE
  5
4FF7
330
1A
100
AcDbEntity
  8
YAKUMONO
 62
     7
100
AcDbLine
 10
2413.934864625111
 20
376.9835388551229
 30
-0.00000000000164
 11
2413.934864625111
 21
374.9835388551229
 31
-0.00000000000164
  0
LINE
  5
4FF8
330
1A
100
AcDbEntity
  8
YAKUMONO
 62
     7
100
AcDbLine
 10
2423.934864625111
 20
376.9835388551229
 30
-0.00000000000164
 11
2413.934864625111
 21
376.9835388551229
 31
-0.00000000000164
  0
LINE
  5
4FF9
330
1A
100
AcDbEntity
  8
YAKUMONO
 62
     7
100
AcDbLine
 10
2423.934864625111
 20
374.9835388551229
 30
-0.00000000000164
 11
2423.934864625111
 21
376.9835388551229
 31
-0.00000000000164
  0
LINE
  5
4FFA
330
1A
100
AcDbEntity
  8
SITAJI
100
AcDbLine
 10
2373.934864625107
 20
382.483538855123
 30
-0.00000000000164
 11
2373.934864625107
 21
472.4835388551229
 31
-0.00000000000164
  0
LINE
  5
4FFB
330
1A
100
AcDbEntity
  8
SITAJI
100
AcDbLine
 10
2473.934864625107
 20
382.483538855123
 30
-0.00000000000164
 11
2473.934864625107
 21
472.4835388551229
 31
-0.00000000000164
  0
LINE
  5
4FFC
330
1A
100
AcDbEntity
  8
SITAJI
100
AcDbLine
 10
2228.934864625111
 20
327.4835388551261
 30
-0.00000000000164
 11
2318.934864625111
 21
327.4835388551257
 31
-0.00000000000164
  0
LINE
  5
4FFD
330
1A
100
AcDbEntity
  8
SITAJI
100
AcDbLine
 10
2228.934864625111
 20
227.4835388551257
 30
-0.00000000000164
 11
2318.934864625111
 21
227.4835388551257
 31
-0.00000000000164
  0
LINE
  5
4FFE
330
1A
100
AcDbEntity
  8
SITAJI
100
AcDbLine
 10
2323.934864625111
 20
232.4835388551258
 30
-0.00000000000164
 11
2323.934864625111
 21
322.4835388551257
 31
-0.00000000000164
  0
LINE
  5
4FFF
330
1A
100
AcDbEntity
  8
SITAJI
100
AcDbLine
 10
2378.934864625108
 20
377.483538855123
 30
-0.00000000000164
 11
2468.934864625107
 21
377.483538855123
 31
-0.00000000000164
  0
LINE
  5
5000
330
1A
100
AcDbEntity
  8
SITAJI
100
AcDbLine
 10
2378.934864625108
 20
477.4835388551228
 30
-0.00000000000164
 11
2468.934864625107
 21
477.4835388551228
 31
-0.00000000000164
  0
LINE
  5
5001
330
1A
100
AcDbEntity
  8
SITAJI
100
AcDbLine
 10
2223.934864625111
 20
232.4835388551262
 30
-0.00000000000164
 11
2223.934864625111
 21
322.4835388551257
 31
-0.00000000000164
  0
ARC
  5
5002
330
1A
100
AcDbEntity
  8
SITAJI
100
AcDbCircle
 10
2228.934864625111
 20
232.4835388551262
 30
-0.00000000000164
 40
5.0
100
AcDbArc
 50
180.0
 51
270.0
  0
ARC
  5
5003
330
1A
100
AcDbEntity
  8
SITAJI
100
AcDbCircle
 10
2228.934864625111
 20
322.4835388551257
 30
-0.00000000000164
 40
5.0
100
AcDbArc
 50
90.0
 51
180.0
  0
ARC
  5
5004
330
1A
100
AcDbEntity
  8
SITAJI
100
AcDbCircle
 10
2318.934864625111
 20
322.4835388551257
 30
-0.00000000000164
 40
5.0
100
AcDbArc
 50
0.0
 51
90.0
  0
ARC
  5
5005
330
1A
100
AcDbEntity
  8
SITAJI
100
AcDbCircle
 10
2318.934864625111
 20
232.4835388551258
 30
-0.00000000000164
 40
5.0
100
AcDbArc
 50
270.0
 51
0.0
  0
LINE
  5
5006
330
1A
100
AcDbEntity
  8
SITAJI
100
AcDbLine
 10
2226.23486462511
 20
232.4835388551262
 30
-0.00000000000164
 11
2226.23486462511
 21
322.4835388551257
 31
-0.00000000000164
  0
LINE
  5
5007
330
1A
100
AcDbEntity
  8
SITAJI
100
AcDbLine
 10
2228.934864625111
 20
325.183538855126
 30
-0.00000000000164
 11
2318.934864625111
 21
325.183538855126
 31
-0.00000000000164
  0
LINE
  5
5008
330
1A
100
AcDbEntity
  8
SITAJI
100
AcDbLine
 10
2321.634864625112
 20
232.4835388551258
 30
-0.00000000000164
 11
2321.634864625112
 21
322.4835388551257
 31
-0.00000000000164
  0
LINE
  5
5009
330
1A
100
AcDbEntity
  8
SITAJI
100
AcDbLine
 10
2228.934864625111
 20
229.783538855126
 30
-0.00000000000164
 11
2318.934864625111
 21
229.7835388551256
 31
-0.00000000000164
  0
ARC
  5
500A
330
1A
100
AcDbEntity
  8
SITAJI
100
AcDbCircle
 10
2228.934864625111
 20
232.4835388551262
 30
-0.00000000000164
 40
2.7
100
AcDbArc
 50
180.0
 51
270.0
  0
ARC
  5
500B
330
1A
100
AcDbEntity
  8
SITAJI
100
AcDbCircle
 10
2228.934864625111
 20
322.4835388551257
 30
-0.00000000000164
 40
2.7
100
AcDbArc
 50
90.0
 51
180.0
  0
ARC
  5
500C
330
1A
100
AcDbEntity
  8
SITAJI
100
AcDbCircle
 10
2318.934864625111
 20
322.4835388551257
 30
-0.00000000000164
 40
2.7
100
AcDbArc
 50
0.0
 51
90.0
  0
ARC
  5
500D
330
1A
100
AcDbEntity
  8
SITAJI
100
AcDbCircle
 10
2318.934864625111
 20
232.4835388551258
 30
-0.00000000000164
 40
2.7
100
AcDbArc
 50
270.0
 51
0.0
  0
ARC
  5
500E
330
1A
100
AcDbEntity
  8
SITAJI
100
AcDbCircle
 10
2378.934864625108
 20
472.4835388551229
 30
-0.00000000000164
 40
5.0
100
AcDbArc
 50
90.0
 51
180.0
  0
ARC
  5
500F
330
1A
100
AcDbEntity
  8
SITAJI
100
AcDbCircle
 10
2468.934864625107
 20
472.4835388551229
 30
-0.00000000000164
 40
5.0
100
AcDbArc
 50
0.0
 51
90.0
  0
ARC
  5
5010
330
1A
100
AcDbEntity
  8
SITAJI
100
AcDbCircle
 10
2468.934864625107
 20
382.483538855123
 30
-0.00000000000164
 40
5.0
100
AcDbArc
 50
270.0
 51
0.0
  0
ARC
  5
5011
330
1A
100
AcDbEntity
  8
SITAJI
100
AcDbCircle
 10
2378.934864625108
 20
382.483538855123
 30
-0.00000000000164
 40
5.0
100
AcDbArc
 50
180.0
 51
270.0
  0
LINE
  5
5012
330
1A
100
AcDbEntity
  8
SITAJI
100
AcDbLine
 10
2376.234864625107
 20
382.483538855123
 30
-0.00000000000164
 11
2376.234864625107
 21
472.4835388551229
 31
-0.00000000000164
  0
LINE
  5
5013
330
1A
100
AcDbEntity
  8
SITAJI
100
AcDbLine
 10
2378.934864625108
 20
379.7835388551229
 30
-0.00000000000164
 11
2468.934864625107
 21
379.7835388551229
 31
-0.00000000000164
  0
LINE
  5
5014
330
1A
100
AcDbEntity
  8
SITAJI
100
AcDbLine
 10
2471.634864625108
 20
382.483538855123
 30
-0.00000000000164
 11
2471.634864625108
 21
472.4835388551229
 31
-0.00000000000164
  0
LINE
  5
5015
330
1A
100
AcDbEntity
  8
SITAJI
100
AcDbLine
 10
2378.934864625108
 20
475.1835388551232
 30
-0.00000000000164
 11
2468.934864625107
 21
475.1835388551223
 31
-0.00000000000164
  0
ARC
  5
5016
330
1A
100
AcDbEntity
  8
SITAJI
100
AcDbCircle
 10
2378.934864625108
 20
472.4835388551229
 30
-0.00000000000164
 40
2.7
100
AcDbArc
 50
90.0
 51
180.0
  0
ARC
  5
5017
330
1A
100
AcDbEntity
  8
SITAJI
100
AcDbCircle
 10
2468.934864625107
 20
472.4835388551229
 30
-0.00000000000164
 40
2.7
100
AcDbArc
 50
0.0
 51
90.0
  0
ARC
  5
5018
330
1A
100
AcDbEntity
  8
SITAJI
100
AcDbCircle
 10
2468.934864625107
 20
382.483538855123
 30
-0.00000000000164
 40
2.7
100
AcDbArc
 50
270.0
 51
0.0
  0
ARC
  5
5019
330
1A
100
AcDbEntity
  8
SITAJI
100
AcDbCircle
 10
2378.934864625108
 20
382.483538855123
 30
-0.00000000000164
 40
2.7
100
AcDbArc
 50
180.0
 51
270.0
  0
LINE
  5
501A
330
1A
100
AcDbEntity
  8
YAKUMONO
100
AcDbLine
 10
2432.684864625111
 20
377.483538855123
 30
-0.00000000000164
 11
2325.434864625111
 21
377.483538855123
 31
-0.00000000000164
  0
LINE
  5
501B
330
1A
100
AcDbEntity
  8
YAKUMONO
100
AcDbLine
 10
2323.934864625111
 20
268.7335388551231
 30
-0.00000000000164
 11
2323.934864625111
 21
375.983538855123
 31
-0.00000000000164
  0
LINE
  5
501C
330
1A
100
AcDbEntity
  8
YAKUMONO
100
AcDbLine
 10
2324.434864625111
 20
268.7335388551231
 30
-0.00000000000164
 11
2324.434864625111
 21
375.983538855123
 31
-0.00000000000164
  0
LINE
  5
501D
330
1A
100
AcDbEntity
  8
YAKUMONO
100
AcDbLine
 10
2325.934864625111
 20
277.4835388551231
 30
-0.00000000000164
 11
2325.934864625111
 21
268.7335388551231
 31
-0.00000000000164
  0
ARC
  5
501E
330
1A
100
AcDbEntity
  8
YAKUMONO
100
AcDbCircle
 10
2325.184864625111
 20
268.7335388551231
 30
-0.00000000000164
 40
1.25
100
AcDbArc
 50
180.0
 51
0.0
  0
ARC
  5
501F
330
1A
100
AcDbEntity
  8
YAKUMONO
100
AcDbCircle
 10
2325.184864625111
 20
268.7335388551231
 30
-0.00000000000164
 40
0.75
100
AcDbArc
 50
180.0
 51
0.0
  0
ARC
  5
5020
330
1A
100
AcDbEntity
  8
YAKUMONO
100
AcDbCircle
 10
2325.434864625111
 20
375.983538855123
 30
-0.00000000000164
 40
1.5
100
AcDbArc
 50
90.0
 51
180.0
  0
ARC
  5
5021
330
1A
100
AcDbEntity
  8
YAKUMONO
100
AcDbCircle
 10
2325.434864625111
 20
375.983538855123
 30
-0.00000000000164
 40
1.0
100
AcDbArc
 50
90.0
 51
180.0
  0
LINE
  5
5022
330
1A
100
AcDbEntity
  8
YAKUMONO
100
AcDbLine
 10
2423.934864625111
 20
375.483538855123
 30
-0.00000000000164
 11
2432.684864625111
 21
375.483538855123
 31
-0.00000000000164
  0
ARC
  5
5023
330
1A
100
AcDbEntity
  8
YAKUMONO
100
AcDbCircle
 10
2432.684864625111
 20
376.233538855123
 30
-0.00000000000164
 40
0.75
100
AcDbArc
 50
270.0
 51
90.0
  0
ARC
  5
5024
330
1A
100
AcDbEntity
  8
YAKUMONO
100
AcDbCircle
 10
2432.684864625111
 20
376.233538855123
 30
-0.00000000000164
 40
1.25
100
AcDbArc
 50
270.0
 51
90.0
  0
HATCH
  5
5025
330
1A
100
AcDbEntity
  8
SEALING
370
     9
100
AcDbHatch
 10
0.0
 20
0.0
 30
-0.00000000000164
210
0.0
220
0.0
230
1.0
  2
ANSI37
 70
     0
 71
     0
 91
        1
 92
        1
 93
        5
 72
     1
 10
2401.434864625111
 20
341.983538855104
 11
2376.434864625111
 21
341.983538855104
 72
     1
 10
2376.434864625111
 20
341.983538855104
 11
2376.434864625111
 21
324.9835388551219
 72
     2
 10
2389.53486462511
 20
240.7467894256993
 40
85.24928125465519
 50
261.1605060764953
 51
278.839493923506
 73
     0
 72
     2
 10
2402.634864625109
 20
326.1835388551221
 40
1.2000000000005
 50
89.9999999998996
 51
179.9999999999945
 73
     0
 72
     1
 10
2401.434864625108
 20
326.183538855122
 11
2401.434864625111
 21
341.983538855104
 97
        0
 75
     0
 76
     1
 52
0.0
 41
1.0
 77
     0
 78
     2
 53
45.0
 43
2021.427309511688
 44
24.48353885512165
 45
-2.245064030267287
 46
2.245064030267287
 79
     0
 53
135.0
 43
2021.427309511688
 44
24.48353885512165
 45
-2.245064030267287
 46
-2.245064030267287
 79
     0
 98
        1
 10
2393.772231576996
 20
334.4204673339039
1001
ACAD
1010
0.0
1020
0.0
1030
0.0
  0
HATCH
  5
5026
330
1A
100
AcDbEntity
  8
PACKING
  6
DASHED2
 48
0.5
370
     9
100
AcDbHatch
 10
0.0
 20
0.0
 30
-0.00000000000164
210
0.0
220
0.0
230
1.0
  2
ANSI31
 70
     0
 71
     0
 91
        1
 92
        1
 93
        7
 72
     1
 10
2363.934862756009
 20
346.9835388551235
 11
2363.934862756009
 21
326.9835388551217
 72
     1
 10
2363.934862756009
 20
326.9835388551217
 11
2375.934862756009
 21
326.9835388551217
 72
     1
 10
2375.934862756009
 20
326.9835388551217
 11
2375.934859640816
 21
351.2835744619378
 72
     2
 10
2375.234859640818
 20
351.2835744619387
 40
0.6999999999979992
 50
359.9999999999302
 51
450.0000000001488
 73
     1
 72
     1
 10
2375.234859640817
 20
351.9835744619368
 11
2355.634859640814
 21
351.9835744619368
 72
     1
 10
2355.634859640814
 20
351.9835744619368
 11
2355.634862756007
 21
346.9835388551231
 72
     1
 10
2355.634862756007
 20
346.9835388551231
 11
2363.934862756009
 21
346.9835388551235
 97
        0
 75
     0
 76
     1
 52
0.0
 41
1.0
 77
     0
 78
     1
 53
45.0
 43
2021.427307642586
 44
27.48353885512137
 45
-2.245064030267287
 46
2.245064030267287
 79
     0
 98
        3
 10
2371.306597803002
 20
354.3477825307216
 10
2369.915575820809
 20
348.0908647164421
 10
2373.266672498726
 20
347.8380591273867
1001
ACAD
1010
0.0
1020
0.0
1030
0.0
  0
HATCH
  5
5027
330
1A
100
AcDbEntity
  8
SEALING
  6
DASHED2
 48
0.5
370
     9
100
AcDbHatch
 10
0.0
 20
0.0
 30
-0.0000000000015992
210
0.0
220
0.0
230
1.0
  2
ANSI37
 70
     0
 71
     0
 91
        1
 92
        1
 93
        4
 72
     1
 10
2376.434860227561
 20
316.9835388551216
 11
2376.434862756009
 21
326.9835388551217
 72
     1
 10
2376.434862756009
 20
326.9835388551217
 11
2363.934862756009
 21
326.9835388551217
 72
     1
 10
2363.934862756009
 20
326.9835388551217
 11
2363.934862756009
 21
316.9835388551216
 72
     1
 10
2363.934862756009
 20
316.9835388551216
 11
2376.434860227561
 21
316.9835388551216
 97
        0
 75
     0
 76
     1
 52
0.0
 41
1.0
 77
     0
 78
     2
 53
45.0
 43
2021.427307642586
 44
26.48353885512137
 45
-2.245064030267287
 46
2.245064030267287
 79
     0
 53
135.0
 43
2021.427307642586
 44
26.48353885512137
 45
-2.245064030267287
 46
-2.245064030267287
 79
     0
 98
        2
 10
2370.542033190231
 20
325.1670871736008
 10
2374.019585421279
 20
324.6614772022454
1001
ACAD
1010
0.0
1020
0.0
1030
0.0
  0
ARC
  5
5028
330
1A
100
AcDbEntity
  8
SEIHIN
100
AcDbCircle
 10
2375.234861509919
 20
351.2835744619382
 30
-0.000000000001637
 40
0.6999999999999888
100
AcDbArc
 50
0.0
 51
90.0
  0
ARC
  5
5029
102
{ACAD_REACTORS
330
503D
102
}
330
1A
100
AcDbEntity
  8
SEIHIN
100
AcDbCircle
 10
2375.234861509922
 20
351.2835744619378
 30
0.0000000000000408
 40
1.199999999999999
100
AcDbArc
 50
0.0
 51
90.0
  0
ARC
  5
502A
330
1A
100
AcDbEntity
  8
SEIHIN
100
AcDbCircle
 10
2355.634861509916
 20
353.1835744619373
 30
0.0000000000008809
 40
1.199999999999999
100
AcDbArc
 50
180.0
 51
270.0
  0
ARC
  5
502B
330
1A
100
AcDbEntity
  8
SEIHIN
100
AcDbCircle
 10
2355.634861509916
 20
353.1835744619373
 30
0.0000000000008809
 40
0.7
100
AcDbArc
 50
180.0
 51
270.0
  0
LINE
  5
502C
330
1A
100
AcDbEntity
  8
SEIHIN
100
AcDbLine
 10
2354.934861509915
 20
353.1835744619379
 30
0.0000000000000408
 11
2354.934861509915
 21
373.4835744619354
 31
0.0000000000000408
  0
LINE
  5
502D
330
1A
100
AcDbEntity
  8
SEIHIN
100
AcDbLine
 10
2354.934861509915
 20
373.4835744619354
 30
0.0000000000000408
 11
2354.434861509916
 21
373.4835744619354
 31
0.0000000000000408
  0
LINE
  5
502E
330
1A
100
AcDbEntity
  8
SEIHIN
 62
     7
100
AcDbLine
 10
2400.73486462511
 20
349.4835388551023
 30
0.0000000000008809
 11
2383.434864625111
 21
349.4835388551042
 31
0.0000000000000408
  0
LINE
  5
502F
330
1A
100
AcDbEntity
  8
SEIHIN
100
AcDbLine
 10
2375.934864625111
 20
346.9835388551242
 30
-0.000000000001638
 11
2326.434864625111
 21
346.983538855123
 31
-0.00000000000164
  0
LINE
  5
5030
330
1A
100
AcDbEntity
  8
SEIHIN
100
AcDbLine
 10
2326.434864625111
 20
97.48353885512571
 30
-0.00000000000164
 11
2326.434864625111
 21
346.983538855123
 31
-0.00000000000164
  0
LINE
  5
5031
330
1A
100
AcDbEntity
  8
SEIHIN
100
AcDbLine
 10
2326.934864625111
 20
97.48353885512571
 30
-0.00000000000164
 11
2326.934864625111
 21
346.983538855123
 31
-0.00000000000164
  0
LINE
  5
5032
330
1A
100
AcDbEntity
  8
SEIHIN
  6
DASHED2
100
AcDbLine
 10
2330.434864625111
 20
97.48353885512571
 30
-0.00000000000164
 11
2330.434864625111
 21
346.983538855123
 31
-0.00000000000164
  0
LINE
  5
5033
102
{ACAD_REACTORS
330
5041
102
}
330
1A
100
AcDbEntity
  8
SEIHIN
100
AcDbLine
 10
2604.434864625111
 20
374.4835388551229
 30
-0.00000000000164
 11
2406.934864625111
 21
374.4835388551229
 31
-0.00000000000164
  0
LINE
  5
5034
330
1A
100
AcDbEntity
  8
SEIHIN
100
AcDbLine
 10
2383.434864625111
 20
344.9835388551041
 30
0.0000000000000408
 11
2383.434864625111
 21
345.4835388551042
 31
0.0000000000000408
  0
LINE
  5
5035
330
1A
100
AcDbEntity
  8
SEIHIN
100
AcDbLine
 10
2400.73486462511
 20
344.9835388551041
 30
0.0000000000000408
 11
2383.434864625111
 21
344.9835388551041
 31
0.0000000000000408
  0
ARC
  5
5036
330
1A
100
AcDbEntity
  8
SEIHIN
100
AcDbCircle
 10
2400.73486462511
 20
344.2835388551016
 30
0.0000000000008809
 40
0.7
100
AcDbArc
 50
0.0
 51
90.0
  0
ARC
  5
5037
330
1A
100
AcDbEntity
  8
SEIHIN
100
AcDbCircle
 10
2400.73486462511
 20
344.2835388551016
 30
0.0000000000008809
 40
1.199999999999999
100
AcDbArc
 50
0.0
 51
90.0
  0
LINE
  5
5038
330
1A
100
AcDbEntity
  8
SEIHIN
100
AcDbLine
 10
2401.434864625111
 20
326.183538855122
 30
-0.000000000001637
 11
2401.434864625111
 21
344.2835388551016
 31
-0.0000000000016381
  0
ARC
  5
5039
102
{ACAD_REACTORS
330
503D
102
}
330
1A
100
AcDbEntity
  8
SEIHIN
100
AcDbCircle
 10
2402.634864625108
 20
326.183538855122
 30
0.0000000000000408
 40
1.199999999999999
100
AcDbArc
 50
180.0
 51
270.0
  0
HATCH
  5
503A
330
1A
100
AcDbEntity
  8
SEALING
  6
DASHED2
 48
0.5
370
     9
100
AcDbHatch
 10
0.0
 20
0.0
 30
-0.0000000000017213
210
0.0
220
0.0
230
1.0
  2
ANSI37
 70
     0
 71
     0
 91
        1
 92
        1
 93
        4
 72
     1
 10
2426.434864625111
 20
337.4835388551217
 11
2426.434864625111
 21
324.9835388551215
 72
     1
 10
2426.434864625111
 20
324.9835388551215
 11
2436.434864625111
 21
324.9835388551215
 72
     1
 10
2436.434864625111
 20
324.9835388551215
 11
2436.434864625111
 21
337.4835388551217
 72
     1
 10
2436.434864625111
 20
337.4835388551217
 11
2426.434864625111
 21
337.4835388551217
 97
        0
 75
     0
 76
     1
 52
0.0
 41
1.0
 77
     0
 78
     2
 53
45.0
 43
2021.427309511688
 44
24.48353885512165
 45
-2.245064030267287
 46
2.245064030267287
 79
     0
 53
135.0
 43
2021.427309511688
 44
24.48353885512165
 45
-2.245064030267287
 46
-2.245064030267287
 79
     0
 98
        2
 10
2429.617485219422
 20
332.0983657289949
 10
2430.437805296838
 20
327.5885327808545
1001
ACAD
1010
0.0
1020
0.0
1030
0.0
  0
DIMENSION
  5
503B
102
{ACAD_XDICTIONARY
360
503C
102
}
102
{ACAD_REACTORS
330
503D
102
}
330
1A
100
AcDbEntity
  8
SUNPOU
100
AcDbDimension
280
     0
  2
*D8
 10
2376.434861509922
 20
296.183538855122
 30
-0.00000000000164
 11
2388.593589257378
 21
296.183538855122
 31
-0.00000000000164
 70
   160
 71
     5
 42
25.0000031151867
 73
     0
 74
     0
 75
     0
  3
STANDARD
100
AcDbAlignedDimension
 13
2401.434864625108
 23
326.183538855122
 33
0.0000000000000408
 14
2376.434861509922
 24
351.2835744619378
 34
0.0000000000000408
100
AcDbRotatedDimension
  0
ARC
  5
503E
330
1A
100
AcDbEntity
  8
SEALING
100
AcDbCircle
 10
2389.53486462511
 20
240.6047266662268
 30
0.0000000000000408
 40
85.38965948174755
100
AcDbArc
 50
81.17515407109818
 51
98.82484592890181
  0
DIMENSION
  5
503F
102
{ACAD_XDICTIONARY
360
5040
102
}
102
{ACAD_REACTORS
330
5041
102
}
330
1A
100
AcDbEntity
  8
SUNPOU
100
AcDbDimension
280
     0
  2
*D9
 10
2634.434864625111
 20
324.9835388551212
 30
-0.00000000000164
 11
2634.434864625111
 21
350.1502055217893
 31
-0.00000000000164
 70
   160
 71
     5
 42
50.00000000000188
 73
     0
 74
     0
 75
     0
  3
STANDARD
100
AcDbAlignedDimension
 13
2604.434864625111
 23
374.9835388551229
 33
-0.00000000000164
 14
2604.434864625111
 24
324.9835388551212
 34
-0.0000000000016369
 50
90.0
100
AcDbRotatedDimension
1001
ACAD
1000
DSTYLE
1002
{
1070
    76
1070
     0
1002
}
  0
LINE
  5
5042
330
1A
100
AcDbEntity
  8
PACKING
  6
DASHED2
 48
0.5
100
AcDbLine
 10
2406.934864625111
 20
344.2835388551018
 30
-0.0000000000016381
 11
2401.934864625111
 21
344.2835388551016
 31
-0.0000000000016381
  0
LINE
  5
5043
330
1A
100
AcDbEntity
  8
PACKING
100
AcDbLine
 10
2398.934864625111
 20
343.9835388551041
 30
0.0000000000000408
 11
2378.934864625111
 21
343.9835388551041
 31
0.0000000000000408
  0
LINE
  5
5044
330
1A
100
AcDbEntity
  8
SEALING
100
AcDbLine
 10
2401.434864625111
 20
341.983538855104
 30
0.0000000000000408
 11
2376.434864625111
 21
341.983538855104
 31
0.0000000000000408
  0
LINE
  5
5045
330
1A
100
AcDbEntity
  8
PACKING
100
AcDbLine
 10
2378.934864625111
 20
343.9835388551041
 30
0.0000000000000408
 11
2378.934864625111
 21
342.9835388551041
 31
0.0000000000000408
  0
LINE
  5
5046
330
1A
100
AcDbEntity
  8
PACKING
  6
DASHED2
 48
0.5
100
AcDbLine
 10
2406.934864625111
 20
337.4835388551217
 30
-0.0000000000016373
 11
2426.434864625111
 21
337.4835388551217
 31
-0.000000000001637
  0
LINE
  5
5047
330
1A
100
AcDbEntity
  8
PACKING
  6
DASHED2
 48
0.5
100
AcDbLine
 10
2426.434864625111
 20
337.4835388551217
 30
-0.0000000000000751
 11
2426.434864625111
 21
325.4835388551218
 31
-0.0000000000000235
  0
LINE
  5
5048
330
1A
100
AcDbEntity
  8
PACKING
  6
DASHED2
 48
0.5
100
AcDbLine
 10
2426.434864625111
 20
325.4835388551218
 30
-0.0000000000016025
 11
2402.634864625108
 21
325.483538855122
 31
0.0000000000000408
  0
LINE
  5
5049
330
1A
100
AcDbEntity
  8
PACKING
  6
DASHED2
 48
0.5
100
AcDbLine
 10
2406.934864625111
 20
337.4835388551217
 30
-0.0000000000016373
 11
2406.934864625111
 21
344.2835388551018
 31
-0.0000000000016381
  0
LINE
  5
504A
330
1A
100
AcDbEntity
  8
PACKING
  6
DASHED2
 48
0.5
100
AcDbLine
 10
2363.934862756009
 20
346.9835388551235
 30
-0.0000000000016369
 11
2363.934862756009
 21
326.9835388551217
 31
-0.0000000000001346
  0
LINE
  5
504B
330
1A
100
AcDbEntity
  8
PACKING
  6
DASHED2
 48
0.5
100
AcDbLine
 10
2363.934862756009
 20
326.9835388551217
 30
-0.0000000000001346
 11
2375.934862756009
 21
326.9835388551217
 31
-0.0000000000026927
  0
LINE
  5
504C
330
1A
100
AcDbEntity
  8
PACKING
  6
DASHED2
 48
0.5
100
AcDbLine
 10
2375.934862756009
 20
326.9835388551217
 30
-0.0000000000026927
 11
2375.934859774307
 21
351.2851332606896
 31
-0.000000000001637
  0
DIMENSION
  5
504D
330
1A
100
AcDbEntity
  8
SUNPOU
100
AcDbDimension
280
     0
  2
*D3
 10
2634.434864625111
 20
477.4835388551228
 30
-0.00000000000164
 11
2634.434864625111
 21
427.4835388551228
 31
-0.00000000000164
 70
   160
 71
     5
 42
99.99999999999994
 73
     0
 74
     0
 75
     0
  3
STANDARD
100
AcDbAlignedDimension
 13
2604.434864625111
 23
377.483538855123
 33
-0.00000000000164
 14
2604.434864625111
 24
477.4835388551228
 34
-0.00000000000164
 50
90.0
100
AcDbRotatedDimension
1001
ACAD
1000
DSTYLE
1002
{
1070
    76
1070
     0
1002
}
  0
LINE
  5
504E
330
1A
100
AcDbEntity
  8
SEIHIN
 62
     7
100
AcDbLine
 10
2383.434864625111
 20
349.4835388551042
 30
0.0000000000000408
 11
2383.434864625111
 21
345.4835388551042
 31
0.0000000000000408
  0
LINE
  5
504F
330
1A
100
AcDbEntity
  8
SEIHIN
100
AcDbLine
 10
2383.434864625111
 20
345.4835388551042
 30
0.0000000000000408
 11
2400.73486462511
 21
345.4835388551023
 31
0.0000000000008809
  0
LINE
  5
5050
330
1A
100
AcDbEntity
  8
SEIHIN
 62
     7
100
AcDbLine
 10
2400.73486462511
 20
345.4835388551023
 30
0.0000000000008809
 11
2400.73486462511
 21
349.4835388551023
 31
0.0000000000008809
  0
HATCH
  5
5051
330
1A
100
AcDbEntity
  8
SEIHIN
 62
     7
370
     9
100
AcDbHatch
 10
0.0
 20
0.0
 30
0.0000000000000408
210
0.0
220
0.0
230
1.0
  2
ANSI31
 70
     0
 71
     0
 91
        1
 92
        1
 93
        4
 72
     1
 10
2400.73486462511
 20
349.4835388551023
 11
2383.434864625111
 21
349.4835388551042
 72
     1
 10
2383.434864625111
 20
349.4835388551042
 11
2383.434864625111
 21
345.4835388551042
 72
     1
 10
2383.434864625111
 20
345.4835388551042
 11
2400.73486462511
 21
345.4835388551023
 72
     1
 10
2400.73486462511
 20
345.4835388551023
 11
2400.73486462511
 21
349.4835388551023
 97
        0
 75
     0
 76
     1
 52
90.0
 41
0.5
 77
     0
 78
     1
 53
135.0
 43
2021.427309511688
 44
24.48353885512165
 45
-1.122532015133643
 46
-1.122532015133643
 79
     0
 98
        1
 10
2390.838678430004
 20
347.7899569702426
  0
HATCH
  5
5052
330
1A
100
AcDbEntity
  8
PACKING
370
     9
100
AcDbHatch
 10
0.0
 20
0.0
 30
0.0000000000000408
210
0.0
220
0.0
230
1.0
  2
ANSI31
 70
     0
 71
     0
 91
        1
 92
        1
 93
        4
 72
     1
 10
2398.934864625111
 20
342.9835388551041
 11
2398.934864625111
 21
343.9835388551041
 72
     1
 10
2398.934864625111
 20
343.9835388551041
 11
2378.934864625111
 21
343.9835388551041
 72
     1
 10
2378.934864625111
 20
343.9835388551041
 11
2378.934864625111
 21
342.9835388551041
 72
     1
 10
2378.934864625111
 20
342.9835388551041
 11
2398.934864625111
 21
342.9835388551041
 97
        0
 75
     0
 76
     1
 52
0.0
 41
0.5
 77
     0
 78
     1
 53
45.0
 43
2022.523063787446
 44
24.1835388551242
 45
-1.122532015133643
 46
1.122532015133643
 79
     0
 98
        1
 10
2392.720572123151
 20
343.3935497423623
  0
LINE
  5
5053
330
1A
100
AcDbEntity
  8
SEALING
  6
DASHED2
 48
0.5
100
AcDbLine
 10
2426.434864625111
 20
337.4835388551217
 30
-0.0000000000000751
 11
2436.434864625111
 21
337.4835388551217
 31
-0.0000000000000751
  0
LINE
  5
5054
330
1A
100
AcDbEntity
  8
SEALING
  6
DASHED2
 48
0.5
100
AcDbLine
 10
2436.434864625111
 20
337.4835388551217
 30
-0.0000000000000813
 11
2436.434864625111
 21
324.9835388551215
 31
-0.0000000000000813
  0
LINE
  5
5055
330
1A
100
AcDbEntity
  8
SEALING
  6
DASHED2
 48
0.5
100
AcDbLine
 10
2436.434864625111
 20
324.9835388551215
 30
-0.0000000000000813
 11
2426.434864625111
 21
324.9835388551215
 31
-0.0000000000000813
  0
LINE
  5
5056
330
1A
100
AcDbEntity
  8
SEALING
  6
DASHED2
 48
0.5
100
AcDbLine
 10
2426.434864625111
 20
324.9835388551215
 30
-0.0000000000000235
 11
2426.434864625111
 21
337.4835388551217
 31
-0.0000000000000751
  0
HATCH
  5
5057
330
1A
100
AcDbEntity
  8
SEIHIN
370
     9
100
AcDbHatch
 10
0.0
 20
0.0
 30
0.0
210
0.0
220
0.0
230
1.0
  2
ANSI35
 70
     0
 71
     0
 91
        1
 92
        1
 93
        4
 72
     1
 10
2604.434864625111
 20
374.4835388551229
 11
2406.934864625111
 21
374.4835388551229
 72
     1
 10
2406.934864625111
 20
374.4835388551229
 11
2406.934864625111
 21
325.483538855122
 72
     1
 10
2406.934864625111
 20
325.483538855122
 11
2604.434864625111
 21
325.483538855123
 72
     1
 10
2604.434864625111
 20
325.483538855123
 11
2604.434864625111
 21
374.4835388551229
 97
        0
 75
     0
 76
     1
 52
0.0
 41
5.0
 77
     0
 78
     2
 53
45.0
 43
2021.427309511688
 44
24.48353885512165
 45
-22.45064030267288
 46
22.45064030267288
 79
     0
 53
45.0
 43
2043.877959511688
 44
24.48353885512165
 45
-22.45064030267288
 46
22.45064030267288
 79
     4
 49
39.6875
 49
-7.9375
 49
0.0
 49
-7.9375
 98
        3
 10
2491.527546482023
 20
331.7285966463443
 10
2496.148841684044
 20
306.318610203799
 10
2496.919058386525
 20
303.2386103867731
  0
HATCH
  5
5058
330
1A
100
AcDbEntity
  8
SEIHIN
370
     9
100
AcDbHatch
 10
0.0
 20
0.0
 30
0.0
210
0.0
220
0.0
230
1.0
  2
ANSI35
 70
     0
 71
     0
 91
        1
 92
        1
 93
        4
 72
     1
 10
2326.934864625111
 20
346.983538855123
 11
2326.934864625111
 21
97.48353885512578
 72
     1
 10
2326.934864625111
 20
97.48353885512571
 11
2375.934864625111
 21
97.48353885512571
 72
     1
 10
2375.934864625111
 20
97.48353885512571
 11
2375.934864625111
 21
346.9835388551242
 72
     1
 10
2375.934864625111
 20
346.9835388551242
 11
2326.934864625111
 21
346.983538855123
 97
        0
 75
     0
 76
     1
 52
0.0
 41
5.0
 77
     0
 78
     2
 53
45.0
 43
2021.427309511688
 44
27.48353885512165
 45
-22.45064030267288
 46
22.45064030267288
 79
     0
 53
45.0
 43
2043.877959511688
 44
27.48353885512165
 45
-22.45064030267288
 46
22.45064030267288
 79
     4
 49
39.6875
 49
-7.9375
 49
0.0
 49
-7.9375
 98
        3
 10
2352.882314438863
 20
298.1536145591842
 10
2393.703749541713
 20
287.3736206405888
 10
2397.939933886062
 20
287.3736206405888
  0
LINE
  5
5059
330
1A
100
AcDbEntity
  8
SEIHIN
100
AcDbLine
 10
2354.434861509916
 20
353.1835744619379
 30
0.0000000000000408
 11
2354.434861509916
 21
373.4835744619354
 31
0.0000000000000408
  0
LINE
  5
505A
330
1A
100
AcDbEntity
  8
SEIHIN
100
AcDbLine
 10
2604.434864625111
 20
325.483538855123
 30
-0.000000000001637
 11
2402.634864625108
 21
325.4835388551215
 31
0.0000000000002372
  0
LINE
  5
505B
330
1A
100
AcDbEntity
  8
SEIHIN
100
AcDbLine
 10
2401.934864625111
 20
326.183538855122
 30
-0.000000000001637
 11
2401.934864625111
 21
344.2835388551016
 31
-0.0000000000016381
  0
LINE
  5
505C
102
{ACAD_REACTORS
330
5041
102
}
330
1A
100
AcDbEntity
  8
SEIHIN
100
AcDbLine
 10
2604.434864625111
 20
324.9835388551212
 30
-0.0000000000016369
 11
2402.634864625108
 21
324.9835388551217
 31
0.0000000000002372
  0
LINE
  5
505D
102
{ACAD_REACTORS
330
5041
102
}
330
1A
100
AcDbEntity
  8
SEIHIN
  6
DASHED2
100
AcDbLine
 10
2604.434864625111
 20
334.4835388551213
 30
-0.0000000000016369
 11
2406.934864625111
 21
334.4835388551217
 31
0.0000000000002372
  0
LINE
  5
505E
330
1A
100
AcDbEntity
  8
SEIHIN
100
AcDbLine
 10
2375.234861509922
 20
352.483574461937
 30
-0.000000000001637
 11
2355.634861509916
 21
352.483574461937
 31
-0.0000000000016382
  0
LINE
  5
505F
330
1A
100
AcDbEntity
  8
SEIHIN
100
AcDbLine
 10
2375.234861509922
 20
351.9835744619371
 30
-0.000000000001637
 11
2355.634861509916
 21
351.9835744619371
 31
-0.0000000000016382
  0
LINE
  5
5060
330
1A
100
AcDbEntity
  8
PACKING
100
AcDbLine
 10
2398.934864625111
 20
342.9835388551041
 30
0.0000000000000408
 11
2378.934864625111
 21
342.9835388551041
 31
0.0000000000000408
  0
LINE
  5
5061
330
1A
100
AcDbEntity
  8
SEALING
  6
DASHED2
 48
0.5
100
AcDbLine
 10
2376.434860227561
 20
316.9835388551216
 30
0.0000000000000408
 11
2376.434862756009
 21
326.9835388551217
 31
-0.000000000001637
  0
LINE
  5
5062
330
1A
100
AcDbEntity
  8
SEALING
  6
DASHED2
 48
0.5
100
AcDbLine
 10
2376.434862756009
 20
326.9835388551217
 30
-0.0000000000015962
 11
2363.934862756009
 21
326.9835388551217
 31
-0.0000000000001346
  0
LINE
  5
5063
330
1A
100
AcDbEntity
  8
SEALING
  6
DASHED2
 48
0.5
100
AcDbLine
 10
2363.934862756009
 20
316.9835388551216
 30
-0.0000000000001346
 11
2376.434860227561
 21
316.9835388551216
 31
0.0000000000000408
  0
LINE
  5
5081
330
1A
100
AcDbEntity
  8
SEALING
  6
DASHED2
 48
0.5
100
AcDbLine
 10
2363.934862756009
 20
326.9835388551217
 30
-0.0000000000001346
 11
2363.934862756009
 21
316.9835388551216
 31
-0.0000000000001346
  0
LINE
  5
5082
330
1A
100
AcDbEntity
  8
PACKING
  6
DASHED2
 48
0.5
100
AcDbLine
 10
2355.634862756007
 20
346.9835388551245
 30
0.0000000000008809
 11
2355.634859640814
 21
351.9835744619371
 31
0.0000000000008809
  0
HATCH
  5
5083
330
1A
100
AcDbEntity
  8
PACKING
  6
DASHED2
 48
0.5
370
     9
100
AcDbHatch
 10
0.0
 20
0.0
 30
-0.0000000000006426
210
0.0
220
0.0
230
1.0
  2
ANSI31
 70
     0
 71
     0
 91
        1
 92
        1
 93
        7
 72
     1
 10
2406.934864625111
 20
337.4835388551218
 11
2406.934864625111
 21
344.2835388551018
 72
     1
 10
2406.934864625111
 20
344.2835388551018
 11
2401.93486462511
 21
344.2835388551016
 72
     1
 10
2401.93486462511
 20
344.2835388551016
 11
2401.934864625111
 21
326.1835388551219
 72
     2
 10
2402.634864625111
 20
326.1835388551217
 40
0.6999999999998181
 50
179.9999999999814
 51
270.0
 73
     1
 72
     1
 10
2402.634864625111
 20
325.483538855122
 11
2426.434864625111
 21
325.4835388551216
 72
     1
 10
2426.434864625111
 20
325.4835388551216
 11
2426.434864625111
 21
337.4835388551215
 72
     1
 10
2426.434864625111
 20
337.4835388551215
 11
2406.934864625111
 21
337.4835388551218
 97
        0
 75
     0
 76
     1
 52
0.0
 41
1.0
 77
     0
 78
     1
 53
45.0
 43
2021.427309511688
 44
24.48353885512165
 45
-2.245064030267287
 46
2.245064030267287
 79
     0
 98
        3
 10
2421.806599672104
 20
351.8477825307217
 10
2420.415577689911
 20
345.5908647164421
 10
2423.766674367828
 20
345.3380591273866
1001
ACAD
1010
0.0
1020
0.0
1030
0.0
  0
LINE
  5
50A0
330
1A
100
AcDbEntity
  8
YAKUMONO
100
AcDbLine
 10
2325.934864625111
 20
277.4835388551231
 30
-0.00000000000164
 11
2326.434864625111
 21
277.4835388551231
 31
0.0
  0
LINE
  5
50A1
330
1A
100
AcDbEntity
  8
SEIHIN
100
AcDbLine
 10
2375.93486598184
 20
97.48353885512578
 30
-0.000000000001637
 11
2375.934861509919
 21
351.2835744619382
 31
-0.000000000001637
  0
LINE
  5
50A2
330
1A
100
AcDbEntity
  8
SEIHIN
100
AcDbLine
 10
2376.434865981839
 20
97.48353885512571
 30
-0.0000000000023676
 11
2376.434861509922
 21
351.2835744619378
 31
0.0000000000000408
  0
LINE
  5
50A3
330
1A
100
AcDbEntity
  8
SEIHIN
  6
DASHED2
100
AcDbLine
 10
2366.934864625111
 20
97.48353885512571
 30
-0.0000000000016369
 11
2366.934864625111
 21
346.9835388551246
 31
-0.0000000000016369
  0
LINE
  5
50A4
330
1A
100
AcDbEntity
  8
SITAJI
370
     9
100
AcDbLine
 10
2323.934864625111
 20
237.932123251576
 30
-0.0000000000020095
 11
2321.634864625108
 21
235.6321232515766
 31
-0.0000000000020095
  0
LINE
  5
50A5
330
1A
100
AcDbEntity
  8
SITAJI
370
     9
100
AcDbLine
 10
2323.934864625111
 20
240.7605503763226
 30
-0.0000000000020095
 11
2321.634864625108
 21
238.4605503763234
 31
-0.0000000000020095
  0
LINE
  5
50A6
330
1A
100
AcDbEntity
  8
SITAJI
370
     9
100
AcDbLine
 10
2323.934864625111
 20
280.3585301227705
 30
-0.0000000000020095
 11
2321.634864625108
 21
278.0585301227694
 31
-0.0000000000020095
  0
LINE
  5
50A7
330
1A
100
AcDbEntity
  8
SITAJI
370
     9
100
AcDbLine
 10
2323.934864625111
 20
283.1869572475189
 30
-0.0000000000020095
 11
2321.634864625108
 21
280.8869572475198
 31
-0.0000000000020095
  0
LINE
  5
50A8
330
1A
100
AcDbEntity
  8
SITAJI
370
     9
100
AcDbLine
 10
2323.279587107785
 20
324.9580866013895
 30
-0.0000000000020095
 11
2321.534467422449
 21
323.2129669160533
 31
-0.0000000000020095
  0
LINE
  5
50A9
330
1A
100
AcDbEntity
  8
SITAJI
370
     9
100
AcDbLine
 10
2323.926283103714
 20
322.776355472568
 30
-0.0000000000020095
 11
2321.634864625108
 21
320.4849369939621
 31
-0.0000000000020095
  0
LINE
  5
50AA
330
1A
100
AcDbEntity
  8
SITAJI
370
     9
100
AcDbLine
 10
2286.207059615082
 20
327.4835388551288
 30
-0.0000000000020095
 11
2283.907059615079
 21
325.183538855126
 31
-0.0000000000020095
  0
LINE
  5
50AB
330
1A
100
AcDbEntity
  8
SITAJI
370
     9
100
AcDbLine
 10
2283.378632490328
 20
327.4835388551288
 30
-0.0000000000020095
 11
2281.078632490329
 21
325.183538855126
 31
-0.0000000000020095
  0
LINE
  5
50AC
330
1A
100
AcDbEntity
  8
SITAJI
370
     9
100
AcDbLine
 10
2240.952225619111
 20
327.4835388551261
 30
-0.0000000000020095
 11
2238.652225619113
 21
325.183538855126
 31
-0.0000000000020095
  0
LINE
  5
50AD
330
1A
100
AcDbEntity
  8
SITAJI
370
     9
100
AcDbLine
 10
2226.23486462511
 20
312.7661778611038
 30
-0.0000000000020095
 11
2223.934864625111
 21
310.4661778611009
 31
-0.0000000000020095
  0
LINE
  5
50AE
330
1A
100
AcDbEntity
  8
SITAJI
370
     9
100
AcDbLine
 10
2243.780652743827
 20
327.483538855126
 30
-0.0000000000020095
 11
2241.480652743835
 21
325.183538855126
 31
-0.0000000000020095
  0
LINE
  5
50AF
330
1A
100
AcDbEntity
  8
SITAJI
370
     9
100
AcDbLine
 10
2226.23486462511
 20
309.9377507363535
 30
-0.0000000000020095
 11
2223.934864625111
 21
307.637750736347
 31
-0.0000000000020095
  0
LINE
  5
50B0
330
1A
100
AcDbEntity
  8
SITAJI
370
     9
100
AcDbLine
 10
2226.234864625107
 20
267.5113438651571
 30
-0.0000000000020095
 11
2223.934864625111
 21
265.211343865156
 31
-0.0000000000020095
  0
LINE
  5
50B1
330
1A
100
AcDbEntity
  8
SITAJI
370
     9
100
AcDbLine
 10
2226.234864625107
 20
270.3397709899038
 30
-0.0000000000020095
 11
2223.934864625111
 21
268.0397709899045
 31
-0.0000000000020095
  0
LINE
  5
50B2
330
1A
100
AcDbEntity
  8
SITAJI
370
     9
100
AcDbLine
 10
2228.205436564187
 20
229.883936057786
 30
-0.0000000000020095
 11
2226.460316878847
 21
228.1388163724479
 31
-0.0000000000020095
  0
LINE
  5
50B3
330
1A
100
AcDbEntity
  8
SITAJI
370
     9
100
AcDbLine
 10
2230.933466486271
 20
229.7835388551249
 30
-0.0000000000020095
 11
2228.642048007669
 21
227.4921203765226
 31
-0.0000000000020095
  0
LINE
  5
50B4
330
1A
100
AcDbEntity
  8
SITAJI
370
     9
100
AcDbLine
 10
2273.359873357463
 20
229.7835388551249
 30
-0.0000000000020095
 11
2271.059873357468
 21
227.4835388551256
 31
-0.0000000000020095
  0
LINE
  5
50B5
330
1A
100
AcDbEntity
  8
SITAJI
370
     9
100
AcDbLine
 10
2270.531446232717
 20
229.7835388551249
 30
-0.0000000000020095
 11
2268.231446232721
 21
227.4835388551256
 31
-0.0000000000020095
  0
LINE
  5
50B6
330
1A
100
AcDbEntity
  8
SITAJI
370
     9
100
AcDbLine
 10
2315.786280228656
 20
229.7835388551249
 30
-0.0000000000020095
 11
2313.486280228661
 21
227.4835388551256
 31
-0.0000000000020095
  0
LINE
  5
50B7
330
1A
100
AcDbEntity
  8
SITAJI
370
     9
100
AcDbLine
 10
2312.95785310391
 20
229.7835388551249
 30
-0.0000000000020095
 11
2310.657853103914
 21
227.4835388551256
 31
-0.0000000000020095
  0
LINE
  5
50B8
330
1A
100
AcDbEntity
  8
SITAJI
370
     9
100
AcDbLine
 10
2473.934864625107
 20
387.9321232515728
 30
-0.0000000000020095
 11
2471.634864625105
 21
385.6321232515734
 31
-0.0000000000020095
  0
LINE
  5
50B9
330
1A
100
AcDbEntity
  8
SITAJI
370
     9
100
AcDbLine
 10
2473.934864625107
 20
390.7605503763195
 30
-0.0000000000020095
 11
2471.634864625105
 21
388.4605503763201
 31
-0.0000000000020095
  0
LINE
  5
50BA
330
1A
100
AcDbEntity
  8
SITAJI
370
     9
100
AcDbLine
 10
2473.934864625107
 20
430.3585301227673
 30
-0.0000000000020095
 11
2471.634864625105
 21
428.058530122766
 31
-0.0000000000020095
  0
LINE
  5
50BB
330
1A
100
AcDbEntity
  8
SITAJI
370
     9
100
AcDbLine
 10
2473.934864625107
 20
433.1869572475157
 30
-0.0000000000020095
 11
2471.634864625105
 21
430.8869572475164
 31
-0.0000000000020095
  0
LINE
  5
50BC
330
1A
100
AcDbEntity
  8
SITAJI
370
     9
100
AcDbLine
 10
2473.279587107782
 20
474.9580866013864
 30
-0.0000000000020095
 11
2471.534467422446
 21
473.2129669160499
 31
-0.0000000000020095
  0
LINE
  5
50BD
330
1A
100
AcDbEntity
  8
SITAJI
370
     9
100
AcDbLine
 10
2473.926283103711
 20
472.7763554725648
 30
-0.0000000000020095
 11
2471.634864625105
 21
470.4849369939589
 31
-0.0000000000020095
  0
LINE
  5
50BE
330
1A
100
AcDbEntity
  8
SITAJI
370
     9
100
AcDbLine
 10
2436.207059615079
 20
477.4835388551256
 30
-0.0000000000020095
 11
2433.907059615076
 21
475.1835388551226
 31
-0.0000000000020095
  0
LINE
  5
50BF
330
1A
100
AcDbEntity
  8
SITAJI
370
     9
100
AcDbLine
 10
2433.378632490324
 20
477.4835388551256
 30
-0.0000000000020095
 11
2431.078632490325
 21
475.1835388551226
 31
-0.0000000000020095
  0
LINE
  5
50C0
330
1A
100
AcDbEntity
  8
SITAJI
370
     9
100
AcDbLine
 10
2390.952225619106
 20
477.4835388551229
 30
-0.0000000000020095
 11
2388.652225619109
 21
475.183538855123
 31
-0.0000000000020095
  0
LINE
  5
50C1
330
1A
100
AcDbEntity
  8
SITAJI
370
     9
100
AcDbLine
 10
2376.234864625107
 20
462.7661778611004
 30
-0.0000000000020095
 11
2373.934864625107
 21
460.4661778610976
 31
-0.0000000000020095
  0
LINE
  5
50C2
330
1A
100
AcDbEntity
  8
SITAJI
370
     9
100
AcDbLine
 10
2393.780652743824
 20
477.4835388551228
 30
-0.0000000000020095
 11
2391.480652743831
 21
475.183538855123
 31
-0.0000000000020095
  0
LINE
  5
50C3
330
1A
100
AcDbEntity
  8
SITAJI
370
     9
100
AcDbLine
 10
2376.234864625107
 20
459.9377507363501
 30
-0.0000000000020095
 11
2373.934864625107
 21
457.6377507363438
 31
-0.0000000000020095
  0
LINE
  5
50C4
330
1A
100
AcDbEntity
  8
SITAJI
370
     9
100
AcDbLine
 10
2376.234864625103
 20
417.511343865154
 30
-0.0000000000020095
 11
2373.934864625107
 21
415.2113438651528
 31
-0.0000000000020095
  0
LINE
  5
50C5
330
1A
100
AcDbEntity
  8
SITAJI
370
     9
100
AcDbLine
 10
2376.234864625103
 20
420.3397709899006
 30
-0.0000000000020095
 11
2373.934864625107
 21
418.0397709899012
 31
-0.0000000000020095
  0
LINE
  5
50C6
330
1A
100
AcDbEntity
  8
SITAJI
370
     9
100
AcDbLine
 10
2378.205436564183
 20
379.8839360577828
 30
-0.0000000000020095
 11
2376.460316878844
 21
378.1388163724447
 31
-0.0000000000020095
  0
LINE
  5
50C7
330
1A
100
AcDbEntity
  8
SITAJI
370
     9
100
AcDbLine
 10
2380.933466486267
 20
379.7835388551218
 30
-0.0000000000020095
 11
2378.642048007665
 21
377.4921203765194
 31
-0.0000000000020095
  0
LINE
  5
50C8
330
1A
100
AcDbEntity
  8
SITAJI
370
     9
100
AcDbLine
 10
2423.35987335746
 20
379.7835388551218
 30
-0.0000000000020095
 11
2421.059873357464
 21
377.4835388551225
 31
-0.0000000000020095
  0
LINE
  5
50C9
330
1A
100
AcDbEntity
  8
SITAJI
370
     9
100
AcDbLine
 10
2420.531446232713
 20
379.7835388551218
 30
-0.0000000000020095
 11
2418.231446232718
 21
377.4835388551225
 31
-0.0000000000020095
  0
LINE
  5
50CA
330
1A
100
AcDbEntity
  8
SITAJI
370
     9
100
AcDbLine
 10
2465.786280228653
 20
379.7835388551218
 30
-0.0000000000020095
 11
2463.486280228657
 21
377.4835388551225
 31
-0.0000000000020095
  0
LINE
  5
50CB
330
1A
100
AcDbEntity
  8
SITAJI
370
     9
100
AcDbLine
 10
2462.957853103906
 20
379.7835388551218
 30
-0.0000000000020095
 11
2460.65785310391
 21
377.4835388551225
 31
-0.0000000000020095
  0
LINE
  5
50CC
330
1A
100
AcDbEntity
  8
PACKING
100
AcDbLine
 10
2398.934864625111
 20
343.9835388551041
 30
0.0000000000000408
 11
2398.934864625111
 21
342.9835388551041
 31
0.0000000000000408
  0
LINE
  5
50CD
330
1A
100
AcDbEntity
  8
SUNPOU
  6
CENTER2
100
AcDbLine
 10
2423.934864625107
 20
532.483538855123
 30
-0.0000000000016396
 11
2423.934864625107
 21
287.5018832488332
 31
-0.0000000000016426
  0
LINE
  5
50CE
330
1A
100
AcDbEntity
  8
SUNPOU
  6
CENTER2
100
AcDbLine
 10
2168.934864625111
 20
277.4835388551259
 30
-0.0000000000016396
 11
2401.434864625116
 21
277.4835388551259
 31
-0.0000000000016396
  0
MTEXT
  5
50CF
330
1A
100
AcDbEntity
  8
SUNPOU
100
AcDbMText
 10
2266.077986031351
 20
539.0932395929544
 30
-0.0000000000033143
 40
5.0
 41
44.47311893580399
 46
0.0
 71
     1
 72
     5
  1
胴縁芯
 73
     1
 44
1.0
1001
ACAD
1000
ACAD_MTEXT_COLUMN_INFO_BEGIN
1070
    75
1070
     2
1070
    79
1070
     0
1070
    76
1070
     1
1070
    78
1070
     0
1070
    48
1040
44.47311893580399
1070
    49
1040
25.0
1070
    50
1070
     1
1040
0.0
1000
ACAD_MTEXT_COLUMN_INFO_END
  0
MTEXT
  5
50D0
330
1A
100
AcDbEntity
  8
SUNPOU
100
AcDbMText
 10
2150.416851156663
 20
280.2476799737485
 30
-0.0000000000033143
 40
5.0
 41
44.47311893580399
 46
0.0
 71
     1
 72
     5
  1
胴縁芯
 73
     1
 44
1.0
1001
ACAD
1000
ACAD_MTEXT_COLUMN_INFO_BEGIN
1070
    75
1070
     2
1070
    79
1070
     0
1070
    76
1070
     1
1070
    78
1070
     0
1070
    48
1040
44.47311893580399
1070
    49
1040
25.0
1070
    50
1070
     1
1040
0.0
1000
ACAD_MTEXT_COLUMN_INFO_END
  0
LINE
  5
50D1
330
1A
100
AcDbEntity
  8
SUNPOU
  6
CENTER2
100
AcDbLine
 10
2273.934864625111
 20
532.483538855123
 30
-0.0000000000016396
 11
2273.934864625111
 21
97.48353885512571
 31
-0.0000000000016396
  0
LINE
  5
50D2
330
1A
100
AcDbEntity
  8
SUNPOU
  6
CENTER2
100
AcDbLine
 10
2168.934864625111
 20
427.4835388551228
 30
-0.0000000000016396
 11
2604.434864625111
 21
427.4835388551229
 31
-0.0000000000016396
  0
DIMENSION
  5
50D3
330
1A
100
AcDbEntity
  8
SUNPOU
100
AcDbDimension
280
     0
  2
*D4
 10
2273.934864625111
 20
489.0610528878652
 30
-0.0000000000033143
 11
2348.934864625109
 21
492.1860528878652
 31
-0.0000000000033143
 70
    32
 71
     5
 42
149.9999999999963
 73
     0
 74
     0
 75
     0
  3
STANDARD
100
AcDbAlignedDimension
 13
2423.934864625107
 23
477.4835388551228
 33
-0.0000000000016396
 14
2273.934864625111
 24
485.2291743796796
 34
-0.0000000000033143
100
AcDbRotatedDimension
  0
DIMENSION
  5
50D4
330
1A
100
AcDbEntity
  8
SUNPOU
100
AcDbDimension
280
     0
  2
*D5
 10
2204.258059118195
 20
427.4835388551228
 30
-0.0000000000033143
 11
2201.133059118195
 21
352.4835388551248
 31
-0.0000000000033143
 70
    32
 71
     5
 42
149.9999999999968
 73
     0
 74
     0
 75
     0
  3
STANDARD
100
AcDbAlignedDimension
 13
2209.778304751266
 23
277.4835388551259
 33
-0.0000000000033143
 14
2219.153304751265
 24
427.4835388551228
 34
-0.0000000000033143
 50
90.0
100
AcDbRotatedDimension
  0
DIMENSION
  5
50D5
330
1A
100
AcDbEntity
  8
SUNPOU
100
AcDbDimension
280
     0
  2
*D6
 10
2292.98858145473
 20
352.483574461937
 30
-0.0000000000033143
 11
2289.863581454731
 21
314.9835566585319
 31
-0.0000000000033143
 70
    32
 71
     5
 42
75.00003560681108
 73
     0
 74
     0
 75
     0
  3
STANDARD
100
AcDbAlignedDimension
 13
2301.315946623174
 23
277.4835388551259
 33
-0.0000000000016396
 14
2355.634859640814
 24
352.483574461937
 34
-0.0000000000016382
 50
90.0
100
AcDbRotatedDimension
  0
DIMENSION
  5
50D6
330
1A
100
AcDbEntity
  8
SUNPOU
100
AcDbDimension
280
     0
  2
*D7
 10
2401.434864625111
 20
409.992711051978
 30
0.0000000000000348
 11
2412.684864625109
 21
413.117711051978
 31
0.0000000000000348
 70
    32
  1
25
 71
     5
 42
22.49999999999636
 73
     0
 74
     0
 75
     0
  3
STANDARD
100
AcDbAlignedDimension
 13
2423.934864625107
 23
379.7835388551229
 33
-0.0000000000016415
 14
2401.434864625111
 24
344.2835388551016
 34
0.0000000000008809
100
AcDbRotatedDimension
  0
MTEXT
  5
50D8
330
1A
100
AcDbEntity
  8
SUNPOU
100
AcDbMText
 10
2150.416851156663
 20
430.2476799737453
 30
-0.0000000000033143
 40
5.0
 41
44.47311893580399
 46
0.0
 71
     1
 72
     5
  1
胴縁芯
 73
     1
 44
1.0
1001
ACAD
1000
ACAD_MTEXT_COLUMN_INFO_BEGIN
1070
    75
1070
     2
1070
    79
1070
     0
1070
    76
1070
     1
1070
    78
1070
     0
1070
    48
1040
44.47311893580399
1070
    49
1040
25.0
1070
    50
1070
     1
1040
0.0
1000
ACAD_MTEXT_COLUMN_INFO_END
  0
MTEXT
  5
50D9
330
1A
100
AcDbEntity
  8
SUNPOU
100
AcDbMText
 10
2416.077986031348
 20
539.0932395929544
 30
-0.0000000000033143
 40
5.0
 41
44.47311893580399
 46
0.0
 71
     1
 72
     5
  1
胴縁芯
 73
     1
 44
1.0
1001
ACAD
1000
ACAD_MTEXT_COLUMN_INFO_BEGIN
1070
    75
1070
     2
1070
    79
1070
     0
1070
    76
1070
     1
1070
    78
1070
     0
1070
    48
1040
44.47311893580399
1070
    49
1040
25.0
1070
    50
1070
     1
1040
0.0
1000
ACAD_MTEXT_COLUMN_INFO_END
  0
MULTILEADER
  5
50DA
102
{ACAD_XDICTIONARY
360
5C4C
102
}
330
1A
100
AcDbEntity
  8
HIKIDASI
160
               568
310
38020000150000000C00000016000000000000C00C00000033000000000000000C00000013000000993A0000E000000026000000A80E081378FAA340279189C7491F7240000000000000000000000000000000000000000000000000000000000000F03F000000000000F03F0000000000000000000000000000000010806B
310
70F430A130F330C93032FF3AFF15FF10FF00008D8A0A000000010000000000000000001440000000000000F03F0000000000000000000000000000F03F000000000000000000000000000000000000000000000000000000000100000000000000000000007400780074002E00730068007800000065007800740066006F00
310
6E0074002E0073006800780000000C00000033000000000000000C00000010000000090000000C00000016000000000000C00C00000012000000FF7F00000C00000013000000010000000C00000013000000891300003C00000006000000020000009CA52F7BB5CFA34077113D93BC4F7440000000000000000075DBD4DF44
310
F5A340279189C74947724000000000000000000C00000013000000112700003C000000060000000200000075DBD4DF44F5A340279189C7494772400000000000000000A80E081378F6A340279189C74947724000000000000000000C00000016000000000000C00C00000012000000FF7F00000C0000001700000000000000
310
0C000000130000009A3A00000C00000016000000000000C00C00000012000000FF7F00000C00000017000000FFFFFFFF0C0000003300000000000000
100
AcDbMLeader
270
     2
300
CONTEXT_DATA{
 40
1.0
 10
2555.234520198621
 20
292.455512559291
 30
0.0
 41
5.0
140
0.0
145
2.0
174
     1
175
     3
176
     0
177
     0
290
     1
304
耐火ヴァンドＲＺ５０
 11
0.0
 21
0.0
 31
1.0
340
10
 12
2557.234520198621
 22
294.955512559291
 32
0.0
 13
1.0
 23
0.0
 33
0.0
 42
0.0
 43
0.0
 44
0.0
 45
1.0
170
     1
 90
-1073741824
171
     1
172
     5
 91
-1073741824
141
0.0
 92
        0
291
     0
292
     0
173
     0
293
     0
142
0.0
143
0.0
294
     0
295
     0
296
     0
110
2535.854455460516
120
324.9835388551214
130
0.0
111
1.0
121
0.0
131
0.0
112
0.0
122
1.0
132
0.0
297
     0
302
LEADER{
290
     1
291
     1
 10
2554.634520198621
 20
292.455512559291
 30
0.0
 11
1.0
 21
0.0
 31
0.0
 90
        0
 40
0.6
304
LEADER_LINE{
 10
2535.854455460516
 20
324.9835388551214
 30
0.0
 91
        0
305
}
271
     0
303
}
272
     9
273
     9
301
}
340
2FEE
 90
   279552
170
     1
 91
-1056964608
341
14
171
    -2
290
     1
291
     1
 41
0.6
342
B0
 42
0.0
172
     2
343
10
173
     1
 95
        3
174
     1
175
     0
 92
-1056964608
292
     0
 93
-1056964608
 10
1.0
 20
1.0
 30
1.0
 43
0.0
176
     0
293
     0
294
     0
178
     0
179
     1
 45
1.0
271
     0
272
     9
273
     9
  0
MULTILEADER
  5
50DB
102
{ACAD_XDICTIONARY
360
5C4E
102
}
330
1A
100
AcDbEntity
  8
HIKIDASI
160
               572
310
3C020000150000000C00000016000000000000C00C00000033000000000000000C00000013000000993A0000E400000026000000AE55621B8ECDA2407CBA1113FAED6340000000000000000000000000000000000000000000000000000000000000F03F000000000000F03F000000000000000000000000000000002A6A70
310
8D8A303296626BB730FC30EA30F330B0303B2012FF000000000C000000010000000000000000001440000000000000F03F0000000000000000000000000000F03F000000000000000000000000000000000000000000000000000000000100000000000000000000007400780074002E007300680078000000650078007400
310
66006F006E0074002E0073006800780000000C00000033000000000000000C00000010000000090000000C00000016000000000000C00C00000012000000FF7F00000C00000013000000010000000C00000013000000891300003C000000060000000200000020E6A5C5D339A240555FED9BE9D5714000000000000000007A
310
222FE85AC8A2407FBA1113FA3D644000000000000000000C00000013000000112700003C00000006000000020000007A222FE85AC8A2407FBA1113FA3D64400000000000000000AD55621B8EC9A2407FBA1113FA3D644000000000000000000C00000016000000000000C00C00000012000000FF7F00000C00000017000000
310
000000000C000000130000009A3A00000C00000016000000000000C00C00000012000000FF7F00000C00000017000000FFFFFFFF0C0000003300000000000000
100
AcDbMLeader
270
     2
300
CONTEXT_DATA{
 40
1.0
 10
2404.777552674254
 20
161.9367766710529
 30
0.0
 41
5.0
140
0.0
145
2.0
174
     1
175
     3
176
     0
177
     0
290
     1
304
横走り防止シーリング※２
 11
0.0
 21
0.0
 31
1.0
340
10
 12
2406.777552674255
 22
164.4367766710528
 32
0.0
 13
1.0
 23
0.0
 33
0.0
 42
0.0
 43
0.0
 44
0.0
 45
1.0
170
     1
 90
-1073741824
171
     1
172
     5
 91
-1073741824
141
0.0
 92
        0
291
     0
292
     0
173
     0
293
     0
142
0.0
143
0.0
294
     0
295
     0
296
     0
110
2332.913617309896
120
285.3695334694251
130
0.0
111
1.0
121
0.0
131
0.0
112
0.0
122
1.0
132
0.0
297
     0
302
LEADER{
290
     1
291
     1
 10
2404.177552674254
 20
161.9367766710529
 30
0.0
 11
1.0
 21
0.0
 31
0.0
 90
        0
 40
0.6
304
LEADER_LINE{
 10
2332.913617309896
 20
285.3695334694251
 30
0.0
 91
        0
305
}
271
     0
303
}
272
     9
273
     9
301
}
340
2FEE
 90
   279552
170
     1
 91
-1056964608
341
14
171
    -2
290
     1
291
     1
 41
0.6
342
B0
 42
0.0
172
     2
343
10
173
     1
 95
        3
174
     1
175
     0
 92
-1056964608
292
     0
 93
-1056964608
 10
1.0
 20
1.0
 30
1.0
 43
0.0
176
     0
293
     0
294
     0
178
     0
179
     1
 45
1.0
271
     0
272
     9
273
     9
  0
MULTILEADER
  5
50DC
102
{ACAD_XDICTIONARY
360
5C50
102
}
330
1A
100
AcDbEntity
  8
HIKIDASI
160
               572
310
3C020000150000000C00000016000000000000C00C00000033000000000000000C00000013000000993A0000E4000000260000001BB1CD4EBCC7A24059DF85DED8B86A40000000000000000000000000000000000000000000000000000000000000F03F000000000000F03F00000000000000000000000000000000025C28
310
75D330B930003034FF37FF2CFF16FF16FF15FF2EFF000000000C000000010000000000000000001440000000000000F03F0000000000000000000000000000F03F000000000000000000000000000000000000000000000000000000000100000000000000000000007400780074002E007300680078000000650078007400
310
66006F006E0074002E0073006800780000000C00000033000000000000000C00000010000000090000000C00000016000000000000C00C00000012000000FF7F00000C00000013000000010000000C00000013000000891300003C0000000600000002000000F791B593E75CA240D5DABFEAA90473400000000000000000E7
310
7D9A1B89C2A24059DF85DED8086B4000000000000000000C00000013000000112700003C0000000600000002000000E77D9A1B89C2A24059DF85DED8086B4000000000000000001AB1CD4EBCC3A24059DF85DED8086B4000000000000000000C00000016000000000000C00C00000012000000FF7F00000C00000017000000
310
000000000C000000130000009A3A00000C00000016000000000000C00C00000012000000FF7F00000C00000017000000FFFFFFFF0C0000003300000000000000
100
AcDbMLeader
270
     2
300
CONTEXT_DATA{
 40
1.0
 10
2401.867788722868
 20
216.276473294706
 30
0.0
 41
5.0
140
0.0
145
2.0
174
     1
175
     3
176
     0
177
     0
290
     1
304
専用ビス　ＴＷＬ６６５Ｎ
 11
0.0
 21
0.0
 31
1.0
340
10
 12
2403.867788722867
 22
218.776473294706
 32
0.0
 13
1.0
 23
0.0
 33
0.0
 42
0.0
 43
0.0
 44
0.0
 45
1.0
170
     1
 90
-1073741824
171
     1
172
     5
 91
-1073741824
141
0.0
 92
        0
291
     0
292
     0
173
     0
293
     0
142
0.0
143
0.0
294
     0
295
     0
296
     0
110
2350.452298807209
120
304.2914836401299
130
0.0
111
1.0
121
0.0
131
0.0
112
0.0
122
1.0
132
0.0
297
     0
302
LEADER{
290
     1
291
     1
 10
2401.267788722867
 20
216.276473294706
 30
0.0
 11
1.0
 21
0.0
 31
0.0
 90
        0
 40
0.6
304
LEADER_LINE{
 10
2350.452298807209
 20
304.2914836401299
 30
0.0
 91
        0
305
}
271
     0
303
}
272
     9
273
     9
301
}
340
2FEE
 90
   279552
170
     1
 91
-1056964608
341
14
171
    -2
290
     1
291
     1
 41
0.6
342
B0
 42
0.0
172
     2
343
10
173
     1
 95
        3
174
     1
175
     0
 92
-1056964608
292
     0
 93
-1056964608
 10
1.0
 20
1.0
 30
1.0
 43
0.0
176
     0
293
     0
294
     0
178
     0
179
     1
 45
1.0
271
     0
272
     9
273
     9
  0
MULTILEADER
  5
50DD
102
{ACAD_XDICTIONARY
360
5C52
102
}
330
1A
100
AcDbEntity
  8
HIKIDASI
160
               572
310
3C020000150000000C00000016000000000000C00C00000033000000000000000C00000013000000993A0000E4000000260000002B87906BC51CA3401A4F739B78327340000000000000000000000000000000000000000000000000000000000000F03F000000000000F03F000000000000000000000000000000002A6A70
310
8D8A303296626BB730FC30EA30F330B0303B2011FF000000000C000000010000000000000000001440000000000000F03F0000000000000000000000000000F03F000000000000000000000000000000000000000000000000000000000100000000000000000000007400780074002E007300680078000000650078007400
310
66006F006E0074002E0073006800780000000C00000033000000000000000C00000010000000090000000C00000016000000000000C00C00000012000000FF7F00000C00000013000000010000000C00000013000000891300003C00000006000000020000006BDF561E2A00A340B428789ACD9E74400000000000000000F8
310
535D389217A3401A4F739B785A734000000000000000000C00000013000000112700003C0000000600000002000000F8535D389217A3401A4F739B785A734000000000000000002B87906BC518A3401A4F739B785A734000000000000000000C00000016000000000000C00C00000012000000FF7F00000C00000017000000
310
000000000C000000130000009A3A00000C00000016000000000000C00C00000012000000FF7F00000C00000017000000FFFFFFFF0C0000003300000000000000
100
AcDbMLeader
270
     2
300
CONTEXT_DATA{
 40
1.0
 10
2444.385586277485
 20
309.6544451240785
 30
0.0
 41
5.0
140
0.0
145
2.0
174
     1
175
     3
176
     0
177
     0
290
     1
304
横走り防止シーリング※１
 11
0.0
 21
0.0
 31
1.0
340
10
 12
2446.385586277485
 22
312.1544451240785
 32
0.0
 13
1.0
 23
0.0
 33
0.0
 42
0.0
 43
0.0
 44
0.0
 45
1.0
170
     1
 90
-1073741824
171
     1
172
     5
 91
-1073741824
141
0.0
 92
        0
291
     0
292
     0
173
     0
293
     0
142
0.0
143
0.0
294
     0
295
     0
296
     0
110
2432.082262720845
120
329.9251961415969
130
0.0
111
1.0
121
0.0
131
0.0
112
0.0
122
1.0
132
0.0
297
     0
302
LEADER{
290
     1
291
     1
 10
2443.785586277485
 20
309.6544451240785
 30
0.0
 11
1.0
 21
0.0
 31
0.0
 90
        0
 40
0.6
304
LEADER_LINE{
 10
2432.082262720845
 20
329.9251961415969
 30
0.0
 91
        0
305
}
271
     0
303
}
272
     9
273
     9
301
}
340
2FEE
 90
   279552
170
     1
 91
-1056964608
341
14
171
    -2
290
     1
291
     1
 41
0.6
342
B0
 42
0.0
172
     2
343
10
173
     1
 95
        3
174
     1
175
     0
 92
-1056964608
292
     0
 93
-1056964608
 10
1.0
 20
1.0
 30
1.0
 43
0.0
176
     0
293
     0
294
     0
178
     0
179
     1
 45
1.0
271
     0
272
     9
273
     9
  0
MULTILEADER
  5
50DE
102
{ACAD_XDICTIONARY
360
5C54
102
}
330
1A
100
AcDbEntity
  8
HIKIDASI
160
               564
310
34020000150000000C00000016000000000000C00C00000033000000000000000C00000013000000993A0000DC00000026000000AC4030E3AA0EA340D717CE30546C7240000000000000000000000000000000000000000000000000000000000000F03F000000000000F03F000000000000000000000000000000004B3093
310
300854E890D130C330AD30F33033FF000009000000010000000000000000001440000000000000F03F0000000000000000000000000000F03F000000000000000000000000000000000000000000000000000000000100000000000000000000007400780074002E00730068007800000065007800740066006F006E007400
310
2E0073006800780000000C00000033000000000000000C00000010000000090000000C00000016000000000000C00C00000012000000FF7F00000C00000013000000010000000C00000013000000891300003C00000006000000020000009041ED3343E4A240B4B82052DB97744000000000000000007B0DFDAF7709A340D7
310
17CE305494724000000000000000000C00000013000000112700003C00000006000000020000007B0DFDAF7709A340D717CE30549472400000000000000000AE4030E3AA0AA340D717CE305494724000000000000000000C00000016000000000000C00C00000012000000FF7F00000C00000017000000000000000C000000
310
130000009A3A00000C00000016000000000000C00C00000012000000FF7F00000C00000017000000FFFFFFFF0C0000003300000000000000
100
AcDbMLeader
270
     2
300
CONTEXT_DATA{
 40
1.0
 10
2437.333764560599
 20
297.2705543566239
 30
0.0
 41
5.0
140
0.0
145
2.0
174
     1
175
     3
176
     0
177
     0
290
     1
304
かん合部パッキンＳ
 11
0.0
 21
0.0
 31
1.0
340
10
 12
2439.333764560599
 22
299.7705543566239
 32
0.0
 13
1.0
 23
0.0
 33
0.0
 42
0.0
 43
0.0
 44
0.0
 45
1.0
170
     1
 90
-1073741824
171
     1
172
     5
 91
-1073741824
141
0.0
 92
        0
291
     0
292
     0
173
     0
293
     0
142
0.0
143
0.0
294
     0
295
     0
296
     0
110
2418.131255544904
120
329.491045120066
130
0.0
111
1.0
121
0.0
131
0.0
112
0.0
122
1.0
132
0.0
297
     0
302
LEADER{
290
     1
291
     1
 10
2436.7337645606
 20
297.2705543566239
 30
0.0
 11
1.0
 21
0.0
 31
0.0
 90
        0
 40
0.6
304
LEADER_LINE{
 10
2418.131255544904
 20
329.491045120066
 30
0.0
 91
        0
305
}
271
     0
303
}
272
     9
273
     9
301
}
340
2FEE
 90
   279552
170
     1
 91
-1056964608
341
14
171
    -2
290
     1
291
     1
 41
0.6
342
B0
 42
0.0
172
     2
343
10
173
     1
 95
        3
174
     1
175
     0
 92
-1056964608
292
     0
 93
-1056964608
 10
1.0
 20
1.0
 30
1.0
 43
0.0
176
     0
293
     0
294
     0
178
     0
179
     1
 45
1.0
271
     0
272
     9
273
     9
  0
MULTILEADER
  5
50DF
102
{ACAD_XDICTIONARY
360
5C56
102
}
330
1A
100
AcDbEntity
  8
HIKIDASI
160
               576
310
40020000150000000C00000016000000000000C00C00000033000000000000000C00000013000000993A0000E800000026000000A011B360AB09A3404FE86670FD227140000000000000000000000000000000000000000000000000000000000000F03F000000000000F03F00000000000000000000000000000000DC30F3
310
30C930D630EC30FC30AB30FC3008FF25521490E55D8B4E09FF000000000E000000010000000000000000001440000000000000F03F0000000000000000000000000000F03F000000000000000000000000000000000000000000000000000000000100000000000000000000007400780074002E0073006800780000006500
310
7800740066006F006E0074002E0073006800780000000C00000033000000000000000C00000010000000090000000C00000016000000000000C00C00000012000000FF7F00000C00000013000000010000000C00000013000000891300003C000000060000000200000096DF7F3B00B9A2402470861B307375400000000000
310
000000C233D582CD05A3404FE86670FD4A714000000000000000000C00000013000000112700003C0000000600000002000000C233D582CD05A3404FE86670FD4A71400000000000000000F56608B60007A3404FE86670FD4A714000000000000000000C00000016000000000000C00C00000012000000FF7F00000C000000
310
17000000000000000C000000130000009A3A00000C00000016000000000000C00C00000012000000FF7F00000C00000017000000FFFFFFFF0C0000003300000000000000
100
AcDbMLeader
270
     2
300
CONTEXT_DATA{
 40
1.0
 10
2435.501388800209
 20
276.6868747730086
 30
0.0
 41
5.0
140
0.0
145
2.0
174
     1
175
     3
176
     0
177
     0
290
     1
304
ボンドブレーカー（別途工事）
 11
0.0
 21
0.0
 31
1.0
340
10
 12
2437.501388800209
 22
279.1868747730086
 32
0.0
 13
1.0
 23
0.0
 33
0.0
 42
0.0
 43
0.0
 44
0.0
 45
1.0
170
     1
 90
-1073741824
171
     1
172
     5
 91
-1073741824
141
0.0
 92
        0
291
     0
292
     0
173
     0
293
     0
142
0.0
143
0.0
294
     0
295
     0
296
     0
110
2396.500453945201
120
343.1992450000273
130
0.0
111
1.0
121
0.0
131
0.0
112
0.0
122
1.0
132
0.0
297
     0
302
LEADER{
290
     1
291
     1
 10
2434.901388800209
 20
276.6868747730086
 30
0.0
 11
1.0
 21
0.0
 31
0.0
 90
        0
 40
0.6
304
LEADER_LINE{
 10
2396.500453945201
 20
343.1992450000273
 30
0.0
 91
        0
305
}
271
     0
303
}
272
     9
273
     9
301
}
340
2FEE
 90
   279552
170
     1
 91
-1056964608
341
14
171
    -2
290
     1
291
     1
 41
0.6
342
B0
 42
0.0
172
     2
343
10
173
     1
 95
        3
174
     1
175
     0
 92
-1056964608
292
     0
 93
-1056964608
 10
1.0
 20
1.0
 30
1.0
 43
0.0
176
     0
293
     0
294
     0
178
     0
179
     1
 45
1.0
271
     0
272
     9
273
     9
  0
MULTILEADER
  5
50E0
102
{ACAD_XDICTIONARY
360
5C58
102
}
330
1A
100
AcDbEntity
  8
HIKIDASI
160
               568
310
38020000150000000C00000016000000000000C00C00000033000000000000000C00000013000000993A0000E000000026000000C183ED5314F3A2401CF9B71048757040000000000000000000000000000000000000000000000000000000000000F03F000000000000F03F00000000000000000000000000000000B730FC
310
30EA30F330B03008FF25521490E55D8B4E09FF00000B000000010000000000000000001440000000000000F03F0000000000000000000000000000F03F000000000000000000000000000000000000000000000000000000000100000000000000000000007400780074002E00730068007800000065007800740066006F00
310
6E0074002E0073006800780000000C00000033000000000000000C00000010000000090000000C00000016000000000000C00C00000012000000FF7F00000C00000013000000010000000C00000013000000891300003C000000060000000200000030D373C734A2A240989F59DB50C874400000000000000000E3A50F7636
310
EFA2401CF9B710489D704000000000000000000C00000013000000112700003C0000000600000002000000E3A50F7636EFA2401CF9B710489D7040000000000000000016D942A969F0A2401CF9B710489D704000000000000000000C00000016000000000000C00C00000012000000FF7F00000C0000001700000000000000
310
0C000000130000009A3A00000C00000016000000000000C00C00000012000000FF7F00000C00000017000000FFFFFFFF0C0000003300000000000000
100
AcDbMLeader
270
     2
300
CONTEXT_DATA{
 40
1.0
 10
2424.206369484901
 20
265.8300940691422
 30
0.0
 41
5.0
140
0.0
145
2.0
174
     1
175
     3
176
     0
177
     0
290
     1
304
シーリング（別途工事）
 11
0.0
 21
0.0
 31
1.0
340
10
 12
2426.206369484901
 22
268.3300940691422
 32
0.0
 13
1.0
 23
0.0
 33
0.0
 42
0.0
 43
0.0
 44
0.0
 45
1.0
170
     1
 90
-1073741824
171
     1
172
     5
 91
-1073741824
141
0.0
 92
        0
291
     0
292
     0
173
     0
293
     0
142
0.0
143
0.0
294
     0
295
     0
296
     0
110
2385.103084201364
120
332.5197404385485
130
0.0
111
1.0
121
0.0
131
0.0
112
0.0
122
1.0
132
0.0
297
     0
302
LEADER{
290
     1
291
     1
 10
2423.606369484901
 20
265.8300940691422
 30
0.0
 11
1.0
 21
0.0
 31
0.0
 90
        0
 40
0.6
304
LEADER_LINE{
 10
2385.103084201364
 20
332.5197404385485
 30
0.0
 91
        0
305
}
271
     0
303
}
272
     9
273
     9
301
}
340
2FEE
 90
   279552
170
     1
 91
-1056964608
341
14
171
    -2
290
     1
291
     1
 41
0.6
342
B0
 42
0.0
172
     2
343
10
173
     1
 95
        3
174
     1
175
     0
 92
-1056964608
292
     0
 93
-1056964608
 10
1.0
 20
1.0
 30
1.0
 43
0.0
176
     0
293
     0
294
     0
178
     0
179
     1
 45
1.0
271
     0
272
     9
273
     9
  0
MULTILEADER
  5
50E1
102
{ACAD_XDICTIONARY
360
5C5A
102
}
330
1A
100
AcDbEntity
  8
HIKIDASI
160
               564
310
34020000150000000C00000016000000000000C00C00000033000000000000000C00000013000000993A0000DC000000260000007505D51A1EC7A14074A4F6EE899C7840000000000000000000000000000000000000000000000000000000000000F03F000000000000F03F00000000000000000000000000000000655185
310
9668637F6713FF15FF2D0015FF10FF000009000000010000000000000000001440000000000000F03F0000000000000000000000000000F03F000000000000000000000000000000000000000000000000000000000100000000000000000000007400780074002E00730068007800000065007800740066006F006E007400
310
2E0073006800780000000C00000033000000000000000C00000010000000090000000C00000016000000000000C00C00000012000000FF7F00000C00000013000000010000000C00000013000000891300003C0000000600000002000000A6A86C055C47A24093113D93BC9777400000000000000000FD8D5DA3A631A24074
310
A4F6EE89C4784000000000000000000C00000013000000112700003C0000000600000002000000FD8D5DA3A631A24074A4F6EE89C478400000000000000000CA5A2A707330A24074A4F6EE89C4784000000000000000000C00000016000000000000C00C00000012000000FF7F00000C00000017000000000000000C000000
310
130000009A3A00000C00000016000000000000C00C00000012000000FF7F00000C00000017000000FFFFFFFF0C0000003300000000000000
100
AcDbMLeader
270
     2
300
CONTEXT_DATA{
 40
1.0
 10
2273.558798462788
 20
396.2836751589268
 30
0.0
 41
5.0
140
0.0
145
2.0
174
     1
175
     3
176
     2
177
     0
290
     1
304
入隅捨板３５-５０
 11
0.0
 21
0.0
 31
1.0
340
10
 12
2326.225465129454
 22
398.7836751589268
 32
0.0
 13
1.0
 23
0.0
 33
0.0
 42
0.0
 43
0.0
 44
0.0
 45
1.0
170
     1
 90
-1073741824
171
     3
172
     5
 91
-1073741824
141
0.0
 92
        0
291
     0
292
     0
173
     0
293
     0
142
0.0
143
0.0
294
     0
295
     0
296
     0
110
2339.679728885257
120
377.483538855123
130
0.0
111
1.0
121
0.0
131
0.0
112
0.0
122
1.0
132
0.0
297
     0
302
LEADER{
290
     1
291
     1
 10
2328.825465129455
 20
396.2836751589268
 30
0.0
 11
-1.0
 21
0.0
 31
0.0
 90
        0
 40
0.6
304
LEADER_LINE{
 10
2339.679728885257
 20
377.483538855123
 30
0.0
 91
        0
305
}
271
     0
303
}
272
     9
273
     9
301
}
340
2FEE
 90
   279552
170
     1
 91
-1056964608
341
14
171
    -2
290
     1
291
     1
 41
0.6
342
B0
 42
0.0
172
     2
343
10
173
     1
 95
        3
174
     1
175
     2
 92
-1056964608
292
     0
 93
-1056964608
 10
1.0
 20
1.0
 30
1.0
 43
0.0
176
     0
293
     0
294
     0
178
     0
179
     3
 45
1.0
271
     0
272
     9
273
     9
  0
MULTILEADER
  5
50E2
102
{ACAD_XDICTIONARY
360
5C5C
102
}
330
1A
100
AcDbEntity
  8
HIKIDASI
160
               576
310
40020000150000000C00000016000000000000C00C00000033000000000000000C00000013000000993A0000E800000026000000E980B2D3A079A3404C267A8D294F7D40560255191AD87CBD00000000000000000000000000000000000000000000F03F000000000000F03F00000000000000000000000000000000A12531
310
0030003000D700310030003000D70032002E003300E54E0A4E000000000E000000010000000000000000001440000000000000F03F0000000000000000000000000000F03F000000000000000000000000000000000000000000000000000000000100000000000000000000007400780074002E0073006800780000006500
310
7800740066006F006E0074002E0073006800780000000C00000033000000000000000C00000010000000090000000C00000016000000000000C00C00000012000000FF7F00000C00000013000000010000000C00000013000000891300003C00000006000000020000000B7E93A6DE53A340045C96148BA17B40560255191A
310
D87CBD0AA3D4F5C275A3404C267A8D29777D40560255191AD87CBD0C00000013000000112700003C00000006000000020000000AA3D4F5C275A3404C267A8D29777D40560255191AD87CBD3DD60729F676A3404C267A8D29777D40560255191AD87CBD0C00000016000000000000C00C00000012000000FF7F00000C000000
310
17000000000000000C000000130000009A3A00000C00000016000000000000C00C00000012000000FF7F00000C00000017000000FFFFFFFF0C0000003300000000000000
100
AcDbMLeader
270
     2
300
CONTEXT_DATA{
 40
1.0
 10
2491.480781788733
 20
471.4476446887463
 30
-0.0000000000016396
 41
5.0
140
0.0
145
2.0
174
     1
175
     3
176
     0
177
     0
290
     1
304
□100×100×2.3以上
 11
0.0
 21
0.0
 31
1.0
340
10
 12
2493.480781788733
 22
473.9476446887463
 32
-0.0000000000016396
 13
1.0
 23
0.0
 33
0.0
 42
0.0
 43
0.0
 44
0.0
 45
1.0
170
     1
 90
-1073741824
171
     1
172
     5
 91
-1073741824
141
0.0
 92
        0
291
     0
292
     0
173
     0
293
     0
142
0.0
143
0.0
294
     0
295
     0
296
     0
110
2473.934864625107
120
442.0964551804939
130
-0.0000000000016396
111
1.0
121
0.0
131
0.0
112
0.0
122
1.0
132
0.0
297
     0
302
LEADER{
290
     1
291
     1
 10
2490.880781788733
 20
471.4476446887463
 30
-0.0000000000016396
 11
1.0
 21
0.0
 31
0.0
 90
        0
 40
0.6
304
LEADER_LINE{
 10
2473.934864625107
 20
442.0964551804939
 30
-0.0000000000016396
 91
        0
305
}
271
     0
303
}
272
     9
273
     9
301
}
340
2FEE
 90
   279552
170
     1
 91
-1056964608
341
14
171
    -2
290
     1
291
     1
 41
0.6
342
B0
 42
0.0
172
     2
343
10
173
     1
 95
        3
174
     1
175
     0
 92
-1056964608
292
     0
 93
-1056964608
 10
1.0
 20
1.0
 30
1.0
 43
0.0
176
     0
293
     0
294
     0
178
     0
179
     1
 45
1.0
271
     0
272
     9
273
     9
  0
MULTILEADER
  5
50E3
102
{ACAD_XDICTIONARY
360
5C5E
102
}
330
1A
100
AcDbEntity
  8
HIKIDASI
160
               576
310
40020000150000000C00000016000000000000C00C00000033000000000000000C00000013000000993A0000E8000000260000008ED0C9CE711DA140F98EB2343C746840560255191AD87CBD00000000000000000000000000000000000000000000F03F000000000000F03F00000000000000000000000000000000A12531
310
0030003000D700310030003000D70032002E003300E54E0A4E000000000E000000010000000000000000001440000000000000F03F0000000000000000000000000000F03F000000000000000000000000000000000000000000000000000000000100000000000000000000007400780074002E0073006800780000006500
310
7800740066006F006E0074002E0073006800780000000C00000033000000000000000C00000010000000090000000C00000016000000000000C00C00000012000000FF7F00000C00000013000000010000000C00000013000000891300003C0000000600000002000000147E93A6DEC3A14086237A26796F6C40560255191A
310
D87CBD17595257FAA1A140F98EB2343CC46840560255191AD87CBD0C00000013000000112700003C000000060000000200000017595257FAA1A140F98EB2343CC46840560255191AD87CBDE4251F24C7A0A140F98EB2343CC46840560255191AD87CBD0C00000016000000000000C00C00000012000000FF7F00000C000000
310
17000000000000000C000000130000009A3A00000C00000016000000000000C00C00000012000000FF7F00000C00000017000000FFFFFFFF0C0000003300000000000000
100
AcDbMLeader
270
     2
300
CONTEXT_DATA{
 40
1.0
 10
2189.388947461486
 20
198.1323493468733
 30
-0.0000000000016396
 41
5.0
140
0.0
145
2.0
174
     1
175
     3
176
     2
177
     0
290
     1
304
□100×100×2.3以上
 11
0.0
 21
0.0
 31
1.0
340
10
 12
2254.388947461486
 22
200.6323493468733
 32
-0.0000000000016396
 13
1.0
 23
0.0
 33
0.0
 42
0.0
 43
0.0
 44
0.0
 45
1.0
170
     1
 90
-1073741824
171
     3
172
     5
 91
-1073741824
141
0.0
 92
        0
291
     0
292
     0
173
     0
293
     0
142
0.0
143
0.0
294
     0
295
     0
296
     0
110
2273.934864625111
120
227.4835388551257
130
-0.0000000000016396
111
1.0
121
0.0
131
0.0
112
0.0
122
1.0
132
0.0
297
     0
302
LEADER{
290
     1
291
     1
 10
2256.988947461486
 20
198.1323493468733
 30
-0.0000000000016396
 11
-1.0
 21
0.0
 31
0.0
 90
        0
 40
0.6
304
LEADER_LINE{
 10
2273.934864625111
 20
227.4835388551257
 30
-0.0000000000016396
 91
        0
305
}
271
     0
303
}
272
     9
273
     9
301
}
340
2FEE
 90
   279552
170
     1
 91
-1056964608
341
14
171
    -2
290
     1
291
     1
 41
0.6
342
B0
 42
0.0
172
     2
343
10
173
     1
 95
        3
174
     1
175
     0
 92
-1056964608
292
     0
 93
-1056964608
 10
1.0
 20
1.0
 30
1.0
 43
0.0
176
     0
293
     0
294
     0
178
     0
179
     1
 45
1.0
271
     0
272
     9
273
     9
  0
LINE
  5
50E4
330
1A
100
AcDbEntity
  8
YAKUMONO
100
AcDbLine
 10
2432.684864625111
 20
374.9835388551229
 30
-0.00000000000164
 11
2423.934864625111
 21
374.9835388551229
 31
-0.00000000000164
  0
LINE
  5
50E5
330
1A
100
AcDbEntity
  8
YAKUMONO
100
AcDbLine
 10
2423.934864625111
 20
375.483538855123
 30
-0.00000000000164
 11
2423.934864625111
 21
374.9835388551229
 31
-0.00000000000164
  0
LINE
  5
50E6
330
1A
100
AcDbEntity
  8
YAKUMONO
100
AcDbLine
 10
2326.434864625111
 20
268.7335388551231
 30
-0.00000000000164
 11
2326.434864625111
 21
277.4835388551231
 31
-0.00000000000164
  0
LINE
  5
50E7
330
1A
100
AcDbEntity
  8
SEALING
  6
DASHED2
 48
0.5
100
AcDbLine
 10
2413.934864625111
 20
376.9835388551231
 30
-0.00000000000164
 11
2423.934864625111
 21
376.9835388551231
 31
-0.00000000000164
  0
LINE
  5
50E8
330
1A
100
AcDbEntity
  8
YAKUMONO
 62
     7
100
AcDbLine
 10
2423.934864625111
 20
376.9835388551231
 30
-0.00000000000164
 11
2413.934864625111
 21
376.9835388551231
 31
-0.00000000000164
  0
HATCH
  5
50F4
330
1A
100
AcDbEntity
  8
PACKING
  6
DASHED2
 48
0.5
370
     9
100
AcDbHatch
 10
0.0
 20
0.0
 30
-0.00000000000164
210
0.0
220
0.0
230
1.0
  2
ANSI31
 70
     0
 71
     0
 91
        1
 92
        1
 93
        4
 72
     1
 10
2429.934864625111
 20
370.983538855123
 11
2429.934864625111
 21
374.9835388551229
 72
     1
 10
2429.934864625111
 20
374.9835388551229
 11
2406.934864625111
 21
374.9835388551229
 72
     1
 10
2406.934864625111
 20
374.9835388551229
 11
2406.934864625111
 21
370.983538855123
 72
     1
 10
2406.934864625111
 20
370.983538855123
 11
2429.934864625111
 21
370.983538855123
 97
        0
 75
     0
 76
     1
 52
0.0
 41
0.5
 77
     0
 78
     1
 53
45.0
 43
0.0
 44
0.0
 45
-1.122532015133643
 46
1.122532015133643
 79
     0
 98
        1
 10
2422.785576394303
 20
373.6440089414414
1001
ACAD
1010
0.0
1020
0.0
1030
0.0
  0
LINE
  5
50F5
330
1A
100
AcDbEntity
  8
PACKING
  6
DASHED2
 48
0.5
100
AcDbLine
 10
2429.934864625111
 20
370.983538855123
 30
-0.00000000000164
 11
2406.934864625111
 21
370.983538855123
 31
-0.00000000000164
  0
LINE
  5
50F6
330
1A
100
AcDbEntity
  8
PACKING
  6
DASHED2
 48
0.5
100
AcDbLine
 10
2429.934864625111
 20
374.9835388551229
 30
-0.00000000000164
 11
2406.934864625111
 21
374.9835388551229
 31
-0.00000000000164
  0
LINE
  5
50F7
330
1A
100
AcDbEntity
  8
PACKING
  6
DASHED2
 48
0.5
100
AcDbLine
 10
2406.934864625111
 20
374.9835388551229
 30
-0.00000000000164
 11
2406.934864625111
 21
370.983538855123
 31
-0.00000000000164
  0
LINE
  5
50F8
330
1A
100
AcDbEntity
  8
PACKING
  6
DASHED2
 48
0.5
100
AcDbLine
 10
2429.934864625111
 20
374.9835388551229
 30
-0.00000000000164
 11
2429.934864625111
 21
370.983538855123
 31
-0.00000000000164
  0
HATCH
  5
50F9
330
1A
100
AcDbEntity
  8
SEALING
  6
DASHED2
 48
0.5
370
     9
100
AcDbHatch
 10
0.0
 20
0.0
 30
-0.0000000000016299
210
0.0
220
0.0
230
1.0
  2
ANSI37
 70
     0
 71
     0
 91
        1
 92
        1
 93
        6
 72
     1
 10
2413.934864625109
 20
374.9835414801132
 11
2413.934863125117
 21
376.9835388551229
 72
     1
 10
2413.934863125117
 20
376.9835388551229
 11
2410.93486490608
 21
376.9835388551229
 72
     1
 10
2410.93486490608
 20
376.9835388551229
 11
2410.934864625111
 21
362.9835392301724
 72
     1
 10
2410.934864625111
 20
362.9835392301724
 11
2420.934861625117
 21
362.9835392301615
 72
     1
 10
2420.934861625117
 20
362.9835392301615
 11
2420.93486419654
 21
374.9835392301216
 72
     1
 10
2420.93486419654
 20
374.9835392301216
 11
2413.934864625109
 21
374.9835414801132
 97
        0
 75
     1
 76
     1
 52
0.0
 41
1.0
 77
     0
 78
     2
 53
45.0
 43
2184.523753234717
 44
-503.2029137621935
 45
-2.245064030267287
 46
2.245064030267287
 79
     0
 53
135.0
 43
2184.523753234717
 44
-503.2029137621935
 45
-2.245064030267287
 46
-2.245064030267287
 79
     0
 98
        1
 10
2414.891933309147
 20
366.4818776825421
1001
GradientColor1ACI
1070
     5
1001
GradientColor2ACI
1070
     2
1001
ACAD
1010
0.0
1020
0.0
1030
0.0
  0
LINE
  5
50FA
330
1A
100
AcDbEntity
  8
SEALING
  6
DASHED2
 48
0.5
100
AcDbLine
 10
2420.934863125117
 20
362.9835392301615
 30
-0.00000000000164
 11
2420.934864625111
 21
374.9835392301215
 31
-0.00000000000164
  0
LINE
  5
50FB
330
1A
100
AcDbEntity
  8
SEALING
  6
DASHED2
 48
0.5
100
AcDbLine
 10
2410.934863125117
 20
362.9835392301615
 30
-0.00000000000164
 11
2420.934863125117
 21
362.9835392301615
 31
-0.00000000000164
  0
LINE
  5
50FC
330
1A
100
AcDbEntity
  8
SEALING
  6
DASHED2
 48
0.5
100
AcDbLine
 10
2410.934863125117
 20
362.9835392301615
 30
-0.00000000000164
 11
2410.934863125117
 21
376.9835388551231
 31
-0.00000000000164
  0
LINE
  5
50FD
330
1A
100
AcDbEntity
  8
SEALING
  6
DASHED2
 48
0.5
100
AcDbLine
 10
2413.934864625111
 20
374.9835388551229
 30
-0.00000000000164
 11
2413.934863125117
 21
376.9835388551231
 31
-0.00000000000164
  0
LINE
  5
50FE
330
1A
100
AcDbEntity
  8
SEALING
  6
DASHED2
 48
0.5
100
AcDbLine
 10
2413.934864625109
 20
374.9835414801132
 30
-0.00000000000164
 11
2420.934864625111
 21
374.9835392301215
 31
-0.00000000000164
  0
LINE
  5
50FF
330
1A
100
AcDbEntity
  8
SEALING
  6
DASHED2
 48
0.5
100
AcDbLine
 10
2410.934863125117
 20
376.9835388551231
 30
-0.00000000000164
 11
2413.934863125117
 21
376.9835384336711
 31
-0.00000000000164
  0
LINE
  5
5100
102
{ACAD_REACTORS
330
5041
102
}
330
1A
100
AcDbEntity
  8
SEIHIN
100
AcDbLine
 10
2604.434864625111
 20
374.9835388551229
 30
-0.00000000000164
 11
2406.934864625111
 21
374.9835388551229
 31
-0.00000000000164
  0
LINE
  5
5101
330
1A
100
AcDbEntity
  8
SEIHIN
100
AcDbLine
 10
2406.934864625111
 20
325.4835388551215
 30
-0.000000000001638
 11
2406.934864625111
 21
374.9835388551229
 31
-0.00000000000164
  0
LINE
  5
5102
102
{ACAD_REACTORS
330
5041
102
}
330
1A
100
AcDbEntity
  8
SEIHIN
  6
DASHED2
100
AcDbLine
 10
2604.434864625111
 20
370.983538855123
 30
-0.00000000000164
 11
2406.934864625111
 21
370.983538855123
 31
-0.00000000000164
  0
LINE
  5
5103
330
1A
100
AcDbEntity
  8
YAKUMONO
100
AcDbLine
 10
2432.684864625111
 20
376.9835388551229
 30
-0.00000000000164
 11
2325.434864625111
 21
376.9835388551229
 31
-0.00000000000164
  0
LINE
  5
5104
330
1A
100
AcDbEntity
  8
SEALING
  6
DASHED2
 48
0.5
100
AcDbLine
 10
2326.434864625106
 20
287.4835388551229
 30
-0.00000000000164
 11
2326.434864625106
 21
277.483538855123
 31
-0.00000000000164
  0
LINE
  5
5105
330
1A
100
AcDbEntity
  8
YAKUMONO
 62
     7
100
AcDbLine
 10
2326.434864625106
 20
277.483538855123
 30
-0.00000000000164
 11
2326.434864625106
 21
287.4835388551229
 31
-0.00000000000164
  0
HATCH
  5
5106
330
1A
100
AcDbEntity
  8
YAKUMONO
 62
     7
370
     9
100
AcDbHatch
 10
0.0
 20
0.0
 30
-0.00000000000164
210
0.0
220
0.0
230
1.0
  2
ANSI31
 70
     0
 71
     0
 91
        1
 92
        7
 72
     0
 73
     1
 93
        4
 10
2324.434864625105
 20
277.4835388551232
 10
2324.434864625107
 20
287.4835388551232
 10
2326.434864625106
 20
287.4835388551229
 10
2326.434864625106
 20
277.483538855123
 97
        0
 75
     0
 76
     1
 52
0.0
 41
0.5
 77
     0
 78
     1
 53
45.0
 43
2021.427309511688
 44
24.48353885512165
 45
-1.122532015133643
 46
1.122532015133643
 79
     0
 47
0.1224333071633665
 98
        1
 10
2325.733414576339
 20
289.4872040110426
1001
ACAD
1010
0.0
1020
0.0
1030
0.0
  0
LINE
  5
5107
330
1A
100
AcDbEntity
  8
YAKUMONO
 62
     7
100
AcDbLine
 10
2324.434864625107
 20
287.4835388551232
 30
-0.00000000000164
 11
2326.434864625106
 21
287.4835388551229
 31
-0.00000000000164
  0
LINE
  5
5108
330
1A
100
AcDbEntity
  8
YAKUMONO
 62
     7
100
AcDbLine
 10
2324.434864625105
 20
277.4835388551232
 30
-0.00000000000164
 11
2324.434864625107
 21
287.4835388551232
 31
-0.00000000000164
  0
LINE
  5
5109
330
1A
100
AcDbEntity
  8
SEALING
  6
DASHED2
 48
0.5
100
AcDbLine
 10
2324.434864625107
 20
287.4835388551232
 30
-0.00000000000164
 11
2324.434864625105
 21
277.4835388551232
 31
-0.00000000000164
  0
LINE
  5
510A
330
1A
100
AcDbEntity
  8
YAKUMONO
 62
     7
100
AcDbLine
 10
2324.434864625105
 20
277.4835388551232
 30
-0.00000000000164
 11
2324.434864625107
 21
287.4835388551232
 31
-0.00000000000164
  0
HATCH
  5
510B
330
1A
100
AcDbEntity
  8
PACKING
  6
DASHED2
 48
0.5
370
     9
100
AcDbHatch
 10
0.0
 20
0.0
 30
-0.00000000000164
210
0.0
220
0.0
230
1.0
  2
ANSI31
 70
     0
 71
     0
 91
        1
 92
        1
 93
        4
 72
     1
 10
2330.434864625106
 20
271.483538855123
 11
2326.434864625106
 21
271.483538855123
 72
     1
 10
2326.434864625106
 20
271.483538855123
 11
2326.434864625106
 21
294.483538855123
 72
     1
 10
2326.434864625107
 20
294.483538855123
 11
2330.434864625107
 21
294.4835388551228
 72
     1
 10
2330.434864625107
 20
294.4835388551228
 11
2330.434864625106
 21
271.483538855123
 97
        0
 75
     0
 76
     1
 52
0.0
 41
0.5
 77
     0
 78
     1
 53
45.0
 43
0.0
 44
0.0
 45
-1.122532015133643
 46
1.122532015133643
 79
     0
 98
        1
 10
2327.774394538788
 20
278.6328270859315
1001
ACAD
1010
0.0
1020
0.0
1030
0.0
  0
LINE
  5
510C
330
1A
100
AcDbEntity
  8
PACKING
  6
DASHED2
 48
0.5
100
AcDbLine
 10
2330.434864625106
 20
271.4835388551228
 30
-0.00000000000164
 11
2330.434864625107
 21
294.4835388551228
 31
-0.00000000000164
  0
LINE
  5
510D
330
1A
100
AcDbEntity
  8
PACKING
  6
DASHED2
 48
0.5
100
AcDbLine
 10
2326.434864625106
 20
271.483538855123
 30
-0.00000000000164
 11
2326.434864625107
 21
294.483538855123
 31
-0.00000000000164
  0
LINE
  5
510E
330
1A
100
AcDbEntity
  8
PACKING
  6
DASHED2
 48
0.5
100
AcDbLine
 10
2326.434864625103
 20
294.483538855123
 30
-0.00000000000164
 11
2330.434864625103
 21
294.4835388551228
 31
-0.00000000000164
  0
LINE
  5
510F
330
1A
100
AcDbEntity
  8
PACKING
  6
DASHED2
 48
0.5
100
AcDbLine
 10
2326.434864625106
 20
271.483538855123
 30
-0.00000000000164
 11
2330.434864625106
 21
271.4835388551228
 31
-0.00000000000164
  0
HATCH
  5
5110
330
1A
100
AcDbEntity
  8
SEALING
  6
DASHED2
 48
0.5
370
     9
100
AcDbHatch
 10
0.0
 20
0.0
 30
-0.0000000000016299
210
0.0
220
0.0
230
1.0
  2
ANSI37
 70
     0
 71
     0
 91
        1
 92
        1
 93
        6
 72
     1
 10
2326.434862000116
 20
287.4835388551251
 11
2324.434864625107
 21
287.4835403551175
 72
     1
 10
2324.434864625107
 20
287.4835403551176
 11
2324.434864625107
 21
290.4835385741551
 72
     1
 10
2324.434864625107
 20
290.4835385741551
 11
2338.434864250057
 21
290.4835388551225
 72
     1
 10
2338.434864250057
 20
290.4835388551223
 11
2338.434864250067
 21
280.483541855116
 72
     1
 10
2338.434864250067
 20
280.483541855116
 11
2326.434864250107
 21
280.4835392836937
 72
     1
 10
2326.434864250107
 20
280.4835392836937
 11
2326.434862000116
 21
287.4835388551251
 97
        0
 75
     1
 76
     1
 52
0.0
 41
1.0
 77
     0
 78
     2
 53
45.0
 43
2184.523753234717
 44
-503.2029137621935
 45
-2.245064030267287
 46
2.245064030267287
 79
     0
 53
135.0
 43
2184.523753234717
 44
-503.2029137621935
 45
-2.245064030267287
 46
-2.245064030267287
 79
     0
 98
        1
 10
2334.936525797687
 20
286.5264701710869
1001
GradientColor1ACI
1070
     5
1001
GradientColor2ACI
1070
     2
1001
ACAD
1010
0.0
1020
0.0
1030
0.0
  0
LINE
  5
5111
330
1A
100
AcDbEntity
  8
SEALING
  6
DASHED2
 48
0.5
100
AcDbLine
 10
2338.434864250067
 20
280.4835403551165
 30
-0.00000000000164
 11
2326.434864250107
 21
280.483538855123
 31
-0.00000000000164
  0
LINE
  5
5112
330
1A
100
AcDbEntity
  8
SEALING
  6
DASHED2
 48
0.5
100
AcDbLine
 10
2338.434864250068
 20
290.4835403551165
 30
-0.00000000000164
 11
2338.434864250067
 21
280.4835403551162
 31
-0.00000000000164
  0
LINE
  5
5113
330
1A
100
AcDbEntity
  8
SEALING
  6
DASHED2
 48
0.5
100
AcDbLine
 10
2338.434864250068
 20
290.4835403551165
 30
-0.00000000000164
 11
2324.434864625107
 21
290.4835403551176
 31
-0.00000000000164
  0
LINE
  5
5114
330
1A
100
AcDbEntity
  8
SEALING
  6
DASHED2
 48
0.5
100
AcDbLine
 10
2326.434864625106
 20
287.4835388551229
 30
-0.00000000000164
 11
2324.434864625107
 21
287.4835403551176
 31
-0.00000000000164
  0
LINE
  5
5115
330
1A
100
AcDbEntity
  8
SEALING
  6
DASHED2
 48
0.5
100
AcDbLine
 10
2326.434862000116
 20
287.4835388551248
 30
-0.00000000000164
 11
2326.434864250107
 21
280.483538855123
 31
-0.00000000000164
  0
LINE
  5
5116
330
1A
100
AcDbEntity
  8
SEALING
  6
DASHED2
 48
0.5
100
AcDbLine
 10
2324.434864625107
 20
290.4835403551176
 30
-0.00000000000164
 11
2324.434865046558
 21
287.4835403551172
 31
-0.00000000000164
  0
MULTILEADER
  5
5199
102
{ACAD_XDICTIONARY
360
5C60
102
}
330
1A
100
AcDbEntity
  8
HIKIDASI
160
               568
310
38020000150000000C00000016000000000000C00C00000033000000000000000C00000013000000993A0000E00000002600000021F21C92CFCBA240D4FE9DE19DE46140000000000000000000000000000000000000000000000000000000000000F03F000000000000F03F00000000000000000000000000000000CF8862
310
972A6A708D8A303296626BD130C330AD30F33000000B000000010000000000000000001440000000000000F03F0000000000000000000000000000F03F000000000000000000000000000000000000000000000000000000000100000000000000000000007400780074002E00730068007800000065007800740066006F00
310
6E0074002E0073006800780000000C00000033000000000000000C00000010000000090000000C00000016000000000000C00C00000012000000FF7F00000C00000013000000010000000C00000013000000891300003C000000060000000200000053CF7590A030A24019815FD78A3871400000000000000000EEBEE95E9C
310
C6A240D4FE9DE19D34624000000000000000000C00000013000000112700003C0000000600000002000000EEBEE95E9CC6A240D4FE9DE19D346240000000000000000021F21C92CFC7A240D4FE9DE19D34624000000000000000000C00000016000000000000C00C00000012000000FF7F00000C0000001700000000000000
310
0C000000130000009A3A00000C00000016000000000000C00C00000012000000FF7F00000C00000017000000FFFFFFFF0C0000003300000000000000
100
AcDbMLeader
270
     2
300
CONTEXT_DATA{
 40
1.0
 10
2403.905411629254
 20
145.6442726217125
 30
0.0
 41
5.0
140
0.0
145
2.0
174
     1
175
     3
176
     0
177
     0
290
     1
304
裏面横走り防止パッキン
 11
0.0
 21
0.0
 31
1.0
340
10
 12
2405.905411629254
 22
148.1442726217125
 32
0.0
 13
1.0
 23
0.0
 33
0.0
 42
0.0
 43
0.0
 44
0.0
 45
1.0
170
     1
 90
-1073741824
171
     1
172
     5
 91
-1073741824
141
0.0
 92
        0
291
     0
292
     0
173
     0
293
     0
142
0.0
143
0.0
294
     0
295
     0
296
     0
110
2328.31360214382
120
275.5338968020092
130
0.0
111
1.0
121
0.0
131
0.0
112
0.0
122
1.0
132
0.0
297
     0
302
LEADER{
290
     1
291
     1
 10
2403.305411629255
 20
145.6442726217125
 30
0.0
 11
1.0
 21
0.0
 31
0.0
 90
        0
 40
0.6
304
LEADER_LINE{
 10
2328.31360214382
 20
275.5338968020092
 30
0.0
 91
        0
305
}
271
     0
303
}
272
     9
273
     9
301
}
340
2FEE
 90
   279552
170
     1
 91
-1056964608
341
14
171
    -2
290
     1
291
     1
 41
0.6
342
B0
 42
0.0
172
     2
343
10
173
     1
 95
        3
174
     1
175
     0
 92
-1056964608
292
     0
 93
-1056964608
 10
1.0
 20
1.0
 30
1.0
 43
0.0
176
     0
293
     0
294
     0
178
     0
179
     1
 45
1.0
271
     0
272
     9
273
     9
  0
MULTILEADER
  5
51C2
102
{ACAD_XDICTIONARY
360
5C62
102
}
330
1A
100
AcDbEntity
  8
HIKIDASI
160
               564
310
34020000150000000C00000016000000000000C00C00000033000000000000000C00000013000000993A0000DC00000026000000CF0689F92DD2A1407DE77A2787447940000000000000000000000000000000000000000000000000000000000000F03F000000000000F03F000000000000000000000000000000004B3093
310
300854E890D130C330AD30F33033FF000009000000010000000000000000001440000000000000F03F0000000000000000000000000000F03F000000000000000000000000000000000000000000000000000000000100000000000000000000007400780074002E00730068007800000065007800740066006F006E007400
310
2E0073006800780000000C00000033000000000000000C00000010000000090000000C00000016000000000000C00C00000012000000FF7F00000C00000013000000010000000C00000013000000891300003C00000006000000020000002CD50117418DA240B8C3D602773575400000000000000000023ABC2C613FA2407A
310
E77A27876C794000000000000000000C00000013000000112700003C0000000600000002000000023ABC2C613FA2407AE77A27876C79400000000000000000CF0689F92D3EA2407AE77A27876C794000000000000000000C00000016000000000000C00C00000012000000FF7F00000C00000017000000000000000C000000
310
130000009A3A00000C00000016000000000000C00C00000012000000FF7F00000C00000017000000FFFFFFFF0C0000003300000000000000
100
AcDbMLeader
270
     2
300
CONTEXT_DATA{
 40
1.0
 10
2279.089794427949
 20
406.7829966355271
 30
0.0
 41
5.0
140
0.0
145
2.0
174
     1
175
     3
176
     2
177
     0
290
     1
304
かん合部パッキンＳ
 11
0.0
 21
0.0
 31
1.0
340
10
 12
2333.089794427949
 22
409.2829966355273
 32
0.0
 13
1.0
 23
0.0
 33
0.0
 42
0.0
 43
0.0
 44
0.0
 45
1.0
170
     1
 90
-1073741824
171
     3
172
     5
 91
-1073741824
141
0.0
 92
        0
291
     0
292
     0
173
     0
293
     0
142
0.0
143
0.0
294
     0
295
     0
296
     0
110
2374.627128655693
120
339.3415554417838
130
0.0
111
1.0
121
0.0
131
0.0
112
0.0
122
1.0
132
0.0
297
     0
302
LEADER{
290
     1
291
     1
 10
2335.689794427949
 20
406.7829966355271
 30
0.0
 11
-1.0
 21
0.0
 31
0.0
 90
        0
 40
0.6
304
LEADER_LINE{
 10
2374.627128655693
 20
339.3415554417838
 30
0.0
 91
        0
305
}
271
     0
303
}
272
     9
273
     9
301
}
340
2FEE
 90
   279552
170
     1
 91
-1056964608
341
14
171
    -2
290
     1
291
     1
 41
0.6
342
B0
 42
0.0
172
     2
343
10
173
     1
 95
        3
174
     1
175
     2
 92
-1056964608
292
     0
 93
-1056964608
 10
1.0
 20
1.0
 30
1.0
 43
0.0
176
     0
293
     0
294
     0
178
     0
179
     3
 45
1.0
271
     0
272
     9
273
     9
  0
MULTILEADER
  5
51C4
102
{ACAD_XDICTIONARY
360
5C64
102
}
330
1A
100
AcDbEntity
  8
HIKIDASI
160
               572
310
3C020000150000000C00000016000000000000C00C00000033000000000000000C00000013000000993A0000E400000026000000827B3D82F1DBA240A81B4D0CB0CC6E40000000000000000000000000000000000000000000000000000000000000F03F000000000000F03F000000000000000000000000000000002A6A70
310
8D8A303296626BB730FC30EA30F330B0303B2011FF000000000C000000010000000000000000001440000000000000F03F0000000000000000000000000000F03F000000000000000000000000000000000000000000000000000000000100000000000000000000007400780074002E007300680078000000650078007400
310
66006F006E0074002E0073006800780000000C00000033000000000000000C00000010000000090000000C00000016000000000000C00C00000012000000FF7F00000C00000013000000010000000C00000013000000891300003C0000000600000002000000A69189641984A24041CC18DA7E07744000000000000000004F
310
480A4FBED6A240A81B4D0CB01C6F4000000000000000000C00000013000000112700003C00000006000000020000004F480A4FBED6A240A81B4D0CB01C6F400000000000000000827B3D82F1D7A240A81B4D0CB01C6F4000000000000000000C00000016000000000000C00C00000012000000FF7F00000C00000017000000
310
000000000C000000130000009A3A00000C00000016000000000000C00C00000012000000FF7F00000C00000017000000FFFFFFFF0C0000003300000000000000
100
AcDbMLeader
270
     2
300
CONTEXT_DATA{
 40
1.0
 10
2411.971696778609
 20
248.8964902406708
 30
0.0
 41
5.0
140
0.0
145
2.0
174
     1
175
     3
176
     0
177
     0
290
     1
304
横走り防止シーリング※１
 11
0.0
 21
0.0
 31
1.0
340
10
 12
2413.971696778609
 22
251.3964902406708
 32
0.0
 13
1.0
 23
0.0
 33
0.0
 42
0.0
 43
0.0
 44
0.0
 45
1.0
170
     1
 90
-1073741824
171
     1
172
     5
 91
-1073741824
141
0.0
 92
        0
291
     0
292
     0
173
     0
293
     0
142
0.0
143
0.0
294
     0
295
     0
296
     0
110
2370.049595164327
120
320.4684697121302
130
0.0
111
1.0
121
0.0
131
0.0
112
0.0
122
1.0
132
0.0
297
     0
302
LEADER{
290
     1
291
     1
 10
2411.371696778609
 20
248.8964902406708
 30
0.0
 11
1.0
 21
0.0
 31
0.0
 90
        0
 40
0.6
304
LEADER_LINE{
 10
2370.049595164327
 20
320.4684697121302
 30
0.0
 91
        0
305
}
271
     0
303
}
272
     9
273
     9
301
}
340
2FEE
 90
   279552
170
     1
 91
-1056964608
341
14
171
    -2
290
     1
291
     1
 41
0.6
342
B0
 42
0.0
172
     2
343
10
173
     1
 95
        3
174
     1
175
     0
 92
-1056964608
292
     0
 93
-1056964608
 10
1.0
 20
1.0
 30
1.0
 43
0.0
176
     0
293
     0
294
     0
178
     0
179
     1
 45
1.0
271
     0
272
     9
273
     9
  0
MTEXT
  5
5A05
102
{ACAD_XDICTIONARY
360
5A06
102
}
330
1A
100
AcDbEntity
  8
WAKU
100
AcDbMText
 10
2145.751850080694
 20
23.21985646788335
 30
0.0
 40
5.0
 41
130.7517663064795
 46
0.0
 71
     1
 72
     5
  1
\pi17.11446;アイジーヴァンド参考ディテール
  7
WAKU
 73
     1
 44
1.0
  0
MTEXT
  5
5A07
102
{ACAD_XDICTIONARY
360
5A08
102
}
330
1A
100
AcDbEntity
  8
WAKU
100
AcDbMText
 10
2055.477354265184
 20
23.21985646788335
 30
0.0
 40
5.0
 41
71.82723587241572
 46
0.0
 71
     1
 72
     5
  1
\pi3.9593;アイジー工業株式会社
  7
WAKU
 73
     1
 44
1.0
  0
LWPOLYLINE
  5
5A3F
330
1A
100
AcDbEntity
  8
TEKUSU
  6
DASHED2
 48
0.5
100
AcDbPolyline
 90
        5
 70
     0
 43
0.0
 10
2367.434864625111
 20
297.0830700920013
 10
2366.934864625111
 20
297.0830700920013
 10
2366.934864625111
 20
312.0830700920016
 10
2367.434864625111
 20
312.0830700920016
 10
2367.434864625111
 20
298.0830700920034
  0
ARC
  5
5A40
330
1A
100
AcDbEntity
  8
TEKUSU
  6
DASHED2
 48
0.5
100
AcDbCircle
 10
2368.684864625111
 20
312.0830700920016
 30
-0.0000000000016369
 40
0.5
100
AcDbArc
 50
0.0
 51
90.0
1001
GENIUS_GENODEF_13
1002
{
1000
HIER
1070
     0
1002
}
1002
{
1000
MANEDIT
1070
     0
1002
}
1002
{
1000
NOSEL
1070
     0
1002
}
1002
{
1000
BEHIND
1070
     0
1002
}
1002
{
1000
OTHER
1070
     0
1002
}
1002
{
1000
REACTOR
1002
}
1001
GENIUS_GENOBJ-N-FIL_13
1002
{
1000
OWNER
1000
GEN
1002
}
  0
ARC
  5
5A41
330
1A
100
AcDbEntity
  8
TEKUSU
  6
DASHED2
 48
0.5
100
AcDbCircle
 10
2367.934864625111
 20
312.0830700920016
 30
-0.0000000000016369
 40
0.5
100
AcDbArc
 50
90.0
 51
180.0
1001
GENIUS_GENOBJ-N-FIL_13
1002
{
1000
OWNER
1000
GEN
1002
}
1001
GENIUS_GENODEF_13
1002
{
1000
HIER
1070
     0
1002
}
1002
{
1000
MANEDIT
1070
     0
1002
}
1002
{
1000
NOSEL
1070
     0
1002
}
1002
{
1000
BEHIND
1070
     0
1002
}
1002
{
1000
OTHER
1070
     0
1002
}
1002
{
1000
REACTOR
1002
}
  0
ARC
  5
5A42
330
1A
100
AcDbEntity
  8
TEKUSU
  6
DASHED2
 48
0.5
100
AcDbCircle
 10
2357.496071521662
 20
304.5830700920034
 30
-0.0000000000016369
 40
13.13879310344826
100
AcDbArc
 50
332.8280175842569
 51
27.17198241574314
  0
LINE
  5
5A43
330
1A
100
AcDbEntity
  8
TEKUSU
  6
DASHED2
 48
0.5
100
AcDbLine
 10
2367.934864625111
 20
312.5830700920015
 30
-0.0000000000016369
 11
2368.684864625111
 21
312.5830700920015
 31
-0.0000000000016369
  0
LINE
  5
5A44
330
1A
100
AcDbEntity
  8
TEKUSU
  6
DASHED2
 48
0.5
100
AcDbLine
 10
2369.184864625111
 20
312.0830700920016
 30
-0.0000000000016369
 11
2369.184864625111
 21
297.0830700920016
 31
-0.0000000000016369
  0
ARC
  5
5A45
330
1A
100
AcDbEntity
  8
TEKUSU
  6
DASHED2
 48
0.5
100
AcDbCircle
 10
2368.684864625111
 20
297.0830700920016
 30
-0.0000000000016369
 40
0.5
100
AcDbArc
 50
270.0
 51
0.0
1001
GENIUS_GENOBJ-N-FIL_13
1002
{
1000
OWNER
1000
GEN
1002
}
1001
GENIUS_GENODEF_13
1002
{
1000
HIER
1070
     0
1002
}
1002
{
1000
MANEDIT
1070
     0
1002
}
1002
{
1000
NOSEL
1070
     0
1002
}
1002
{
1000
BEHIND
1070
     0
1002
}
1002
{
1000
OTHER
1070
     0
1002
}
1002
{
1000
REACTOR
1002
}
  0
ARC
  5
5A46
330
1A
100
AcDbEntity
  8
TEKUSU
  6
DASHED2
 48
0.5
100
AcDbCircle
 10
2367.934864625111
 20
297.0830700920016
 30
-0.0000000000016369
 40
0.5
100
AcDbArc
 50
180.0
 51
270.0
1001
GENIUS_GENOBJ-N-FIL_13
1002
{
1000
OWNER
1000
GEN
1002
}
1001
GENIUS_GENODEF_13
1002
{
1000
HIER
1070
     0
1002
}
1002
{
1000
MANEDIT
1070
     0
1002
}
1002
{
1000
NOSEL
1070
     0
1002
}
1002
{
1000
BEHIND
1070
     0
1002
}
1002
{
1000
OTHER
1070
     0
1002
}
1002
{
1000
REACTOR
1002
}
  0
LINE
  5
5A47
330
1A
100
AcDbEntity
  8
TEKUSU
  6
DASHED2
 48
0.5
100
AcDbLine
 10
2367.934864625111
 20
296.5830700920033
 30
-0.0000000000016369
 11
2368.684864625111
 21
296.5830700920033
 31
-0.0000000000016369
  0
LINE
  5
5A48
330
1A
100
AcDbEntity
  8
TEKUSU
  6
DASHED2
 48
0.5
100
AcDbLine
 10
2367.434864625111
 20
312.0830700920016
 30
-0.0000000000016369
 11
2367.434864625111
 21
297.0830700920016
 31
-0.0000000000016369
  0
LINE
  5
5A49
330
1A
100
AcDbEntity
  8
SUNPOU
  6
CENTER2
370
     5
100
AcDbLine
 10
2375.337764805701
 20
304.5830700920034
 30
-0.00000000000503
 11
2292.434864625111
 21
304.5830700920034
 31
-0.00000000000503
  0
LINE
  5
5A4A
330
1A
100
AcDbEntity
  8
TEKUSU
 48
0.5
100
AcDbLine
 10
2309.434864625111
 20
307.8330700920018
 30
-0.00000000000503
 11
2309.434864625111
 21
301.3330700920018
 31
-0.00000000000503
  0
LINE
  5
5A4B
330
1A
100
AcDbEntity
  8
TEKUSU
  6
DASHED2
 48
0.5
100
AcDbLine
 10
2339.434864625112
 20
307.8330700920016
 30
-0.0000000000016369
 11
2339.434864625112
 21
301.3330700920016
 31
-0.0000000000016369
  0
LINE
  5
5A4C
330
1A
100
AcDbEntity
  8
TEKUSU
 48
0.5
100
AcDbLine
 10
2304.534997731397
 20
302.0830700920015
 30
-0.00000000000503
 11
2309.43486462511
 21
302.0830700920015
 31
-0.00000000000503
  0
LINE
  5
5A4D
330
1A
100
AcDbEntity
  8
TEKUSU
 48
0.5
100
AcDbLine
 10
2302.434864625111
 20
304.5830700920034
 30
-0.00000000000503
 11
2304.534997731397
 21
302.0830700920015
 31
-0.00000000000503
  0
LINE
  5
5A4E
330
1A
100
AcDbEntity
  8
TEKUSU
 48
0.5
100
AcDbLine
 10
2304.534997731397
 20
307.0830700920016
 30
-0.00000000000503
 11
2309.43486462511
 21
307.0830700920018
 31
-0.00000000000503
  0
LINE
  5
5A4F
330
1A
100
AcDbEntity
  8
TEKUSU
 48
0.5
100
AcDbLine
 10
2304.534997731397
 20
307.0830700920016
 30
-0.00000000000503
 11
2302.434864625111
 21
304.5830700920034
 31
-0.00000000000503
  0
LINE
  5
5A50
330
1A
100
AcDbEntity
  8
TEKUSU
 48
0.5
100
AcDbLine
 10
2309.43486462511
 20
303.0617116713455
 30
-0.00000000000503
 11
2302.434864625111
 21
304.5830700920034
 31
-0.00000000000503
  0
LINE
  5
5A51
330
1A
100
AcDbEntity
  8
TEKUSU
  6
DASHED2
 48
0.5
100
AcDbLine
 10
2339.434864625111
 20
301.3330700920016
 30
-0.00000000000503
 11
2321.634864625112
 21
301.3330700920016
 31
-0.00000000000503
  0
LINE
  5
5A52
330
1A
100
AcDbEntity
  8
TEKUSU
  6
DASHED2
 48
0.5
100
AcDbLine
 10
2339.434864625111
 20
307.8330680509547
 30
-0.00000000000503
 11
2321.634864625112
 21
307.8330692421232
 31
-0.00000000000503
  0
LINE
  5
5A53
330
1A
100
AcDbEntity
  8
TEKUSU
  6
DASHED2
 48
0.5
100
AcDbLine
 10
2366.434864625111
 20
307.0830700920016
 30
-0.00000000000503
 11
2339.434864625111
 21
307.0830700920016
 31
-0.00000000000503
  0
LINE
  5
5A54
330
1A
100
AcDbEntity
  8
TEKUSU
  6
DASHED2
 48
0.5
100
AcDbLine
 10
2366.434864625111
 20
302.0830700920015
 30
-0.00000000000503
 11
2339.434864625111
 21
302.0830700920015
 31
-0.00000000000503
  0
LINE
  5
5A55
330
1A
100
AcDbEntity
  8
TEKUSU
  6
DASHED2
 48
0.5
100
AcDbLine
 10
2366.434864625111
 20
302.0830700920015
 30
-0.00000000000503
 11
2366.434864625111
 21
307.0830700920016
 31
-0.00000000000503
  0
ARC
  5
5A56
330
1A
100
AcDbEntity
  8
TEKUSU
 48
0.5
100
AcDbCircle
 10
2366.434864625111
 20
308.0830700920015
 30
-0.00000000000503
 40
1.0
100
AcDbArc
 50
270.0
 51
0.0
  0
ARC
  5
5A57
330
1A
100
AcDbEntity
  8
TEKUSU
 48
0.5
100
AcDbCircle
 10
2366.434864625111
 20
301.0830700920016
 30
-0.00000000000503
 40
1.0
100
AcDbArc
 50
0.0
 51
90.0
  0
LWPOLYLINE
  5
5A77
330
1A
100
AcDbEntity
  8
TEKUSU
  6
DASHED2
 48
0.5
100
AcDbPolyline
 90
        5
 70
     0
 43
0.0
 10
2444.828956590754
 20
333.9835388551216
 10
2444.828956590754
 20
334.4835388551217
 10
2459.828956590755
 20
334.4835388551217
 10
2459.828956590755
 20
333.9835388551216
 10
2445.828956590756
 20
333.9835388551216
  0
ARC
  5
5A78
330
1A
100
AcDbEntity
  8
TEKUSU
  6
DASHED2
 48
0.5
100
AcDbCircle
 10
2459.828956590755
 20
332.7335388551217
 30
-0.0000000000016372
 40
0.5
100
AcDbArc
 50
270.0
 51
0.0
1001
GENIUS_GENODEF_13
1002
{
1000
HIER
1070
     0
1002
}
1002
{
1000
MANEDIT
1070
     0
1002
}
1002
{
1000
NOSEL
1070
     0
1002
}
1002
{
1000
BEHIND
1070
     0
1002
}
1002
{
1000
OTHER
1070
     0
1002
}
1002
{
1000
REACTOR
1002
}
1001
GENIUS_GENOBJ-N-FIL_13
1002
{
1000
OWNER
1000
GEN
1002
}
  0
ARC
  5
5A79
330
1A
100
AcDbEntity
  8
TEKUSU
  6
DASHED2
 48
0.5
100
AcDbCircle
 10
2459.828956590755
 20
333.4835388551216
 30
-0.0000000000016372
 40
0.5
100
AcDbArc
 50
0.0
 51
90.0
1001
GENIUS_GENOBJ-N-FIL_13
1002
{
1000
OWNER
1000
GEN
1002
}
1001
GENIUS_GENODEF_13
1002
{
1000
HIER
1070
     0
1002
}
1002
{
1000
MANEDIT
1070
     0
1002
}
1002
{
1000
NOSEL
1070
     0
1002
}
1002
{
1000
BEHIND
1070
     0
1002
}
1002
{
1000
OTHER
1070
     0
1002
}
1002
{
1000
REACTOR
1002
}
  0
ARC
  5
5A7A
330
1A
100
AcDbEntity
  8
TEKUSU
  6
DASHED2
 48
0.5
100
AcDbCircle
 10
2452.328956590756
 20
343.9223319585706
 30
-0.0000000000016372
 40
13.13879310344826
100
AcDbArc
 50
242.8280175842583
 51
297.1719824157417
  0
LINE
  5
5A7B
330
1A
100
AcDbEntity
  8
TEKUSU
  6
DASHED2
 48
0.5
100
AcDbLine
 10
2460.328956590755
 20
333.4835388551216
 30
-0.0000000000016372
 11
2460.328956590755
 21
332.7335388551217
 31
-0.0000000000016372
  0
LINE
  5
5A7C
330
1A
100
AcDbEntity
  8
TEKUSU
  6
DASHED2
 48
0.5
100
AcDbLine
 10
2459.828956590755
 20
332.2335388551217
 30
-0.0000000000016372
 11
2444.828956590754
 21
332.2335388551217
 31
-0.0000000000016372
  0
ARC
  5
5A7D
330
1A
100
AcDbEntity
  8
TEKUSU
  6
DASHED2
 48
0.5
100
AcDbCircle
 10
2444.828956590754
 20
332.7335388551217
 30
-0.0000000000016372
 40
0.5
100
AcDbArc
 50
180.0
 51
270.0
1001
GENIUS_GENOBJ-N-FIL_13
1002
{
1000
OWNER
1000
GEN
1002
}
1001
GENIUS_GENODEF_13
1002
{
1000
HIER
1070
     0
1002
}
1002
{
1000
MANEDIT
1070
     0
1002
}
1002
{
1000
NOSEL
1070
     0
1002
}
1002
{
1000
BEHIND
1070
     0
1002
}
1002
{
1000
OTHER
1070
     0
1002
}
1002
{
1000
REACTOR
1002
}
  0
ARC
  5
5A7E
330
1A
100
AcDbEntity
  8
TEKUSU
  6
DASHED2
 48
0.5
100
AcDbCircle
 10
2444.828956590754
 20
333.4835388551216
 30
-0.0000000000016372
 40
0.5
100
AcDbArc
 50
90.0
 51
180.0
1001
GENIUS_GENOBJ-N-FIL_13
1002
{
1000
OWNER
1000
GEN
1002
}
1001
GENIUS_GENODEF_13
1002
{
1000
HIER
1070
     0
1002
}
1002
{
1000
MANEDIT
1070
     0
1002
}
1002
{
1000
NOSEL
1070
     0
1002
}
1002
{
1000
BEHIND
1070
     0
1002
}
1002
{
1000
OTHER
1070
     0
1002
}
1002
{
1000
REACTOR
1002
}
  0
LINE
  5
5A7F
330
1A
100
AcDbEntity
  8
TEKUSU
  6
DASHED2
 48
0.5
100
AcDbLine
 10
2444.328956590756
 20
333.4835388551216
 30
-0.0000000000016372
 11
2444.328956590756
 21
332.7335388551217
 31
-0.0000000000016372
  0
LINE
  5
5A80
330
1A
100
AcDbEntity
  8
TEKUSU
  6
DASHED2
 48
0.5
100
AcDbLine
 10
2459.828956590755
 20
333.9835388551216
 30
-0.0000000000016372
 11
2444.828956590754
 21
333.9835388551216
 31
-0.0000000000016372
  0
LINE
  5
5A81
330
1A
100
AcDbEntity
  8
SUNPOU
  6
CENTER2
370
     5
100
AcDbLine
 10
2452.328956590756
 20
326.0806386745314
 30
-0.0000000000050303
 11
2452.328956590756
 21
408.9835388551215
 31
-0.0000000000050303
  0
LINE
  5
5A82
330
1A
100
AcDbEntity
  8
TEKUSU
 48
0.5
100
AcDbLine
 10
2455.578956590755
 20
391.9835388551216
 30
-0.0000000000050303
 11
2449.078956590755
 21
391.9835388551216
 31
-0.0000000000050303
  0
LINE
  5
5A83
330
1A
100
AcDbEntity
  8
TEKUSU
  6
DASHED2
 48
0.5
100
AcDbLine
 10
2455.578956590755
 20
361.9835388551207
 30
-0.0000000000016372
 11
2449.078956590755
 21
361.9835388551207
 31
-0.0000000000016372
  0
LINE
  5
5A84
330
1A
100
AcDbEntity
  8
TEKUSU
 48
0.5
100
AcDbLine
 10
2449.828956590755
 20
396.8834057488355
 30
-0.0000000000050303
 11
2449.828956590755
 21
391.9835388551226
 31
-0.0000000000050303
  0
LINE
  5
5A85
330
1A
100
AcDbEntity
  8
TEKUSU
 48
0.5
100
AcDbLine
 10
2452.328956590756
 20
398.9835388551217
 30
-0.0000000000050303
 11
2449.828956590755
 21
396.8834057488355
 31
-0.0000000000050303
  0
LINE
  5
5A86
330
1A
100
AcDbEntity
  8
TEKUSU
 48
0.5
100
AcDbLine
 10
2454.828956590755
 20
396.8834057488355
 30
-0.0000000000050303
 11
2454.828956590755
 21
391.9835388551226
 31
-0.0000000000050303
  0
LINE
  5
5A87
330
1A
100
AcDbEntity
  8
TEKUSU
 48
0.5
100
AcDbLine
 10
2454.828956590755
 20
396.8834057488355
 30
-0.0000000000050303
 11
2452.328956590756
 21
398.9835388551217
 31
-0.0000000000050303
  0
LINE
  5
5A88
330
1A
100
AcDbEntity
  8
TEKUSU
 48
0.5
100
AcDbLine
 10
2450.807598170099
 20
391.9835388551226
 30
-0.0000000000050303
 11
2452.328956590756
 21
398.9835388551217
 31
-0.0000000000050303
  0
LINE
  5
5A89
330
1A
100
AcDbEntity
  8
TEKUSU
  6
DASHED2
 48
0.5
100
AcDbLine
 10
2449.078956590755
 20
361.9835388551217
 30
-0.0000000000050303
 11
2449.078956590755
 21
379.7835388551229
 31
-0.0000000000050303
  0
LINE
  5
5A8A
330
1A
100
AcDbEntity
  8
TEKUSU
  6
DASHED2
 48
0.5
100
AcDbLine
 10
2455.578954549708
 20
361.9835388551217
 30
-0.0000000000050303
 11
2455.578955740876
 21
379.7835388551229
 31
-0.0000000000050303
  0
LINE
  5
5A8B
330
1A
100
AcDbEntity
  8
TEKUSU
  6
DASHED2
 48
0.5
100
AcDbLine
 10
2454.828956590755
 20
334.9835388551217
 30
-0.0000000000050303
 11
2454.828956590755
 21
361.9835388551217
 31
-0.0000000000050303
  0
LINE
  5
5A8C
330
1A
100
AcDbEntity
  8
TEKUSU
  6
DASHED2
 48
0.5
100
AcDbLine
 10
2449.828956590755
 20
334.9835388551217
 30
-0.0000000000050303
 11
2449.828956590755
 21
361.9835388551217
 31
-0.0000000000050303
  0
LINE
  5
5A8D
330
1A
100
AcDbEntity
  8
TEKUSU
  6
DASHED2
 48
0.5
100
AcDbLine
 10
2449.828956590755
 20
334.9835388551217
 30
-0.0000000000050303
 11
2454.828956590755
 21
334.9835388551217
 31
-0.0000000000050303
  0
ARC
  5
5A8E
330
1A
100
AcDbEntity
  8
TEKUSU
 48
0.5
100
AcDbCircle
 10
2455.828956590754
 20
334.9835388551217
 30
-0.0000000000050303
 40
1.0
100
AcDbArc
 50
180.0
 51
270.0
  0
ARC
  5
5A8F
330
1A
100
AcDbEntity
  8
TEKUSU
 48
0.5
100
AcDbCircle
 10
2448.828956590754
 20
334.9835388551217
 30
-0.0000000000050303
 40
1.0
100
AcDbArc
 50
270.0
 51
0.0
  0
LINE
  5
5AA8
330
1A
100
AcDbEntity
  8
TEKUSU
 48
0.5
100
AcDbLine
 10
2321.634864625112
 20
301.3330701254615
 30
-0.00000000000503
 11
2309.434864625111
 21
301.3330701254616
 31
-0.00000000000503
  0
LINE
  5
5AA9
330
1A
100
AcDbEntity
  8
TEKUSU
 48
0.5
100
AcDbLine
 10
2321.634864625112
 20
307.8330692755829
 30
-0.00000000000503
 11
2309.434864625111
 21
307.8330700920018
 31
-0.00000000000503
  0
LINE
  5
5AAA
330
1A
100
AcDbEntity
  8
TEKUSU
 48
0.5
100
AcDbLine
 10
2449.078956590756
 20
379.7835388551229
 30
-0.0000000000050303
 11
2449.078956590755
 21
391.9835388551216
 31
-0.0000000000050303
  0
LINE
  5
5AAB
330
1A
100
AcDbEntity
  8
TEKUSU
 48
0.5
100
AcDbLine
 10
2455.578955740878
 20
379.7835388551229
 30
-0.0000000000050303
 11
2455.578956557295
 21
391.9835388551216
 31
-0.0000000000050303
  0
DIMENSION
  5
5AC7
330
1A
100
AcDbEntity
  8
SUNPOU
100
AcDbDimension
280
     0
  2
*D10
 10
2292.988581454733
 20
377.4835388551233
 30
0.0
 11
2289.863581454733
 21
364.9835566585295
 31
0.0
 70
    32
 71
     5
 42
24.99996439318613
 73
     0
 74
     0
 75
     0
  3
STANDARD
100
AcDbAlignedDimension
 13
2355.634861509916
 23
352.483574461937
 33
0.0
 14
2325.434864625111
 24
377.4835388551232
 34
0.0
 50
90.0
100
AcDbRotatedDimension
  0
MTEXT
  5
5B42
330
1A
100
AcDbEntity
  8
0
100
AcDbMText
 10
2561.632434960412
 20
51.03332784057889
 30
0.0
 40
5.0
 41
0.0
 46
0.0
 71
     4
 72
     1
  1
※1,2　パネルがかん合した時に、隙間が生じない様に充てんしてください。 \P※2　　裏面側の横走り防止シーリングは、捨板の防水パッキン,裏面横走り防止パッキン\P　　　 に接するように施してください。
 73
     1
 44
1.0
  0
VIEWPORT
  5
22
330
17
100
AcDbEntity
 67
     1
  8
0
348
23EF
100
AcDbViewport
 10
261.5176991150442
 20
154.7242978687078
 30
0.0
 40
523.0353982300885
 41
309.4485957374157
 68
     1
 69
     1
 12
261.5176991150442
 22
154.7242978687078
 13
0.0
 23
0.0
 14
1.0
 24
1.0
 15
10.0
 25
10.0
 16
0.0
 26
0.0
 36
1.0
 17
0.0
 27
0.0
 37
0.0
 42
50.0
 43
0.0
 44
0.0
 45
309.4485957374157
 50
0.0
 51
0.0
 72
   100
 90
    32768
  1

281
     0
 71
     1
 74
     0
110
0.0
120
0.0
130
0.0
111
1.0
121
0.0
131
0.0
112
0.0
122
1.0
132
0.0
 79
     0
146
0.0
170
     0
 61
     5
292
     1
282
     1
141
0.0
142
0.0
 63
   250
421
  3355443
  0
ENDSEC
  0
SECTION
  2
OBJECTS
  0
DICTIONARY
  5
C
330
0
100
AcDbDictionary
281
     1
  3
ACAD_CIP_PREVIOUS_PRODUCT_INFO
350
2FF8
  3
ACAD_COLOR
350
3B0
  3
ACAD_DETAILVIEWSTYLE
350
3447
  3
ACAD_GROUP
350
D
  3
ACAD_LAYOUT
350
3B1
  3
ACAD_MATERIAL
350
3AF
  3
ACAD_MLEADERSTYLE
350
2FED
  3
ACAD_MLINESTYLE
350
E
  3
ACAD_PLOTSETTINGS
350
3B2
  3
ACAD_PLOTSTYLENAME
350
3AD
  3
ACAD_SCALELIST
350
2FDB
  3
ACAD_SECTIONVIEWSTYLE
350
3445
  3
ACAD_TABLESTYLE
350
14DD
  3
ACAD_VISUALSTYLE
350
23E9
  3
AcadDim
350
D85
  3
ACDB_RECOMPOSE_DATA
350
5C0B
  3
AcDbVariableDictionary
350
1904
  3
AcDsDecomposeData
350
5C11
  0
DICTIONARY
  5
2421
330
8
100
AcDbDictionary
280
     1
281
     1
  0
DICTIONARY
  5
181F
330
2
100
AcDbDictionary
280
     1
281
     1
  3
ACAD_LAYERFILTERS
360
1823
  3
ACAD_LAYERSTATES
360
2489
  3
ACLYDICTIONARY
360
1822
  0
DICTIONARY
  5
3036
330
F
100
AcDbDictionary
280
     1
281
     1
  3
ADSK_XREC_LAYER_RECONCILED
360
3037
  0
DICTIONARY
  5
3038
330
87
100
AcDbDictionary
280
     1
281
     1
  3
ADSK_XREC_LAYER_RECONCILED
360
3039
  0
DICTIONARY
  5
303A
330
1548
100
AcDbDictionary
280
     1
281
     1
  3
ADSK_XREC_LAYER_RECONCILED
360
303B
  0
DICTIONARY
  5
303C
330
1549
100
AcDbDictionary
280
     1
281
     1
  3
ADSK_XREC_LAYER_RECONCILED
360
303D
  0
DICTIONARY
  5
303E
330
154A
100
AcDbDictionary
280
     1
281
     1
  3
ADSK_XREC_LAYER_RECONCILED
360
303F
  0
DICTIONARY
  5
3040
330
154B
100
AcDbDictionary
280
     1
281
     1
  3
ADSK_XREC_LAYER_RECONCILED
360
3041
  0
DICTIONARY
  5
3042
330
154C
100
AcDbDictionary
280
     1
281
     1
  3
ADSK_XREC_LAYER_RECONCILED
360
3043
  0
DICTIONARY
  5
3044
330
154D
100
AcDbDictionary
280
     1
281
     1
  3
ADSK_XREC_LAYER_RECONCILED
360
3045
  0
DICTIONARY
  5
3046
330
154E
100
AcDbDictionary
280
     1
281
     1
  3
ADSK_XREC_LAYER_RECONCILED
360
3047
  0
DICTIONARY
  5
3048
330
181D
100
AcDbDictionary
280
     1
281
     1
  3
ADSK_XREC_LAYER_RECONCILED
360
3049
  0
DICTIONARY
  5
1FFD
330
1A
100
AcDbDictionary
280
     1
281
     1
  3
ACAD_SORTENTS
360
1FFE
  0
DICTIONARY
  5
5B70
330
4FE3
100
AcDbDictionary
280
     1
281
     1
  3
ACAD_MTEXT_2008_RT
360
5C08
  0
DICTIONARY
  5
503C
330
503B
100
AcDbDictionary
280
     1
281
     1
  3
ACAD_DIMASSOC
360
503D
  0
DICTIONARY
  5
5040
330
503F
100
AcDbDictionary
280
     1
281
     1
  3
ACAD_DIMASSOC
360
5041
  0
DICTIONARY
  5
5C4C
330
50DA
100
AcDbDictionary
280
     1
281
     1
  3
ACAD_XREC_ROUNDTRIP
360
5C4D
  0
DICTIONARY
  5
5C4E
330
50DB
100
AcDbDictionary
280
     1
281
     1
  3
ACAD_XREC_ROUNDTRIP
360
5C4F
  0
DICTIONARY
  5
5C50
330
50DC
100
AcDbDictionary
280
     1
281
     1
  3
ACAD_XREC_ROUNDTRIP
360
5C51
  0
DICTIONARY
  5
5C52
330
50DD
100
AcDbDictionary
280
     1
281
     1
  3
ACAD_XREC_ROUNDTRIP
360
5C53
  0
DICTIONARY
  5
5C54
330
50DE
100
AcDbDictionary
280
     1
281
     1
  3
ACAD_XREC_ROUNDTRIP
360
5C55
  0
DICTIONARY
  5
5C56
330
50DF
100
AcDbDictionary
280
     1
281
     1
  3
ACAD_XREC_ROUNDTRIP
360
5C57
  0
DICTIONARY
  5
5C58
330
50E0
100
AcDbDictionary
280
     1
281
     1
  3
ACAD_XREC_ROUNDTRIP
360
5C59
  0
DICTIONARY
  5
5C5A
330
50E1
100
AcDbDictionary
280
     1
281
     1
  3
ACAD_XREC_ROUNDTRIP
360
5C5B
  0
DICTIONARY
  5
5C5C
330
50E2
100
AcDbDictionary
280
     1
281
     1
  3
ACAD_XREC_ROUNDTRIP
360
5C5D
  0
DICTIONARY
  5
5C5E
330
50E3
100
AcDbDictionary
280
     1
281
     1
  3
ACAD_XREC_ROUNDTRIP
360
5C5F
  0
DICTIONARY
  5
5C60
330
5199
100
AcDbDictionary
280
     1
281
     1
  3
ACAD_XREC_ROUNDTRIP
360
5C61
  0
DICTIONARY
  5
5C62
330
51C2
100
AcDbDictionary
280
     1
281
     1
  3
ACAD_XREC_ROUNDTRIP
360
5C63
  0
DICTIONARY
  5
5C64
330
51C4
100
AcDbDictionary
280
     1
281
     1
  3
ACAD_XREC_ROUNDTRIP
360
5C65
  0
DICTIONARY
  5
5A06
330
5A05
100
AcDbDictionary
280
     1
281
     1
  3
ACAD_MTEXT_2008_RT
360
5C09
  0
DICTIONARY
  5
5A08
330
5A07
100
AcDbDictionary
280
     1
281
     1
  3
ACAD_MTEXT_2008_RT
360
5C0A
  0
XRECORD
  5
2FF8
102
{ACAD_REACTORS
330
C
102
}
330
C
100
AcDbXrecord
280
     1
300
ACDLT
300
2017
300
86604ACDLT_2017_0F
  0
DICTIONARY
  5
3B0
102
{ACAD_REACTORS
330
C
102
}
330
C
100
AcDbDictionary
281
     1
  0
DICTIONARY
  5
3447
102
{ACAD_REACTORS
330
C
102
}
330
C
100
AcDbDictionary
281
     1
  3
Metric50
350
3448
  0
DICTIONARY
  5
D
102
{ACAD_REACTORS
330
C
102
}
330
C
100
AcDbDictionary
281
     1
  0
DICTIONARY
  5
3B1
102
{ACAD_REACTORS
330
C
102
}
330
C
100
AcDbDictionary
281
     1
  3
Model
350
3B3
  3
レイアウト1
350
3B4
  0
DICTIONARY
  5
3AF
102
{ACAD_REACTORS
330
C
102
}
330
C
100
AcDbDictionary
281
     1
  3
ByBlock
350
23E7
  3
ByLayer
350
23E6
  3
Global
350
23E8
  0
DICTIONARY
  5
2FED
102
{ACAD_REACTORS
330
C
102
}
330
C
100
AcDbDictionary
281
     1
  3
Standard
350
2FEE
  0
DICTIONARY
  5
E
102
{ACAD_REACTORS
330
C
102
}
330
C
100
AcDbDictionary
281
     1
  3
STANDARD
350
13
  0
DICTIONARY
  5
3B2
102
{ACAD_REACTORS
330
C
102
}
330
C
100
AcDbDictionary
281
     1
  0
ACDBDICTIONARYWDFLT
  5
3AD
102
{ACAD_REACTORS
330
C
102
}
330
C
100
AcDbDictionary
281
     1
  3
Normal
350
3AE
100
AcDbDictionaryWithDefault
340
3AE
  0
DICTIONARY
  5
2FDB
102
{ACAD_REACTORS
330
C
102
}
330
C
100
AcDbDictionary
281
     1
  3
A0
350
2FDC
  3
A1
350
2FDD
  3
A2
350
2FDE
  3
A3
350
2FDF
  3
A4
350
2FE0
  3
A5
350
2FE1
  3
A6
350
2FE2
  3
A7
350
2FE3
  3
A8
350
2FE4
  3
A9
350
2FE5
  3
B0
350
2FE6
  3
B1
350
2FE7
  3
B2
350
2FE8
  3
B3
350
2FE9
  3
B4
350
2FEA
  3
B5
350
2FEB
  3
B6
350
2FEC
  0
DICTIONARY
  5
3445
102
{ACAD_REACTORS
330
C
102
}
330
C
100
AcDbDictionary
281
     1
  3
Metric50
350
3446
  0
DICTIONARY
  5
14DD
102
{ACAD_REACTORS
330
C
102
}
330
C
100
AcDbDictionary
281
     1
  3
Standard
350
14DE
  0
DICTIONARY
  5
23E9
102
{ACAD_REACTORS
330
C
102
}
330
C
100
AcDbDictionary
281
     1
  3
2dWireframe
350
23EF
  3
3D Hidden
350
23F1
  3
3dWireframe
350
23F0
  3
Basic
350
23EE
  3
Brighten
350
23F5
  3
ColorChange
350
23F9
  3
Conceptual
350
23F2
  3
Dim
350
23F4
  3
EdgeColorOff
350
2FDA
  3
Facepattern
350
23F8
  3
Flat
350
23EA
  3
FlatWithEdges
350
23EB
  3
Gouraud
350
23EC
  3
GouraudWithEdges
350
23ED
  3
Hidden
350
2FD2
  3
JitterOff
350
2FD8
  3
Linepattern
350
23F7
  3
OverhangOff
350
2FD9
  3
Realistic
350
23F3
  3
Shaded
350
2FD7
  3
Shaded with edges
350
2FD6
  3
Shades of Gray
350
2FD3
  3
Sketchy
350
2FD4
  3
Thicken
350
23F6
  3
Wireframe
350
2FD1
  3
X-Ray
350
2FD5
  0
XRECORD
  5
D85
102
{ACAD_REACTORS
330
C
102
}
330
C
100
AcDbXrecord
280
     1
 90
   990106
  3
NONE
 60
     0
 61
     0
 62
     1
 63
     3
 64
     0
 65
     0
 66
     0
 67
     3
 68
     1
 69
     0
 70
     4
 71
     4
 72
     0
 40
0.0
170
     1
340
0
  0
XRECORD
  5
5C0B
102
{ACAD_REACTORS
330
C
102
}
330
C
100
AcDbXrecord
280
     1
 90
        1
330
14DE
330
4FE3
330
50CF
330
50D0
330
50D8
330
50D9
330
5A05
330
5A07
  0
DICTIONARY
  5
1904
102
{ACAD_REACTORS
330
C
102
}
330
C
100
AcDbDictionary
281
     1
  3
CANNOSCALE
350
3063
  3
CMLEADERSTYLE
350
3062
  3
CTABLESTYLE
350
1905
  3
CVIEWDETAILSTYLE
350
349B
  3
CVIEWSECTIONSTYLE
350
349C
  3
DIMASSOC
350
22C6
  3
INDEXCTL
350
3065
  3
LAYEREVAL
350
3E49
  3
LAYERNOTIFY
350
3E4A
  3
LIGHTINGUNITS
350
3E48
  3
MSLTSCALE
350
3E47
  3
PROJECTNAME
350
22C7
  3
SORTENTS
350
3064
  0
DICTIONARY
  5
5C11
102
{ACAD_REACTORS
330
C
102
}
330
C
100
AcDbDictionary
281
     1
  3
AcDsRecords
350
5C13
  3
AcDsSchemas
350
5C12
1001
ACAD
1070
     2
  0
DICTIONARY
  5
1823
102
{ACAD_REACTORS
330
181F
102
}
330
181F
100
AcDbDictionary
281
     1
  0
DICTIONARY
  5
2489
102
{ACAD_REACTORS
330
181F
102
}
330
181F
100
AcDbDictionary
281
     1
  0
DICTIONARY
  5
1822
102
{ACAD_REACTORS
330
181F
102
}
330
181F
100
AcDbDictionary
281
     1
1001
ACAD
1000
<All
  0
XRECORD
  5
3037
102
{ACAD_REACTORS
330
3036
102
}
330
3036
100
AcDbXrecord
280
     1
290
     1
  0
XRECORD
  5
3039
102
{ACAD_REACTORS
330
3038
102
}
330
3038
100
AcDbXrecord
280
     1
290
     1
  0
XRECORD
  5
303B
102
{ACAD_REACTORS
330
303A
102
}
330
303A
100
AcDbXrecord
280
     1
290
     1
  0
XRECORD
  5
303D
102
{ACAD_REACTORS
330
303C
102
}
330
303C
100
AcDbXrecord
280
     1
290
     1
  0
XRECORD
  5
303F
102
{ACAD_REACTORS
330
303E
102
}
330
303E
100
AcDbXrecord
280
     1
290
     1
  0
XRECORD
  5
3041
102
{ACAD_REACTORS
330
3040
102
}
330
3040
100
AcDbXrecord
280
     1
290
     1
  0
XRECORD
  5
3043
102
{ACAD_REACTORS
330
3042
102
}
330
3042
100
AcDbXrecord
280
     1
290
     1
  0
XRECORD
  5
3045
102
{ACAD_REACTORS
330
3044
102
}
330
3044
100
AcDbXrecord
280
     1
290
     1
  0
XRECORD
  5
3047
102
{ACAD_REACTORS
330
3046
102
}
330
3046
100
AcDbXrecord
280
     1
290
     1
  0
XRECORD
  5
3049
102
{ACAD_REACTORS
330
3048
102
}
330
3048
100
AcDbXrecord
280
     1
290
     1
  0
SORTENTSTABLE
  5
1FFE
102
{ACAD_REACTORS
330
1FFD
102
}
330
1FFD
100
AcDbSortentsTable
330
1A
331
5A8E
  5
4FFA
331
5A8A
  5
4FF6
331
5AAA
  5
4FFE
331
4FE6
  5
501A
331
4FE2
  5
5016
331
5107
  5
5A7B
331
5025
  5
505D
331
5103
  5
5A77
331
505F
  5
50CA
331
4FEE
  5
5022
331
50CE
  5
510C
331
5021
  5
5059
331
5A46
  5
4FD1
331
505B
  5
50C6
331
4FEA
  5
501E
331
50CA
  5
5108
331
510F
  5
5A83
331
502D
  5
509E
331
5A42
  5
4FCD
331
510B
  5
5A7F
331
50D6
  5
5114
331
5029
  5
5061
331
50D2
  5
5110
331
5063
  5
50CE
331
5A7E
  5
4FEB
331
5A7A
  5
4FE7
331
5A86
  5
4FF2
331
5A82
  5
4FEE
331
4FD2
  5
5008
331
50F7
  5
5A4C
331
5015
  5
504D
331
5011
  5
5049
331
4FDE
  5
5012
331
504F
  5
50BA
331
50BE
  5
50FC
331
4FDA
  5
500F
331
504B
  5
50B6
331
50FF
  5
5A54
331
501D
  5
5055
331
50BA
  5
50F8
331
5057
  5
50C2
331
50C6
  5
5104
331
50FB
  5
5A50
331
5019
  5
5051
331
5053
  5
50BE
331
50C2
  5
5100
331
4FCD
  5
5003
331
4FC9
  5
5000
331
5006
  5
503A
331
5045
  5
50B0
331
5002
  5
5036
331
500E
  5
5046
331
50AF
  5
50E2
331
500A
  5
5042
331
50AB
  5
50DE
331
50B7
  5
50F5
331
50B3
  5
50E6
331
4FF6
  5
502A
331
5A4E
  5
4FD9
331
4FF2
  5
5026
331
5035
  5
50A4
331
5A4A
  5
4FD4
331
5113
  5
5A87
331
5031
  5
50A1
331
50DE
  5
5A07
331
5A56
  5
4FE2
331
4FFE
  5
5032
331
50DA
  5
5199
331
5083
  5
50D1
331
5A52
  5
4FDE
331
4FFA
  5
502E
331
50E6
  5
5A46
331
5039
  5
50A8
331
50A7
  5
50DA
331
50E2
  5
5A42
331
50A3
  5
50D6
331
5A8F
  5
4FFB
331
5A8B
  5
4FF7
331
5AAB
  5
4FFF
331
5026
  5
505E
331
5A3F
  5
4FC9
331
4FE7
  5
501B
331
5022
  5
505A
331
4FE3
  5
5017
331
5104
  5
5A78
331
50CF
  5
510D
331
502E
  5
509F
331
505C
  5
50C7
331
5100
  5
5A55
331
5A47
  5
4FD2
331
4FEF
  5
5023
331
50CB
  5
5109
331
502A
  5
507F
331
5058
  5
50C3
331
5A43
  5
4FCE
331
510C
  5
5A80
331
4FEB
  5
501F
331
5108
  5
5A7C
331
50D3
  5
5111
331
5060
  5
50CB
331
5A7F
  5
4FEC
331
5A7B
  5
4FE8
331
5B42
  5
5B42
331
5A87
  5
4FF3
331
5A83
  5
4FEF
331
5A07
  5
5AA9
331
4FD7
  5
500C
331
5016
  5
504E
331
4FD3
  5
5009
331
5012
  5
504A
331
50F4
  5
5A49
331
504C
  5
50B7
331
4FDF
  5
5013
331
501E
  5
5056
331
50BF
  5
50FD
331
5048
  5
50B3
331
501A
  5
5052
331
50BB
  5
50F9
331
50FC
  5
5A51
331
5054
  5
50BF
331
50C7
  5
5105
331
50F8
  5
5A4D
331
5050
  5
50BB
331
50C3
  5
5101
331
4FCE
  5
5004
331
4FCA
  5
5001
331
5046
  5
50B1
331
5A77
  5
4FE4
331
5007
  5
503B
331
5042
  5
50AD
331
5003
  5
5037
331
50AC
  5
50DF
331
51C4
  5
5A8F
331
500F
  5
5047
331
50A8
  5
50DB
331
500B
  5
5043
331
50B4
  5
50F2
331
50B0
  5
50E3
331
5AC7
  5
5AC7
331
5036
  5
50A5
331
5A4F
  5
4FDA
331
4FF7
  5
502B
331
5032
  5
5A8C
331
5A4B
  5
4FD5
331
4FF3
  5
5027
331
5114
  5
5A88
331
50DF
  5
5A3F
331
503E
  5
50AB
331
5A57
  5
4FE3
331
4FFF
  5
5033
331
5110
  5
5A84
331
50DB
  5
51C2
331
503A
  5
50A9
331
5A53
  5
4FDF
331
4FFB
  5
502F
331
50E7
  5
5A47
331
50A4
  5
50D7
331
50E3
  5
5A43
331
50A0
  5
50D2
331
5A8C
  5
4FF8
331
5A88
  5
4FF4
331
5AA8
  5
4FFC
331
5027
  5
505F
331
4FE4
  5
5018
331
5023
  5
505B
331
4FE0
  5
5014
331
5105
  5
5A79
331
50CC
  5
510A
331
505D
  5
50C8
331
5101
  5
5A56
331
502F
  5
50A0
331
5A44
  5
4FCF
331
4FEC
  5
5020
331
50C8
  5
5106
331
5059
  5
50C4
331
502B
  5
5080
331
5A40
  5
4FCA
331
510D
  5
5A81
331
4FE8
  5
501C
331
50D4
  5
5112
331
5109
  5
5A7D
331
50D0
  5
510E
331
5061
  5
50CC
331
5A7C
  5
4FE9
331
5A78
  5
4FE5
331
5A84
  5
4FF0
331
5A80
  5
4FED
331
5017
  5
504F
331
4FD4
  5
500A
331
5013
  5
504B
331
50F5
  5
5A4A
331
4FD0
  5
5006
331
50BC
  5
50FA
331
501F
  5
5057
331
4FDC
  5
5010
331
504D
  5
50B8
331
50B8
  5
50F6
331
501B
  5
5053
331
50FD
  5
5A52
331
4FD8
  5
500D
331
5049
  5
50B4
331
5055
  5
50C0
331
50C4
  5
5102
331
50F9
  5
5A4E
331
5051
  5
50BC
331
50C0
  5
50FE
331
4FCF
  5
5005
331
5004
  5
5038
331
5047
  5
50B2
331
5199
  5
5A8D
331
5000
  5
5034
331
5043
  5
50AE
331
50AD
  5
50E0
331
500C
  5
5044
331
50E8
  5
5A48
331
50A9
  5
50DC
331
5008
  5
503E
331
50B5
  5
50F3
331
50B1
  5
50E4
331
5A4C
  5
4FD7
331
4FF4
  5
5028
331
5037
  5
50A6
331
5A48
  5
4FD3
331
4FF0
  5
5024
331
5115
  5
5A89
331
5033
  5
50A2
331
50DC
  5
51C4
331
5A54
  5
4FE0
331
503F
  5
50AC
331
4FFC
  5
5030
331
5111
  5
5A85
331
50D8
  5
5115
331
5081
  5
50CF
331
5A50
  5
4FDC
331
503B
  5
50AA
331
4FF8
  5
502C
331
50E4
  5
5A44
331
50A5
  5
50D8
331
50E0
  5
5A40
331
50A1
  5
50D3
331
5A8D
  5
4FF9
331
5A89
  5
4FF5
331
5AA9
  5
4FFD
331
4FE5
  5
5019
331
5106
  5
5A7A
331
5024
  5
505C
331
4FE1
  5
5015
331
505E
  5
50C9
331
5102
  5
5A57
331
5020
  5
5058
331
505A
  5
50C5
331
50CD
  5
510B
331
4FED
  5
5021
331
502C
  5
5081
331
510E
  5
5A82
331
5A45
  5
4FD0
331
50C9
  5
5107
331
4FE9
  5
501D
331
5028
  5
5060
331
510A
  5
5A7E
331
5A41
  5
4FCC
331
5062
  5
50CD
331
50D5
  5
5113
331
50D1
  5
510F
331
5A7D
  5
4FEA
331
5A79
  5
4FE6
331
5A85
  5
4FF1
331
5A81
  5
5AAB
331
50F6
  5
5A4B
331
5A05
  5
5AA8
331
4FD5
  5
500B
331
5014
  5
504C
331
4FD1
  5
5007
331
504E
  5
50B9
331
5010
  5
5048
331
50BD
  5
50FB
331
504A
  5
50B5
331
50FE
  5
5A53
331
4FDD
  5
5011
331
501C
  5
5054
331
50B9
  5
50F7
331
5056
  5
50C1
331
50FA
  5
5A4F
331
4FD9
  5
500E
331
5018
  5
5050
331
5052
  5
50BD
331
50C5
  5
5103
331
50C1
  5
50FF
331
4FCC
  5
5002
331
5005
  5
5039
331
5044
  5
50AF
331
50AE
  5
50E1
331
5001
  5
5035
331
50AA
  5
50DD
331
51C2
  5
5A8E
331
500D
  5
5045
331
5009
  5
503F
331
50B6
  5
50F4
331
50B2
  5
50E5
331
4FF5
  5
5029
331
5034
  5
50A3
331
5116
  5
5A8A
331
5A4D
  5
4FD8
331
4FF1
  5
5025
331
5030
  5
5A8B
331
5112
  5
5A86
331
5A49
  5
5AAA
331
5082
  5
50D0
331
4FFD
  5
5031
331
5A55
  5
4FE1
331
50DD
  5
5A05
331
5038
  5
50A7
331
4FF9
  5
502D
331
50A6
  5
50D9
331
5A51
  5
4FDD
331
50D9
  5
5116
331
50A2
  5
50D4
331
50E5
  5
5A45
331
50E1
  5
5A41
  0
XRECORD
  5
5C08
102
{ACAD_REACTORS
330
5B70
102
}
330
5B70
100
AcDbXrecord
280
     1
 40
11939370.0
  1
\pxqc;耐火ヴァンドＲＺ５０　入隅部・シーリング
  0
DIMASSOC
  5
503D
102
{ACAD_REACTORS
330
503C
102
}
330
503C
100
AcDbDimAssoc
330
503B
 90
        3
 70
     0
 71
     0
  1
AcDbOsnapPointRef
 72
    13
331
5039
 73
     2
 91
        0
 40
3.141592653589792
 10
0.0
 20
0.0
 30
2.000000000000000E+50
 75
     0
  1
AcDbOsnapPointRef
 72
    13
331
5029
 73
     2
 91
        0
 40
0.0
 10
0.0
 20
0.0
 30
2.000000000000000E+50
 75
     0
  0
DIMASSOC
  5
5041
102
{ACAD_REACTORS
330
5040
102
}
330
5040
100
AcDbDimAssoc
330
503F
 90
        3
 70
     0
 71
     0
  1
AcDbOsnapPointRef
 72
    13
331
5100
 73
     2
 91
        0
 40
0.0
 10
0.0
 20
0.0
 30
2.000000000000000E+50
 75
     0
  1
AcDbOsnapPointRef
 72
    13
331
505C
 73
     2
 91
        0
 40
0.0
 10
0.0
 20
0.0
 30
2.000000000000000E+50
 75
     0
  0
XRECORD
  5
5C4D
102
{ACAD_REACTORS
330
5C4C
102
}
330
5C4C
100
AcDbXrecord
280
     1
102
ACAD_ROUNDTRIP_2012_MLEADER
295
     1
  0
XRECORD
  5
5C4F
102
{ACAD_REACTORS
330
5C4E
102
}
330
5C4E
100
AcDbXrecord
280
     1
102
ACAD_ROUNDTRIP_2012_MLEADER
295
     1
  0
XRECORD
  5
5C51
102
{ACAD_REACTORS
330
5C50
102
}
330
5C50
100
AcDbXrecord
280
     1
102
ACAD_ROUNDTRIP_2012_MLEADER
295
     1
  0
XRECORD
  5
5C53
102
{ACAD_REACTORS
330
5C52
102
}
330
5C52
100
AcDbXrecord
280
     1
102
ACAD_ROUNDTRIP_2012_MLEADER
295
     1
  0
XRECORD
  5
5C55
102
{ACAD_REACTORS
330
5C54
102
}
330
5C54
100
AcDbXrecord
280
     1
102
ACAD_ROUNDTRIP_2012_MLEADER
295
     1
  0
XRECORD
  5
5C57
102
{ACAD_REACTORS
330
5C56
102
}
330
5C56
100
AcDbXrecord
280
     1
102
ACAD_ROUNDTRIP_2012_MLEADER
295
     1
  0
XRECORD
  5
5C59
102
{ACAD_REACTORS
330
5C58
102
}
330
5C58
100
AcDbXrecord
280
     1
102
ACAD_ROUNDTRIP_2012_MLEADER
295
     1
  0
XRECORD
  5
5C5B
102
{ACAD_REACTORS
330
5C5A
102
}
330
5C5A
100
AcDbXrecord
280
     1
102
ACAD_ROUNDTRIP_2012_MLEADER
295
     1
  0
XRECORD
  5
5C5D
102
{ACAD_REACTORS
330
5C5C
102
}
330
5C5C
100
AcDbXrecord
280
     1
102
ACAD_ROUNDTRIP_2012_MLEADER
295
     1
  0
XRECORD
  5
5C5F
102
{ACAD_REACTORS
330
5C5E
102
}
330
5C5E
100
AcDbXrecord
280
     1
102
ACAD_ROUNDTRIP_2012_MLEADER
295
     1
  0
XRECORD
  5
5C61
102
{ACAD_REACTORS
330
5C60
102
}
330
5C60
100
AcDbXrecord
280
     1
102
ACAD_ROUNDTRIP_2012_MLEADER
295
     1
  0
XRECORD
  5
5C63
102
{ACAD_REACTORS
330
5C62
102
}
330
5C62
100
AcDbXrecord
280
     1
102
ACAD_ROUNDTRIP_2012_MLEADER
295
     1
  0
XRECORD
  5
5C65
102
{ACAD_REACTORS
330
5C64
102
}
330
5C64
100
AcDbXrecord
280
     1
102
ACAD_ROUNDTRIP_2012_MLEADER
295
     1
  0
XRECORD
  5
5C09
102
{ACAD_REACTORS
330
5A06
102
}
330
5A06
100
AcDbXrecord
280
     1
 40
4386876.0
  1
\pxqc;アイジーヴァンド参考ディテール
  0
XRECORD
  5
5C0A
102
{ACAD_REACTORS
330
5A08
102
}
330
5A08
100
AcDbXrecord
280
     1
 40
3316594.0
  1
\pxqc;アイジー工業株式会社
  0
ACDBDETAILVIEWSTYLE
  5
3448
102
{ACAD_XDICTIONARY
360
5BE2
102
}
102
{ACAD_REACTORS
330
3447
102
}
330
3447
100
AcDbModelDocViewStyle
 70
     0
  3
Metric50
290
     0
100
AcDbDetailViewStyle
 70
     0
 71
     0
 90
        3
 71
     1
340
10
 62
   256
 40
5.0
340
0
 62
   256
 40
5.0
300

 40
0.0
280
     1
 71
     2
340
16
 90
       25
 62
   256
 71
     3
340
10
 62
   256
 40
5.0
 90
        0
 40
15.0
 90
        1
300
%<\AcVar ViewDetailId>% (%<\AcVar ViewScale \f "%sn">%)
 71
     4
340
16
 90
       25
 62
   256
340
16
 90
       25
 62
   256
280
     0
1001
ACAD
1000
AcRTDxfName
1000
ACDBDETAILVIEWSTYLE
1000
AcRTDxfName
1000
ACDBDETAILVIEWSTYLE
1000
AcRTDxfName
1000
ACDBDETAILVIEWSTYLE
1000
AcRTDxfName
1000
ACDBDETAILVIEWSTYLE
1000
AcRTDxfName
1000
ACDBDETAILVIEWSTYLE
1000
AcRTDxfName
1000
ACDBDETAILVIEWSTYLE
1000
AcRTDxfName
1000
ACDBDETAILVIEWSTYLE
1000
AcRTDxfName
1000
ACDBDETAILVIEWSTYLE
1000
AcRTDxfName
1000
ACDBDETAILVIEWSTYLE
1000
AcRTDxfName
1000
ACDBDETAILVIEWSTYLE
1000
AcRTDxfName
1000
ACDBDETAILVIEWSTYLE
1000
AcRTDxfName
1000
ACDBDETAILVIEWSTYLE
1000
AcRTDxfName
1000
ACDBDETAILVIEWSTYLE
  0
LAYOUT
  5
3B3
102
{ACAD_REACTORS
330
3B1
102
}
330
3B1
100
AcDbPlotSettings
  1

  2
none_device
  4
ISO_A3_(420.00_x_297.00_MM)
  6

 40
7.5
 41
20.0
 42
7.5
 43
20.0
 44
420.0
 45
297.0
 46
0.0
 47
0.0
 48
0.0
 49
0.0
140
0.0
141
0.0
142
1.0
143
2.0
 70
 11904
 72
     1
 73
     0
 74
     2
  7

 75
     0
147
0.4326599326599327
 76
     0
 77
     2
 78
   300
148
0.0
149
0.0
100
AcDbLayout
  1
Model
 70
     1
 71
     0
 10
0.0
 20
0.0
 11
12.0
 21
9.0
 12
0.0
 22
0.0
 32
0.0
 14
0.0
 24
0.0
 34
0.0
 15
0.0
 25
0.0
 35
0.0
146
0.0
 13
0.0
 23
0.0
 33
0.0
 16
1.0
 26
0.0
 36
0.0
 17
0.0
 27
1.0
 37
0.0
 76
     0
330
1A
331
2FCF
1001
ACAD_PSEXT
1000
なし
1000
なし
1000
適切ではありません
1000
新しいプロッタ環境設定名を選択しない限り、レイアウトは印刷されません。
1070
     0
  0
LAYOUT
  5
3B4
102
{ACAD_REACTORS
330
3B1
102
}
330
3B1
100
AcDbPlotSettings
  1

  2
DocuCentre Color 400 (FAX)
  4

  6

 40
0.0
 41
0.0
 42
0.0
 43
0.0
 44
0.0
 45
0.0
 46
0.0
 47
0.0
 48
0.0
 49
0.0
140
0.0
141
0.0
142
1.0
143
1.0
 70
   688
 72
     0
 73
     0
 74
     5
  7
monochrome.ctb
 75
    16
147
1.0
 76
     0
 77
     2
 78
   300
148
0.0
149
0.0
100
AcDbLayout
  1
レイアウト1
 70
     1
 71
     1
 10
0.0
 20
0.0
 11
420.0
 21
297.0
 12
0.0
 22
0.0
 32
0.0
 14
1.000000000000000E+20
 24
1.000000000000000E+20
 34
1.000000000000000E+20
 15
-1.000000000000000E+20
 25
-1.000000000000000E+20
 35
-1.000000000000000E+20
146
0.0
 13
0.0
 23
0.0
 33
0.0
 16
1.0
 26
0.0
 36
0.0
 17
0.0
 27
1.0
 37
0.0
 76
     0
330
17
331
22
  0
MATERIAL
  5
23E7
102
{ACAD_XDICTIONARY
360
4C68
102
}
102
{ACAD_REACTORS
330
3AF
102
}
330
3AF
100
AcDbMaterial
  1
ByBlock
 73
     1
 78
     1
172
     1
176
     1
270
     1
274
     1
  0
MATERIAL
  5
23E6
102
{ACAD_XDICTIONARY
360
4C66
102
}
102
{ACAD_REACTORS
330
3AF
102
}
330
3AF
100
AcDbMaterial
  1
ByLayer
 73
     1
 78
     1
172
     1
176
     1
270
     1
274
     1
  0
MATERIAL
  5
23E8
102
{ACAD_XDICTIONARY
360
4C6A
102
}
102
{ACAD_REACTORS
330
3AF
102
}
330
3AF
100
AcDbMaterial
  1
Global
 73
     1
 78
     1
172
     1
176
     1
270
     1
274
     1
  0
MLEADERSTYLE
  5
2FEE
102
{ACAD_XDICTIONARY
360
5C48
102
}
102
{ACAD_REACTORS
330
2FED
330
50DA
330
50DB
330
50DC
330
50DD
330
50DE
330
50DF
330
50E0
330
50E1
330
50E2
330
50E3
330
5199
330
51C2
330
51C4
102
}
330
2FED
100
AcDbMLeaderStyle
179
     2
170
     2
171
     1
172
     0
 90
        2
 40
0.5235987755982988
 41
0.0
173
     1
 91
-1056964608
340
14
 92
       -2
290
     1
 42
2.0
291
     1
 43
0.6
  3
Standard
341
B0
 44
0.0
300

342
10
174
     1
178
     3
175
     1
176
     0
 93
-1056964608
 45
5.0
292
     0
297
     0
 46
4.0
 94
-1056964608
 47
1.0
 49
1.0
140
1.0
293
     1
141
0.0
294
     1
177
     0
142
1.0
295
     0
296
     0
143
0.2
271
     0
272
     9
273
     9
1001
ACAD_MLEADERVER
1070
     2
  0
MLINESTYLE
  5
13
102
{ACAD_REACTORS
330
E
102
}
330
E
100
AcDbMlineStyle
  2
STANDARD
 70
     0
  3

 62
     0
 51
90.0
 52
90.0
 71
     2
 49
0.5
 62
   256
  6
BYLAYER
 49
-0.5
 62
   256
  6
BYLAYER
  0
ACDBPLACEHOLDER
  5
3AE
102
{ACAD_REACTORS
330
3AD
102
}
330
3AD
  0
SCALE
  5
2FDC
102
{ACAD_REACTORS
330
2FDB
102
}
330
2FDB
100
AcDbScale
 70
     0
300
1:1
140
1.0
141
1.0
290
     1
  0
SCALE
  5
2FDD
102
{ACAD_REACTORS
330
2FDB
102
}
330
2FDB
100
AcDbScale
 70
     0
300
1:2
140
1.0
141
2.0
290
     0
  0
SCALE
  5
2FDE
102
{ACAD_REACTORS
330
2FDB
102
}
330
2FDB
100
AcDbScale
 70
     0
300
1:4
140
1.0
141
4.0
290
     0
  0
SCALE
  5
2FDF
102
{ACAD_REACTORS
330
2FDB
102
}
330
2FDB
100
AcDbScale
 70
     0
300
1:5
140
1.0
141
5.0
290
     0
  0
SCALE
  5
2FE0
102
{ACAD_REACTORS
330
2FDB
102
}
330
2FDB
100
AcDbScale
 70
     0
300
1:8
140
1.0
141
8.0
290
     0
  0
SCALE
  5
2FE1
102
{ACAD_REACTORS
330
2FDB
102
}
330
2FDB
100
AcDbScale
 70
     0
300
1:10
140
1.0
141
10.0
290
     0
  0
SCALE
  5
2FE2
102
{ACAD_REACTORS
330
2FDB
102
}
330
2FDB
100
AcDbScale
 70
     0
300
1:16
140
1.0
141
16.0
290
     0
  0
SCALE
  5
2FE3
102
{ACAD_REACTORS
330
2FDB
102
}
330
2FDB
100
AcDbScale
 70
     0
300
1:20
140
1.0
141
20.0
290
     0
  0
SCALE
  5
2FE4
102
{ACAD_REACTORS
330
2FDB
102
}
330
2FDB
100
AcDbScale
 70
     0
300
1:30
140
1.0
141
30.0
290
     0
  0
SCALE
  5
2FE5
102
{ACAD_REACTORS
330
2FDB
102
}
330
2FDB
100
AcDbScale
 70
     0
300
1:40
140
1.0
141
40.0
290
     0
  0
SCALE
  5
2FE6
102
{ACAD_REACTORS
330
2FDB
102
}
330
2FDB
100
AcDbScale
 70
     0
300
1:50
140
1.0
141
50.0
290
     0
  0
SCALE
  5
2FE7
102
{ACAD_REACTORS
330
2FDB
102
}
330
2FDB
100
AcDbScale
 70
     0
300
1:100
140
1.0
141
100.0
290
     0
  0
SCALE
  5
2FE8
102
{ACAD_REACTORS
330
2FDB
102
}
330
2FDB
100
AcDbScale
 70
     0
300
2:1
140
2.0
141
1.0
290
     0
  0
SCALE
  5
2FE9
102
{ACAD_REACTORS
330
2FDB
102
}
330
2FDB
100
AcDbScale
 70
     0
300
4:1
140
4.0
141
1.0
290
     0
  0
SCALE
  5
2FEA
102
{ACAD_REACTORS
330
2FDB
102
}
330
2FDB
100
AcDbScale
 70
     0
300
8:1
140
8.0
141
1.0
290
     0
  0
SCALE
  5
2FEB
102
{ACAD_REACTORS
330
2FDB
102
}
330
2FDB
100
AcDbScale
 70
     0
300
10:1
140
10.0
141
1.0
290
     0
  0
SCALE
  5
2FEC
102
{ACAD_REACTORS
330
2FDB
102
}
330
2FDB
100
AcDbScale
 70
     0
300
100:1
140
100.0
141
1.0
290
     0
  0
ACDBSECTIONVIEWSTYLE
  5
3446
102
{ACAD_XDICTIONARY
360
5BE0
102
}
102
{ACAD_REACTORS
330
3445
102
}
330
3445
100
AcDbModelDocViewStyle
 70
     0
  3
Metric50
290
     0
100
AcDbSectionViewStyle
 70
     0
 71
     0
 90
      102
 71
     1
340
10
 62
   256
 40
5.0
340
0
340
0
 62
   256
 40
5.0
300
I, O, Q, S, X, Z
 40
10.0
 90
        0
 40
2.5
 90
        0
 71
     2
340
16
 90
       25
 62
   256
340
16
 90
       50
 62
   256
 40
5.0
 40
2.5
 40
5.0
 71
     3
340
10
 62
   256
 40
5.0
 90
        0
 40
15.0
 90
        1
300
%<\AcVar ViewSectionStartId>%-%<\AcVar ViewSectionEndId>% (%<\AcVar ViewScale \f "%sn">%)
 71
     4
 62
   256
 62
   257
300
ANSI31
 40
1.0
 90
        0
290
     0
290
     0
 90
        6
 40
0.0
 40
1.570796326794896
 40
0.2617993877991494
 40
1.308996938995747
 40
-0.2617993877991494
 40
1.832595714594044
1001
ACAD
1000
AcRTDxfName
1000
ACDBSECTIONVIEWSTYLE
1000
AcRTDxfName
1000
ACDBSECTIONVIEWSTYLE
1000
AcRTDxfName
1000
ACDBSECTIONVIEWSTYLE
1000
AcRTDxfName
1000
ACDBSECTIONVIEWSTYLE
1000
AcRTDxfName
1000
ACDBSECTIONVIEWSTYLE
1000
AcRTDxfName
1000
ACDBSECTIONVIEWSTYLE
1000
AcRTDxfName
1000
ACDBSECTIONVIEWSTYLE
1000
AcRTDxfName
1000
ACDBSECTIONVIEWSTYLE
1000
AcRTDxfName
1000
ACDBSECTIONVIEWSTYLE
1000
AcRTDxfName
1000
ACDBSECTIONVIEWSTYLE
1000
AcRTDxfName
1000
ACDBSECTIONVIEWSTYLE
1000
AcRTDxfName
1000
ACDBSECTIONVIEWSTYLE
1000
AcRTDxfName
1000
ACDBSECTIONVIEWSTYLE
  0
TABLESTYLE
  5
14DE
102
{ACAD_XDICTIONARY
360
30AF
102
}
102
{ACAD_REACTORS
330
14DD
102
}
330
14DD
100
AcDbTableStyle
280
     0
  3
Standard
 70
     0
 71
     0
 40
1.5
 41
1.5
280
     0
281
     0
  7
STANDARD
140
4.5
170
     2
 62
     0
 63
     7
283
     0
 90
        4
 91
        0
  1

274
    -2
284
     1
 64
     0
275
    -2
285
     1
 65
     0
276
    -2
286
     1
 66
     0
277
    -2
287
     1
 67
     0
278
    -2
288
     1
 68
     0
279
    -2
289
     1
 69
     0
  7
STANDARD
140
6.0
170
     5
 62
     0
 63
     7
283
     0
 90
        4
 91
        0
  1

274
    -2
284
     1
 64
     0
275
    -2
285
     1
 65
     0
276
    -2
286
     1
 66
     0
277
    -2
287
     1
 67
     0
278
    -2
288
     1
 68
     0
279
    -2
289
     1
 69
     0
  7
STANDARD
140
4.5
170
     5
 62
     0
 63
     7
283
     0
 90
        4
 91
        0
  1

274
    -2
284
     1
 64
     0
275
    -2
285
     1
 65
     0
276
    -2
286
     1
 66
     0
277
    -2
287
     1
 67
     0
278
    -2
288
     1
 68
     0
279
    -2
289
     1
 69
     0
1001
ACAD
1000
AcRTDxfName
1000
TABLESTYLE
1000
AcRTDxfName
1000
TABLESTYLE
1000
AcRTDxfName
1000
TABLESTYLE
1000
AcRTDxfName
1000
TABLESTYLE
1000
AcRTDxfName
1000
TABLESTYLE
  0
VISUALSTYLE
  5
23EF
102
{ACAD_XDICTIONARY
360
5C1E
102
}
102
{ACAD_REACTORS
330
23E9
102
}
330
23E9
100
AcDbVisualStyle
  2

 70
     4
177
     2
291
     0
 71
     0
176
     1
 72
     2
176
     1
 73
     0
176
     1
 90
        0
176
     1
 40
0.6
176
     1
 41
30.0
176
     1
 63
     7
176
     1
 74
     1
176
     1
 91
        4
176
     1
 64
     7
176
     1
 65
   257
176
     1
 75
     1
176
     1
175
     1
176
     1
 42
1.0
176
     1
 92
        0
176
     1
 66
   257
176
     1
 43
1.0
176
     1
 76
     1
176
     1
 77
     6
176
     1
 78
     2
176
     1
 67
     7
176
     1
 79
     5
176
     1
170
     0
176
     1
171
     0
176
     1
290
     0
176
     1
 93
        1
176
     1
 44
0.0
176
     1
173
     0
176
     1
1001
ACAD
1000
AcRTDxfName
1000
VISUALSTYLE
1000
AcDbSavedByObjectVersion
1070
     0
  0
VISUALSTYLE
  5
23F1
102
{ACAD_XDICTIONARY
360
5C22
102
}
102
{ACAD_REACTORS
330
23E9
102
}
330
23E9
100
AcDbVisualStyle
  2

 70
     6
177
     2
291
     0
 71
     1
176
     1
 72
     2
176
     1
 73
     2
176
     1
 90
        0
176
     1
 40
0.6
176
     1
 41
30.0
176
     1
 63
     7
176
     1
 74
     2
176
     1
 91
        2
176
     1
 64
     7
176
     1
 65
   257
176
     1
 75
     2
176
     1
175
     1
176
     1
 42
40.0
176
     1
 92
        0
176
     1
 66
   257
176
     1
 43
1.0
176
     1
 76
     1
176
     1
 77
     6
176
     1
 78
     2
176
     1
 67
     7
176
     1
 79
     3
176
     1
170
     0
176
     1
171
     0
176
     1
290
     0
176
     1
 93
        1
176
     1
 44
0.0
176
     1
173
     0
176
     1
1001
ACAD
1000
AcRTDxfName
1000
VISUALSTYLE
1000
AcDbSavedByObjectVersion
1070
     0
  0
VISUALSTYLE
  5
23F0
102
{ACAD_XDICTIONARY
360
5C20
102
}
102
{ACAD_REACTORS
330
23E9
102
}
330
23E9
100
AcDbVisualStyle
  2

 70
     5
177
     2
291
     0
 71
     0
176
     1
 72
     2
176
     1
 73
     0
176
     1
 90
        0
176
     1
 40
0.6
176
     1
 41
30.0
176
     1
 63
     7
176
     1
 74
     1
176
     1
 91
        4
176
     1
 64
     7
176
     1
 65
   257
176
     1
 75
     1
176
     1
175
     1
176
     1
 42
1.0
176
     1
 92
        0
176
     1
 66
   257
176
     1
 43
1.0
176
     1
 76
     1
176
     1
 77
     6
176
     1
 78
     2
176
     1
 67
     7
176
     1
 79
     5
176
     1
170
     0
176
     1
171
     0
176
     1
290
     0
176
     1
 93
        1
176
     1
 44
0.0
176
     1
173
     0
176
     1
1001
ACAD
1000
AcRTDxfName
1000
VISUALSTYLE
1000
AcDbSavedByObjectVersion
1070
     0
  0
VISUALSTYLE
  5
23EE
102
{ACAD_XDICTIONARY
360
5C1C
102
}
102
{ACAD_REACTORS
330
23E9
102
}
330
23E9
100
AcDbVisualStyle
  2

 70
     7
177
     2
291
     1
 71
     1
176
     1
 72
     0
176
     1
 73
     1
176
     1
 90
        0
176
     1
 40
0.6
176
     1
 41
30.0
176
     1
 63
     7
176
     1
 74
     0
176
     1
 91
        4
176
     1
 64
     7
176
     1
 65
   257
176
     1
 75
     1
176
     1
175
     1
176
     1
 42
1.0
176
     1
 92
        8
176
     1
 66
     7
176
     1
 43
1.0
176
     1
 76
     1
176
     1
 77
     6
176
     1
 78
     2
176
     1
 67
     7
176
     1
 79
     5
176
     1
170
     0
176
     1
171
     0
176
     1
290
     0
176
     1
 93
        1
176
     1
 44
0.0
176
     1
173
     0
176
     1
1001
ACAD
1000
AcRTDxfName
1000
VISUALSTYLE
1000
AcDbSavedByObjectVersion
1070
     0
  0
VISUALSTYLE
  5
23F5
102
{ACAD_XDICTIONARY
360
5C2A
102
}
102
{ACAD_REACTORS
330
23E9
102
}
330
23E9
100
AcDbVisualStyle
  2

 70
    12
177
     2
291
     1
 71
     2
176
     1
 72
     2
176
     1
 73
     0
176
     1
 90
        0
176
     1
 40
0.6
176
     1
 41
30.0
176
     1
 63
     7
176
     1
 74
     1
176
     1
 91
        4
176
     1
 64
     7
176
     1
 65
   257
176
     1
 75
     1
176
     1
175
     1
176
     1
 42
1.0
176
     1
 92
        8
176
     1
 66
     7
176
     1
 43
1.0
176
     1
 76
     1
176
     1
 77
     6
176
     1
 78
     2
176
     1
 67
     7
176
     1
 79
     5
176
     1
170
     0
176
     1
171
     0
176
     1
290
     0
176
     1
 93
        1
176
     1
 44
50.0
176
     1
173
     0
176
     1
1001
ACAD
1000
AcRTDxfName
1000
VISUALSTYLE
1000
AcDbSavedByObjectVersion
1070
     0
  0
VISUALSTYLE
  5
23F9
102
{ACAD_XDICTIONARY
360
5C32
102
}
102
{ACAD_REACTORS
330
23E9
102
}
330
23E9
100
AcDbVisualStyle
  2

 70
    16
177
     2
291
     1
 71
     2
176
     1
 72
     2
176
     1
 73
     3
176
     1
 90
        0
176
     1
 40
0.6
176
     1
 41
30.0
176
     1
 63
     8
176
     1
 74
     1
176
     1
 91
        4
176
     1
 64
     7
176
     1
 65
   257
176
     1
 75
     1
176
     1
175
     1
176
     1
 42
1.0
176
     1
 92
        8
176
     1
 66
     8
176
     1
 43
1.0
176
     1
 76
     1
176
     1
 77
     6
176
     1
 78
     2
176
     1
 67
     7
176
     1
 79
     5
176
     1
170
     0
176
     1
171
     0
176
     1
290
     0
176
     1
 93
        1
176
     1
 44
0.0
176
     1
173
     0
176
     1
1001
ACAD
1000
AcRTDxfName
1000
VISUALSTYLE
1000
AcDbSavedByObjectVersion
1070
     0
  0
VISUALSTYLE
  5
23F2
102
{ACAD_XDICTIONARY
360
5C24
102
}
102
{ACAD_REACTORS
330
23E9
102
}
330
23E9
100
AcDbVisualStyle
  2

 70
     9
177
     2
291
     0
 71
     3
176
     1
 72
     2
176
     1
 73
     0
176
     1
 90
        0
176
     1
 40
0.6
176
     1
 41
30.0
176
     1
 63
     7
176
     1
 74
     2
176
     1
 91
        2
176
     1
 64
     7
176
     1
 65
   257
176
     1
 75
     1
176
     1
175
     1
176
     1
 42
40.0
176
     1
 92
        8
176
     1
 66
     7
176
     1
 43
1.0
176
     1
 76
     1
176
     1
 77
     6
176
     1
 78
     2
176
     1
 67
     7
176
     1
 79
     3
176
     1
170
     0
176
     1
171
     0
176
     1
290
     0
176
     1
 93
        1
176
     1
 44
0.0
176
     1
173
     0
176
     1
1001
ACAD
1000
AcRTDxfName
1000
VISUALSTYLE
1000
AcDbSavedByObjectVersion
1070
     0
  0
VISUALSTYLE
  5
23F4
102
{ACAD_XDICTIONARY
360
5C28
102
}
102
{ACAD_REACTORS
330
23E9
102
}
330
23E9
100
AcDbVisualStyle
  2

 70
    11
177
     2
291
     1
 71
     2
176
     1
 72
     2
176
     1
 73
     0
176
     1
 90
        0
176
     1
 40
0.6
176
     1
 41
30.0
176
     1
 63
     7
176
     1
 74
     1
176
     1
 91
        4
176
     1
 64
     7
176
     1
 65
   257
176
     1
 75
     1
176
     1
175
     1
176
     1
 42
1.0
176
     1
 92
        8
176
     1
 66
     7
176
     1
 43
1.0
176
     1
 76
     1
176
     1
 77
     6
176
     1
 78
     2
176
     1
 67
     7
176
     1
 79
     5
176
     1
170
     0
176
     1
171
     0
176
     1
290
     0
176
     1
 93
        1
176
     1
 44
-50.0
176
     1
173
     0
176
     1
1001
ACAD
1000
AcRTDxfName
1000
VISUALSTYLE
1000
AcDbSavedByObjectVersion
1070
     0
  0
VISUALSTYLE
  5
2FDA
102
{ACAD_XDICTIONARY
360
5C46
102
}
102
{ACAD_REACTORS
330
23E9
102
}
330
23E9
100
AcDbVisualStyle
  2

 70
    22
177
     2
291
     1
 71
     2
176
     0
 72
     2
176
     0
 73
     0
176
     0
 90
        0
176
     0
 40
0.6
176
     0
 41
30.0
176
     0
 63
     7
176
     0
 74
     1
176
     0
 91
        4
176
     0
 64
     7
176
     0
 65
   257
176
     0
 75
     1
176
     0
175
     1
176
     0
 42
1.0
176
     0
 92
        8
176
     2
 66
     7
176
     0
 43
1.0
176
     0
 76
     1
176
     0
 77
     6
176
     0
 78
     2
176
     0
 67
     7
176
     0
 79
     5
176
     0
170
     0
176
     0
171
     0
176
     0
290
     0
176
     0
 93
        1
176
     0
 44
0.0
176
     0
173
     0
176
     0
1001
ACAD
1000
AcDbSavedByObjectVersion
1070
     0
  0
VISUALSTYLE
  5
23F8
102
{ACAD_XDICTIONARY
360
5C30
102
}
102
{ACAD_REACTORS
330
23E9
102
}
330
23E9
100
AcDbVisualStyle
  2

 70
    15
177
     2
291
     1
 71
     2
176
     1
 72
     2
176
     1
 73
     0
176
     1
 90
        0
176
     1
 40
0.6
176
     1
 41
30.0
176
     1
 63
     7
176
     1
 74
     1
176
     1
 91
        4
176
     1
 64
     7
176
     1
 65
   257
176
     1
 75
     1
176
     1
175
     1
176
     1
 42
1.0
176
     1
 92
        8
176
     1
 66
     7
176
     1
 43
1.0
176
     1
 76
     1
176
     1
 77
     6
176
     1
 78
     2
176
     1
 67
     7
176
     1
 79
     5
176
     1
170
     0
176
     1
171
     0
176
     1
290
     0
176
     1
 93
        1
176
     1
 44
0.0
176
     1
173
     0
176
     1
1001
ACAD
1000
AcRTDxfName
1000
VISUALSTYLE
1000
AcDbSavedByObjectVersion
1070
     0
  0
VISUALSTYLE
  5
23EA
102
{ACAD_XDICTIONARY
360
5C14
102
}
102
{ACAD_REACTORS
330
23E9
102
}
330
23E9
100
AcDbVisualStyle
  2

 70
     0
177
     2
291
     1
 71
     2
176
     1
 72
     1
176
     1
 73
     1
176
     1
 90
        2
176
     1
 40
0.6
176
     1
 41
30.0
176
     1
 63
     7
176
     1
 74
     0
176
     1
 91
        4
176
     1
 64
     7
176
     1
 65
   257
176
     1
 75
     1
176
     1
175
     1
176
     1
 42
1.0
176
     1
 92
        8
176
     1
 66
     7
176
     1
 43
1.0
176
     1
 76
     1
176
     1
 77
     6
176
     1
 78
     2
176
     1
 67
     7
176
     1
 79
     5
176
     1
170
     0
176
     1
171
     0
176
     1
290
     0
176
     1
 93
       13
176
     1
 44
0.0
176
     1
173
     0
176
     1
1001
ACAD
1000
AcRTDxfName
1000
VISUALSTYLE
1000
AcDbSavedByObjectVersion
1070
     0
  0
VISUALSTYLE
  5
23EB
102
{ACAD_XDICTIONARY
360
5C16
102
}
102
{ACAD_REACTORS
330
23E9
102
}
330
23E9
100
AcDbVisualStyle
  2

 70
     1
177
     2
291
     1
 71
     2
176
     1
 72
     1
176
     1
 73
     1
176
     1
 90
        2
176
     1
 40
0.6
176
     1
 41
30.0
176
     1
 63
     7
176
     1
 74
     1
176
     1
 91
        4
176
     1
 64
     7
176
     1
 65
   257
176
     1
 75
     1
176
     1
175
     1
176
     1
 42
1.0
176
     1
 92
        0
176
     1
 66
   257
176
     1
 43
1.0
176
     1
 76
     1
176
     1
 77
     6
176
     1
 78
     2
176
     1
 67
     7
176
     1
 79
     5
176
     1
170
     0
176
     1
171
     0
176
     1
290
     0
176
     1
 93
       13
176
     1
 44
0.0
176
     1
173
     0
176
     1
1001
ACAD
1000
AcRTDxfName
1000
VISUALSTYLE
1000
AcDbSavedByObjectVersion
1070
     0
  0
VISUALSTYLE
  5
23EC
102
{ACAD_XDICTIONARY
360
5C18
102
}
102
{ACAD_REACTORS
330
23E9
102
}
330
23E9
100
AcDbVisualStyle
  2

 70
     2
177
     2
291
     1
 71
     2
176
     1
 72
     2
176
     1
 73
     1
176
     1
 90
        2
176
     1
 40
0.6
176
     1
 41
30.0
176
     1
 63
     7
176
     1
 74
     0
176
     1
 91
        4
176
     1
 64
     7
176
     1
 65
   257
176
     1
 75
     1
176
     1
175
     1
176
     1
 42
1.0
176
     1
 92
        0
176
     1
 66
     7
176
     1
 43
1.0
176
     1
 76
     1
176
     1
 77
     6
176
     1
 78
     2
176
     1
 67
     7
176
     1
 79
     5
176
     1
170
     0
176
     1
171
     0
176
     1
290
     0
176
     1
 93
       13
176
     1
 44
0.0
176
     1
173
     0
176
     1
1001
ACAD
1000
AcRTDxfName
1000
VISUALSTYLE
1000
AcDbSavedByObjectVersion
1070
     0
  0
VISUALSTYLE
  5
23ED
102
{ACAD_XDICTIONARY
360
5C1A
102
}
102
{ACAD_REACTORS
330
23E9
102
}
330
23E9
100
AcDbVisualStyle
  2

 70
     3
177
     2
291
     1
 71
     2
176
     1
 72
     2
176
     1
 73
     1
176
     1
 90
        2
176
     1
 40
0.6
176
     1
 41
30.0
176
     1
 63
     7
176
     1
 74
     1
176
     1
 91
        4
176
     1
 64
     7
176
     1
 65
   257
176
     1
 75
     1
176
     1
175
     1
176
     1
 42
1.0
176
     1
 92
        0
176
     1
 66
   257
176
     1
 43
1.0
176
     1
 76
     1
176
     1
 77
     6
176
     1
 78
     2
176
     1
 67
     7
176
     1
 79
     5
176
     1
170
     0
176
     1
171
     0
176
     1
290
     0
176
     1
 93
       13
176
     1
 44
0.0
176
     1
173
     0
176
     1
1001
ACAD
1000
AcRTDxfName
1000
VISUALSTYLE
1000
AcDbSavedByObjectVersion
1070
     0
  0
VISUALSTYLE
  5
2FD2
102
{ACAD_XDICTIONARY
360
5C36
102
}
102
{ACAD_REACTORS
330
23E9
102
}
330
23E9
100
AcDbVisualStyle
  2

 70
     6
177
     2
291
     0
 71
     1
176
     1
 72
     2
176
     1
 73
     2
176
     1
 90
        0
176
     1
 40
0.6
176
     1
 41
30.0
176
     1
 63
     7
176
     1
 74
     2
176
     1
 91
        2
176
     1
 64
     7
176
     1
 65
   257
176
     1
 75
     2
176
     1
175
     1
176
     1
 42
40.0
176
     1
 92
        0
176
     1
 66
   257
176
     1
 43
1.0
176
     1
 76
     1
176
     1
 77
     6
176
     1
 78
     2
176
     1
 67
     7
176
     1
 79
     3
176
     1
170
     0
176
     1
171
     0
176
     1
290
     0
176
     1
 93
        1
176
     1
 44
0.0
176
     1
173
     0
176
     1
1001
ACAD
1000
AcDbSavedByObjectVersion
1070
     0
  0
VISUALSTYLE
  5
2FD8
102
{ACAD_XDICTIONARY
360
5C42
102
}
102
{ACAD_REACTORS
330
23E9
102
}
330
23E9
100
AcDbVisualStyle
  2

 70
    20
177
     2
291
     1
 71
     2
176
     0
 72
     2
176
     0
 73
     0
176
     0
 90
        0
176
     0
 40
0.6
176
     0
 41
30.0
176
     0
 63
     7
176
     0
 74
     1
176
     0
 91
        4
176
     0
 64
     7
176
     0
 65
   257
176
     0
 75
     1
176
     0
175
     1
176
     0
 42
1.0
176
     0
 92
       10
176
     2
 66
     7
176
     0
 43
1.0
176
     0
 76
     1
176
     0
 77
     6
176
     0
 78
     2
176
     0
 67
     7
176
     0
 79
     5
176
     0
170
     0
176
     0
171
     0
176
     0
290
     0
176
     0
 93
        1
176
     0
 44
0.0
176
     0
173
     0
176
     0
1001
ACAD
1000
AcDbSavedByObjectVersion
1070
     0
  0
VISUALSTYLE
  5
23F7
102
{ACAD_XDICTIONARY
360
5C2E
102
}
102
{ACAD_REACTORS
330
23E9
102
}
330
23E9
100
AcDbVisualStyle
  2

 70
    14
177
     2
291
     1
 71
     2
176
     1
 72
     2
176
     1
 73
     0
176
     1
 90
        0
176
     1
 40
0.6
176
     1
 41
30.0
176
     1
 63
     7
176
     1
 74
     1
176
     1
 91
        4
176
     1
 64
     7
176
     1
 65
   257
176
     1
 75
     7
176
     1
175
     7
176
     1
 42
1.0
176
     1
 92
        8
176
     1
 66
     7
176
     1
 43
1.0
176
     1
 76
     1
176
     1
 77
     6
176
     1
 78
     2
176
     1
 67
     7
176
     1
 79
     5
176
     1
170
     0
176
     1
171
     0
176
     1
290
     0
176
     1
 93
        1
176
     1
 44
0.0
176
     1
173
     0
176
     1
1001
ACAD
1000
AcRTDxfName
1000
VISUALSTYLE
1000
AcDbSavedByObjectVersion
1070
     0
  0
VISUALSTYLE
  5
2FD9
102
{ACAD_XDICTIONARY
360
5C44
102
}
102
{ACAD_REACTORS
330
23E9
102
}
330
23E9
100
AcDbVisualStyle
  2

 70
    21
177
     2
291
     1
 71
     2
176
     0
 72
     2
176
     0
 73
     0
176
     0
 90
        0
176
     0
 40
0.6
176
     0
 41
30.0
176
     0
 63
     7
176
     0
 74
     1
176
     0
 91
        4
176
     0
 64
     7
176
     0
 65
   257
176
     0
 75
     1
176
     0
175
     1
176
     0
 42
1.0
176
     0
 92
        9
176
     2
 66
     7
176
     0
 43
1.0
176
     0
 76
     1
176
     0
 77
     6
176
     0
 78
     2
176
     0
 67
     7
176
     0
 79
     5
176
     0
170
     0
176
     0
171
     0
176
     0
290
     0
176
     0
 93
        1
176
     0
 44
0.0
176
     0
173
     0
176
     0
1001
ACAD
1000
AcDbSavedByObjectVersion
1070
     0
  0
VISUALSTYLE
  5
23F3
102
{ACAD_XDICTIONARY
360
5C26
102
}
102
{ACAD_REACTORS
330
23E9
102
}
330
23E9
100
AcDbVisualStyle
  2

 70
     8
177
     2
291
     0
 71
     2
176
     1
 72
     2
176
     1
 73
     0
176
     1
 90
        0
176
     1
 40
0.6
176
     1
 41
30.0
176
     1
 63
     7
176
     1
 74
     1
176
     1
 91
        0
176
     1
 64
     7
176
     1
 65
   257
176
     1
 75
     1
176
     1
175
     1
176
     1
 42
1.0
176
     1
 92
        8
176
     1
 66
     8
176
     1
 43
1.0
176
     1
 76
     1
176
     1
 77
     6
176
     1
 78
     2
176
     1
 67
     7
176
     1
 79
     5
176
     1
170
     0
176
     1
171
     0
176
     1
290
     0
176
     1
 93
       13
176
     1
 44
0.0
176
     1
173
     0
176
     1
1001
ACAD
1000
AcRTDxfName
1000
VISUALSTYLE
1000
AcDbSavedByObjectVersion
1070
     0
  0
VISUALSTYLE
  5
2FD7
102
{ACAD_XDICTIONARY
360
5C40
102
}
102
{ACAD_REACTORS
330
23E9
102
}
330
23E9
100
AcDbVisualStyle
  2

 70
    27
177
     2
291
     0
 71
     2
176
     1
 72
     2
176
     1
 73
     1
176
     1
 90
        2
176
     1
 40
0.6
176
     1
 41
30.0
176
     1
 63
     7
176
     1
 74
     0
176
     1
 91
        4
176
     1
 64
     7
176
     1
 65
   257
176
     1
 75
     1
176
     1
175
     1
176
     1
 42
1.0
176
     1
 92
        8
176
     1
 66
   257
176
     1
 43
1.0
176
     1
 76
     1
176
     1
 77
     6
176
     1
 78
     2
176
     1
 67
     8
176
     1
 79
     3
176
     1
170
     0
176
     1
171
     0
176
     1
290
     0
176
     1
 93
        5
176
     1
 44
0.0
176
     1
173
     0
176
     1
1001
ACAD
1000
AcDbSavedByObjectVersion
1070
     0
  0
VISUALSTYLE
  5
2FD6
102
{ACAD_XDICTIONARY
360
5C3E
102
}
102
{ACAD_REACTORS
330
23E9
102
}
330
23E9
100
AcDbVisualStyle
  2

 70
    26
177
     2
291
     0
 71
     2
176
     1
 72
     2
176
     1
 73
     1
176
     1
 90
        2
176
     1
 40
0.6
176
     1
 41
30.0
176
     1
 63
     7
176
     1
 74
     1
176
     1
 91
        2
176
     1
 64
     7
176
     1
 65
   257
176
     1
 75
     2
176
     1
175
     1
176
     1
 42
1.0
176
     1
 92
        8
176
     1
 66
   257
176
     1
 43
1.0
176
     1
 76
     1
176
     1
 77
     6
176
     1
 78
     2
176
     1
 67
     7
176
     1
 79
     3
176
     1
170
     0
176
     1
171
     0
176
     1
290
     0
176
     1
 93
        5
176
     1
 44
0.0
176
     1
173
     0
176
     1
1001
ACAD
1000
AcDbSavedByObjectVersion
1070
     0
  0
VISUALSTYLE
  5
2FD3
102
{ACAD_XDICTIONARY
360
5C38
102
}
102
{ACAD_REACTORS
330
23E9
102
}
330
23E9
100
AcDbVisualStyle
  2

 70
    23
177
     2
291
     0
 71
     2
176
     1
 72
     2
176
     1
 73
     3
176
     1
 90
        0
176
     1
 40
0.6
176
     1
 41
30.0
176
     1
 63
     7
176
     1
 74
     2
176
     1
 91
        2
176
     1
 64
     7
176
     1
 65
     7
176
     1
 75
     1
176
     1
175
     1
176
     1
 42
40.0
176
     1
 92
        8
176
     1
 66
     7
176
     1
 43
1.0
176
     1
 76
     1
176
     1
 77
     6
176
     1
 78
     2
176
     1
 67
     7
176
     1
 79
     3
176
     1
170
     0
176
     1
171
     0
176
     1
290
     0
176
     1
 93
        1
176
     1
 44
0.0
176
     1
173
     0
176
     1
1001
ACAD
1000
AcDbSavedByObjectVersion
1070
     0
  0
VISUALSTYLE
  5
2FD4
102
{ACAD_XDICTIONARY
360
5C3A
102
}
102
{ACAD_REACTORS
330
23E9
102
}
330
23E9
100
AcDbVisualStyle
  2

 70
    24
177
     2
291
     0
 71
     1
176
     1
 72
     2
176
     1
 73
     2
176
     1
 90
        0
176
     1
 40
0.6
176
     1
 41
30.0
176
     1
 63
     7
176
     1
 74
     2
176
     1
 91
        2
176
     1
 64
     7
176
     1
 65
     7
176
     1
 75
     1
176
     1
175
     1
176
     1
 42
40.0
176
     1
 92
       11
176
     1
 66
     7
176
     1
 43
1.0
176
     1
 76
     1
176
     1
 77
     6
176
     1
 78
     2
176
     1
 67
     7
176
     1
 79
     6
176
     1
170
     0
176
     1
171
     0
176
     1
290
     0
176
     1
 93
        1
176
     1
 44
0.0
176
     1
173
     0
176
     1
1001
ACAD
1000
AcDbSavedByObjectVersion
1070
     0
  0
VISUALSTYLE
  5
23F6
102
{ACAD_XDICTIONARY
360
5C2C
102
}
102
{ACAD_REACTORS
330
23E9
102
}
330
23E9
100
AcDbVisualStyle
  2

 70
    13
177
     2
291
     1
 71
     2
176
     1
 72
     2
176
     1
 73
     0
176
     1
 90
        0
176
     1
 40
0.6
176
     1
 41
30.0
176
     1
 63
     7
176
     1
 74
     1
176
     1
 91
        4
176
     1
 64
     7
176
     1
 65
   257
176
     1
 75
     1
176
     1
175
     1
176
     1
 42
1.0
176
     1
 92
       12
176
     1
 66
     7
176
     1
 43
1.0
176
     1
 76
     1
176
     1
 77
     6
176
     1
 78
     2
176
     1
 67
     7
176
     1
 79
     5
176
     1
170
     0
176
     1
171
     0
176
     1
290
     0
176
     1
 93
        1
176
     1
 44
0.0
176
     1
173
     0
176
     1
1001
ACAD
1000
AcRTDxfName
1000
VISUALSTYLE
1000
AcDbSavedByObjectVersion
1070
     0
  0
VISUALSTYLE
  5
2FD1
102
{ACAD_XDICTIONARY
360
5C34
102
}
102
{ACAD_REACTORS
330
23E9
102
}
330
23E9
100
AcDbVisualStyle
  2

 70
     5
177
     2
291
     0
 71
     0
176
     1
 72
     2
176
     1
 73
     0
176
     1
 90
        0
176
     1
 40
0.6
176
     1
 41
30.0
176
     1
 63
     7
176
     1
 74
     1
176
     1
 91
        4
176
     1
 64
     7
176
     1
 65
   257
176
     1
 75
     1
176
     1
175
     1
176
     1
 42
1.0
176
     1
 92
        0
176
     1
 66
   257
176
     1
 43
1.0
176
     1
 76
     1
176
     1
 77
     6
176
     1
 78
     2
176
     1
 67
     7
176
     1
 79
     3
176
     1
170
     0
176
     1
171
     0
176
     1
290
     0
176
     1
 93
        1
176
     1
 44
0.0
176
     1
173
     0
176
     1
1001
ACAD
1000
AcDbSavedByObjectVersion
1070
     0
  0
VISUALSTYLE
  5
2FD5
102
{ACAD_XDICTIONARY
360
5C3C
102
}
102
{ACAD_REACTORS
330
23E9
102
}
330
23E9
100
AcDbVisualStyle
  2

 70
    25
177
     2
291
     0
 71
     2
176
     1
 72
     2
176
     1
 73
     1
176
     1
 90
        1
176
     1
 40
0.5
176
     1
 41
30.0
176
     1
 63
     7
176
     1
 74
     1
176
     1
 91
        0
176
     1
 64
     7
176
     1
 65
   257
176
     1
 75
     1
176
     1
175
     1
176
     1
 42
1.0
176
     1
 92
        8
176
     1
 66
     7
176
     1
 43
1.0
176
     1
 76
     1
176
     1
 77
     6
176
     1
 78
     2
176
     1
 67
     7
176
     1
 79
     3
176
     1
170
     0
176
     1
171
     0
176
     1
290
     0
176
     1
 93
       13
176
     1
 44
0.0
176
     1
173
     0
176
     1
1001
ACAD
1000
AcDbSavedByObjectVersion
1070
     0
  0
DICTIONARYVAR
  5
3063
102
{ACAD_REACTORS
330
1904
102
}
330
1904
100
DictionaryVariables
280
     0
  1
1:2
  0
DICTIONARYVAR
  5
3062
102
{ACAD_REACTORS
330
1904
102
}
330
1904
100
DictionaryVariables
280
     0
  1
STANDARD
  0
DICTIONARYVAR
  5
1905
102
{ACAD_REACTORS
330
1904
102
}
330
1904
100
DictionaryVariables
280
     0
  1
STANDARD
  0
DICTIONARYVAR
  5
349B
102
{ACAD_REACTORS
330
1904
102
}
330
1904
100
DictionaryVariables
280
     0
  1
Metric50
  0
DICTIONARYVAR
  5
349C
102
{ACAD_REACTORS
330
1904
102
}
330
1904
100
DictionaryVariables
280
     0
  1
Metric50
  0
DICTIONARYVAR
  5
22C6
102
{ACAD_REACTORS
330
1904
102
}
330
1904
100
DictionaryVariables
280
     0
  1
1
  0
DICTIONARYVAR
  5
3065
102
{ACAD_REACTORS
330
1904
102
}
330
1904
100
DictionaryVariables
280
     0
  1
0
  0
DICTIONARYVAR
  5
3E49
102
{ACAD_REACTORS
330
1904
102
}
330
1904
100
DictionaryVariables
280
     0
  1
1
  0
DICTIONARYVAR
  5
3E4A
102
{ACAD_REACTORS
330
1904
102
}
330
1904
100
DictionaryVariables
280
     0
  1
15
  0
DICTIONARYVAR
  5
3E48
102
{ACAD_REACTORS
330
1904
102
}
330
1904
100
DictionaryVariables
280
     0
  1
0
  0
DICTIONARYVAR
  5
3E47
102
{ACAD_REACTORS
330
1904
102
}
330
1904
100
DictionaryVariables
280
     0
  1
0
  0
DICTIONARYVAR
  5
22C7
102
{ACAD_REACTORS
330
1904
102
}
330
1904
100
DictionaryVariables
280
     0
  1

  0
DICTIONARYVAR
  5
3064
102
{ACAD_REACTORS
330
1904
102
}
330
1904
100
DictionaryVariables
280
     0
  1
127
  0
DICTIONARY
  5
5C13
102
{ACAD_REACTORS
330
5C11
102
}
330
5C11
100
AcDbDictionary
281
     1
  0
DICTIONARY
  5
5C12
102
{ACAD_REACTORS
330
5C11
102
}
330
5C11
100
AcDbDictionary
281
     1
  3
1564427669568
350
5C0C
  3
1564427669584
350
5C0D
  3
1564427669600
350
5C0E
  3
1564427669616
350
5C0F
  3
1564427669632
350
5C10
  0
DICTIONARY
  5
5BE2
330
3448
100
AcDbDictionary
280
     1
281
     1
  3
ACAD_XREC_ROUNDTRIP
360
5C4B
  0
DICTIONARY
  5
4C68
330
23E7
100
AcDbDictionary
280
     1
281
     1
  3
ACAD_XREC_ROUNDTRIP
360
4C69
  0
DICTIONARY
  5
4C66
330
23E6
100
AcDbDictionary
280
     1
281
     1
  3
ACAD_XREC_ROUNDTRIP
360
4C67
  0
DICTIONARY
  5
4C6A
330
23E8
100
AcDbDictionary
280
     1
281
     1
  3
ACAD_XREC_ROUNDTRIP
360
4C6B
  0
DICTIONARY
  5
5C48
330
2FEE
100
AcDbDictionary
280
     1
281
     1
  3
ACAD_XREC_ROUNDTRIP
360
5C49
  0
DICTIONARY
  5
5BE0
330
3446
100
AcDbDictionary
280
     1
281
     1
  3
ACAD_XREC_ROUNDTRIP
360
5C4A
  0
DICTIONARY
  5
30AF
330
14DE
100
AcDbDictionary
280
     1
281
     1
  3
ACAD_ROUNDTRIP_2008_TABLESTYLE_CELLSTYLEMAP
360
5C07
  0
DICTIONARY
  5
5C1E
330
23EF
100
AcDbDictionary
280
     1
281
     1
  3
ACAD_XREC_ROUNDTRIP
360
5C1F
  0
DICTIONARY
  5
5C22
330
23F1
100
AcDbDictionary
280
     1
281
     1
  3
ACAD_XREC_ROUNDTRIP
360
5C23
  0
DICTIONARY
  5
5C20
330
23F0
100
AcDbDictionary
280
     1
281
     1
  3
ACAD_XREC_ROUNDTRIP
360
5C21
  0
DICTIONARY
  5
5C1C
330
23EE
100
AcDbDictionary
280
     1
281
     1
  3
ACAD_XREC_ROUNDTRIP
360
5C1D
  0
DICTIONARY
  5
5C2A
330
23F5
100
AcDbDictionary
280
     1
281
     1
  3
ACAD_XREC_ROUNDTRIP
360
5C2B
  0
DICTIONARY
  5
5C32
330
23F9
100
AcDbDictionary
280
     1
281
     1
  3
ACAD_XREC_ROUNDTRIP
360
5C33
  0
DICTIONARY
  5
5C24
330
23F2
100
AcDbDictionary
280
     1
281
     1
  3
ACAD_XREC_ROUNDTRIP
360
5C25
  0
DICTIONARY
  5
5C28
330
23F4
100
AcDbDictionary
280
     1
281
     1
  3
ACAD_XREC_ROUNDTRIP
360
5C29
  0
DICTIONARY
  5
5C46
330
2FDA
100
AcDbDictionary
280
     1
281
     1
  3
ACAD_XREC_ROUNDTRIP
360
5C47
  0
DICTIONARY
  5
5C30
330
23F8
100
AcDbDictionary
280
     1
281
     1
  3
ACAD_XREC_ROUNDTRIP
360
5C31
  0
DICTIONARY
  5
5C14
330
23EA
100
AcDbDictionary
280
     1
281
     1
  3
ACAD_XREC_ROUNDTRIP
360
5C15
  0
DICTIONARY
  5
5C16
330
23EB
100
AcDbDictionary
280
     1
281
     1
  3
ACAD_XREC_ROUNDTRIP
360
5C17
  0
DICTIONARY
  5
5C18
330
23EC
100
AcDbDictionary
280
     1
281
     1
  3
ACAD_XREC_ROUNDTRIP
360
5C19
  0
DICTIONARY
  5
5C1A
330
23ED
100
AcDbDictionary
280
     1
281
     1
  3
ACAD_XREC_ROUNDTRIP
360
5C1B
  0
DICTIONARY
  5
5C36
330
2FD2
100
AcDbDictionary
280
     1
281
     1
  3
ACAD_XREC_ROUNDTRIP
360
5C37
  0
DICTIONARY
  5
5C42
330
2FD8
100
AcDbDictionary
280
     1
281
     1
  3
ACAD_XREC_ROUNDTRIP
360
5C43
  0
DICTIONARY
  5
5C2E
330
23F7
100
AcDbDictionary
280
     1
281
     1
  3
ACAD_XREC_ROUNDTRIP
360
5C2F
  0
DICTIONARY
  5
5C44
330
2FD9
100
AcDbDictionary
280
     1
281
     1
  3
ACAD_XREC_ROUNDTRIP
360
5C45
  0
DICTIONARY
  5
5C26
330
23F3
100
AcDbDictionary
280
     1
281
     1
  3
ACAD_XREC_ROUNDTRIP
360
5C27
  0
DICTIONARY
  5
5C40
330
2FD7
100
AcDbDictionary
280
     1
281
     1
  3
ACAD_XREC_ROUNDTRIP
360
5C41
  0
DICTIONARY
  5
5C3E
330
2FD6
100
AcDbDictionary
280
     1
281
     1
  3
ACAD_XREC_ROUNDTRIP
360
5C3F
  0
DICTIONARY
  5
5C38
330
2FD3
100
AcDbDictionary
280
     1
281
     1
  3
ACAD_XREC_ROUNDTRIP
360
5C39
  0
DICTIONARY
  5
5C3A
330
2FD4
100
AcDbDictionary
280
     1
281
     1
  3
ACAD_XREC_ROUNDTRIP
360
5C3B
  0
DICTIONARY
  5
5C2C
330
23F6
100
AcDbDictionary
280
     1
281
     1
  3
ACAD_XREC_ROUNDTRIP
360
5C2D
  0
DICTIONARY
  5
5C34
330
2FD1
100
AcDbDictionary
280
     1
281
     1
  3
ACAD_XREC_ROUNDTRIP
360
5C35
  0
DICTIONARY
  5
5C3C
330
2FD5
100
AcDbDictionary
280
     1
281
     1
  3
ACAD_XREC_ROUNDTRIP
360
5C3D
  0
XRECORD
  5
5C0C
102
{ACAD_REACTORS
330
5C12
102
}
330
5C12
100
AcDbXrecord
280
     1
  1
AcDb_Thumbnail_Schema
102
{ATTRRECORD
341
5C0D
  2
AcDbDs::TreatedAsObjectData
280
     1
291
     1
102
ATTRRECORD}
102
{ATTRRECORD
341
5C0E
  2
AcDbDs::Legacy
280
     1
291
     1
102
ATTRRECORD}
  2
AcDbDs::ID
280
    10
 91
        8
102
{ATTRRECORD
341
5C0F
  2
AcDs:Indexable
280
     1
291
     1
102
ATTRRECORD}
102
{ATTRRECORD
341
5C10
  2
AcDbDs::HandleAttribute
280
     7
282
     1
102
ATTRRECORD}
  2
Thumbnail_Data
280
    15
 91
        0
  0
XRECORD
  5
5C0D
102
{ACAD_REACTORS
330
5C12
102
}
330
5C12
100
AcDbXrecord
280
     1
  1
AcDbDs::TreatedAsObjectDataSchema
  2
AcDbDs::TreatedAsObjectData
280
     1
 91
        0
  0
XRECORD
  5
5C0E
102
{ACAD_REACTORS
330
5C12
102
}
330
5C12
100
AcDbXrecord
280
     1
  1
AcDbDs::LegacySchema
  2
AcDbDs::Legacy
280
     1
 91
        0
  0
XRECORD
  5
5C0F
102
{ACAD_REACTORS
330
5C12
102
}
330
5C12
100
AcDbXrecord
280
     1
  1
AcDbDs::IndexedPropertySchema
  2
AcDs:Indexable
280
     1
 91
        0
  0
XRECORD
  5
5C10
102
{ACAD_REACTORS
330
5C12
102
}
330
5C12
100
AcDbXrecord
280
     1
  1
AcDbDs::HandleAttributeSchema
  2
AcDbDs::HandleAttribute
280
     7
 91
        1
284
     1
  0
XRECORD
  5
5C4B
102
{ACAD_REACTORS
330
5BE2
102
}
330
5BE2
100
AcDbXrecord
280
     1
102
DISPLAYNAME
  1
Metric50
102
FLAGS
 90
        0
  0
XRECORD
  5
4C69
102
{ACAD_REACTORS
330
4C68
102
}
330
4C68
100
AcDbXrecord
280
     1
102
MATERIAL
148
0.0
149
0.0
149
0.0
 93
        0
 94
       63
282
     0
 72
     1
 77
     1
171
     1
175
     1
179
     1
273
     0
  0
XRECORD
  5
4C67
102
{ACAD_REACTORS
330
4C66
102
}
330
4C66
100
AcDbXrecord
280
     1
102
MATERIAL
148
0.0
149
0.0
149
0.0
 93
        0
 94
       63
282
     0
 72
     1
 77
     1
171
     1
175
     1
179
     1
273
     0
  0
XRECORD
  5
4C6B
102
{ACAD_REACTORS
330
4C6A
102
}
330
4C6A
100
AcDbXrecord
280
     1
102
MATERIAL
148
0.0
149
0.0
149
0.0
 93
        0
 94
       63
282
     0
 72
     1
 77
     1
171
     1
175
     1
179
     1
273
     0
  0
XRECORD
  5
5C49
102
{ACAD_REACTORS
330
5C48
102
}
330
5C48
100
AcDbXrecord
280
     1
102
ACAD_ROUNDTRIP_2012_MLEADER_STYLE
298
     1
  0
XRECORD
  5
5C4A
102
{ACAD_REACTORS
330
5BE0
102
}
330
5BE0
100
AcDbXrecord
280
     1
102
DISPLAYNAME
  1
Metric50
102
FLAGS
 90
        0
  0
CELLSTYLEMAP
  5
5C07
102
{ACAD_REACTORS
330
30AF
102
}
330
30AF
100
AcDbCellStyleMap
 90
        3
300
CELLSTYLE
  1
TABLEFORMAT_BEGIN
 90
        5
170
     1
 91
        0
 92
    32768
 62
   257
 93
        1
300
CONTENTFORMAT
  1
CONTENTFORMAT_BEGIN
 90
        0
 91
        0
 92
        4
 93
        0
300

 40
0.0
140
1.0
 94
        5
 62
     0
340
10
144
6.0
309
CONTENTFORMAT_END
171
     1
301
MARGIN
  1
CELLMARGIN_BEGIN
 40
1.5
 40
1.5
 40
1.5
 40
1.5
 40
0.18
 40
0.18
309
CELLMARGIN_END
 94
        6
 95
        1
302
GRIDFORMAT
  1
GRIDFORMAT_BEGIN
 90
        0
 91
        1
 62
     0
 92
       -2
340
0
 93
        0
 40
0.045
309
GRIDFORMAT_END
 95
        2
302
GRIDFORMAT
  1
GRIDFORMAT_BEGIN
 90
        0
 91
        1
 62
     0
 92
       -2
340
0
 93
        0
 40
0.045
309
GRIDFORMAT_END
 95
        4
302
GRIDFORMAT
  1
GRIDFORMAT_BEGIN
 90
        0
 91
        1
 62
     0
 92
       -2
340
0
 93
        0
 40
0.045
309
GRIDFORMAT_END
 95
        8
302
GRIDFORMAT
  1
GRIDFORMAT_BEGIN
 90
        0
 91
        1
 62
     0
 92
       -2
340
0
 93
        0
 40
0.045
309
GRIDFORMAT_END
 95
       16
302
GRIDFORMAT
  1
GRIDFORMAT_BEGIN
 90
        0
 91
        1
 62
     0
 92
       -2
340
0
 93
        0
 40
0.045
309
GRIDFORMAT_END
 95
       32
302
GRIDFORMAT
  1
GRIDFORMAT_BEGIN
 90
        0
 91
        1
 62
     0
 92
       -2
340
0
 93
        0
 40
0.045
309
GRIDFORMAT_END
309
TABLEFORMAT_END
  1
CELLSTYLE_BEGIN
 90
        1
 91
        1
300
_TITLE
309
CELLSTYLE_END
300
CELLSTYLE
  1
TABLEFORMAT_BEGIN
 90
        5
170
     1
 91
        0
 92
        0
 62
   257
 93
        1
300
CONTENTFORMAT
  1
CONTENTFORMAT_BEGIN
 90
        0
 91
        0
 92
        4
 93
        0
300

 40
0.0
140
1.0
 94
        5
 62
     0
340
10
144
4.5
309
CONTENTFORMAT_END
171
     1
301
MARGIN
  1
CELLMARGIN_BEGIN
 40
1.5
 40
1.5
 40
1.5
 40
1.5
 40
0.18
 40
0.18
309
CELLMARGIN_END
 94
        6
 95
        1
302
GRIDFORMAT
  1
GRIDFORMAT_BEGIN
 90
        0
 91
        1
 62
     0
 92
       -2
340
0
 93
        0
 40
0.045
309
GRIDFORMAT_END
 95
        2
302
GRIDFORMAT
  1
GRIDFORMAT_BEGIN
 90
        0
 91
        1
 62
     0
 92
       -2
340
0
 93
        0
 40
0.045
309
GRIDFORMAT_END
 95
        4
302
GRIDFORMAT
  1
GRIDFORMAT_BEGIN
 90
        0
 91
        1
 62
     0
 92
       -2
340
0
 93
        0
 40
0.045
309
GRIDFORMAT_END
 95
        8
302
GRIDFORMAT
  1
GRIDFORMAT_BEGIN
 90
        0
 91
        1
 62
     0
 92
       -2
340
0
 93
        0
 40
0.045
309
GRIDFORMAT_END
 95
       16
302
GRIDFORMAT
  1
GRIDFORMAT_BEGIN
 90
        0
 91
        1
 62
     0
 92
       -2
340
0
 93
        0
 40
0.045
309
GRIDFORMAT_END
 95
       32
302
GRIDFORMAT
  1
GRIDFORMAT_BEGIN
 90
        0
 91
        1
 62
     0
 92
       -2
340
0
 93
        0
 40
0.045
309
GRIDFORMAT_END
309
TABLEFORMAT_END
  1
CELLSTYLE_BEGIN
 90
        2
 91
        1
300
_HEADER
309
CELLSTYLE_END
300
CELLSTYLE
  1
TABLEFORMAT_BEGIN
 90
        5
170
     1
 91
        0
 92
        0
 62
   257
 93
        1
300
CONTENTFORMAT
  1
CONTENTFORMAT_BEGIN
 90
        0
 91
        0
 92
        4
 93
        0
300

 40
0.0
140
1.0
 94
        2
 62
     0
340
10
144
4.5
309
CONTENTFORMAT_END
171
     1
301
MARGIN
  1
CELLMARGIN_BEGIN
 40
1.5
 40
1.5
 40
1.5
 40
1.5
 40
0.18
 40
0.18
309
CELLMARGIN_END
 94
        6
 95
        1
302
GRIDFORMAT
  1
GRIDFORMAT_BEGIN
 90
        0
 91
        1
 62
     0
 92
       -2
340
0
 93
        0
 40
0.045
309
GRIDFORMAT_END
 95
        2
302
GRIDFORMAT
  1
GRIDFORMAT_BEGIN
 90
        0
 91
        1
 62
     0
 92
       -2
340
0
 93
        0
 40
0.045
309
GRIDFORMAT_END
 95
        4
302
GRIDFORMAT
  1
GRIDFORMAT_BEGIN
 90
        0
 91
        1
 62
     0
 92
       -2
340
0
 93
        0
 40
0.045
309
GRIDFORMAT_END
 95
        8
302
GRIDFORMAT
  1
GRIDFORMAT_BEGIN
 90
        0
 91
        1
 62
     0
 92
       -2
340
0
 93
        0
 40
0.045
309
GRIDFORMAT_END
 95
       16
302
GRIDFORMAT
  1
GRIDFORMAT_BEGIN
 90
        0
 91
        1
 62
     0
 92
       -2
340
0
 93
        0
 40
0.045
309
GRIDFORMAT_END
 95
       32
302
GRIDFORMAT
  1
GRIDFORMAT_BEGIN
 90
        0
 91
        1
 62
     0
 92
       -2
340
0
 93
        0
 40
0.045
309
GRIDFORMAT_END
309
TABLEFORMAT_END
  1
CELLSTYLE_BEGIN
 90
        3
 91
        2
300
_DATA
309
CELLSTYLE_END
  0
XRECORD
  5
5C1F
102
{ACAD_REACTORS
330
5C1E
102
}
330
5C1E
100
AcDbXrecord
280
     1
102
RTVSPost2010Prop28
280
     1
102
RTVSPost2010PropOp28
 70
     1
102
RTVSPost2010Prop29
280
     1
102
RTVSPost2010PropOp29
 70
     1
102
RTVSPost2010Prop30
280
     0
102
RTVSPost2010PropOp30
 70
     1
102
RTVSPost2010Prop31
280
     0
102
RTVSPost2010PropOp31
 70
     1
102
RTVSPost2010Prop32
280
     0
102
RTVSPost2010PropOp32
 70
     1
102
RTVSPost2010Prop33
280
     0
102
RTVSPost2010PropOp33
 70
     1
102
RTVSPost2010Prop34
280
     0
102
RTVSPost2010PropOp34
 70
     1
102
RTVSPost2010Prop35
280
     0
102
RTVSPost2010PropOp35
 70
     1
102
RTVSPost2010Prop36
280
     0
102
RTVSPost2010PropOp36
 70
     1
102
RTVSPost2010Prop37
 90
       50
102
RTVSPost2010PropOp37
 70
     1
102
RTVSPost2010Prop38
140
0.0
102
RTVSPost2010PropOp38
 70
     1
102
RTVSPost2010Prop39
140
1.0
102
RTVSPost2010PropOp39
 70
     1
102
RTVSPost2010Prop40
 90
        0
102
RTVSPost2010PropOp40
 70
     1
102
RTVSPost2010Prop41ColorIndex
 90
       18
102
RTVSPost2010Prop41ColorRGB
 90
        0
102
RTVSPost2010PropOp41
 70
     1
102
RTVSPost2010Prop42
 90
       50
102
RTVSPost2010PropOp42
 70
     1
102
RTVSPost2010Prop43
 90
        3
102
RTVSPost2010PropOp43
 70
     1
102
RTVSPost2010Prop44ColorIndex
 90
        5
102
RTVSPost2010Prop44ColorRGB
 90
      255
102
RTVSPost2010PropOp44
 70
     1
102
RTVSPost2010Prop45
280
     0
102
RTVSPost2010PropOp45
 70
     1
102
RTVSPost2010Prop46
 90
       50
102
RTVSPost2010PropOp46
 70
     1
102
RTVSPost2010Prop47
 90
       50
102
RTVSPost2010PropOp47
 70
     1
102
RTVSPost2010Prop48
 90
       50
102
RTVSPost2010PropOp48
 70
     1
102
RTVSPost2010Prop49
280
     0
102
RTVSPost2010PropOp49
 70
     1
102
RTVSPost2010Prop50
 90
       50
102
RTVSPost2010PropOp50
 70
     1
102
RTVSPost2010Prop51ColorIndex
 90
      256
102
RTVSPost2010Prop51ColorRGB
 90
-16777216
102
RTVSPost2010PropOp51
 70
     0
102
RTVSPost2010Prop52
140
1.0
102
RTVSPost2010PropOp52
 70
     0
102
RTVSPost2010Prop53
 90
        2
102
RTVSPost2010PropOp53
 70
     1
102
RTVSPost2010Prop54
  1
strokes_ogs.tif
102
RTVSPost2010PropOp54
 70
     1
102
RTVSPost2010Prop55
280
     0
102
RTVSPost2010PropOp55
 70
     1
102
RTVSPost2010Prop56
140
1.0
102
RTVSPost2010PropOp56
 70
     1
102
RTVSPost2010Prop57
140
1.0
102
RTVSPost2010PropOp57
 70
     1
  0
XRECORD
  5
5C23
102
{ACAD_REACTORS
330
5C22
102
}
330
5C22
100
AcDbXrecord
280
     1
102
RTVSPost2010Prop28
280
     0
102
RTVSPost2010PropOp28
 70
     1
102
RTVSPost2010Prop29
280
     1
102
RTVSPost2010PropOp29
 70
     1
102
RTVSPost2010Prop30
280
     1
102
RTVSPost2010PropOp30
 70
     1
102
RTVSPost2010Prop31
280
     0
102
RTVSPost2010PropOp31
 70
     1
102
RTVSPost2010Prop32
280
     0
102
RTVSPost2010PropOp32
 70
     1
102
RTVSPost2010Prop33
280
     0
102
RTVSPost2010PropOp33
 70
     1
102
RTVSPost2010Prop34
280
     0
102
RTVSPost2010PropOp34
 70
     1
102
RTVSPost2010Prop35
280
     0
102
RTVSPost2010PropOp35
 70
     1
102
RTVSPost2010Prop36
280
     0
102
RTVSPost2010PropOp36
 70
     1
102
RTVSPost2010Prop37
 90
       50
102
RTVSPost2010PropOp37
 70
     1
102
RTVSPost2010Prop38
140
0.0
102
RTVSPost2010PropOp38
 70
     1
102
RTVSPost2010Prop39
140
1.0
102
RTVSPost2010PropOp39
 70
     1
102
RTVSPost2010Prop40
 90
        0
102
RTVSPost2010PropOp40
 70
     1
102
RTVSPost2010Prop41ColorIndex
 90
       18
102
RTVSPost2010Prop41ColorRGB
 90
        0
102
RTVSPost2010PropOp41
 70
     1
102
RTVSPost2010Prop42
 90
       50
102
RTVSPost2010PropOp42
 70
     1
102
RTVSPost2010Prop43
 90
        3
102
RTVSPost2010PropOp43
 70
     1
102
RTVSPost2010Prop44ColorIndex
 90
        5
102
RTVSPost2010Prop44ColorRGB
 90
      255
102
RTVSPost2010PropOp44
 70
     1
102
RTVSPost2010Prop45
280
     0
102
RTVSPost2010PropOp45
 70
     1
102
RTVSPost2010Prop46
 90
       50
102
RTVSPost2010PropOp46
 70
     1
102
RTVSPost2010Prop47
 90
       50
102
RTVSPost2010PropOp47
 70
     1
102
RTVSPost2010Prop48
 90
       50
102
RTVSPost2010PropOp48
 70
     1
102
RTVSPost2010Prop49
280
     0
102
RTVSPost2010PropOp49
 70
     1
102
RTVSPost2010Prop50
 90
       50
102
RTVSPost2010PropOp50
 70
     1
102
RTVSPost2010Prop51ColorIndex
 90
      256
102
RTVSPost2010Prop51ColorRGB
 90
-16777216
102
RTVSPost2010PropOp51
 70
     0
102
RTVSPost2010Prop52
140
1.0
102
RTVSPost2010PropOp52
 70
     0
102
RTVSPost2010Prop53
 90
        2
102
RTVSPost2010PropOp53
 70
     1
102
RTVSPost2010Prop54
  1
strokes_ogs.tif
102
RTVSPost2010PropOp54
 70
     1
102
RTVSPost2010Prop55
280
     0
102
RTVSPost2010PropOp55
 70
     1
102
RTVSPost2010Prop56
140
1.0
102
RTVSPost2010PropOp56
 70
     1
102
RTVSPost2010Prop57
140
1.0
102
RTVSPost2010PropOp57
 70
     1
  0
XRECORD
  5
5C21
102
{ACAD_REACTORS
330
5C20
102
}
330
5C20
100
AcDbXrecord
280
     1
102
RTVSPost2010Prop28
280
     0
102
RTVSPost2010PropOp28
 70
     1
102
RTVSPost2010Prop29
280
     1
102
RTVSPost2010PropOp29
 70
     1
102
RTVSPost2010Prop30
280
     1
102
RTVSPost2010PropOp30
 70
     1
102
RTVSPost2010Prop31
280
     0
102
RTVSPost2010PropOp31
 70
     1
102
RTVSPost2010Prop32
280
     0
102
RTVSPost2010PropOp32
 70
     1
102
RTVSPost2010Prop33
280
     0
102
RTVSPost2010PropOp33
 70
     1
102
RTVSPost2010Prop34
280
     0
102
RTVSPost2010PropOp34
 70
     1
102
RTVSPost2010Prop35
280
     0
102
RTVSPost2010PropOp35
 70
     1
102
RTVSPost2010Prop36
280
     0
102
RTVSPost2010PropOp36
 70
     1
102
RTVSPost2010Prop37
 90
       50
102
RTVSPost2010PropOp37
 70
     1
102
RTVSPost2010Prop38
140
0.0
102
RTVSPost2010PropOp38
 70
     1
102
RTVSPost2010Prop39
140
1.0
102
RTVSPost2010PropOp39
 70
     1
102
RTVSPost2010Prop40
 90
        0
102
RTVSPost2010PropOp40
 70
     1
102
RTVSPost2010Prop41ColorIndex
 90
       18
102
RTVSPost2010Prop41ColorRGB
 90
        0
102
RTVSPost2010PropOp41
 70
     1
102
RTVSPost2010Prop42
 90
       50
102
RTVSPost2010PropOp42
 70
     1
102
RTVSPost2010Prop43
 90
        3
102
RTVSPost2010PropOp43
 70
     1
102
RTVSPost2010Prop44ColorIndex
 90
        5
102
RTVSPost2010Prop44ColorRGB
 90
      255
102
RTVSPost2010PropOp44
 70
     1
102
RTVSPost2010Prop45
280
     0
102
RTVSPost2010PropOp45
 70
     1
102
RTVSPost2010Prop46
 90
       50
102
RTVSPost2010PropOp46
 70
     1
102
RTVSPost2010Prop47
 90
       50
102
RTVSPost2010PropOp47
 70
     1
102
RTVSPost2010Prop48
 90
       50
102
RTVSPost2010PropOp48
 70
     1
102
RTVSPost2010Prop49
280
     0
102
RTVSPost2010PropOp49
 70
     1
102
RTVSPost2010Prop50
 90
       50
102
RTVSPost2010PropOp50
 70
     1
102
RTVSPost2010Prop51ColorIndex
 90
      256
102
RTVSPost2010Prop51ColorRGB
 90
-16777216
102
RTVSPost2010PropOp51
 70
     0
102
RTVSPost2010Prop52
140
1.0
102
RTVSPost2010PropOp52
 70
     0
102
RTVSPost2010Prop53
 90
        2
102
RTVSPost2010PropOp53
 70
     1
102
RTVSPost2010Prop54
  1
strokes_ogs.tif
102
RTVSPost2010PropOp54
 70
     1
102
RTVSPost2010Prop55
280
     0
102
RTVSPost2010PropOp55
 70
     1
102
RTVSPost2010Prop56
140
1.0
102
RTVSPost2010PropOp56
 70
     1
102
RTVSPost2010Prop57
140
1.0
102
RTVSPost2010PropOp57
 70
     1
  0
XRECORD
  5
5C1D
102
{ACAD_REACTORS
330
5C1C
102
}
330
5C1C
100
AcDbXrecord
280
     1
102
RTVSPost2010Prop28
280
     0
102
RTVSPost2010PropOp28
 70
     1
102
RTVSPost2010Prop29
280
     1
102
RTVSPost2010PropOp29
 70
     1
102
RTVSPost2010Prop30
280
     1
102
RTVSPost2010PropOp30
 70
     1
102
RTVSPost2010Prop31
280
     0
102
RTVSPost2010PropOp31
 70
     1
102
RTVSPost2010Prop32
280
     0
102
RTVSPost2010PropOp32
 70
     1
102
RTVSPost2010Prop33
280
     0
102
RTVSPost2010PropOp33
 70
     1
102
RTVSPost2010Prop34
280
     0
102
RTVSPost2010PropOp34
 70
     1
102
RTVSPost2010Prop35
280
     0
102
RTVSPost2010PropOp35
 70
     1
102
RTVSPost2010Prop36
280
     0
102
RTVSPost2010PropOp36
 70
     1
102
RTVSPost2010Prop37
 90
       50
102
RTVSPost2010PropOp37
 70
     1
102
RTVSPost2010Prop38
140
0.0
102
RTVSPost2010PropOp38
 70
     1
102
RTVSPost2010Prop39
140
1.0
102
RTVSPost2010PropOp39
 70
     1
102
RTVSPost2010Prop40
 90
        0
102
RTVSPost2010PropOp40
 70
     1
102
RTVSPost2010Prop41ColorIndex
 90
       18
102
RTVSPost2010Prop41ColorRGB
 90
        0
102
RTVSPost2010PropOp41
 70
     1
102
RTVSPost2010Prop42
 90
       50
102
RTVSPost2010PropOp42
 70
     1
102
RTVSPost2010Prop43
 90
        3
102
RTVSPost2010PropOp43
 70
     1
102
RTVSPost2010Prop44ColorIndex
 90
        5
102
RTVSPost2010Prop44ColorRGB
 90
      255
102
RTVSPost2010PropOp44
 70
     1
102
RTVSPost2010Prop45
280
     0
102
RTVSPost2010PropOp45
 70
     1
102
RTVSPost2010Prop46
 90
       50
102
RTVSPost2010PropOp46
 70
     1
102
RTVSPost2010Prop47
 90
       50
102
RTVSPost2010PropOp47
 70
     1
102
RTVSPost2010Prop48
 90
       50
102
RTVSPost2010PropOp48
 70
     1
102
RTVSPost2010Prop49
280
     0
102
RTVSPost2010PropOp49
 70
     1
102
RTVSPost2010Prop50
 90
       50
102
RTVSPost2010PropOp50
 70
     1
102
RTVSPost2010Prop51ColorIndex
 90
      256
102
RTVSPost2010Prop51ColorRGB
 90
-16777216
102
RTVSPost2010PropOp51
 70
     0
102
RTVSPost2010Prop52
140
1.0
102
RTVSPost2010PropOp52
 70
     0
102
RTVSPost2010Prop53
 90
        2
102
RTVSPost2010PropOp53
 70
     1
102
RTVSPost2010Prop54
  1
strokes_ogs.tif
102
RTVSPost2010PropOp54
 70
     1
102
RTVSPost2010Prop55
280
     0
102
RTVSPost2010PropOp55
 70
     1
102
RTVSPost2010Prop56
140
1.0
102
RTVSPost2010PropOp56
 70
     1
102
RTVSPost2010Prop57
140
1.0
102
RTVSPost2010PropOp57
 70
     1
  0
XRECORD
  5
5C2B
102
{ACAD_REACTORS
330
5C2A
102
}
330
5C2A
100
AcDbXrecord
280
     1
102
RTVSPost2010Prop28
280
     0
102
RTVSPost2010PropOp28
 70
     1
102
RTVSPost2010Prop29
280
     1
102
RTVSPost2010PropOp29
 70
     1
102
RTVSPost2010Prop30
280
     1
102
RTVSPost2010PropOp30
 70
     1
102
RTVSPost2010Prop31
280
     0
102
RTVSPost2010PropOp31
 70
     1
102
RTVSPost2010Prop32
280
     0
102
RTVSPost2010PropOp32
 70
     1
102
RTVSPost2010Prop33
280
     0
102
RTVSPost2010PropOp33
 70
     1
102
RTVSPost2010Prop34
280
     0
102
RTVSPost2010PropOp34
 70
     1
102
RTVSPost2010Prop35
280
     0
102
RTVSPost2010PropOp35
 70
     1
102
RTVSPost2010Prop36
280
     0
102
RTVSPost2010PropOp36
 70
     1
102
RTVSPost2010Prop37
 90
       50
102
RTVSPost2010PropOp37
 70
     1
102
RTVSPost2010Prop38
140
0.0
102
RTVSPost2010PropOp38
 70
     1
102
RTVSPost2010Prop39
140
1.0
102
RTVSPost2010PropOp39
 70
     1
102
RTVSPost2010Prop40
 90
        0
102
RTVSPost2010PropOp40
 70
     1
102
RTVSPost2010Prop41ColorIndex
 90
       18
102
RTVSPost2010Prop41ColorRGB
 90
        0
102
RTVSPost2010PropOp41
 70
     1
102
RTVSPost2010Prop42
 90
       50
102
RTVSPost2010PropOp42
 70
     1
102
RTVSPost2010Prop43
 90
        3
102
RTVSPost2010PropOp43
 70
     1
102
RTVSPost2010Prop44ColorIndex
 90
        5
102
RTVSPost2010Prop44ColorRGB
 90
      255
102
RTVSPost2010PropOp44
 70
     1
102
RTVSPost2010Prop45
280
     0
102
RTVSPost2010PropOp45
 70
     1
102
RTVSPost2010Prop46
 90
       50
102
RTVSPost2010PropOp46
 70
     1
102
RTVSPost2010Prop47
 90
       50
102
RTVSPost2010PropOp47
 70
     1
102
RTVSPost2010Prop48
 90
       50
102
RTVSPost2010PropOp48
 70
     1
102
RTVSPost2010Prop49
280
     0
102
RTVSPost2010PropOp49
 70
     1
102
RTVSPost2010Prop50
 90
       50
102
RTVSPost2010PropOp50
 70
     1
102
RTVSPost2010Prop51ColorIndex
 90
      256
102
RTVSPost2010Prop51ColorRGB
 90
-16777216
102
RTVSPost2010PropOp51
 70
     0
102
RTVSPost2010Prop52
140
1.0
102
RTVSPost2010PropOp52
 70
     0
102
RTVSPost2010Prop53
 90
        2
102
RTVSPost2010PropOp53
 70
     1
102
RTVSPost2010Prop54
  1
strokes_ogs.tif
102
RTVSPost2010PropOp54
 70
     1
102
RTVSPost2010Prop55
280
     0
102
RTVSPost2010PropOp55
 70
     1
102
RTVSPost2010Prop56
140
1.0
102
RTVSPost2010PropOp56
 70
     1
102
RTVSPost2010Prop57
140
1.0
102
RTVSPost2010PropOp57
 70
     1
  0
XRECORD
  5
5C33
102
{ACAD_REACTORS
330
5C32
102
}
330
5C32
100
AcDbXrecord
280
     1
102
RTVSPost2010Prop28
280
     0
102
RTVSPost2010PropOp28
 70
     1
102
RTVSPost2010Prop29
280
     1
102
RTVSPost2010PropOp29
 70
     1
102
RTVSPost2010Prop30
280
     1
102
RTVSPost2010PropOp30
 70
     1
102
RTVSPost2010Prop31
280
     0
102
RTVSPost2010PropOp31
 70
     1
102
RTVSPost2010Prop32
280
     0
102
RTVSPost2010PropOp32
 70
     1
102
RTVSPost2010Prop33
280
     0
102
RTVSPost2010PropOp33
 70
     1
102
RTVSPost2010Prop34
280
     0
102
RTVSPost2010PropOp34
 70
     1
102
RTVSPost2010Prop35
280
     0
102
RTVSPost2010PropOp35
 70
     1
102
RTVSPost2010Prop36
280
     0
102
RTVSPost2010PropOp36
 70
     1
102
RTVSPost2010Prop37
 90
       50
102
RTVSPost2010PropOp37
 70
     1
102
RTVSPost2010Prop38
140
0.0
102
RTVSPost2010PropOp38
 70
     1
102
RTVSPost2010Prop39
140
1.0
102
RTVSPost2010PropOp39
 70
     1
102
RTVSPost2010Prop40
 90
        0
102
RTVSPost2010PropOp40
 70
     1
102
RTVSPost2010Prop41ColorIndex
 90
       18
102
RTVSPost2010Prop41ColorRGB
 90
        0
102
RTVSPost2010PropOp41
 70
     1
102
RTVSPost2010Prop42
 90
       50
102
RTVSPost2010PropOp42
 70
     1
102
RTVSPost2010Prop43
 90
        3
102
RTVSPost2010PropOp43
 70
     1
102
RTVSPost2010Prop44ColorIndex
 90
        5
102
RTVSPost2010Prop44ColorRGB
 90
      255
102
RTVSPost2010PropOp44
 70
     1
102
RTVSPost2010Prop45
280
     0
102
RTVSPost2010PropOp45
 70
     1
102
RTVSPost2010Prop46
 90
       50
102
RTVSPost2010PropOp46
 70
     1
102
RTVSPost2010Prop47
 90
       50
102
RTVSPost2010PropOp47
 70
     1
102
RTVSPost2010Prop48
 90
       50
102
RTVSPost2010PropOp48
 70
     1
102
RTVSPost2010Prop49
280
     0
102
RTVSPost2010PropOp49
 70
     1
102
RTVSPost2010Prop50
 90
       50
102
RTVSPost2010PropOp50
 70
     1
102
RTVSPost2010Prop51ColorIndex
 90
      256
102
RTVSPost2010Prop51ColorRGB
 90
-16777216
102
RTVSPost2010PropOp51
 70
     0
102
RTVSPost2010Prop52
140
1.0
102
RTVSPost2010PropOp52
 70
     0
102
RTVSPost2010Prop53
 90
        2
102
RTVSPost2010PropOp53
 70
     1
102
RTVSPost2010Prop54
  1
strokes_ogs.tif
102
RTVSPost2010PropOp54
 70
     1
102
RTVSPost2010Prop55
280
     0
102
RTVSPost2010PropOp55
 70
     1
102
RTVSPost2010Prop56
140
1.0
102
RTVSPost2010PropOp56
 70
     1
102
RTVSPost2010Prop57
140
1.0
102
RTVSPost2010PropOp57
 70
     1
  0
XRECORD
  5
5C25
102
{ACAD_REACTORS
330
5C24
102
}
330
5C24
100
AcDbXrecord
280
     1
102
RTVSPost2010Prop28
280
     0
102
RTVSPost2010PropOp28
 70
     1
102
RTVSPost2010Prop29
280
     1
102
RTVSPost2010PropOp29
 70
     1
102
RTVSPost2010Prop30
280
     1
102
RTVSPost2010PropOp30
 70
     1
102
RTVSPost2010Prop31
280
     0
102
RTVSPost2010PropOp31
 70
     1
102
RTVSPost2010Prop32
280
     0
102
RTVSPost2010PropOp32
 70
     1
102
RTVSPost2010Prop33
280
     0
102
RTVSPost2010PropOp33
 70
     1
102
RTVSPost2010Prop34
280
     0
102
RTVSPost2010PropOp34
 70
     1
102
RTVSPost2010Prop35
280
     0
102
RTVSPost2010PropOp35
 70
     1
102
RTVSPost2010Prop36
280
     0
102
RTVSPost2010PropOp36
 70
     1
102
RTVSPost2010Prop37
 90
       50
102
RTVSPost2010PropOp37
 70
     1
102
RTVSPost2010Prop38
140
0.0
102
RTVSPost2010PropOp38
 70
     1
102
RTVSPost2010Prop39
140
1.0
102
RTVSPost2010PropOp39
 70
     1
102
RTVSPost2010Prop40
 90
        0
102
RTVSPost2010PropOp40
 70
     1
102
RTVSPost2010Prop41ColorIndex
 90
       18
102
RTVSPost2010Prop41ColorRGB
 90
        0
102
RTVSPost2010PropOp41
 70
     1
102
RTVSPost2010Prop42
 90
       50
102
RTVSPost2010PropOp42
 70
     1
102
RTVSPost2010Prop43
 90
        3
102
RTVSPost2010PropOp43
 70
     1
102
RTVSPost2010Prop44ColorIndex
 90
        5
102
RTVSPost2010Prop44ColorRGB
 90
      255
102
RTVSPost2010PropOp44
 70
     1
102
RTVSPost2010Prop45
280
     0
102
RTVSPost2010PropOp45
 70
     1
102
RTVSPost2010Prop46
 90
       50
102
RTVSPost2010PropOp46
 70
     1
102
RTVSPost2010Prop47
 90
       50
102
RTVSPost2010PropOp47
 70
     1
102
RTVSPost2010Prop48
 90
       50
102
RTVSPost2010PropOp48
 70
     1
102
RTVSPost2010Prop49
280
     0
102
RTVSPost2010PropOp49
 70
     1
102
RTVSPost2010Prop50
 90
       50
102
RTVSPost2010PropOp50
 70
     1
102
RTVSPost2010Prop51ColorIndex
 90
      256
102
RTVSPost2010Prop51ColorRGB
 90
-16777216
102
RTVSPost2010PropOp51
 70
     0
102
RTVSPost2010Prop52
140
1.0
102
RTVSPost2010PropOp52
 70
     0
102
RTVSPost2010Prop53
 90
        2
102
RTVSPost2010PropOp53
 70
     1
102
RTVSPost2010Prop54
  1
strokes_ogs.tif
102
RTVSPost2010PropOp54
 70
     1
102
RTVSPost2010Prop55
280
     0
102
RTVSPost2010PropOp55
 70
     1
102
RTVSPost2010Prop56
140
1.0
102
RTVSPost2010PropOp56
 70
     1
102
RTVSPost2010Prop57
140
1.0
102
RTVSPost2010PropOp57
 70
     1
  0
XRECORD
  5
5C29
102
{ACAD_REACTORS
330
5C28
102
}
330
5C28
100
AcDbXrecord
280
     1
102
RTVSPost2010Prop28
280
     0
102
RTVSPost2010PropOp28
 70
     1
102
RTVSPost2010Prop29
280
     1
102
RTVSPost2010PropOp29
 70
     1
102
RTVSPost2010Prop30
280
     1
102
RTVSPost2010PropOp30
 70
     1
102
RTVSPost2010Prop31
280
     0
102
RTVSPost2010PropOp31
 70
     1
102
RTVSPost2010Prop32
280
     0
102
RTVSPost2010PropOp32
 70
     1
102
RTVSPost2010Prop33
280
     0
102
RTVSPost2010PropOp33
 70
     1
102
RTVSPost2010Prop34
280
     0
102
RTVSPost2010PropOp34
 70
     1
102
RTVSPost2010Prop35
280
     0
102
RTVSPost2010PropOp35
 70
     1
102
RTVSPost2010Prop36
280
     0
102
RTVSPost2010PropOp36
 70
     1
102
RTVSPost2010Prop37
 90
       50
102
RTVSPost2010PropOp37
 70
     1
102
RTVSPost2010Prop38
140
0.0
102
RTVSPost2010PropOp38
 70
     1
102
RTVSPost2010Prop39
140
1.0
102
RTVSPost2010PropOp39
 70
     1
102
RTVSPost2010Prop40
 90
        0
102
RTVSPost2010PropOp40
 70
     1
102
RTVSPost2010Prop41ColorIndex
 90
       18
102
RTVSPost2010Prop41ColorRGB
 90
        0
102
RTVSPost2010PropOp41
 70
     1
102
RTVSPost2010Prop42
 90
       50
102
RTVSPost2010PropOp42
 70
     1
102
RTVSPost2010Prop43
 90
        3
102
RTVSPost2010PropOp43
 70
     1
102
RTVSPost2010Prop44ColorIndex
 90
        5
102
RTVSPost2010Prop44ColorRGB
 90
      255
102
RTVSPost2010PropOp44
 70
     1
102
RTVSPost2010Prop45
280
     0
102
RTVSPost2010PropOp45
 70
     1
102
RTVSPost2010Prop46
 90
       50
102
RTVSPost2010PropOp46
 70
     1
102
RTVSPost2010Prop47
 90
       50
102
RTVSPost2010PropOp47
 70
     1
102
RTVSPost2010Prop48
 90
       50
102
RTVSPost2010PropOp48
 70
     1
102
RTVSPost2010Prop49
280
     0
102
RTVSPost2010PropOp49
 70
     1
102
RTVSPost2010Prop50
 90
       50
102
RTVSPost2010PropOp50
 70
     1
102
RTVSPost2010Prop51ColorIndex
 90
      256
102
RTVSPost2010Prop51ColorRGB
 90
-16777216
102
RTVSPost2010PropOp51
 70
     0
102
RTVSPost2010Prop52
140
1.0
102
RTVSPost2010PropOp52
 70
     0
102
RTVSPost2010Prop53
 90
        2
102
RTVSPost2010PropOp53
 70
     1
102
RTVSPost2010Prop54
  1
strokes_ogs.tif
102
RTVSPost2010PropOp54
 70
     1
102
RTVSPost2010Prop55
280
     0
102
RTVSPost2010PropOp55
 70
     1
102
RTVSPost2010Prop56
140
1.0
102
RTVSPost2010PropOp56
 70
     1
102
RTVSPost2010Prop57
140
1.0
102
RTVSPost2010PropOp57
 70
     1
  0
XRECORD
  5
5C47
102
{ACAD_REACTORS
330
5C46
102
}
330
5C46
100
AcDbXrecord
280
     1
102
RTVSPost2010Prop28
280
     0
102
RTVSPost2010PropOp28
 70
     1
102
RTVSPost2010Prop29
280
     1
102
RTVSPost2010PropOp29
 70
     1
102
RTVSPost2010Prop30
280
     1
102
RTVSPost2010PropOp30
 70
     1
102
RTVSPost2010Prop31
280
     0
102
RTVSPost2010PropOp31
 70
     1
102
RTVSPost2010Prop32
280
     0
102
RTVSPost2010PropOp32
 70
     1
102
RTVSPost2010Prop33
280
     0
102
RTVSPost2010PropOp33
 70
     1
102
RTVSPost2010Prop34
280
     0
102
RTVSPost2010PropOp34
 70
     1
102
RTVSPost2010Prop35
280
     0
102
RTVSPost2010PropOp35
 70
     1
102
RTVSPost2010Prop36
280
     0
102
RTVSPost2010PropOp36
 70
     1
102
RTVSPost2010Prop37
 90
       50
102
RTVSPost2010PropOp37
 70
     1
102
RTVSPost2010Prop38
140
0.0
102
RTVSPost2010PropOp38
 70
     1
102
RTVSPost2010Prop39
140
1.0
102
RTVSPost2010PropOp39
 70
     1
102
RTVSPost2010Prop40
 90
        0
102
RTVSPost2010PropOp40
 70
     1
102
RTVSPost2010Prop41ColorIndex
 90
       18
102
RTVSPost2010Prop41ColorRGB
 90
        0
102
RTVSPost2010PropOp41
 70
     1
102
RTVSPost2010Prop42
 90
       50
102
RTVSPost2010PropOp42
 70
     1
102
RTVSPost2010Prop43
 90
        3
102
RTVSPost2010PropOp43
 70
     1
102
RTVSPost2010Prop44ColorIndex
 90
        5
102
RTVSPost2010Prop44ColorRGB
 90
      255
102
RTVSPost2010PropOp44
 70
     1
102
RTVSPost2010Prop45
280
     0
102
RTVSPost2010PropOp45
 70
     1
102
RTVSPost2010Prop46
 90
       50
102
RTVSPost2010PropOp46
 70
     1
102
RTVSPost2010Prop47
 90
       50
102
RTVSPost2010PropOp47
 70
     1
102
RTVSPost2010Prop48
 90
       50
102
RTVSPost2010PropOp48
 70
     1
102
RTVSPost2010Prop49
280
     0
102
RTVSPost2010PropOp49
 70
     1
102
RTVSPost2010Prop50
 90
       50
102
RTVSPost2010PropOp50
 70
     1
102
RTVSPost2010Prop51ColorIndex
 90
      256
102
RTVSPost2010Prop51ColorRGB
 90
-16777216
102
RTVSPost2010PropOp51
 70
     0
102
RTVSPost2010Prop52
140
1.0
102
RTVSPost2010PropOp52
 70
     0
102
RTVSPost2010Prop53
 90
        2
102
RTVSPost2010PropOp53
 70
     1
102
RTVSPost2010Prop54
  1
strokes_ogs.tif
102
RTVSPost2010PropOp54
 70
     1
102
RTVSPost2010Prop55
280
     0
102
RTVSPost2010PropOp55
 70
     1
102
RTVSPost2010Prop56
140
1.0
102
RTVSPost2010PropOp56
 70
     1
102
RTVSPost2010Prop57
140
1.0
102
RTVSPost2010PropOp57
 70
     1
  0
XRECORD
  5
5C31
102
{ACAD_REACTORS
330
5C30
102
}
330
5C30
100
AcDbXrecord
280
     1
102
RTVSPost2010Prop28
280
     0
102
RTVSPost2010PropOp28
 70
     1
102
RTVSPost2010Prop29
280
     1
102
RTVSPost2010PropOp29
 70
     1
102
RTVSPost2010Prop30
280
     1
102
RTVSPost2010PropOp30
 70
     1
102
RTVSPost2010Prop31
280
     0
102
RTVSPost2010PropOp31
 70
     1
102
RTVSPost2010Prop32
280
     0
102
RTVSPost2010PropOp32
 70
     1
102
RTVSPost2010Prop33
280
     0
102
RTVSPost2010PropOp33
 70
     1
102
RTVSPost2010Prop34
280
     0
102
RTVSPost2010PropOp34
 70
     1
102
RTVSPost2010Prop35
280
     0
102
RTVSPost2010PropOp35
 70
     1
102
RTVSPost2010Prop36
280
     0
102
RTVSPost2010PropOp36
 70
     1
102
RTVSPost2010Prop37
 90
       50
102
RTVSPost2010PropOp37
 70
     1
102
RTVSPost2010Prop38
140
0.0
102
RTVSPost2010PropOp38
 70
     1
102
RTVSPost2010Prop39
140
1.0
102
RTVSPost2010PropOp39
 70
     1
102
RTVSPost2010Prop40
 90
        0
102
RTVSPost2010PropOp40
 70
     1
102
RTVSPost2010Prop41ColorIndex
 90
       18
102
RTVSPost2010Prop41ColorRGB
 90
        0
102
RTVSPost2010PropOp41
 70
     1
102
RTVSPost2010Prop42
 90
       50
102
RTVSPost2010PropOp42
 70
     1
102
RTVSPost2010Prop43
 90
        3
102
RTVSPost2010PropOp43
 70
     1
102
RTVSPost2010Prop44ColorIndex
 90
        5
102
RTVSPost2010Prop44ColorRGB
 90
      255
102
RTVSPost2010PropOp44
 70
     1
102
RTVSPost2010Prop45
280
     0
102
RTVSPost2010PropOp45
 70
     1
102
RTVSPost2010Prop46
 90
       50
102
RTVSPost2010PropOp46
 70
     1
102
RTVSPost2010Prop47
 90
       50
102
RTVSPost2010PropOp47
 70
     1
102
RTVSPost2010Prop48
 90
       50
102
RTVSPost2010PropOp48
 70
     1
102
RTVSPost2010Prop49
280
     0
102
RTVSPost2010PropOp49
 70
     1
102
RTVSPost2010Prop50
 90
       50
102
RTVSPost2010PropOp50
 70
     1
102
RTVSPost2010Prop51ColorIndex
 90
      256
102
RTVSPost2010Prop51ColorRGB
 90
-16777216
102
RTVSPost2010PropOp51
 70
     0
102
RTVSPost2010Prop52
140
1.0
102
RTVSPost2010PropOp52
 70
     0
102
RTVSPost2010Prop53
 90
        2
102
RTVSPost2010PropOp53
 70
     1
102
RTVSPost2010Prop54
  1
strokes_ogs.tif
102
RTVSPost2010PropOp54
 70
     1
102
RTVSPost2010Prop55
280
     0
102
RTVSPost2010PropOp55
 70
     1
102
RTVSPost2010Prop56
140
1.0
102
RTVSPost2010PropOp56
 70
     1
102
RTVSPost2010Prop57
140
1.0
102
RTVSPost2010PropOp57
 70
     1
  0
XRECORD
  5
5C15
102
{ACAD_REACTORS
330
5C14
102
}
330
5C14
100
AcDbXrecord
280
     1
102
RTVSPost2010Prop28
280
     0
102
RTVSPost2010PropOp28
 70
     1
102
RTVSPost2010Prop29
280
     1
102
RTVSPost2010PropOp29
 70
     1
102
RTVSPost2010Prop30
280
     1
102
RTVSPost2010PropOp30
 70
     1
102
RTVSPost2010Prop31
280
     0
102
RTVSPost2010PropOp31
 70
     1
102
RTVSPost2010Prop32
280
     0
102
RTVSPost2010PropOp32
 70
     1
102
RTVSPost2010Prop33
280
     0
102
RTVSPost2010PropOp33
 70
     1
102
RTVSPost2010Prop34
280
     0
102
RTVSPost2010PropOp34
 70
     1
102
RTVSPost2010Prop35
280
     0
102
RTVSPost2010PropOp35
 70
     1
102
RTVSPost2010Prop36
280
     0
102
RTVSPost2010PropOp36
 70
     1
102
RTVSPost2010Prop37
 90
       50
102
RTVSPost2010PropOp37
 70
     1
102
RTVSPost2010Prop38
140
0.0
102
RTVSPost2010PropOp38
 70
     1
102
RTVSPost2010Prop39
140
1.0
102
RTVSPost2010PropOp39
 70
     1
102
RTVSPost2010Prop40
 90
        0
102
RTVSPost2010PropOp40
 70
     1
102
RTVSPost2010Prop41ColorIndex
 90
       18
102
RTVSPost2010Prop41ColorRGB
 90
        0
102
RTVSPost2010PropOp41
 70
     1
102
RTVSPost2010Prop42
 90
       50
102
RTVSPost2010PropOp42
 70
     1
102
RTVSPost2010Prop43
 90
        3
102
RTVSPost2010PropOp43
 70
     1
102
RTVSPost2010Prop44ColorIndex
 90
        5
102
RTVSPost2010Prop44ColorRGB
 90
      255
102
RTVSPost2010PropOp44
 70
     1
102
RTVSPost2010Prop45
280
     0
102
RTVSPost2010PropOp45
 70
     1
102
RTVSPost2010Prop46
 90
       50
102
RTVSPost2010PropOp46
 70
     1
102
RTVSPost2010Prop47
 90
       50
102
RTVSPost2010PropOp47
 70
     1
102
RTVSPost2010Prop48
 90
       50
102
RTVSPost2010PropOp48
 70
     1
102
RTVSPost2010Prop49
280
     0
102
RTVSPost2010PropOp49
 70
     1
102
RTVSPost2010Prop50
 90
       50
102
RTVSPost2010PropOp50
 70
     1
102
RTVSPost2010Prop51ColorIndex
 90
      256
102
RTVSPost2010Prop51ColorRGB
 90
-16777216
102
RTVSPost2010PropOp51
 70
     0
102
RTVSPost2010Prop52
140
1.0
102
RTVSPost2010PropOp52
 70
     0
102
RTVSPost2010Prop53
 90
        2
102
RTVSPost2010PropOp53
 70
     1
102
RTVSPost2010Prop54
  1
strokes_ogs.tif
102
RTVSPost2010PropOp54
 70
     1
102
RTVSPost2010Prop55
280
     0
102
RTVSPost2010PropOp55
 70
     1
102
RTVSPost2010Prop56
140
1.0
102
RTVSPost2010PropOp56
 70
     1
102
RTVSPost2010Prop57
140
1.0
102
RTVSPost2010PropOp57
 70
     1
  0
XRECORD
  5
5C17
102
{ACAD_REACTORS
330
5C16
102
}
330
5C16
100
AcDbXrecord
280
     1
102
RTVSPost2010Prop28
280
     0
102
RTVSPost2010PropOp28
 70
     1
102
RTVSPost2010Prop29
280
     1
102
RTVSPost2010PropOp29
 70
     1
102
RTVSPost2010Prop30
280
     1
102
RTVSPost2010PropOp30
 70
     1
102
RTVSPost2010Prop31
280
     0
102
RTVSPost2010PropOp31
 70
     1
102
RTVSPost2010Prop32
280
     0
102
RTVSPost2010PropOp32
 70
     1
102
RTVSPost2010Prop33
280
     0
102
RTVSPost2010PropOp33
 70
     1
102
RTVSPost2010Prop34
280
     0
102
RTVSPost2010PropOp34
 70
     1
102
RTVSPost2010Prop35
280
     0
102
RTVSPost2010PropOp35
 70
     1
102
RTVSPost2010Prop36
280
     0
102
RTVSPost2010PropOp36
 70
     1
102
RTVSPost2010Prop37
 90
       50
102
RTVSPost2010PropOp37
 70
     1
102
RTVSPost2010Prop38
140
0.0
102
RTVSPost2010PropOp38
 70
     1
102
RTVSPost2010Prop39
140
1.0
102
RTVSPost2010PropOp39
 70
     1
102
RTVSPost2010Prop40
 90
        0
102
RTVSPost2010PropOp40
 70
     1
102
RTVSPost2010Prop41ColorIndex
 90
       18
102
RTVSPost2010Prop41ColorRGB
 90
        0
102
RTVSPost2010PropOp41
 70
     1
102
RTVSPost2010Prop42
 90
       50
102
RTVSPost2010PropOp42
 70
     1
102
RTVSPost2010Prop43
 90
        3
102
RTVSPost2010PropOp43
 70
     1
102
RTVSPost2010Prop44ColorIndex
 90
        5
102
RTVSPost2010Prop44ColorRGB
 90
      255
102
RTVSPost2010PropOp44
 70
     1
102
RTVSPost2010Prop45
280
     0
102
RTVSPost2010PropOp45
 70
     1
102
RTVSPost2010Prop46
 90
       50
102
RTVSPost2010PropOp46
 70
     1
102
RTVSPost2010Prop47
 90
       50
102
RTVSPost2010PropOp47
 70
     1
102
RTVSPost2010Prop48
 90
       50
102
RTVSPost2010PropOp48
 70
     1
102
RTVSPost2010Prop49
280
     0
102
RTVSPost2010PropOp49
 70
     1
102
RTVSPost2010Prop50
 90
       50
102
RTVSPost2010PropOp50
 70
     1
102
RTVSPost2010Prop51ColorIndex
 90
      256
102
RTVSPost2010Prop51ColorRGB
 90
-16777216
102
RTVSPost2010PropOp51
 70
     0
102
RTVSPost2010Prop52
140
1.0
102
RTVSPost2010PropOp52
 70
     0
102
RTVSPost2010Prop53
 90
        2
102
RTVSPost2010PropOp53
 70
     1
102
RTVSPost2010Prop54
  1
strokes_ogs.tif
102
RTVSPost2010PropOp54
 70
     1
102
RTVSPost2010Prop55
280
     0
102
RTVSPost2010PropOp55
 70
     1
102
RTVSPost2010Prop56
140
1.0
102
RTVSPost2010PropOp56
 70
     1
102
RTVSPost2010Prop57
140
1.0
102
RTVSPost2010PropOp57
 70
     1
  0
XRECORD
  5
5C19
102
{ACAD_REACTORS
330
5C18
102
}
330
5C18
100
AcDbXrecord
280
     1
102
RTVSPost2010Prop28
280
     0
102
RTVSPost2010PropOp28
 70
     1
102
RTVSPost2010Prop29
280
     1
102
RTVSPost2010PropOp29
 70
     1
102
RTVSPost2010Prop30
280
     1
102
RTVSPost2010PropOp30
 70
     1
102
RTVSPost2010Prop31
280
     0
102
RTVSPost2010PropOp31
 70
     1
102
RTVSPost2010Prop32
280
     0
102
RTVSPost2010PropOp32
 70
     1
102
RTVSPost2010Prop33
280
     0
102
RTVSPost2010PropOp33
 70
     1
102
RTVSPost2010Prop34
280
     0
102
RTVSPost2010PropOp34
 70
     1
102
RTVSPost2010Prop35
280
     0
102
RTVSPost2010PropOp35
 70
     1
102
RTVSPost2010Prop36
280
     0
102
RTVSPost2010PropOp36
 70
     1
102
RTVSPost2010Prop37
 90
       50
102
RTVSPost2010PropOp37
 70
     1
102
RTVSPost2010Prop38
140
0.0
102
RTVSPost2010PropOp38
 70
     1
102
RTVSPost2010Prop39
140
1.0
102
RTVSPost2010PropOp39
 70
     1
102
RTVSPost2010Prop40
 90
        0
102
RTVSPost2010PropOp40
 70
     1
102
RTVSPost2010Prop41ColorIndex
 90
       18
102
RTVSPost2010Prop41ColorRGB
 90
        0
102
RTVSPost2010PropOp41
 70
     1
102
RTVSPost2010Prop42
 90
       50
102
RTVSPost2010PropOp42
 70
     1
102
RTVSPost2010Prop43
 90
        3
102
RTVSPost2010PropOp43
 70
     1
102
RTVSPost2010Prop44ColorIndex
 90
        5
102
RTVSPost2010Prop44ColorRGB
 90
      255
102
RTVSPost2010PropOp44
 70
     1
102
RTVSPost2010Prop45
280
     0
102
RTVSPost2010PropOp45
 70
     1
102
RTVSPost2010Prop46
 90
       50
102
RTVSPost2010PropOp46
 70
     1
102
RTVSPost2010Prop47
 90
       50
102
RTVSPost2010PropOp47
 70
     1
102
RTVSPost2010Prop48
 90
       50
102
RTVSPost2010PropOp48
 70
     1
102
RTVSPost2010Prop49
280
     0
102
RTVSPost2010PropOp49
 70
     1
102
RTVSPost2010Prop50
 90
       50
102
RTVSPost2010PropOp50
 70
     1
102
RTVSPost2010Prop51ColorIndex
 90
      256
102
RTVSPost2010Prop51ColorRGB
 90
-16777216
102
RTVSPost2010PropOp51
 70
     0
102
RTVSPost2010Prop52
140
1.0
102
RTVSPost2010PropOp52
 70
     0
102
RTVSPost2010Prop53
 90
        2
102
RTVSPost2010PropOp53
 70
     1
102
RTVSPost2010Prop54
  1
strokes_ogs.tif
102
RTVSPost2010PropOp54
 70
     1
102
RTVSPost2010Prop55
280
     0
102
RTVSPost2010PropOp55
 70
     1
102
RTVSPost2010Prop56
140
1.0
102
RTVSPost2010PropOp56
 70
     1
102
RTVSPost2010Prop57
140
1.0
102
RTVSPost2010PropOp57
 70
     1
  0
XRECORD
  5
5C1B
102
{ACAD_REACTORS
330
5C1A
102
}
330
5C1A
100
AcDbXrecord
280
     1
102
RTVSPost2010Prop28
280
     0
102
RTVSPost2010PropOp28
 70
     1
102
RTVSPost2010Prop29
280
     1
102
RTVSPost2010PropOp29
 70
     1
102
RTVSPost2010Prop30
280
     1
102
RTVSPost2010PropOp30
 70
     1
102
RTVSPost2010Prop31
280
     0
102
RTVSPost2010PropOp31
 70
     1
102
RTVSPost2010Prop32
280
     0
102
RTVSPost2010PropOp32
 70
     1
102
RTVSPost2010Prop33
280
     0
102
RTVSPost2010PropOp33
 70
     1
102
RTVSPost2010Prop34
280
     0
102
RTVSPost2010PropOp34
 70
     1
102
RTVSPost2010Prop35
280
     0
102
RTVSPost2010PropOp35
 70
     1
102
RTVSPost2010Prop36
280
     0
102
RTVSPost2010PropOp36
 70
     1
102
RTVSPost2010Prop37
 90
       50
102
RTVSPost2010PropOp37
 70
     1
102
RTVSPost2010Prop38
140
0.0
102
RTVSPost2010PropOp38
 70
     1
102
RTVSPost2010Prop39
140
1.0
102
RTVSPost2010PropOp39
 70
     1
102
RTVSPost2010Prop40
 90
        0
102
RTVSPost2010PropOp40
 70
     1
102
RTVSPost2010Prop41ColorIndex
 90
       18
102
RTVSPost2010Prop41ColorRGB
 90
        0
102
RTVSPost2010PropOp41
 70
     1
102
RTVSPost2010Prop42
 90
       50
102
RTVSPost2010PropOp42
 70
     1
102
RTVSPost2010Prop43
 90
        3
102
RTVSPost2010PropOp43
 70
     1
102
RTVSPost2010Prop44ColorIndex
 90
        5
102
RTVSPost2010Prop44ColorRGB
 90
      255
102
RTVSPost2010PropOp44
 70
     1
102
RTVSPost2010Prop45
280
     0
102
RTVSPost2010PropOp45
 70
     1
102
RTVSPost2010Prop46
 90
       50
102
RTVSPost2010PropOp46
 70
     1
102
RTVSPost2010Prop47
 90
       50
102
RTVSPost2010PropOp47
 70
     1
102
RTVSPost2010Prop48
 90
       50
102
RTVSPost2010PropOp48
 70
     1
102
RTVSPost2010Prop49
280
     0
102
RTVSPost2010PropOp49
 70
     1
102
RTVSPost2010Prop50
 90
       50
102
RTVSPost2010PropOp50
 70
     1
102
RTVSPost2010Prop51ColorIndex
 90
      256
102
RTVSPost2010Prop51ColorRGB
 90
-16777216
102
RTVSPost2010PropOp51
 70
     0
102
RTVSPost2010Prop52
140
1.0
102
RTVSPost2010PropOp52
 70
     0
102
RTVSPost2010Prop53
 90
        2
102
RTVSPost2010PropOp53
 70
     1
102
RTVSPost2010Prop54
  1
strokes_ogs.tif
102
RTVSPost2010PropOp54
 70
     1
102
RTVSPost2010Prop55
280
     0
102
RTVSPost2010PropOp55
 70
     1
102
RTVSPost2010Prop56
140
1.0
102
RTVSPost2010PropOp56
 70
     1
102
RTVSPost2010Prop57
140
1.0
102
RTVSPost2010PropOp57
 70
     1
  0
XRECORD
  5
5C37
102
{ACAD_REACTORS
330
5C36
102
}
330
5C36
100
AcDbXrecord
280
     1
102
RTVSPost2010Prop28
280
     0
102
RTVSPost2010PropOp28
 70
     1
102
RTVSPost2010Prop29
280
     1
102
RTVSPost2010PropOp29
 70
     1
102
RTVSPost2010Prop30
280
     1
102
RTVSPost2010PropOp30
 70
     1
102
RTVSPost2010Prop31
280
     0
102
RTVSPost2010PropOp31
 70
     1
102
RTVSPost2010Prop32
280
     0
102
RTVSPost2010PropOp32
 70
     1
102
RTVSPost2010Prop33
280
     0
102
RTVSPost2010PropOp33
 70
     1
102
RTVSPost2010Prop34
280
     0
102
RTVSPost2010PropOp34
 70
     1
102
RTVSPost2010Prop35
280
     0
102
RTVSPost2010PropOp35
 70
     1
102
RTVSPost2010Prop36
280
     0
102
RTVSPost2010PropOp36
 70
     1
102
RTVSPost2010Prop37
 90
       50
102
RTVSPost2010PropOp37
 70
     1
102
RTVSPost2010Prop38
140
0.0
102
RTVSPost2010PropOp38
 70
     1
102
RTVSPost2010Prop39
140
1.0
102
RTVSPost2010PropOp39
 70
     1
102
RTVSPost2010Prop40
 90
        0
102
RTVSPost2010PropOp40
 70
     1
102
RTVSPost2010Prop41ColorIndex
 90
       18
102
RTVSPost2010Prop41ColorRGB
 90
        0
102
RTVSPost2010PropOp41
 70
     1
102
RTVSPost2010Prop42
 90
       50
102
RTVSPost2010PropOp42
 70
     1
102
RTVSPost2010Prop43
 90
        3
102
RTVSPost2010PropOp43
 70
     1
102
RTVSPost2010Prop44ColorIndex
 90
        5
102
RTVSPost2010Prop44ColorRGB
 90
      255
102
RTVSPost2010PropOp44
 70
     1
102
RTVSPost2010Prop45
280
     0
102
RTVSPost2010PropOp45
 70
     1
102
RTVSPost2010Prop46
 90
       50
102
RTVSPost2010PropOp46
 70
     1
102
RTVSPost2010Prop47
 90
       50
102
RTVSPost2010PropOp47
 70
     1
102
RTVSPost2010Prop48
 90
       50
102
RTVSPost2010PropOp48
 70
     1
102
RTVSPost2010Prop49
280
     0
102
RTVSPost2010PropOp49
 70
     1
102
RTVSPost2010Prop50
 90
       50
102
RTVSPost2010PropOp50
 70
     1
102
RTVSPost2010Prop51ColorIndex
 90
      256
102
RTVSPost2010Prop51ColorRGB
 90
-16777216
102
RTVSPost2010PropOp51
 70
     0
102
RTVSPost2010Prop52
140
1.0
102
RTVSPost2010PropOp52
 70
     0
102
RTVSPost2010Prop53
 90
        2
102
RTVSPost2010PropOp53
 70
     1
102
RTVSPost2010Prop54
  1
strokes_ogs.tif
102
RTVSPost2010PropOp54
 70
     1
102
RTVSPost2010Prop55
280
     0
102
RTVSPost2010PropOp55
 70
     1
102
RTVSPost2010Prop56
140
1.0
102
RTVSPost2010PropOp56
 70
     1
102
RTVSPost2010Prop57
140
1.0
102
RTVSPost2010PropOp57
 70
     1
  0
XRECORD
  5
5C43
102
{ACAD_REACTORS
330
5C42
102
}
330
5C42
100
AcDbXrecord
280
     1
102
RTVSPost2010Prop28
280
     0
102
RTVSPost2010PropOp28
 70
     1
102
RTVSPost2010Prop29
280
     1
102
RTVSPost2010PropOp29
 70
     1
102
RTVSPost2010Prop30
280
     1
102
RTVSPost2010PropOp30
 70
     1
102
RTVSPost2010Prop31
280
     0
102
RTVSPost2010PropOp31
 70
     1
102
RTVSPost2010Prop32
280
     0
102
RTVSPost2010PropOp32
 70
     1
102
RTVSPost2010Prop33
280
     0
102
RTVSPost2010PropOp33
 70
     1
102
RTVSPost2010Prop34
280
     0
102
RTVSPost2010PropOp34
 70
     1
102
RTVSPost2010Prop35
280
     0
102
RTVSPost2010PropOp35
 70
     1
102
RTVSPost2010Prop36
280
     0
102
RTVSPost2010PropOp36
 70
     1
102
RTVSPost2010Prop37
 90
       50
102
RTVSPost2010PropOp37
 70
     1
102
RTVSPost2010Prop38
140
0.0
102
RTVSPost2010PropOp38
 70
     1
102
RTVSPost2010Prop39
140
1.0
102
RTVSPost2010PropOp39
 70
     1
102
RTVSPost2010Prop40
 90
        0
102
RTVSPost2010PropOp40
 70
     1
102
RTVSPost2010Prop41ColorIndex
 90
       18
102
RTVSPost2010Prop41ColorRGB
 90
        0
102
RTVSPost2010PropOp41
 70
     1
102
RTVSPost2010Prop42
 90
       50
102
RTVSPost2010PropOp42
 70
     1
102
RTVSPost2010Prop43
 90
        3
102
RTVSPost2010PropOp43
 70
     1
102
RTVSPost2010Prop44ColorIndex
 90
        5
102
RTVSPost2010Prop44ColorRGB
 90
      255
102
RTVSPost2010PropOp44
 70
     1
102
RTVSPost2010Prop45
280
     0
102
RTVSPost2010PropOp45
 70
     1
102
RTVSPost2010Prop46
 90
       50
102
RTVSPost2010PropOp46
 70
     1
102
RTVSPost2010Prop47
 90
       50
102
RTVSPost2010PropOp47
 70
     1
102
RTVSPost2010Prop48
 90
       50
102
RTVSPost2010PropOp48
 70
     1
102
RTVSPost2010Prop49
280
     0
102
RTVSPost2010PropOp49
 70
     1
102
RTVSPost2010Prop50
 90
       50
102
RTVSPost2010PropOp50
 70
     1
102
RTVSPost2010Prop51ColorIndex
 90
      256
102
RTVSPost2010Prop51ColorRGB
 90
-16777216
102
RTVSPost2010PropOp51
 70
     0
102
RTVSPost2010Prop52
140
1.0
102
RTVSPost2010PropOp52
 70
     0
102
RTVSPost2010Prop53
 90
        2
102
RTVSPost2010PropOp53
 70
     1
102
RTVSPost2010Prop54
  1
strokes_ogs.tif
102
RTVSPost2010PropOp54
 70
     1
102
RTVSPost2010Prop55
280
     0
102
RTVSPost2010PropOp55
 70
     1
102
RTVSPost2010Prop56
140
1.0
102
RTVSPost2010PropOp56
 70
     1
102
RTVSPost2010Prop57
140
1.0
102
RTVSPost2010PropOp57
 70
     1
  0
XRECORD
  5
5C2F
102
{ACAD_REACTORS
330
5C2E
102
}
330
5C2E
100
AcDbXrecord
280
     1
102
RTVSPost2010Prop28
280
     0
102
RTVSPost2010PropOp28
 70
     1
102
RTVSPost2010Prop29
280
     1
102
RTVSPost2010PropOp29
 70
     1
102
RTVSPost2010Prop30
280
     1
102
RTVSPost2010PropOp30
 70
     1
102
RTVSPost2010Prop31
280
     0
102
RTVSPost2010PropOp31
 70
     1
102
RTVSPost2010Prop32
280
     0
102
RTVSPost2010PropOp32
 70
     1
102
RTVSPost2010Prop33
280
     0
102
RTVSPost2010PropOp33
 70
     1
102
RTVSPost2010Prop34
280
     0
102
RTVSPost2010PropOp34
 70
     1
102
RTVSPost2010Prop35
280
     0
102
RTVSPost2010PropOp35
 70
     1
102
RTVSPost2010Prop36
280
     0
102
RTVSPost2010PropOp36
 70
     1
102
RTVSPost2010Prop37
 90
       50
102
RTVSPost2010PropOp37
 70
     1
102
RTVSPost2010Prop38
140
0.0
102
RTVSPost2010PropOp38
 70
     1
102
RTVSPost2010Prop39
140
1.0
102
RTVSPost2010PropOp39
 70
     1
102
RTVSPost2010Prop40
 90
        0
102
RTVSPost2010PropOp40
 70
     1
102
RTVSPost2010Prop41ColorIndex
 90
       18
102
RTVSPost2010Prop41ColorRGB
 90
        0
102
RTVSPost2010PropOp41
 70
     1
102
RTVSPost2010Prop42
 90
       50
102
RTVSPost2010PropOp42
 70
     1
102
RTVSPost2010Prop43
 90
        3
102
RTVSPost2010PropOp43
 70
     1
102
RTVSPost2010Prop44ColorIndex
 90
        5
102
RTVSPost2010Prop44ColorRGB
 90
      255
102
RTVSPost2010PropOp44
 70
     1
102
RTVSPost2010Prop45
280
     0
102
RTVSPost2010PropOp45
 70
     1
102
RTVSPost2010Prop46
 90
       50
102
RTVSPost2010PropOp46
 70
     1
102
RTVSPost2010Prop47
 90
       50
102
RTVSPost2010PropOp47
 70
     1
102
RTVSPost2010Prop48
 90
       50
102
RTVSPost2010PropOp48
 70
     1
102
RTVSPost2010Prop49
280
     0
102
RTVSPost2010PropOp49
 70
     1
102
RTVSPost2010Prop50
 90
       50
102
RTVSPost2010PropOp50
 70
     1
102
RTVSPost2010Prop51ColorIndex
 90
      256
102
RTVSPost2010Prop51ColorRGB
 90
-16777216
102
RTVSPost2010PropOp51
 70
     0
102
RTVSPost2010Prop52
140
1.0
102
RTVSPost2010PropOp52
 70
     0
102
RTVSPost2010Prop53
 90
        2
102
RTVSPost2010PropOp53
 70
     1
102
RTVSPost2010Prop54
  1
strokes_ogs.tif
102
RTVSPost2010PropOp54
 70
     1
102
RTVSPost2010Prop55
280
     0
102
RTVSPost2010PropOp55
 70
     1
102
RTVSPost2010Prop56
140
1.0
102
RTVSPost2010PropOp56
 70
     1
102
RTVSPost2010Prop57
140
1.0
102
RTVSPost2010PropOp57
 70
     1
  0
XRECORD
  5
5C45
102
{ACAD_REACTORS
330
5C44
102
}
330
5C44
100
AcDbXrecord
280
     1
102
RTVSPost2010Prop28
280
     0
102
RTVSPost2010PropOp28
 70
     1
102
RTVSPost2010Prop29
280
     1
102
RTVSPost2010PropOp29
 70
     1
102
RTVSPost2010Prop30
280
     1
102
RTVSPost2010PropOp30
 70
     1
102
RTVSPost2010Prop31
280
     0
102
RTVSPost2010PropOp31
 70
     1
102
RTVSPost2010Prop32
280
     0
102
RTVSPost2010PropOp32
 70
     1
102
RTVSPost2010Prop33
280
     0
102
RTVSPost2010PropOp33
 70
     1
102
RTVSPost2010Prop34
280
     0
102
RTVSPost2010PropOp34
 70
     1
102
RTVSPost2010Prop35
280
     0
102
RTVSPost2010PropOp35
 70
     1
102
RTVSPost2010Prop36
280
     0
102
RTVSPost2010PropOp36
 70
     1
102
RTVSPost2010Prop37
 90
       50
102
RTVSPost2010PropOp37
 70
     1
102
RTVSPost2010Prop38
140
0.0
102
RTVSPost2010PropOp38
 70
     1
102
RTVSPost2010Prop39
140
1.0
102
RTVSPost2010PropOp39
 70
     1
102
RTVSPost2010Prop40
 90
        0
102
RTVSPost2010PropOp40
 70
     1
102
RTVSPost2010Prop41ColorIndex
 90
       18
102
RTVSPost2010Prop41ColorRGB
 90
        0
102
RTVSPost2010PropOp41
 70
     1
102
RTVSPost2010Prop42
 90
       50
102
RTVSPost2010PropOp42
 70
     1
102
RTVSPost2010Prop43
 90
        3
102
RTVSPost2010PropOp43
 70
     1
102
RTVSPost2010Prop44ColorIndex
 90
        5
102
RTVSPost2010Prop44ColorRGB
 90
      255
102
RTVSPost2010PropOp44
 70
     1
102
RTVSPost2010Prop45
280
     0
102
RTVSPost2010PropOp45
 70
     1
102
RTVSPost2010Prop46
 90
       50
102
RTVSPost2010PropOp46
 70
     1
102
RTVSPost2010Prop47
 90
       50
102
RTVSPost2010PropOp47
 70
     1
102
RTVSPost2010Prop48
 90
       50
102
RTVSPost2010PropOp48
 70
     1
102
RTVSPost2010Prop49
280
     0
102
RTVSPost2010PropOp49
 70
     1
102
RTVSPost2010Prop50
 90
       50
102
RTVSPost2010PropOp50
 70
     1
102
RTVSPost2010Prop51ColorIndex
 90
      256
102
RTVSPost2010Prop51ColorRGB
 90
-16777216
102
RTVSPost2010PropOp51
 70
     0
102
RTVSPost2010Prop52
140
1.0
102
RTVSPost2010PropOp52
 70
     0
102
RTVSPost2010Prop53
 90
        2
102
RTVSPost2010PropOp53
 70
     1
102
RTVSPost2010Prop54
  1
strokes_ogs.tif
102
RTVSPost2010PropOp54
 70
     1
102
RTVSPost2010Prop55
280
     0
102
RTVSPost2010PropOp55
 70
     1
102
RTVSPost2010Prop56
140
1.0
102
RTVSPost2010PropOp56
 70
     1
102
RTVSPost2010Prop57
140
1.0
102
RTVSPost2010PropOp57
 70
     1
  0
XRECORD
  5
5C27
102
{ACAD_REACTORS
330
5C26
102
}
330
5C26
100
AcDbXrecord
280
     1
102
RTVSPost2010Prop28
280
     0
102
RTVSPost2010PropOp28
 70
     1
102
RTVSPost2010Prop29
280
     1
102
RTVSPost2010PropOp29
 70
     1
102
RTVSPost2010Prop30
280
     1
102
RTVSPost2010PropOp30
 70
     1
102
RTVSPost2010Prop31
280
     0
102
RTVSPost2010PropOp31
 70
     1
102
RTVSPost2010Prop32
280
     0
102
RTVSPost2010PropOp32
 70
     1
102
RTVSPost2010Prop33
280
     0
102
RTVSPost2010PropOp33
 70
     1
102
RTVSPost2010Prop34
280
     0
102
RTVSPost2010PropOp34
 70
     1
102
RTVSPost2010Prop35
280
     0
102
RTVSPost2010PropOp35
 70
     1
102
RTVSPost2010Prop36
280
     0
102
RTVSPost2010PropOp36
 70
     1
102
RTVSPost2010Prop37
 90
       50
102
RTVSPost2010PropOp37
 70
     1
102
RTVSPost2010Prop38
140
0.0
102
RTVSPost2010PropOp38
 70
     1
102
RTVSPost2010Prop39
140
1.0
102
RTVSPost2010PropOp39
 70
     1
102
RTVSPost2010Prop40
 90
        0
102
RTVSPost2010PropOp40
 70
     1
102
RTVSPost2010Prop41ColorIndex
 90
       18
102
RTVSPost2010Prop41ColorRGB
 90
        0
102
RTVSPost2010PropOp41
 70
     1
102
RTVSPost2010Prop42
 90
       50
102
RTVSPost2010PropOp42
 70
     1
102
RTVSPost2010Prop43
 90
        3
102
RTVSPost2010PropOp43
 70
     1
102
RTVSPost2010Prop44ColorIndex
 90
        5
102
RTVSPost2010Prop44ColorRGB
 90
      255
102
RTVSPost2010PropOp44
 70
     1
102
RTVSPost2010Prop45
280
     0
102
RTVSPost2010PropOp45
 70
     1
102
RTVSPost2010Prop46
 90
       50
102
RTVSPost2010PropOp46
 70
     1
102
RTVSPost2010Prop47
 90
       50
102
RTVSPost2010PropOp47
 70
     1
102
RTVSPost2010Prop48
 90
       50
102
RTVSPost2010PropOp48
 70
     1
102
RTVSPost2010Prop49
280
     0
102
RTVSPost2010PropOp49
 70
     1
102
RTVSPost2010Prop50
 90
       50
102
RTVSPost2010PropOp50
 70
     1
102
RTVSPost2010Prop51ColorIndex
 90
      256
102
RTVSPost2010Prop51ColorRGB
 90
-16777216
102
RTVSPost2010PropOp51
 70
     0
102
RTVSPost2010Prop52
140
1.0
102
RTVSPost2010PropOp52
 70
     0
102
RTVSPost2010Prop53
 90
        2
102
RTVSPost2010PropOp53
 70
     1
102
RTVSPost2010Prop54
  1
strokes_ogs.tif
102
RTVSPost2010PropOp54
 70
     1
102
RTVSPost2010Prop55
280
     0
102
RTVSPost2010PropOp55
 70
     1
102
RTVSPost2010Prop56
140
1.0
102
RTVSPost2010PropOp56
 70
     1
102
RTVSPost2010Prop57
140
1.0
102
RTVSPost2010PropOp57
 70
     1
  0
XRECORD
  5
5C41
102
{ACAD_REACTORS
330
5C40
102
}
330
5C40
100
AcDbXrecord
280
     1
102
RTVSPost2010Prop28
280
     0
102
RTVSPost2010PropOp28
 70
     1
102
RTVSPost2010Prop29
280
     1
102
RTVSPost2010PropOp29
 70
     1
102
RTVSPost2010Prop30
280
     1
102
RTVSPost2010PropOp30
 70
     1
102
RTVSPost2010Prop31
280
     0
102
RTVSPost2010PropOp31
 70
     1
102
RTVSPost2010Prop32
280
     0
102
RTVSPost2010PropOp32
 70
     1
102
RTVSPost2010Prop33
280
     0
102
RTVSPost2010PropOp33
 70
     1
102
RTVSPost2010Prop34
280
     0
102
RTVSPost2010PropOp34
 70
     1
102
RTVSPost2010Prop35
280
     0
102
RTVSPost2010PropOp35
 70
     1
102
RTVSPost2010Prop36
280
     0
102
RTVSPost2010PropOp36
 70
     1
102
RTVSPost2010Prop37
 90
       50
102
RTVSPost2010PropOp37
 70
     1
102
RTVSPost2010Prop38
140
0.0
102
RTVSPost2010PropOp38
 70
     1
102
RTVSPost2010Prop39
140
1.0
102
RTVSPost2010PropOp39
 70
     1
102
RTVSPost2010Prop40
 90
        0
102
RTVSPost2010PropOp40
 70
     1
102
RTVSPost2010Prop41ColorIndex
 90
       18
102
RTVSPost2010Prop41ColorRGB
 90
        0
102
RTVSPost2010PropOp41
 70
     1
102
RTVSPost2010Prop42
 90
       50
102
RTVSPost2010PropOp42
 70
     1
102
RTVSPost2010Prop43
 90
        3
102
RTVSPost2010PropOp43
 70
     1
102
RTVSPost2010Prop44ColorIndex
 90
        5
102
RTVSPost2010Prop44ColorRGB
 90
      255
102
RTVSPost2010PropOp44
 70
     1
102
RTVSPost2010Prop45
280
     0
102
RTVSPost2010PropOp45
 70
     1
102
RTVSPost2010Prop46
 90
       50
102
RTVSPost2010PropOp46
 70
     1
102
RTVSPost2010Prop47
 90
       50
102
RTVSPost2010PropOp47
 70
     1
102
RTVSPost2010Prop48
 90
       50
102
RTVSPost2010PropOp48
 70
     1
102
RTVSPost2010Prop49
280
     0
102
RTVSPost2010PropOp49
 70
     1
102
RTVSPost2010Prop50
 90
       50
102
RTVSPost2010PropOp50
 70
     1
102
RTVSPost2010Prop51ColorIndex
 90
      256
102
RTVSPost2010Prop51ColorRGB
 90
-16777216
102
RTVSPost2010PropOp51
 70
     0
102
RTVSPost2010Prop52
140
1.0
102
RTVSPost2010PropOp52
 70
     0
102
RTVSPost2010Prop53
 90
        2
102
RTVSPost2010PropOp53
 70
     1
102
RTVSPost2010Prop54
  1
strokes_ogs.tif
102
RTVSPost2010PropOp54
 70
     1
102
RTVSPost2010Prop55
280
     0
102
RTVSPost2010PropOp55
 70
     1
102
RTVSPost2010Prop56
140
1.0
102
RTVSPost2010PropOp56
 70
     1
102
RTVSPost2010Prop57
140
1.0
102
RTVSPost2010PropOp57
 70
     1
  0
XRECORD
  5
5C3F
102
{ACAD_REACTORS
330
5C3E
102
}
330
5C3E
100
AcDbXrecord
280
     1
102
RTVSPost2010Prop28
280
     0
102
RTVSPost2010PropOp28
 70
     1
102
RTVSPost2010Prop29
280
     1
102
RTVSPost2010PropOp29
 70
     1
102
RTVSPost2010Prop30
280
     1
102
RTVSPost2010PropOp30
 70
     1
102
RTVSPost2010Prop31
280
     0
102
RTVSPost2010PropOp31
 70
     1
102
RTVSPost2010Prop32
280
     0
102
RTVSPost2010PropOp32
 70
     1
102
RTVSPost2010Prop33
280
     0
102
RTVSPost2010PropOp33
 70
     1
102
RTVSPost2010Prop34
280
     0
102
RTVSPost2010PropOp34
 70
     1
102
RTVSPost2010Prop35
280
     0
102
RTVSPost2010PropOp35
 70
     1
102
RTVSPost2010Prop36
280
     0
102
RTVSPost2010PropOp36
 70
     1
102
RTVSPost2010Prop37
 90
       50
102
RTVSPost2010PropOp37
 70
     1
102
RTVSPost2010Prop38
140
0.0
102
RTVSPost2010PropOp38
 70
     1
102
RTVSPost2010Prop39
140
1.0
102
RTVSPost2010PropOp39
 70
     1
102
RTVSPost2010Prop40
 90
        0
102
RTVSPost2010PropOp40
 70
     1
102
RTVSPost2010Prop41ColorIndex
 90
       18
102
RTVSPost2010Prop41ColorRGB
 90
        0
102
RTVSPost2010PropOp41
 70
     1
102
RTVSPost2010Prop42
 90
       50
102
RTVSPost2010PropOp42
 70
     1
102
RTVSPost2010Prop43
 90
        3
102
RTVSPost2010PropOp43
 70
     1
102
RTVSPost2010Prop44ColorIndex
 90
        5
102
RTVSPost2010Prop44ColorRGB
 90
      255
102
RTVSPost2010PropOp44
 70
     1
102
RTVSPost2010Prop45
280
     0
102
RTVSPost2010PropOp45
 70
     1
102
RTVSPost2010Prop46
 90
       50
102
RTVSPost2010PropOp46
 70
     1
102
RTVSPost2010Prop47
 90
       50
102
RTVSPost2010PropOp47
 70
     1
102
RTVSPost2010Prop48
 90
       50
102
RTVSPost2010PropOp48
 70
     1
102
RTVSPost2010Prop49
280
     0
102
RTVSPost2010PropOp49
 70
     1
102
RTVSPost2010Prop50
 90
       50
102
RTVSPost2010PropOp50
 70
     1
102
RTVSPost2010Prop51ColorIndex
 90
      256
102
RTVSPost2010Prop51ColorRGB
 90
-16777216
102
RTVSPost2010PropOp51
 70
     0
102
RTVSPost2010Prop52
140
1.0
102
RTVSPost2010PropOp52
 70
     0
102
RTVSPost2010Prop53
 90
        2
102
RTVSPost2010PropOp53
 70
     1
102
RTVSPost2010Prop54
  1
strokes_ogs.tif
102
RTVSPost2010PropOp54
 70
     1
102
RTVSPost2010Prop55
280
     0
102
RTVSPost2010PropOp55
 70
     1
102
RTVSPost2010Prop56
140
1.0
102
RTVSPost2010PropOp56
 70
     1
102
RTVSPost2010Prop57
140
1.0
102
RTVSPost2010PropOp57
 70
     1
  0
XRECORD
  5
5C39
102
{ACAD_REACTORS
330
5C38
102
}
330
5C38
100
AcDbXrecord
280
     1
102
RTVSPost2010Prop28
280
     0
102
RTVSPost2010PropOp28
 70
     1
102
RTVSPost2010Prop29
280
     1
102
RTVSPost2010PropOp29
 70
     1
102
RTVSPost2010Prop30
280
     1
102
RTVSPost2010PropOp30
 70
     1
102
RTVSPost2010Prop31
280
     0
102
RTVSPost2010PropOp31
 70
     1
102
RTVSPost2010Prop32
280
     0
102
RTVSPost2010PropOp32
 70
     1
102
RTVSPost2010Prop33
280
     0
102
RTVSPost2010PropOp33
 70
     1
102
RTVSPost2010Prop34
280
     0
102
RTVSPost2010PropOp34
 70
     1
102
RTVSPost2010Prop35
280
     0
102
RTVSPost2010PropOp35
 70
     1
102
RTVSPost2010Prop36
280
     0
102
RTVSPost2010PropOp36
 70
     1
102
RTVSPost2010Prop37
 90
       50
102
RTVSPost2010PropOp37
 70
     1
102
RTVSPost2010Prop38
140
0.0
102
RTVSPost2010PropOp38
 70
     1
102
RTVSPost2010Prop39
140
1.0
102
RTVSPost2010PropOp39
 70
     1
102
RTVSPost2010Prop40
 90
        0
102
RTVSPost2010PropOp40
 70
     1
102
RTVSPost2010Prop41ColorIndex
 90
       18
102
RTVSPost2010Prop41ColorRGB
 90
        0
102
RTVSPost2010PropOp41
 70
     1
102
RTVSPost2010Prop42
 90
       50
102
RTVSPost2010PropOp42
 70
     1
102
RTVSPost2010Prop43
 90
        3
102
RTVSPost2010PropOp43
 70
     1
102
RTVSPost2010Prop44ColorIndex
 90
        5
102
RTVSPost2010Prop44ColorRGB
 90
      255
102
RTVSPost2010PropOp44
 70
     1
102
RTVSPost2010Prop45
280
     0
102
RTVSPost2010PropOp45
 70
     1
102
RTVSPost2010Prop46
 90
       50
102
RTVSPost2010PropOp46
 70
     1
102
RTVSPost2010Prop47
 90
       50
102
RTVSPost2010PropOp47
 70
     1
102
RTVSPost2010Prop48
 90
       50
102
RTVSPost2010PropOp48
 70
     1
102
RTVSPost2010Prop49
280
     0
102
RTVSPost2010PropOp49
 70
     1
102
RTVSPost2010Prop50
 90
       50
102
RTVSPost2010PropOp50
 70
     1
102
RTVSPost2010Prop51ColorIndex
 90
      256
102
RTVSPost2010Prop51ColorRGB
 90
-16777216
102
RTVSPost2010PropOp51
 70
     0
102
RTVSPost2010Prop52
140
1.0
102
RTVSPost2010PropOp52
 70
     0
102
RTVSPost2010Prop53
 90
        2
102
RTVSPost2010PropOp53
 70
     1
102
RTVSPost2010Prop54
  1
strokes_ogs.tif
102
RTVSPost2010PropOp54
 70
     1
102
RTVSPost2010Prop55
280
     0
102
RTVSPost2010PropOp55
 70
     1
102
RTVSPost2010Prop56
140
1.0
102
RTVSPost2010PropOp56
 70
     1
102
RTVSPost2010Prop57
140
1.0
102
RTVSPost2010PropOp57
 70
     1
  0
XRECORD
  5
5C3B
102
{ACAD_REACTORS
330
5C3A
102
}
330
5C3A
100
AcDbXrecord
280
     1
102
RTVSPost2010Prop28
280
     0
102
RTVSPost2010PropOp28
 70
     1
102
RTVSPost2010Prop29
280
     1
102
RTVSPost2010PropOp29
 70
     1
102
RTVSPost2010Prop30
280
     1
102
RTVSPost2010PropOp30
 70
     1
102
RTVSPost2010Prop31
280
     0
102
RTVSPost2010PropOp31
 70
     1
102
RTVSPost2010Prop32
280
     0
102
RTVSPost2010PropOp32
 70
     1
102
RTVSPost2010Prop33
280
     0
102
RTVSPost2010PropOp33
 70
     1
102
RTVSPost2010Prop34
280
     0
102
RTVSPost2010PropOp34
 70
     1
102
RTVSPost2010Prop35
280
     0
102
RTVSPost2010PropOp35
 70
     1
102
RTVSPost2010Prop36
280
     0
102
RTVSPost2010PropOp36
 70
     1
102
RTVSPost2010Prop37
 90
       50
102
RTVSPost2010PropOp37
 70
     1
102
RTVSPost2010Prop38
140
0.0
102
RTVSPost2010PropOp38
 70
     1
102
RTVSPost2010Prop39
140
1.0
102
RTVSPost2010PropOp39
 70
     1
102
RTVSPost2010Prop40
 90
        0
102
RTVSPost2010PropOp40
 70
     1
102
RTVSPost2010Prop41ColorIndex
 90
       18
102
RTVSPost2010Prop41ColorRGB
 90
        0
102
RTVSPost2010PropOp41
 70
     1
102
RTVSPost2010Prop42
 90
       50
102
RTVSPost2010PropOp42
 70
     1
102
RTVSPost2010Prop43
 90
        3
102
RTVSPost2010PropOp43
 70
     1
102
RTVSPost2010Prop44ColorIndex
 90
        5
102
RTVSPost2010Prop44ColorRGB
 90
      255
102
RTVSPost2010PropOp44
 70
     1
102
RTVSPost2010Prop45
280
     0
102
RTVSPost2010PropOp45
 70
     1
102
RTVSPost2010Prop46
 90
       50
102
RTVSPost2010PropOp46
 70
     1
102
RTVSPost2010Prop47
 90
       50
102
RTVSPost2010PropOp47
 70
     1
102
RTVSPost2010Prop48
 90
       50
102
RTVSPost2010PropOp48
 70
     1
102
RTVSPost2010Prop49
280
     0
102
RTVSPost2010PropOp49
 70
     1
102
RTVSPost2010Prop50
 90
       50
102
RTVSPost2010PropOp50
 70
     1
102
RTVSPost2010Prop51ColorIndex
 90
      256
102
RTVSPost2010Prop51ColorRGB
 90
-16777216
102
RTVSPost2010PropOp51
 70
     0
102
RTVSPost2010Prop52
140
1.0
102
RTVSPost2010PropOp52
 70
     0
102
RTVSPost2010Prop53
 90
        2
102
RTVSPost2010PropOp53
 70
     1
102
RTVSPost2010Prop54
  1
strokes_ogs.tif
102
RTVSPost2010PropOp54
 70
     1
102
RTVSPost2010Prop55
280
     0
102
RTVSPost2010PropOp55
 70
     1
102
RTVSPost2010Prop56
140
1.0
102
RTVSPost2010PropOp56
 70
     1
102
RTVSPost2010Prop57
140
1.0
102
RTVSPost2010PropOp57
 70
     1
  0
XRECORD
  5
5C2D
102
{ACAD_REACTORS
330
5C2C
102
}
330
5C2C
100
AcDbXrecord
280
     1
102
RTVSPost2010Prop28
280
     0
102
RTVSPost2010PropOp28
 70
     1
102
RTVSPost2010Prop29
280
     1
102
RTVSPost2010PropOp29
 70
     1
102
RTVSPost2010Prop30
280
     1
102
RTVSPost2010PropOp30
 70
     1
102
RTVSPost2010Prop31
280
     0
102
RTVSPost2010PropOp31
 70
     1
102
RTVSPost2010Prop32
280
     0
102
RTVSPost2010PropOp32
 70
     1
102
RTVSPost2010Prop33
280
     0
102
RTVSPost2010PropOp33
 70
     1
102
RTVSPost2010Prop34
280
     0
102
RTVSPost2010PropOp34
 70
     1
102
RTVSPost2010Prop35
280
     0
102
RTVSPost2010PropOp35
 70
     1
102
RTVSPost2010Prop36
280
     0
102
RTVSPost2010PropOp36
 70
     1
102
RTVSPost2010Prop37
 90
       50
102
RTVSPost2010PropOp37
 70
     1
102
RTVSPost2010Prop38
140
0.0
102
RTVSPost2010PropOp38
 70
     1
102
RTVSPost2010Prop39
140
1.0
102
RTVSPost2010PropOp39
 70
     1
102
RTVSPost2010Prop40
 90
        0
102
RTVSPost2010PropOp40
 70
     1
102
RTVSPost2010Prop41ColorIndex
 90
       18
102
RTVSPost2010Prop41ColorRGB
 90
        0
102
RTVSPost2010PropOp41
 70
     1
102
RTVSPost2010Prop42
 90
       50
102
RTVSPost2010PropOp42
 70
     1
102
RTVSPost2010Prop43
 90
        3
102
RTVSPost2010PropOp43
 70
     1
102
RTVSPost2010Prop44ColorIndex
 90
        5
102
RTVSPost2010Prop44ColorRGB
 90
      255
102
RTVSPost2010PropOp44
 70
     1
102
RTVSPost2010Prop45
280
     0
102
RTVSPost2010PropOp45
 70
     1
102
RTVSPost2010Prop46
 90
       50
102
RTVSPost2010PropOp46
 70
     1
102
RTVSPost2010Prop47
 90
       50
102
RTVSPost2010PropOp47
 70
     1
102
RTVSPost2010Prop48
 90
       50
102
RTVSPost2010PropOp48
 70
     1
102
RTVSPost2010Prop49
280
     0
102
RTVSPost2010PropOp49
 70
     1
102
RTVSPost2010Prop50
 90
       50
102
RTVSPost2010PropOp50
 70
     1
102
RTVSPost2010Prop51ColorIndex
 90
      256
102
RTVSPost2010Prop51ColorRGB
 90
-16777216
102
RTVSPost2010PropOp51
 70
     0
102
RTVSPost2010Prop52
140
1.0
102
RTVSPost2010PropOp52
 70
     0
102
RTVSPost2010Prop53
 90
        2
102
RTVSPost2010PropOp53
 70
     1
102
RTVSPost2010Prop54
  1
strokes_ogs.tif
102
RTVSPost2010PropOp54
 70
     1
102
RTVSPost2010Prop55
280
     0
102
RTVSPost2010PropOp55
 70
     1
102
RTVSPost2010Prop56
140
1.0
102
RTVSPost2010PropOp56
 70
     1
102
RTVSPost2010Prop57
140
1.0
102
RTVSPost2010PropOp57
 70
     1
  0
XRECORD
  5
5C35
102
{ACAD_REACTORS
330
5C34
102
}
330
5C34
100
AcDbXrecord
280
     1
102
RTVSPost2010Prop28
280
     0
102
RTVSPost2010PropOp28
 70
     1
102
RTVSPost2010Prop29
280
     1
102
RTVSPost2010PropOp29
 70
     1
102
RTVSPost2010Prop30
280
     1
102
RTVSPost2010PropOp30
 70
     1
102
RTVSPost2010Prop31
280
     0
102
RTVSPost2010PropOp31
 70
     1
102
RTVSPost2010Prop32
280
     0
102
RTVSPost2010PropOp32
 70
     1
102
RTVSPost2010Prop33
280
     0
102
RTVSPost2010PropOp33
 70
     1
102
RTVSPost2010Prop34
280
     0
102
RTVSPost2010PropOp34
 70
     1
102
RTVSPost2010Prop35
280
     0
102
RTVSPost2010PropOp35
 70
     1
102
RTVSPost2010Prop36
280
     0
102
RTVSPost2010PropOp36
 70
     1
102
RTVSPost2010Prop37
 90
       50
102
RTVSPost2010PropOp37
 70
     1
102
RTVSPost2010Prop38
140
0.0
102
RTVSPost2010PropOp38
 70
     1
102
RTVSPost2010Prop39
140
1.0
102
RTVSPost2010PropOp39
 70
     1
102
RTVSPost2010Prop40
 90
        0
102
RTVSPost2010PropOp40
 70
     1
102
RTVSPost2010Prop41ColorIndex
 90
       18
102
RTVSPost2010Prop41ColorRGB
 90
        0
102
RTVSPost2010PropOp41
 70
     1
102
RTVSPost2010Prop42
 90
       50
102
RTVSPost2010PropOp42
 70
     1
102
RTVSPost2010Prop43
 90
        3
102
RTVSPost2010PropOp43
 70
     1
102
RTVSPost2010Prop44ColorIndex
 90
        5
102
RTVSPost2010Prop44ColorRGB
 90
      255
102
RTVSPost2010PropOp44
 70
     1
102
RTVSPost2010Prop45
280
     0
102
RTVSPost2010PropOp45
 70
     1
102
RTVSPost2010Prop46
 90
       50
102
RTVSPost2010PropOp46
 70
     1
102
RTVSPost2010Prop47
 90
       50
102
RTVSPost2010PropOp47
 70
     1
102
RTVSPost2010Prop48
 90
       50
102
RTVSPost2010PropOp48
 70
     1
102
RTVSPost2010Prop49
280
     0
102
RTVSPost2010PropOp49
 70
     1
102
RTVSPost2010Prop50
 90
       50
102
RTVSPost2010PropOp50
 70
     1
102
RTVSPost2010Prop51ColorIndex
 90
      256
102
RTVSPost2010Prop51ColorRGB
 90
-16777216
102
RTVSPost2010PropOp51
 70
     0
102
RTVSPost2010Prop52
140
1.0
102
RTVSPost2010PropOp52
 70
     0
102
RTVSPost2010Prop53
 90
        2
102
RTVSPost2010PropOp53
 70
     1
102
RTVSPost2010Prop54
  1
strokes_ogs.tif
102
RTVSPost2010PropOp54
 70
     1
102
RTVSPost2010Prop55
280
     0
102
RTVSPost2010PropOp55
 70
     1
102
RTVSPost2010Prop56
140
1.0
102
RTVSPost2010PropOp56
 70
     1
102
RTVSPost2010Prop57
140
1.0
102
RTVSPost2010PropOp57
 70
     1
  0
XRECORD
  5
5C3D
102
{ACAD_REACTORS
330
5C3C
102
}
330
5C3C
100
AcDbXrecord
280
     1
102
RTVSPost2010Prop28
280
     0
102
RTVSPost2010PropOp28
 70
     1
102
RTVSPost2010Prop29
280
     1
102
RTVSPost2010PropOp29
 70
     1
102
RTVSPost2010Prop30
280
     1
102
RTVSPost2010PropOp30
 70
     1
102
RTVSPost2010Prop31
280
     0
102
RTVSPost2010PropOp31
 70
     1
102
RTVSPost2010Prop32
280
     0
102
RTVSPost2010PropOp32
 70
     1
102
RTVSPost2010Prop33
280
     0
102
RTVSPost2010PropOp33
 70
     1
102
RTVSPost2010Prop34
280
     0
102
RTVSPost2010PropOp34
 70
     1
102
RTVSPost2010Prop35
280
     0
102
RTVSPost2010PropOp35
 70
     1
102
RTVSPost2010Prop36
280
     0
102
RTVSPost2010PropOp36
 70
     1
102
RTVSPost2010Prop37
 90
       50
102
RTVSPost2010PropOp37
 70
     1
102
RTVSPost2010Prop38
140
0.0
102
RTVSPost2010PropOp38
 70
     1
102
RTVSPost2010Prop39
140
1.0
102
RTVSPost2010PropOp39
 70
     1
102
RTVSPost2010Prop40
 90
        0
102
RTVSPost2010PropOp40
 70
     1
102
RTVSPost2010Prop41ColorIndex
 90
       18
102
RTVSPost2010Prop41ColorRGB
 90
        0
102
RTVSPost2010PropOp41
 70
     1
102
RTVSPost2010Prop42
 90
       50
102
RTVSPost2010PropOp42
 70
     1
102
RTVSPost2010Prop43
 90
        3
102
RTVSPost2010PropOp43
 70
     1
102
RTVSPost2010Prop44ColorIndex
 90
        5
102
RTVSPost2010Prop44ColorRGB
 90
      255
102
RTVSPost2010PropOp44
 70
     1
102
RTVSPost2010Prop45
280
     0
102
RTVSPost2010PropOp45
 70
     1
102
RTVSPost2010Prop46
 90
       50
102
RTVSPost2010PropOp46
 70
     1
102
RTVSPost2010Prop47
 90
       50
102
RTVSPost2010PropOp47
 70
     1
102
RTVSPost2010Prop48
 90
       50
102
RTVSPost2010PropOp48
 70
     1
102
RTVSPost2010Prop49
280
     0
102
RTVSPost2010PropOp49
 70
     1
102
RTVSPost2010Prop50
 90
       50
102
RTVSPost2010PropOp50
 70
     1
102
RTVSPost2010Prop51ColorIndex
 90
      256
102
RTVSPost2010Prop51ColorRGB
 90
-16777216
102
RTVSPost2010PropOp51
 70
     0
102
RTVSPost2010Prop52
140
1.0
102
RTVSPost2010PropOp52
 70
     0
102
RTVSPost2010Prop53
 90
        2
102
RTVSPost2010PropOp53
 70
     1
102
RTVSPost2010Prop54
  1
strokes_ogs.tif
102
RTVSPost2010PropOp54
 70
     1
102
RTVSPost2010Prop55
280
     0
102
RTVSPost2010PropOp55
 70
     1
102
RTVSPost2010Prop56
140
1.0
102
RTVSPost2010PropOp56
 70
     1
102
RTVSPost2010Prop57
140
1.0
102
RTVSPost2010PropOp57
 70
     1
  0
ENDSEC
  0
EOF
