  0
SECTION
  2
HEADER
  9
$ACADVER
  1
AC1024
  9
$ACADMAINTVER
 70
   225
  9
$DWGCODEPAGE
  3
ANSI_932
  9
$LASTSAVEDBY
  1
takanashi
  9
$INSBASE
 10
0.0
 20
0.0
 30
0.0
  9
$EXTMIN
 10
19.9694844009
 20
9.997285330199247
 30
-0.0000000000046772
  9
$EXTMAX
 10
800.0354022998775
 20
560.0291761481542
 30
0.0000000000033523
  9
$LIMMIN
 10
0.0
 20
0.0
  9
$LIMMAX
 10
840.0
 20
594.0
  9
$ORTHOMODE
 70
     0
  9
$REGENMODE
 70
     1
  9
$FILLMODE
 70
     1
  9
$QTEXTMODE
 70
     0
  9
$MIRRTEXT
 70
     1
  9
$LTSCALE
 40
1.0
  9
$ATTMODE
 70
     1
  9
$TEXTSIZE
 40
5.0
  9
$TRACEWID
 40
1.0
  9
$TEXTSTYLE
  7
STANDARD
  9
$CLAYER
  8
0
  9
$CELTYPE
  6
BYLAYER
  9
$CECOLOR
 62
   256
  9
$CELTSCALE
 40
1.0
  9
$DISPSILH
 70
     0
  9
$DIMSCALE
 40
1.0
  9
$DIMASZ
 40
1.5
  9
$DIMEXO
 40
5.0
  9
$DIMDLI
 40
3.75
  9
$DIMRND
 40
0.0
  9
$DIMDLE
 40
0.0
  9
$DIMEXE
 40
0.0
  9
$DIMTP
 40
0.0
  9
$DIMTM
 40
0.0
  9
$DIMTXT
 40
5.0
  9
$DIMCEN
 40
2.5
  9
$DIMTSZ
 40
0.0
  9
$DIMTOL
 70
     0
  9
$DIMLIM
 70
     0
  9
$DIMTIH
 70
     0
  9
$DIMTOH
 70
     0
  9
$DIMSE1
 70
     0
  9
$DIMSE2
 70
     0
  9
$DIMTAD
 70
     1
  9
$DIMZIN
 70
     8
  9
$DIMBLK
  1
DotBlank
  9
$DIMASO
 70
     1
  9
$DIMSHO
 70
     1
  9
$DIMPOST
  1

  9
$DIMAPOST
  1

  9
$DIMALT
 70
     0
  9
$DIMALTD
 70
     2
  9
$DIMALTF
 40
25.4
  9
$DIMLFAC
 40
1.0
  9
$DIMTOFL
 70
     1
  9
$DIMTVP
 40
0.0
  9
$DIMTIX
 70
     0
  9
$DIMSOXD
 70
     0
  9
$DIMSAH
 70
     0
  9
$DIMBLK1
  1

  9
$DIMBLK2
  1

  9
$DIMSTYLE
  2
STANDARD
  9
$DIMCLRD
 70
     0
  9
$DIMCLRE
 70
     0
  9
$DIMCLRT
 70
     0
  9
$DIMTFAC
 40
1.0
  9
$DIMGAP
 40
0.625
  9
$DIMJUST
 70
     0
  9
$DIMSD1
 70
     0
  9
$DIMSD2
 70
     0
  9
$DIMTOLJ
 70
     1
  9
$DIMTZIN
 70
     0
  9
$DIMALTZ
 70
     0
  9
$DIMALTTZ
 70
     0
  9
$DIMUPT
 70
     0
  9
$DIMDEC
 70
     0
  9
$DIMTDEC
 70
     0
  9
$DIMALTU
 70
     2
  9
$DIMALTTD
 70
     2
  9
$DIMTXSTY
  7
STANDARD
  9
$DIMAUNIT
 70
     0
  9
$DIMADEC
 70
     0
  9
$DIMALTRND
 40
0.0
  9
$DIMAZIN
 70
     0
  9
$DIMDSEP
 70
    46
  9
$DIMATFIT
 70
     3
  9
$DIMFRAC
 70
     0
  9
$DIMLDRBLK
  1
NONE
  9
$DIMLUNIT
 70
     2
  9
$DIMLWD
 70
    -2
  9
$DIMLWE
 70
    -2
  9
$DIMTMOVE
 70
     0
  9
$DIMFXL
 40
1.0
  9
$DIMFXLON
 70
     0
  9
$DIMJOGANG
 40
0.7853981633974483
  9
$DIMTFILL
 70
     0
  9
$DIMTFILLCLR
 70
     0
  9
$DIMARCSYM
 70
     0
  9
$DIMLTYPE
  6

  9
$DIMLTEX1
  6

  9
$DIMLTEX2
  6

  9
$DIMTXTDIRECTION
 70
     0
  9
$LUNITS
 70
     2
  9
$LUPREC
 70
     4
  9
$SKETCHINC
 40
1.0
  9
$FILLETRAD
 40
1.0
  9
$AUNITS
 70
     0
  9
$AUPREC
 70
     1
  9
$MENU
  1
.
  9
$ELEVATION
 40
0.0
  9
$PELEVATION
 40
0.0
  9
$THICKNESS
 40
0.0
  9
$LIMCHECK
 70
     0
  9
$CHAMFERA
 40
10.0
  9
$CHAMFERB
 40
10.0
  9
$CHAMFERC
 40
20.0
  9
$CHAMFERD
 40
0.0
  9
$SKPOLY
 70
     0
  9
$TDCREATE
 40
2450431.623194444
  9
$TDUCREATE
 40
2450431.248202778
  9
$TDUPDATE
 40
2459543.553020834
  9
$TDUUPDATE
 40
2459543.178020834
  9
$TDINDWG
 40
1.1967172801
  9
$TDUSRTIMER
 40
1.1967170949
  9
$USRTIMER
 70
     1
  9
$ANGBASE
 50
0.0
  9
$ANGDIR
 70
     0
  9
$PDMODE
 70
    34
  9
$PDSIZE
 40
0.0
  9
$PLINEWID
 40
0.0
  9
$SPLFRAME
 70
     0
  9
$SPLINETYPE
 70
     6
  9
$SPLINESEGS
 70
     8
  9
$HANDSEED
  5
4971
  9
$SURFTAB1
 70
     6
  9
$SURFTAB2
 70
     6
  9
$SURFTYPE
 70
     6
  9
$SURFU
 70
     6
  9
$SURFV
 70
     6
  9
$UCSBASE
  2

  9
$UCSNAME
  2

  9
$UCSORG
 10
0.0
 20
0.0
 30
0.0
  9
$UCSXDIR
 10
1.0
 20
0.0
 30
0.0
  9
$UCSYDIR
 10
0.0
 20
1.0
 30
0.0
  9
$UCSORTHOREF
  2

  9
$UCSORTHOVIEW
 70
     1
  9
$UCSORGTOP
 10
0.0
 20
0.0
 30
0.0
  9
$UCSORGBOTTOM
 10
0.0
 20
0.0
 30
0.0
  9
$UCSORGLEFT
 10
0.0
 20
0.0
 30
0.0
  9
$UCSORGRIGHT
 10
0.0
 20
0.0
 30
0.0
  9
$UCSORGFRONT
 10
0.0
 20
0.0
 30
0.0
  9
$UCSORGBACK
 10
0.0
 20
0.0
 30
0.0
  9
$PUCSBASE
  2

  9
$PUCSNAME
  2

  9
$PUCSORG
 10
0.0
 20
0.0
 30
0.0
  9
$PUCSXDIR
 10
1.0
 20
0.0
 30
0.0
  9
$PUCSYDIR
 10
0.0
 20
1.0
 30
0.0
  9
$PUCSORTHOREF
  2

  9
$PUCSORTHOVIEW
 70
     0
  9
$PUCSORGTOP
 10
0.0
 20
0.0
 30
0.0
  9
$PUCSORGBOTTOM
 10
0.0
 20
0.0
 30
0.0
  9
$PUCSORGLEFT
 10
0.0
 20
0.0
 30
0.0
  9
$PUCSORGRIGHT
 10
0.0
 20
0.0
 30
0.0
  9
$PUCSORGFRONT
 10
0.0
 20
0.0
 30
0.0
  9
$PUCSORGBACK
 10
0.0
 20
0.0
 30
0.0
  9
$USERI1
 70
     0
  9
$USERI2
 70
     0
  9
$USERI3
 70
     0
  9
$USERI4
 70
     0
  9
$USERI5
 70
     0
  9
$USERR1
 40
0.0
  9
$USERR2
 40
0.0
  9
$USERR3
 40
0.0
  9
$USERR4
 40
0.0
  9
$USERR5
 40
0.0
  9
$WORLDVIEW
 70
     1
  9
$SHADEDGE
 70
     3
  9
$SHADEDIF
 70
    70
  9
$TILEMODE
 70
     1
  9
$MAXACTVP
 70
    16
  9
$PINSBASE
 10
0.0
 20
0.0
 30
0.0
  9
$PLIMCHECK
 70
     0
  9
$PEXTMIN
 10
1.000000000000000E+20
 20
1.000000000000000E+20
 30
1.000000000000000E+20
  9
$PEXTMAX
 10
-1.000000000000000E+20
 20
-1.000000000000000E+20
 30
-1.000000000000000E+20
  9
$PLIMMIN
 10
0.0
 20
0.0
  9
$PLIMMAX
 10
420.0
 20
297.0
  9
$UNITMODE
 70
     0
  9
$VISRETAIN
 70
     0
  9
$PLINEGEN
 70
     0
  9
$PSLTSCALE
 70
     1
  9
$TREEDEPTH
 70
  3020
  9
$CMLSTYLE
  2
STANDARD
  9
$CMLJUST
 70
     0
  9
$CMLSCALE
 40
1.0
  9
$PROXYGRAPHICS
 70
     1
  9
$MEASUREMENT
 70
     1
  9
$CELWEIGHT
370
    -1
  9
$ENDCAPS
280
     0
  9
$JOINSTYLE
280
     0
  9
$LWDISPLAY
290
     0
  9
$INSUNITS
 70
     0
  9
$HYPERLINKBASE
  1

  9
$STYLESHEET
  1
MONOCHROME.CTB
  9
$XEDIT
290
     1
  9
$CEPSNTYPE
380
     0
  9
$PSTYLEMODE
290
     1
  9
$FINGERPRINTGUID
  2
{87E49A17-DA8C-4230-82A7-C569D142D783}
  9
$VERSIONGUID
  2
{6B694B24-A75F-E541-A65F-A80F8CB6270A}
  9
$EXTNAMES
290
     1
  9
$PSVPSCALE
 40
0.0
  9
$OLESTARTUP
290
     0
  9
$SORTENTS
280
   127
  9
$INDEXCTL
280
     0
  9
$HIDETEXT
280
     0
  9
$XCLIPFRAME
280
     2
  9
$HALOGAP
280
     0
  9
$OBSCOLOR
 70
   257
  9
$OBSLTYPE
280
     0
  9
$INTERSECTIONDISPLAY
280
     0
  9
$INTERSECTIONCOLOR
 70
   257
  9
$DIMASSOC
280
     1
  9
$PROJECTNAME
  1

  9
$CAMERADISPLAY
290
     0
  9
$LENSLENGTH
 40
50.0
  9
$CAMERAHEIGHT
 40
0.0
  9
$STEPSPERSEC
 40
2.0
  9
$STEPSIZE
 40
6.0
  9
$3DDWFPREC
 40
2.0
  9
$PSOLWIDTH
 40
0.25
  9
$PSOLHEIGHT
 40
4.0
  9
$LOFTANG1
 40
1.570796326794896
  9
$LOFTANG2
 40
1.570796326794896
  9
$LOFTMAG1
 40
0.0
  9
$LOFTMAG2
 40
0.0
  9
$LOFTPARAM
 70
     7
  9
$LOFTNORMALS
280
     1
  9
$LATITUDE
 40
37.795
  9
$LONGITUDE
 40
-122.394
  9
$NORTHDIRECTION
 40
0.0
  9
$TIMEZONE
 70
 -8000
  9
$LIGHTGLYPHDISPLAY
280
     1
  9
$TILEMODELIGHTSYNCH
280
     1
  9
$CMATERIAL
347
26BD
  9
$SOLIDHIST
280
     0
  9
$SHOWHIST
280
     1
  9
$DWFFRAME
280
     2
  9
$DGNFRAME
280
     0
  9
$REALWORLDSCALE
290
     1
  9
$INTERFERECOLOR
 62
     1
  9
$INTERFEREOBJVS
345
26D7
  9
$INTERFEREVPVS
346
283B
  9
$CSHADOW
280
     0
  9
$SHADOWPLANELOCATION
 40
0.0
  0
ENDSEC
  0
SECTION
  2
CLASSES
  0
CLASS
  1
ACDBDICTIONARYWDFLT
  2
AcDbDictionaryWithDefault
  3
ObjectDBX Classes
 90
        0
 91
        1
280
     0
281
     0
  0
CLASS
  1
DICTIONARYVAR
  2
AcDbDictionaryVar
  3
ObjectDBX Classes
 90
        0
 91
       14
280
     0
281
     0
  0
CLASS
  1
MATERIAL
  2
AcDbMaterial
  3
ObjectDBX Classes
 90
     1153
 91
        3
280
     0
281
     0
  0
CLASS
  1
SORTENTSTABLE
  2
AcDbSortentsTable
  3
ObjectDBX Classes
 90
        0
 91
        1
280
     0
281
     0
  0
CLASS
  1
VISUALSTYLE
  2
AcDbVisualStyle
  3
ObjectDBX Classes
 90
     4095
 91
       26
280
     0
281
     0
  0
CLASS
  1
TABLESTYLE
  2
AcDbTableStyle
  3
ObjectDBX Classes
 90
     4095
 91
        1
280
     0
281
     0
  0
CLASS
  1
SCALE
  2
AcDbScale
  3
ObjectDBX Classes
 90
     1153
 91
       33
280
     0
281
     0
  0
CLASS
  1
MLEADERSTYLE
  2
AcDbMLeaderStyle
  3
ACDB_MLEADERSTYLE_CLASS
 90
     4095
 91
        1
280
     0
281
     0
  0
CLASS
  1
CELLSTYLEMAP
  2
AcDbCellStyleMap
  3
ObjectDBX Classes
 90
     1152
 91
        1
280
     0
281
     0
  0
CLASS
  1
ACDBSECTIONVIEWSTYLE
  2
AcDbSectionViewStyle
  3
ObjectDBX Classes
 90
     1025
 91
        1
280
     0
281
     0
  0
CLASS
  1
ACDBDETAILVIEWSTYLE
  2
AcDbDetailViewStyle
  3
ObjectDBX Classes
 90
     1025
 91
        1
280
     0
281
     0
  0
CLASS
  1
MULTILEADER
  2
AcDbMLeader
  3
ACDB_MLEADER_CLASS
 90
     1025
 91
        5
280
     0
281
     1
  0
ENDSEC
  0
SECTION
  2
TABLES
  0
TABLE
  2
VPORT
  5
8
102
{ACAD_XDICTIONARY
360
2732
102
}
330
0
100
AcDbSymbolTable
 70
     1
  0
VPORT
  5
2A6D
330
8
100
AcDbSymbolTableRecord
100
AcDbViewportTableRecord
  2
*Active
 70
     0
 10
0.0
 20
0.0
 11
1.0
 21
1.0
 12
420.0000000000001
 22
297.0
 13
0.0
 23
0.0
 14
5.0
 24
5.0
 15
10.0
 25
10.0
 16
0.0
 26
0.0
 36
1.0
 17
0.0
 27
0.0
 37
0.0
 40
598.1684210526316
 41
1.879391100702576
 42
50.0
 43
0.0
 44
0.0
 50
0.0
 51
0.0
 71
     0
 72
   100
 73
     1
 74
     0
 75
     0
 76
     0
 77
     0
 78
     0
281
     0
 65
     1
110
0.0
120
0.0
130
0.0
111
1.0
121
0.0
131
0.0
112
0.0
122
1.0
132
0.0
 79
     0
146
0.0
348
26D3
 60
     3
 61
     5
292
     1
282
     1
141
0.0
142
0.0
 63
   250
421
  3355443
1001
ACAD_NAV_VCDISPLAY
1070
     3
  0
ENDTAB
  0
TABLE
  2
LTYPE
  5
5
330
0
100
AcDbSymbolTable
 70
     4
  0
LTYPE
  5
14
330
5
100
AcDbSymbolTableRecord
100
AcDbLinetypeTableRecord
  2
BYBLOCK
 70
     0
  3

 72
    65
 73
     0
 40
0.0
  0
LTYPE
  5
15
330
5
100
AcDbSymbolTableRecord
100
AcDbLinetypeTableRecord
  2
BYLAYER
 70
     0
  3

 72
    65
 73
     0
 40
0.0
  0
LTYPE
  5
16
330
5
100
AcDbSymbolTableRecord
100
AcDbLinetypeTableRecord
  2
CONTINUOUS
 70
     0
  3
Solid line
 72
    65
 73
     0
 40
0.0
  0
LTYPE
  5
E7E
330
5
100
AcDbSymbolTableRecord
100
AcDbLinetypeTableRecord
  2
DASHED2
 70
     0
  3
Dashed (.5x) _ _ _ _ _ _ _ _ _ _ _ _ _ _ _ _ _
 72
    65
 73
     2
 40
9.524999999999996
 49
6.349999999999997
 74
     0
 49
-3.174999999999998
 74
     0
  0
LTYPE
  5
1500
330
5
100
AcDbSymbolTableRecord
100
AcDbLinetypeTableRecord
  2
CENTER2
 70
     0
  3
Center (.5x) ___ _ ___ _ ___ _ ___ _ ___ _ ___
 72
    65
 73
     4
 40
28.57499999999999
 49
19.05
 74
     0
 49
-3.174999999999998
 74
     0
 49
3.174999999999998
 74
     0
 49
-3.174999999999998
 74
     0
  0
ENDTAB
  0
TABLE
  2
LAYER
  5
2
102
{ACAD_XDICTIONARY
360
16FF
102
}
330
0
100
AcDbSymbolTable
 70
    11
  0
LAYER
  5
F
102
{ACAD_XDICTIONARY
360
2726
102
}
330
2
100
AcDbSymbolTableRecord
100
AcDbLayerTableRecord
  2
0
 70
     0
 62
     7
  6
CONTINUOUS
370
    -3
390
3AE
347
16FC
  0
LAYER
  5
87
102
{ACAD_XDICTIONARY
360
2728
102
}
330
2
100
AcDbSymbolTableRecord
100
AcDbLayerTableRecord
  2
WAKU
 70
     0
 62
     7
  6
CONTINUOUS
370
    -3
390
3AE
347
16FC
  0
LAYER
  5
9C
330
2
100
AcDbSymbolTableRecord
100
AcDbLayerTableRecord
  2
DEFPOINTS
 70
     0
 62
     7
  6
CONTINUOUS
290
     0
370
    -3
390
3AE
347
16FC
  0
LAYER
  5
1502
102
{ACAD_XDICTIONARY
360
272A
102
}
330
2
100
AcDbSymbolTableRecord
100
AcDbLayerTableRecord
  2
SUNPOU
 70
     0
 62
     7
  6
CONTINUOUS
370
     5
390
3AE
347
16FC
  0
LAYER
  5
22B7
102
{ACAD_XDICTIONARY
360
22B8
102
}
330
2
100
AcDbSymbolTableRecord
100
AcDbLayerTableRecord
  2
TEKUSU
 70
     0
 62
     7
  6
CONTINUOUS
370
    -3
390
3AE
347
16FC
  0
LAYER
  5
2340
102
{ACAD_XDICTIONARY
360
2341
102
}
330
2
100
AcDbSymbolTableRecord
100
AcDbLayerTableRecord
  2
SITAJI
 70
     0
 62
     7
  6
CONTINUOUS
370
    -3
390
3AE
347
16FC
  0
LAYER
  5
2344
102
{ACAD_XDICTIONARY
360
2345
102
}
330
2
100
AcDbSymbolTableRecord
100
AcDbLayerTableRecord
  2
SEIHIN
 70
     0
 62
     4
  6
CONTINUOUS
370
    -3
390
3AE
347
16FC
  0
LAYER
  5
2348
102
{ACAD_XDICTIONARY
360
2349
102
}
330
2
100
AcDbSymbolTableRecord
100
AcDbLayerTableRecord
  2
HIKIDASI
 70
     0
 62
     7
  6
CONTINUOUS
370
     5
390
3AE
347
16FC
  0
LAYER
  5
234C
102
{ACAD_XDICTIONARY
360
272C
102
}
330
2
100
AcDbSymbolTableRecord
100
AcDbLayerTableRecord
  2
YAKUMONO
 70
     0
 62
     1
  6
CONTINUOUS
370
    -3
390
3AE
347
16FC
  0
LAYER
  5
4358
102
{ACAD_XDICTIONARY
360
4359
102
}
330
2
100
AcDbSymbolTableRecord
100
AcDbLayerTableRecord
  2
SEALING
 70
     0
 62
     7
  6
CONTINUOUS
370
     9
390
3AE
347
16FC
  0
LAYER
  5
435A
102
{ACAD_XDICTIONARY
360
435B
102
}
330
2
100
AcDbSymbolTableRecord
100
AcDbLayerTableRecord
  2
PACKING
 70
     0
 62
     7
  6
CONTINUOUS
370
     9
390
3AE
347
16FC
1001
AcAecLayerStandard
1000

1000

1001
AcCmTransparency
1071
        0
  0
ENDTAB
  0
TABLE
  2
STYLE
  5
3
330
0
100
AcDbSymbolTable
 70
     2
  0
STYLE
  5
10
330
3
100
AcDbSymbolTableRecord
100
AcDbTextStyleTableRecord
  2
STANDARD
 70
     0
 40
5.0
 41
1.0
 50
0.0
 71
     0
 42
5.0
  3
txt.shx
  4
extfont.shx
  0
STYLE
  5
EA1
330
3
100
AcDbSymbolTableRecord
100
AcDbTextStyleTableRecord
  2
WAKU
 70
     0
 40
5.0
 41
1.0
 50
0.0
 71
     0
 42
5.0
  3

  4

1001
ACAD
1000
MS Gothic
1071
    32817
  0
ENDTAB
  0
TABLE
  2
VIEW
  5
6
330
0
100
AcDbSymbolTable
 70
     2
  0
ENDTAB
  0
TABLE
  2
UCS
  5
7
330
0
100
AcDbSymbolTable
 70
     0
  0
ENDTAB
  0
TABLE
  2
APPID
  5
9
330
0
100
AcDbSymbolTable
 70
    14
  0
APPID
  5
11
330
9
100
AcDbSymbolTableRecord
100
AcDbRegAppTableRecord
  2
ACAD
 70
     0
  0
APPID
  5
16FB
330
9
100
AcDbSymbolTableRecord
100
AcDbRegAppTableRecord
  2
ACAD_PSEXT
 70
     0
  0
APPID
  5
2062
330
9
100
AcDbSymbolTableRecord
100
AcDbRegAppTableRecord
  2
GENIUS_GENODEF_13
 70
     0
  0
APPID
  5
2063
330
9
100
AcDbSymbolTableRecord
100
AcDbRegAppTableRecord
  2
GENIUS_GENOBJ-N-FIL_13
 70
     0
  0
APPID
  5
2704
330
9
100
AcDbSymbolTableRecord
100
AcDbRegAppTableRecord
  2
ACAD_MLEADERVER
 70
     0
  0
APPID
  5
286F
330
9
100
AcDbSymbolTableRecord
100
AcDbRegAppTableRecord
  2
ACAD_EXEMPT_FROM_CAD_STANDARDS
 70
     0
  0
APPID
  5
28F1
330
9
100
AcDbSymbolTableRecord
100
AcDbRegAppTableRecord
  2
ACAD_NAV_VCDISPLAY
 70
     0
  0
APPID
  5
2C52
330
9
100
AcDbSymbolTableRecord
100
AcDbRegAppTableRecord
  2
GradientColor1ACI
 70
     0
  0
APPID
  5
2C53
330
9
100
AcDbSymbolTableRecord
100
AcDbRegAppTableRecord
  2
GradientColor2ACI
 70
     0
  0
APPID
  5
414D
330
9
100
AcDbSymbolTableRecord
100
AcDbRegAppTableRecord
  2
ACAD_DSTYLE_DIMJAG
 70
     0
  0
APPID
  5
414E
330
9
100
AcDbSymbolTableRecord
100
AcDbRegAppTableRecord
  2
ACAD_DSTYLE_DIMTALN
 70
     0
  0
APPID
  5
4236
330
9
100
AcDbSymbolTableRecord
100
AcDbRegAppTableRecord
  2
AcadAnnoMonitorAlertIconDisabled
 70
     0
  0
APPID
  5
435C
330
9
100
AcDbSymbolTableRecord
100
AcDbRegAppTableRecord
  2
AcAecLayerStandard
 70
     0
  0
APPID
  5
435D
330
9
100
AcDbSymbolTableRecord
100
AcDbRegAppTableRecord
  2
AcCmTransparency
 70
     0
  0
ENDTAB
  0
TABLE
  2
DIMSTYLE
  5
A
330
0
100
AcDbSymbolTable
 70
     2
100
AcDbDimStyleTable
 71
     1
340
1D
  0
DIMSTYLE
105
1D
102
{ACAD_REACTORS
330
3778
330
3779
330
377A
330
3827
330
3828
330
39AA
330
39AB
330
413F
330
37C1
330
41F2
102
}
330
A
100
AcDbSymbolTableRecord
100
AcDbDimStyleTableRecord
  2
STANDARD
 70
     0
 41
1.5
 42
5.0
 43
3.75
 44
0.0
 73
     0
 74
     0
 77
     1
 78
     8
140
5.0
141
2.5
147
0.625
172
     1
271
     0
272
     0
340
10
341
B0
342
14C3
1001
ACAD_DSTYLE_DIMJAG
1070
   388
1040
1.5
1001
ACAD_DSTYLE_DIMTALN
1070
   392
1070
     0
  0
ENDTAB
  0
TABLE
  2
BLOCK_RECORD
  5
1
330
0
100
AcDbSymbolTable
 70
    13
  0
BLOCK_RECORD
  5
1A
102
{ACAD_XDICTIONARY
360
2C3B
102
}
330
1
100
AcDbSymbolTableRecord
100
AcDbBlockTableRecord
  2
*MODEL_SPACE
340
3B3
 70
     0
280
     1
281
     0
  0
BLOCK_RECORD
  5
17
330
1
100
AcDbSymbolTableRecord
100
AcDbBlockTableRecord
  2
*PAPER_SPACE
340
3B4
 70
     0
280
     1
281
     0
  0
BLOCK_RECORD
  5
B0
330
1
100
AcDbSymbolTableRecord
100
AcDbBlockTableRecord
  2
_NONE
340
0
 70
     0
280
     1
281
     0
  0
BLOCK_RECORD
  5
E1F
330
1
100
AcDbSymbolTableRecord
100
AcDbBlockTableRecord
  2
IGロゴ
340
0
 70
     0
280
     1
281
     0
  0
BLOCK_RECORD
  5
14C3
330
1
100
AcDbSymbolTableRecord
100
AcDbBlockTableRecord
  2
_DotBlank
340
0
102
{BLKREFS
331
4244
331
4245
331
42F6
331
42F7
331
42FF
331
4300
331
490E
331
490F
331
4918
331
4919
331
415A
331
415B
331
417E
331
417F
331
41AC
331
41AD
331
41EB
331
41EC
102
}
 70
     0
280
     1
281
     0
  0
BLOCK_RECORD
  5
382D
330
1
100
AcDbSymbolTableRecord
100
AcDbBlockTableRecord
  2
*D3
340
0
 70
     0
280
     1
281
     0
  0
BLOCK_RECORD
  5
3838
330
1
100
AcDbSymbolTableRecord
100
AcDbBlockTableRecord
  2
*D4
340
0
 70
     0
280
     1
281
     0
  0
BLOCK_RECORD
  5
3844
330
1
100
AcDbSymbolTableRecord
100
AcDbBlockTableRecord
  2
*D5
340
0
 70
     0
280
     1
281
     0
  0
BLOCK_RECORD
  5
3882
330
1
100
AcDbSymbolTableRecord
100
AcDbBlockTableRecord
  2
*D6
340
0
 70
     0
280
     1
281
     0
  0
BLOCK_RECORD
  5
388E
330
1
100
AcDbSymbolTableRecord
100
AcDbBlockTableRecord
  2
*D7
340
0
 70
     0
280
     1
281
     0
  0
BLOCK_RECORD
  5
39AC
330
1
100
AcDbSymbolTableRecord
100
AcDbBlockTableRecord
  2
*D8
340
0
 70
     0
280
     1
281
     0
  0
BLOCK_RECORD
  5
39B8
330
1
100
AcDbSymbolTableRecord
100
AcDbBlockTableRecord
  2
*D9
340
0
 70
     0
280
     1
281
     0
  0
BLOCK_RECORD
  5
4140
330
1
100
AcDbSymbolTableRecord
100
AcDbBlockTableRecord
  2
*D10
340
0
 70
     0
280
     1
281
     0
  0
BLOCK_RECORD
  5
41F3
330
1
100
AcDbSymbolTableRecord
100
AcDbBlockTableRecord
  2
*D11
340
0
 70
     0
280
     1
281
     0
  0
ENDTAB
  0
ENDSEC
  0
SECTION
  2
BLOCKS
  0
BLOCK
  5
1B
330
1A
100
AcDbEntity
  8
0
100
AcDbBlockBegin
  2
*MODEL_SPACE
 70
     0
 10
0.0
 20
0.0
 30
0.0
  3
*MODEL_SPACE
  1

  0
ENDBLK
  5
1C
330
1A
100
AcDbEntity
  8
0
100
AcDbBlockEnd
  0
BLOCK
  5
18
330
17
100
AcDbEntity
 67
     1
  8
0
100
AcDbBlockBegin
  2
*PAPER_SPACE
 70
     0
 10
0.0
 20
0.0
 30
0.0
  3
*PAPER_SPACE
  1

  0
ENDBLK
  5
19
330
17
100
AcDbEntity
 67
     1
  8
0
100
AcDbBlockEnd
  0
BLOCK
  5
B1
330
B0
100
AcDbEntity
  8
0
100
AcDbBlockBegin
  2
_NONE
 70
     0
 10
0.0
 20
0.0
 30
0.0
  3
_NONE
  1

  0
CIRCLE
  5
B2
330
B0
100
AcDbEntity
  8
0
  6
ByBlock
 62
     0
100
AcDbCircle
 10
0.0
 20
0.0
 30
0.0
 40
0.25
  0
ENDBLK
  5
B3
330
B0
100
AcDbEntity
  8
0
100
AcDbBlockEnd
  0
BLOCK
  5
E20
330
E1F
100
AcDbEntity
  8
0
100
AcDbBlockBegin
  2
IGロゴ
 70
     0
 10
0.0
 20
0.0
 30
0.0
  3
IGロゴ
  1

  0
CIRCLE
  5
E21
330
E1F
100
AcDbEntity
  8
WAKU
100
AcDbCircle
 10
-7.133294257549736
 20
40.74217652150603
 30
0.0
 40
0.8702311197916666
  0
POLYLINE
  5
E22
330
E1F
100
AcDbEntity
  8
WAKU
100
AcDb2dPolyline
 66
     1
 10
0.0
 20
0.0
 30
0.0
 70
     1
  0
VERTEX
  5
E23
330
E22
100
AcDbEntity
  8
WAKU
100
AcDbVertex
100
AcDb2dVertex
 10
-6.558996840015013
 20
36.03789863522132
 30
0.0
  0
VERTEX
  5
E24
330
E22
100
AcDbEntity
  8
WAKU
100
AcDbVertex
100
AcDb2dVertex
 10
-7.774082017966402
 20
36.03789863522132
 30
0.0
  0
VERTEX
  5
E25
330
E22
100
AcDbEntity
  8
WAKU
100
AcDbVertex
100
AcDb2dVertex
 10
-7.774082017966402
 20
38.72059449025604
 30
0.0
  0
VERTEX
  5
E26
330
E22
100
AcDbEntity
  8
WAKU
100
AcDbVertex
100
AcDb2dVertex
 10
-6.558996840015013
 20
38.72059449025604
 30
0.0
  0
SEQEND
  5
E27
330
E22
100
AcDbEntity
  8
WAKU
  0
SPLINE
  5
E28
330
E1F
100
AcDbEntity
  8
WAKU
100
AcDbSpline
210
0.0
220
0.0
230
1.0
 70
     9
 71
     3
 72
    56
 73
    52
 74
     0
 42
0.000000001
 43
0.0000000001
 40
0.0
 40
0.0
 40
0.0
 40
0.0
 40
1.0
 40
1.0
 40
1.0
 40
2.0
 40
2.0
 40
2.0
 40
3.0
 40
3.0
 40
3.0
 40
4.0
 40
4.0
 40
4.0
 40
5.0
 40
5.0
 40
5.0
 40
6.0
 40
6.0
 40
6.0
 40
7.0
 40
7.0
 40
7.0
 40
8.0
 40
8.0
 40
8.0
 40
9.0
 40
9.0
 40
9.0
 40
10.0
 40
10.0
 40
10.0
 40
11.0
 40
11.0
 40
11.0
 40
12.0
 40
12.0
 40
12.0
 40
13.0
 40
13.0
 40
13.0
 40
14.0
 40
14.0
 40
14.0
 40
15.0
 40
15.0
 40
15.0
 40
16.0
 40
16.0
 40
16.0
 40
17.0
 40
17.0
 40
17.0
 40
17.0
 10
-3.33025335043168
 20
41.50009752845046
 30
0.0
 10
-3.33025335043168
 20
41.50009752845046
 30
0.0
 10
-3.254805759285846
 20
41.50698771942269
 30
0.0
 10
-3.254805759285846
 20
41.50698771942269
 30
0.0
 10
-3.014682603903903
 20
41.57795668643657
 30
0.0
 10
-2.824513333070568
 20
41.68785523244353
 30
0.0
 10
-2.840016262758068
 20
42.06302613088103
 30
0.0
 10
-2.853107625605291
 20
42.38342001108935
 30
0.0
 10
-3.100120971959456
 20
42.65248196855464
 30
0.0
 10
-3.420170342619181
 20
42.65248196855464
 30
0.0
 10
-3.420170342619181
 20
42.65248196855464
 30
0.0
 10
-7.55359590685529
 20
42.652137459006
 30
0.0
 10
-7.55359590685529
 20
42.652137459006
 30
0.0
 10
-8.404534491924735
 20
42.68383233747825
 30
0.0
 10
-8.989167195917787
 20
42.06509318817269
 30
0.0
 10
-8.989167195917787
 20
41.3305988305338
 30
0.0
 10
-8.989167195917787
 20
40.88411445553381
 30
0.0
 10
-8.740431301820567
 20
40.46932495900603
 30
0.0
 10
-8.381796861716402
 20
40.22816827497825
 30
0.0
 10
-8.381796861716402
 20
40.22816827497825
 30
0.0
 10
-8.354925116924736
 20
40.20715319251297
 30
0.0
 10
-8.354925116924736
 20
40.20715319251297
 30
0.0
 10
-8.607450616056681
 20
40.05798055796435
 30
0.0
 10
-8.748355021438625
 20
39.8075221161241
 30
0.0
 10
-8.771781670744179
 20
39.50090861786021
 30
0.0
 10
-8.794863810501125
 20
39.19601766733936
 30
0.0
 10
-8.621230998001124
 20
38.83669420813798
 30
0.0
 10
-8.330464938973346
 20
38.69854587914492
 30
0.0
 10
-8.330464938973346
 20
38.69854587914492
 30
0.0
 10
-8.350446492792791
 20
38.68407647810325
 30
0.0
 10
-8.350446492792791
 20
38.68407647810325
 30
0.0
 10
-9.024996188973343
 20
38.26515286699215
 30
0.0
 10
-9.494562703730293
 20
37.59198120900604
 30
0.0
 10
-9.243070733244179
 20
36.46681302324215
 30
0.0
 10
-9.13076062039696
 20
35.96176202497826
 30
0.0
 10
-8.617441392966401
 20
35.58314603105465
 30
0.0
 10
-8.290501831334458
 20
35.41468086178382
 30
0.0
 10
-7.829203545744178
 20
35.17765829233937
 30
0.0
 10
-6.996523966751125
 20
35.05983602671437
 30
0.0
 10
-6.482860229771957
 20
35.04467760657548
 30
0.0
 10
-6.482860229771957
 20
35.04467760657548
 30
0.0
 10
-3.647891154251123
 20
34.73668607011715
 30
0.0
 10
-3.247571058765013
 20
36.70865872636714
 30
0.0
 10
-2.847250963278903
 20
38.68028687306853
 30
0.0
 10
-4.534658732376124
 20
39.39479967688798
 30
0.0
 10
-4.775126397306681
 20
39.40513496334631
 30
0.0
 10
-5.015594062237235
 20
39.41478123070742
 30
0.0
 10
-3.57830022543168
 20
39.8912379364366
 30
0.0
 10
-3.738497165535846
 20
41.33438843556853
 30
0.0
 10
-3.738497165535846
 20
41.33438843556853
 30
0.0
 10
-3.640656453730291
 20
41.4573783444227
 30
0.0
 10
-3.33025335043168
 20
41.50009752845046
 30
0.0
  0
ELLIPSE
  5
E29
330
E1F
100
AcDbEntity
  8
WAKU
100
AcDbEllipse
 10
-6.072204847827513
 20
38.96691881751298
 30
0.0
 11
-5.716791449652776
 21
-5.716791449652776
 31
0.0
210
0.0
220
0.0
230
0.9999999999999998
 40
0.7036880800289264
 41
0.0
 42
6.283185307179584
  0
POLYLINE
  5
E2A
330
E1F
100
AcDbEntity
  8
WAKU
100
AcDb2dPolyline
 66
     1
 10
0.0
 20
0.0
 30
0.0
 70
     1
  0
VERTEX
  5
E2B
330
E2A
100
AcDbEntity
  8
WAKU
100
AcDbVertex
100
AcDb2dVertex
 10
38.86320910616554
 20
39.71657159529075
 30
0.0
  0
VERTEX
  5
E2C
330
E2A
100
AcDbEntity
  8
WAKU
100
AcDbVertex
100
AcDb2dVertex
 10
38.86320910616554
 20
38.31097263695742
 30
0.0
  0
VERTEX
  5
E2D
330
E2A
100
AcDbEntity
  8
WAKU
100
AcDbVertex
100
AcDb2dVertex
 10
31.17513401935998
 20
38.31097263695742
 30
0.0
  0
VERTEX
  5
E2E
330
E2A
100
AcDbEntity
  8
WAKU
100
AcDbVertex
100
AcDb2dVertex
 10
31.17513401935998
 20
39.71657159529075
 30
0.0
  0
SEQEND
  5
E2F
330
E2A
100
AcDbEntity
  8
WAKU
  0
SPLINE
  5
E30
330
E1F
100
AcDbEntity
  8
WAKU
100
AcDbSpline
210
0.0
220
0.0
230
1.0
 70
     9
 71
     3
 72
    53
 73
    49
 74
     0
 42
0.000000001
 43
0.0000000001
 40
0.0
 40
0.0
 40
0.0
 40
0.0
 40
1.0
 40
1.0
 40
1.0
 40
2.0
 40
2.0
 40
2.0
 40
3.0
 40
3.0
 40
3.0
 40
4.0
 40
4.0
 40
4.0
 40
5.0
 40
5.0
 40
5.0
 40
6.0
 40
6.0
 40
6.0
 40
7.0
 40
7.0
 40
7.0
 40
8.0
 40
8.0
 40
8.0
 40
9.0
 40
9.0
 40
9.0
 40
10.0
 40
10.0
 40
10.0
 40
11.0
 40
11.0
 40
11.0
 40
12.0
 40
12.0
 40
12.0
 40
13.0
 40
13.0
 40
13.0
 40
14.0
 40
14.0
 40
14.0
 40
15.0
 40
15.0
 40
15.0
 40
16.0
 40
16.0
 40
16.0
 40
16.0
 10
92.00725207491553
 20
42.91637628279075
 30
0.0
 10
92.00725207491553
 20
42.87055651282547
 30
0.0
 10
92.00725207491553
 20
40.82899292775603
 30
0.0
 10
92.00725207491553
 20
40.82899292775603
 30
0.0
 10
92.00725207491553
 20
40.82899292775603
 30
0.0
 10
90.36945368081831
 20
40.82899292775603
 30
0.0
 10
90.32397842040165
 20
40.82899292775603
 30
0.0
 10
90.32397842040165
 20
40.78489570553379
 30
0.0
 10
90.32397842040165
 20
39.62424303626298
 30
0.0
 10
90.32397842040165
 20
39.57980130449215
 30
0.0
 10
90.36945368081831
 20
39.57980130449215
 30
0.0
 10
92.00725207491553
 20
39.57980130449215
 30
0.0
 10
92.00725207491553
 20
39.57980130449215
 30
0.0
 10
92.00725207491553
 20
39.57980130449215
 30
0.0
 10
92.00725207491553
 20
36.45303264129771
 30
0.0
 10
92.00725207491553
 20
36.45303264129771
 30
0.0
 10
92.00725207491553
 20
36.45303264129771
 30
0.0
 10
89.91194500026276
 20
36.45303264129771
 30
0.0
 10
89.86646973984608
 20
36.45303264129771
 30
0.0
 10
89.86646973984608
 20
36.40893541907548
 30
0.0
 10
89.86646973984608
 20
35.26481920813797
 30
0.0
 10
89.86646973984608
 20
35.22037747636714
 30
0.0
 10
89.91228950981136
 20
35.22037747636714
 30
0.0
 10
95.3272905948808
 20
35.22037747636714
 30
0.0
 10
95.3734548743947
 20
35.22037747636714
 30
0.0
 10
95.3734548743947
 20
35.26481920813797
 30
0.0
 10
95.3734548743947
 20
36.40893541907548
 30
0.0
 10
95.3734548743947
 20
36.45303264129771
 30
0.0
 10
95.32763510442942
 20
36.45303264129771
 30
0.0
 10
93.41905220512387
 20
36.45303264129771
 30
0.0
 10
93.41905220512387
 20
36.45303264129771
 30
0.0
 10
93.41905220512387
 20
36.45303264129771
 30
0.0
 10
93.41905220512387
 20
39.57980130449215
 30
0.0
 10
93.41905220512387
 20
39.57980130449215
 30
0.0
 10
93.41905220512387
 20
39.57980130449215
 30
0.0
 10
95.18776422769331
 20
39.57980130449215
 30
0.0
 10
95.23323948810995
 20
39.57980130449215
 30
0.0
 10
95.23323948810995
 20
39.62424303626298
 30
0.0
 10
95.23323948810995
 20
40.78489570553379
 30
0.0
 10
95.23323948810995
 20
40.82899292775603
 30
0.0
 10
95.18776422769331
 20
40.82899292775603
 30
0.0
 10
93.41905220512387
 20
40.82899292775603
 30
0.0
 10
93.41905220512387
 20
40.82899292775603
 30
0.0
 10
93.41905220512387
 20
40.82899292775603
 30
0.0
 10
93.41905220512387
 20
42.87055651282547
 30
0.0
 10
93.41905220512387
 20
42.91637628279075
 30
0.0
 10
93.37461047335304
 20
42.91637628279075
 30
0.0
 10
92.05134929713777
 20
42.91637628279075
 30
0.0
 10
92.00725207491553
 20
42.91637628279075
 30
0.0
  0
SPLINE
  5
E31
330
E1F
100
AcDbEntity
  8
WAKU
100
AcDbSpline
210
0.0
220
0.0
230
1.0
 70
     9
 71
     3
 72
    74
 73
    70
 74
     0
 42
0.000000001
 43
0.0000000001
 40
0.0
 40
0.0
 40
0.0
 40
0.0
 40
1.0
 40
1.0
 40
1.0
 40
2.0
 40
2.0
 40
2.0
 40
3.0
 40
3.0
 40
3.0
 40
4.0
 40
4.0
 40
4.0
 40
5.0
 40
5.0
 40
5.0
 40
6.0
 40
6.0
 40
6.0
 40
7.0
 40
7.0
 40
7.0
 40
8.0
 40
8.0
 40
8.0
 40
9.0
 40
9.0
 40
9.0
 40
10.0
 40
10.0
 40
10.0
 40
11.0
 40
11.0
 40
11.0
 40
12.0
 40
12.0
 40
12.0
 40
13.0
 40
13.0
 40
13.0
 40
14.0
 40
14.0
 40
14.0
 40
15.0
 40
15.0
 40
15.0
 40
16.0
 40
16.0
 40
16.0
 40
17.0
 40
17.0
 40
17.0
 40
18.0
 40
18.0
 40
18.0
 40
19.0
 40
19.0
 40
19.0
 40
20.0
 40
20.0
 40
20.0
 40
21.0
 40
21.0
 40
21.0
 40
22.0
 40
22.0
 40
22.0
 40
23.0
 40
23.0
 40
23.0
 40
23.0
 10
87.80871420599192
 20
42.92464451195741
 30
0.0
 10
87.80871420599192
 20
42.87951376108935
 30
0.0
 10
87.80871420599192
 20
41.76330282358935
 30
0.0
 10
87.80871420599192
 20
41.76330282358935
 30
0.0
 10
87.80871420599192
 20
41.76330282358935
 30
0.0
 10
86.67562230060999
 20
41.76330282358935
 30
0.0
 10
86.63083605929054
 20
41.76330282358935
 30
0.0
 10
86.63083605929054
 20
41.71920560136714
 30
0.0
 10
86.63083605929054
 20
40.67603068817269
 30
0.0
 10
86.63083605929054
 20
40.63193346595046
 30
0.0
 10
86.6763113197072
 20
40.63193346595046
 30
0.0
 10
88.69479276501968
 20
40.63193346595046
 30
0.0
 10
88.69479276501968
 20
40.63193346595046
 30
0.0
 10
88.69479276501968
 20
40.63193346595046
 30
0.0
 10
88.67550023029748
 20
40.59713800154074
 30
0.0
 10
88.67550023029748
 20
40.59713800154074
 30
0.0
 10
88.34959419731138
 20
40.01112725935325
 30
0.0
 10
87.48694228758914
 20
39.1315943817491
 30
0.0
 10
86.4654714759572
 20
38.57727851803382
 30
0.0
 10
86.47305068602666
 20
38.54558363956158
 30
0.0
 10
86.79516711397804
 20
37.19545071855464
 30
0.0
 10
86.8092920054711
 20
37.13585056664492
 30
0.0
 10
87.15896919731136
 20
37.34944648678381
 30
0.0
 10
87.41011665824888
 20
37.51377754147132
 30
0.0
 10
87.77116266519332
 20
37.79076321855465
 30
0.0
 10
87.77116266519332
 20
37.79076321855465
 30
0.0
 10
87.80871420599192
 20
37.81970202063798
 30
0.0
 10
87.80871420599192
 20
37.81970202063798
 30
0.0
 10
87.80871420599192
 20
37.81970202063798
 30
0.0
 10
87.80871420599192
 20
35.03089722463104
 30
0.0
 10
87.80871420599192
 20
34.98507745466576
 30
0.0
 10
87.85315593776275
 20
34.98507745466576
 30
0.0
 10
89.13886557317942
 20
34.98507745466576
 30
0.0
 10
89.18330730495027
 20
34.98507745466576
 30
0.0
 10
89.18330730495027
 20
35.03089722463104
 30
0.0
 10
89.18330730495027
 20
38.15973294511714
 30
0.0
 10
89.18330730495027
 20
38.15973294511714
 30
0.0
 10
89.18330730495027
 20
38.15973294511714
 30
0.0
 10
89.22499296033221
 20
38.10667847463103
 30
0.0
 10
89.22499296033221
 20
38.10667847463103
 30
0.0
 10
89.51128039522803
 20
37.74494344858937
 30
0.0
 10
89.71695259574886
 20
37.5471949676866
 30
0.0
 10
89.98635906276275
 20
37.32050768470048
 30
0.0
 10
90.01323080755442
 20
37.36598294511714
 30
0.0
 10
90.63782661918637
 20
38.43051745032548
 30
0.0
 10
90.6609087589433
 20
38.47013604841576
 30
0.0
 10
90.28470433186001
 20
38.66168335744354
 30
0.0
 10
89.8726709117211
 20
38.9052516083116
 30
0.0
 10
89.40551596380442
 20
39.37171753713104
 30
0.0
 10
89.40551596380442
 20
39.37171753713104
 30
0.0
 10
89.39070205321415
 20
39.38618693817272
 30
0.0
 10
89.39070205321415
 20
39.38618693817272
 30
0.0
 10
89.39070205321415
 20
39.38618693817272
 30
0.0
 10
89.40344890651275
 20
39.40237888695742
 30
0.0
 10
89.40344890651275
 20
39.40237888695742
 30
0.0
 10
89.81479330755439
 20
39.93740221595048
 30
0.0
 10
89.99256023463775
 20
40.29224705101992
 30
0.0
 10
90.13932130234607
 20
40.60988485483934
 30
0.0
 10
90.13932130234607
 20
40.60988485483934
 30
0.0
 10
90.13725424505443
 20
41.71851658226992
 30
0.0
 10
90.13725424505443
 20
41.76330282358935
 30
0.0
 10
90.09281251328358
 20
41.76330282358935
 30
0.0
 10
89.18330730495027
 20
41.76330282358935
 30
0.0
 10
89.18330730495027
 20
41.76330282358935
 30
0.0
 10
89.18330730495027
 20
41.76330282358935
 30
0.0
 10
89.18330730495027
 20
42.87951376108935
 30
0.0
 10
89.18330730495027
 20
42.92464451195741
 30
0.0
 10
89.13886557317942
 20
42.92464451195741
 30
0.0
 10
87.85315593776275
 20
42.92464451195741
 30
0.0
 10
87.80871420599192
 20
42.92464451195741
 30
0.0
  0
SPLINE
  5
E32
330
E1F
100
AcDbEntity
  8
WAKU
100
AcDbSpline
210
0.0
220
0.0
230
1.0
 70
     9
 71
     3
 72
    35
 73
    31
 74
     0
 42
0.000000001
 43
0.0000000001
 40
0.0
 40
0.0
 40
0.0
 40
0.0
 40
1.0
 40
1.0
 40
1.0
 40
2.0
 40
2.0
 40
2.0
 40
3.0
 40
3.0
 40
3.0
 40
4.0
 40
4.0
 40
4.0
 40
5.0
 40
5.0
 40
5.0
 40
6.0
 40
6.0
 40
6.0
 40
7.0
 40
7.0
 40
7.0
 40
8.0
 40
8.0
 40
8.0
 40
9.0
 40
9.0
 40
9.0
 40
10.0
 40
10.0
 40
10.0
 40
10.0
 10
80.33940268255442
 20
36.44579794077686
 30
0.0
 10
80.62155600286692
 20
36.95360501542964
 30
0.0
 10
80.80621312092246
 20
37.32808689476993
 30
0.0
 10
81.06804037786693
 20
37.88343628713104
 30
0.0
 10
81.06804037786693
 20
37.88343628713104
 30
0.0
 10
81.07424154974195
 20
37.89652764997825
 30
0.0
 10
81.07424154974195
 20
37.89652764997825
 30
0.0
 10
81.07424154974195
 20
37.89652764997825
 30
0.0
 10
83.71697429713776
 20
37.89652764997825
 30
0.0
 10
83.71697429713776
 20
37.89652764997825
 30
0.0
 10
83.71697429713776
 20
37.89652764997825
 30
0.0
 10
83.72593154540162
 20
37.85174140865882
 30
0.0
 10
83.72593154540162
 20
37.85174140865882
 30
0.0
 10
83.72593154540162
 20
37.85174140865882
 30
0.0
 10
82.7082503388044
 20
37.41731486786021
 30
0.0
 10
82.65209528238081
 20
37.39354370900603
 30
0.0
 10
82.69309191866554
 20
37.34669041039492
 30
0.0
 10
83.43034235269332
 20
36.50505358313797
 30
0.0
 10
83.43034235269332
 20
36.50505358313797
 30
0.0
 10
83.43034235269332
 20
36.50505358313797
 30
0.0
 10
83.38073297769332
 20
36.50367554494354
 30
0.0
 10
83.38073297769332
 20
36.50367554494354
 30
0.0
 10
83.38073297769332
 20
36.50367554494354
 30
0.0
 10
81.27750218342248
 20
36.41927070553381
 30
0.0
 10
81.27750218342248
 20
36.41927070553381
 30
0.0
 10
81.27750218342248
 20
36.41927070553381
 30
0.0
 10
80.3197656382836
 20
36.41065796681854
 30
0.0
 10
80.3197656382836
 20
36.41065796681854
 30
0.0
 10
80.3197656382836
 20
36.41065796681854
 30
0.0
 10
80.33940268255442
 20
36.44579794077686
 30
0.0
 10
80.33940268255442
 20
36.44579794077686
 30
0.0
  0
SPLINE
  5
E33
330
E1F
100
AcDbEntity
  8
WAKU
100
AcDbSpline
210
0.0
220
0.0
230
1.0
 70
     9
 71
     3
 72
    56
 73
    52
 74
     0
 42
0.000000001
 43
0.0000000001
 40
0.0
 40
0.0
 40
0.0
 40
0.0
 40
1.0
 40
1.0
 40
1.0
 40
2.0
 40
2.0
 40
2.0
 40
3.0
 40
3.0
 40
3.0
 40
4.0
 40
4.0
 40
4.0
 40
5.0
 40
5.0
 40
5.0
 40
6.0
 40
6.0
 40
6.0
 40
7.0
 40
7.0
 40
7.0
 40
8.0
 40
8.0
 40
8.0
 40
9.0
 40
9.0
 40
9.0
 40
10.0
 40
10.0
 40
10.0
 40
11.0
 40
11.0
 40
11.0
 40
12.0
 40
12.0
 40
12.0
 40
13.0
 40
13.0
 40
13.0
 40
14.0
 40
14.0
 40
14.0
 40
15.0
 40
15.0
 40
15.0
 40
16.0
 40
16.0
 40
16.0
 40
17.0
 40
17.0
 40
17.0
 40
17.0
 10
77.46619304713775
 20
39.06165894338104
 30
0.0
 10
77.46619304713775
 20
39.01756172115881
 30
0.0
 10
77.46619304713775
 20
37.94062487220048
 30
0.0
 10
77.46619304713775
 20
37.89652764997825
 30
0.0
 10
77.51166830755443
 20
37.89652764997825
 30
0.0
 10
79.56081110269329
 20
37.89652764997825
 30
0.0
 10
79.56081110269329
 20
37.89652764997825
 30
0.0
 10
79.56081110269329
 20
37.89652764997825
 30
0.0
 10
79.54978679713774
 20
37.86552179060326
 30
0.0
 10
79.54978679713774
 20
37.86552179060326
 30
0.0
 10
79.3306787242211
 20
37.2557398895616
 30
0.0
 10
79.0891775306447
 20
36.76998142601993
 30
0.0
 10
78.9031423743947
 20
36.41513659095048
 30
0.0
 10
78.9031423743947
 20
36.41513659095048
 30
0.0
 10
78.8965966929711
 20
36.40273424720048
 30
0.0
 10
78.8965966929711
 20
36.40273424720048
 30
0.0
 10
78.8965966929711
 20
36.40273424720048
 30
0.0
 10
77.83481826415166
 20
36.39446601803382
 30
0.0
 10
77.83481826415166
 20
36.39446601803382
 30
0.0
 10
77.83481826415166
 20
36.39446601803382
 30
0.0
 10
77.58367080321416
 20
36.40066718990882
 30
0.0
 10
77.53543946640859
 20
36.40170071855465
 30
0.0
 10
77.54474122422109
 20
36.34899075761715
 30
0.0
 10
77.74524578151275
 20
35.18317044511714
 30
0.0
 10
77.75179146293637
 20
35.14527439476992
 30
0.0
 10
79.81230307317942
 20
35.20280748938797
 30
0.0
 10
80.21331218776275
 20
35.23140178192271
 30
0.0
 10
83.93367080321414
 20
35.4980521725477
 30
0.0
 10
83.93367080321414
 20
35.4980521725477
 30
0.0
 10
84.18688532144331
 20
35.51596666907548
 30
0.0
 10
84.18688532144331
 20
35.51596666907548
 30
0.0
 10
84.18688532144331
 20
35.51596666907548
 30
0.0
 10
84.54483074245024
 20
34.9585502194227
 30
0.0
 10
84.56653484401275
 20
34.92409926456159
 30
0.0
 10
84.60236383706831
 20
34.94098023244354
 30
0.0
 10
85.82123862005444
 20
35.52010078365881
 30
0.0
 10
85.86946995685995
 20
35.54283841386715
 30
0.0
 10
85.40300402804053
 20
36.20670831404075
 30
0.0
 10
84.80769152804054
 20
36.99804674720048
 30
0.0
 10
83.92505806449888
 20
37.85656454233937
 30
0.0
 10
83.92505806449888
 20
37.85656454233937
 30
0.0
 10
83.88337240911694
 20
37.89652764997825
 30
0.0
 10
83.88337240911694
 20
37.89652764997825
 30
0.0
 10
83.88337240911694
 20
37.89652764997825
 30
0.0
 10
85.80814725720719
 20
37.89652764997825
 30
0.0
 10
85.85362251762388
 20
37.89652764997825
 30
0.0
 10
85.85362251762388
 20
37.94062487220048
 30
0.0
 10
85.85362251762388
 20
39.01756172115881
 30
0.0
 10
85.85362251762388
 20
39.06165894338104
 30
0.0
 10
85.80711372856137
 20
39.06165894338104
 30
0.0
 10
77.51235732665165
 20
39.06165894338104
 30
0.0
 10
77.46619304713775
 20
39.06165894338104
 30
0.0
  0
SPLINE
  5
E34
330
E1F
100
AcDbEntity
  8
WAKU
100
AcDbSpline
210
0.0
220
0.0
230
1.0
 70
     9
 71
     3
 72
    26
 73
    22
 74
     0
 42
0.000000001
 43
0.0000000001
 40
0.0
 40
0.0
 40
0.0
 40
0.0
 40
1.0
 40
1.0
 40
1.0
 40
2.0
 40
2.0
 40
2.0
 40
3.0
 40
3.0
 40
3.0
 40
4.0
 40
4.0
 40
4.0
 40
5.0
 40
5.0
 40
5.0
 40
6.0
 40
6.0
 40
6.0
 40
7.0
 40
7.0
 40
7.0
 40
7.0
 10
80.22502551241553
 20
40.82141371768659
 30
0.0
 10
81.11627171467246
 20
41.42912856143659
 30
0.0
 10
81.43356500894331
 20
41.75055597029075
 30
0.0
 10
81.66094131102665
 20
42.00445950761714
 30
0.0
 10
81.66094131102665
 20
42.00445950761714
 30
0.0
 10
81.67747776935998
 20
42.02237400414492
 30
0.0
 10
81.67747776935998
 20
42.02237400414492
 30
0.0
 10
81.67747776935998
 20
42.02237400414492
 30
0.0
 10
81.69504775633914
 20
42.00514852671434
 30
0.0
 10
81.69504775633914
 20
42.00514852671434
 30
0.0
 10
81.95584148463778
 20
41.74676636525602
 30
0.0
 10
82.3137869056447
 20
41.39226603973519
 30
0.0
 10
83.14991158012388
 20
40.82141371768659
 30
0.0
 10
83.14991158012388
 20
40.82141371768659
 30
0.0
 10
83.21261231797109
 20
40.77869453365879
 30
0.0
 10
83.21261231797109
 20
40.77869453365879
 30
0.0
 10
83.21261231797109
 20
40.77869453365879
 30
0.0
 10
80.1623247745683
 20
40.77869453365879
 30
0.0
 10
80.1623247745683
 20
40.77869453365879
 30
0.0
 10
80.1623247745683
 20
40.77869453365879
 30
0.0
 10
80.22502551241553
 20
40.82141371768659
 30
0.0
 10
80.22502551241553
 20
40.82141371768659
 30
0.0
  0
SPLINE
  5
E35
330
E1F
100
AcDbEntity
  8
WAKU
100
AcDbSpline
210
0.0
220
0.0
230
1.0
 70
     9
 71
     3
 72
    44
 73
    40
 74
     0
 42
0.000000001
 43
0.0000000001
 40
0.0
 40
0.0
 40
0.0
 40
0.0
 40
1.0
 40
1.0
 40
1.0
 40
2.0
 40
2.0
 40
2.0
 40
3.0
 40
3.0
 40
3.0
 40
4.0
 40
4.0
 40
4.0
 40
5.0
 40
5.0
 40
5.0
 40
6.0
 40
6.0
 40
6.0
 40
7.0
 40
7.0
 40
7.0
 40
8.0
 40
8.0
 40
8.0
 40
9.0
 40
9.0
 40
9.0
 40
10.0
 40
10.0
 40
10.0
 40
11.0
 40
11.0
 40
11.0
 40
12.0
 40
12.0
 40
12.0
 40
13.0
 40
13.0
 40
13.0
 40
13.0
 10
80.86581327283218
 20
42.98355564476993
 30
0.0
 10
80.20504395859608
 20
42.15363214216576
 30
0.0
 10
79.03681207925581
 20
41.47322578365881
 30
0.0
 10
77.08344293863081
 20
40.78110610049907
 30
0.0
 10
77.10859213567943
 20
40.73597534963103
 30
0.0
 10
77.7528249915822
 20
39.57635620900603
 30
0.0
 10
77.7714285072072
 20
39.54328329233937
 30
0.0
 10
77.7776296790822
 20
39.54535034963104
 30
0.0
 10
77.7838308509572
 20
39.54776191647132
 30
0.0
 10
77.7838308509572
 20
39.54776191647132
 30
0.0
 10
78.0573714325544
 20
39.64594713782548
 30
0.0
 10
78.46974936224192
 20
39.79443075327687
 30
0.0
 10
79.17048178411693
 20
40.17476929494352
 30
0.0
 10
79.17048178411693
 20
40.17476929494352
 30
0.0
 10
79.20493273897804
 20
40.19337281056853
 30
0.0
 10
79.20493273897804
 20
40.19337281056853
 30
0.0
 10
79.20493273897804
 20
40.19337281056853
 30
0.0
 10
79.20493273897804
 20
39.73999824459632
 30
0.0
 10
79.20493273897804
 20
39.69762357011715
 30
0.0
 10
79.25075250894329
 20
39.69762357011715
 30
0.0
 10
84.08663304279745
 20
39.69762357011715
 30
0.0
 10
84.13279732231137
 20
39.69762357011715
 30
0.0
 10
84.13279732231137
 20
39.74034275414492
 30
0.0
 10
84.13279732231137
 20
40.22679023678381
 30
0.0
 10
84.13279732231137
 20
40.22679023678381
 30
0.0
 10
84.13279732231137
 20
40.22679023678381
 30
0.0
 10
84.16724827717247
 20
40.20818672115882
 30
0.0
 10
84.16724827717247
 20
40.20818672115882
 30
0.0
 10
84.8438650306447
 20
39.83956150414492
 30
0.0
 10
85.26003256536695
 20
39.67695299720047
 30
0.0
 10
85.53874079019331
 20
39.5687769989366
 30
0.0
 10
85.55803332491553
 20
39.60219442515187
 30
0.0
 10
86.21845812960302
 20
40.75216729841574
 30
0.0
 10
86.2446408552975
 20
40.79798706838103
 30
0.0
 10
84.61338814262388
 20
41.35195842254769
 30
0.0
 10
83.39106826415164
 20
42.06681573591575
 30
0.0
 10
82.51015734835304
 20
42.98355564476993
 30
0.0
 10
82.49155383272805
 20
42.98355564476993
 30
0.0
 10
80.88648384574886
 20
42.98355564476993
 30
0.0
 10
80.86581327283218
 20
42.98355564476993
 30
0.0
  0
SPLINE
  5
E36
330
E1F
100
AcDbEntity
  8
WAKU
100
AcDbSpline
210
0.0
220
0.0
230
1.0
 70
     9
 71
     3
 72
    50
 73
    46
 74
     0
 42
0.000000001
 43
0.0000000001
 40
0.0
 40
0.0
 40
0.0
 40
0.0
 40
1.0
 40
1.0
 40
1.0
 40
2.0
 40
2.0
 40
2.0
 40
3.0
 40
3.0
 40
3.0
 40
4.0
 40
4.0
 40
4.0
 40
5.0
 40
5.0
 40
5.0
 40
6.0
 40
6.0
 40
6.0
 40
7.0
 40
7.0
 40
7.0
 40
8.0
 40
8.0
 40
8.0
 40
9.0
 40
9.0
 40
9.0
 40
10.0
 40
10.0
 40
10.0
 40
11.0
 40
11.0
 40
11.0
 40
12.0
 40
12.0
 40
12.0
 40
13.0
 40
13.0
 40
13.0
 40
14.0
 40
14.0
 40
14.0
 40
15.0
 40
15.0
 40
15.0
 40
15.0
 10
68.10483508272804
 20
39.81096721161021
 30
0.0
 10
68.10483508272804
 20
39.76686998938798
 30
0.0
 10
68.10483508272804
 20
38.68166491126298
 30
0.0
 10
68.10483508272804
 20
38.63756768904075
 30
0.0
 10
68.1499658335961
 20
38.63756768904075
 30
0.0
 10
69.59139378498497
 20
38.63756768904075
 30
0.0
 10
69.59139378498497
 20
38.63756768904075
 30
0.0
 10
69.59139378498497
 20
38.63756768904075
 30
0.0
 10
69.59139378498497
 20
36.56396471595048
 30
0.0
 10
69.59139378498497
 20
36.56396471595048
 30
0.0
 10
69.59139378498497
 20
36.56396471595048
 30
0.0
 10
68.2130110809919
 20
36.46991360917964
 30
0.0
 10
68.2130110809919
 20
36.46991360917964
 30
0.0
 10
68.21370010008914
 20
36.46991360917964
 30
0.0
 10
68.00596084227665
 20
36.46026734181854
 30
0.0
 10
68.00596084227665
 20
36.46026734181854
 30
0.0
 10
68.00596084227665
 20
36.46026734181854
 30
0.0
 10
67.88297093342248
 20
36.45578871768659
 30
0.0
 10
67.84541939262386
 20
36.45441067949214
 30
0.0
 10
67.85127605495026
 20
36.40686836178382
 30
0.0
 10
67.99355849852665
 20
35.22347806230464
 30
0.0
 10
67.99872614175581
 20
35.18041436872825
 30
0.0
 10
71.1575341929711
 20
35.4825492428602
 30
0.0
 10
71.73286513915164
 20
35.54077135657548
 30
0.0
 10
72.7794851478322
 20
35.73851983747825
 30
0.0
 10
72.77914063828359
 20
35.77572686872826
 30
0.0
 10
72.76260417995023
 20
36.83509373070742
 30
0.0
 10
72.76191516085304
 20
36.88642565345047
 30
0.0
 10
72.42085070772803
 20
36.82820353973522
 30
0.0
 10
72.03121040824886
 20
36.76205770640186
 30
0.0
 10
71.00078234835304
 20
36.67179620466575
 30
0.0
 10
71.00078234835304
 20
36.67179620466575
 30
0.0
 10
70.9749441322072
 20
36.6697291473741
 30
0.0
 10
70.9749441322072
 20
36.6697291473741
 30
0.0
 10
70.9749441322072
 20
36.6697291473741
 30
0.0
 10
70.9749441322072
 20
38.63756768904075
 30
0.0
 10
70.9749441322072
 20
38.63756768904075
 30
0.0
 10
70.9749441322072
 20
38.63756768904075
 30
0.0
 10
72.3888113197072
 20
38.63756768904075
 30
0.0
 10
72.43394207057527
 20
38.63756768904075
 30
0.0
 10
72.43394207057527
 20
38.68166491126298
 30
0.0
 10
72.43394207057527
 20
39.76686998938798
 30
0.0
 10
72.43394207057527
 20
39.81096721161021
 30
0.0
 10
72.38812230060998
 20
39.81096721161021
 30
0.0
 10
68.15065485269332
 20
39.81096721161021
 30
0.0
 10
68.10483508272804
 20
39.81096721161021
 30
0.0
  0
SPLINE
  5
E37
330
E1F
100
AcDbEntity
  8
WAKU
100
AcDbSpline
210
0.0
220
0.0
230
1.0
 70
     9
 71
     3
 72
    89
 73
    85
 74
     0
 42
0.000000001
 43
0.0000000001
 40
0.0
 40
0.0
 40
0.0
 40
0.0
 40
1.0
 40
1.0
 40
1.0
 40
2.0
 40
2.0
 40
2.0
 40
3.0
 40
3.0
 40
3.0
 40
4.0
 40
4.0
 40
4.0
 40
5.0
 40
5.0
 40
5.0
 40
6.0
 40
6.0
 40
6.0
 40
7.0
 40
7.0
 40
7.0
 40
8.0
 40
8.0
 40
8.0
 40
9.0
 40
9.0
 40
9.0
 40
10.0
 40
10.0
 40
10.0
 40
11.0
 40
11.0
 40
11.0
 40
12.0
 40
12.0
 40
12.0
 40
13.0
 40
13.0
 40
13.0
 40
14.0
 40
14.0
 40
14.0
 40
15.0
 40
15.0
 40
15.0
 40
16.0
 40
16.0
 40
16.0
 40
17.0
 40
17.0
 40
17.0
 40
18.0
 40
18.0
 40
18.0
 40
19.0
 40
19.0
 40
19.0
 40
20.0
 40
20.0
 40
20.0
 40
21.0
 40
21.0
 40
21.0
 40
22.0
 40
22.0
 40
22.0
 40
23.0
 40
23.0
 40
23.0
 40
24.0
 40
24.0
 40
24.0
 40
25.0
 40
25.0
 40
25.0
 40
26.0
 40
26.0
 40
26.0
 40
27.0
 40
27.0
 40
27.0
 40
28.0
 40
28.0
 40
28.0
 40
28.0
 10
74.36939671467247
 20
42.55980889997824
 30
0.0
 10
74.59573948810998
 20
42.36481649546436
 30
0.0
 10
74.79762208359609
 20
42.10436727671435
 30
0.0
 10
75.02844348116553
 20
41.80085436438797
 30
0.0
 10
75.02844348116553
 20
41.80085436438797
 30
0.0
 10
75.05703777370027
 20
41.76330282358935
 30
0.0
 10
75.05703777370027
 20
41.76330282358935
 30
0.0
 10
75.05703777370027
 20
41.76330282358935
 30
0.0
 10
74.07036242647802
 20
41.76330282358935
 30
0.0
 10
74.07036242647802
 20
41.76330282358935
 30
0.0
 10
74.07036242647802
 20
41.76330282358935
 30
0.0
 10
74.07036242647802
 20
42.88743748070742
 30
0.0
 10
74.07036242647802
 20
42.93325725067268
 30
0.0
 10
74.0259206947072
 20
42.93325725067268
 30
0.0
 10
72.6678640540822
 20
42.93325725067268
 30
0.0
 10
72.62169977456832
 20
42.93325725067268
 30
0.0
 10
72.62307781276277
 20
42.89122708574214
 30
0.0
 10
72.6306570228322
 20
42.66178372636714
 30
0.0
 10
72.6306570228322
 20
42.66178372636714
 30
0.0
 10
72.6303125132836
 20
42.66316176456157
 30
0.0
 10
72.64857151935998
 20
42.2325248287977
 30
0.0
 10
72.64857151935998
 20
42.2325248287977
 30
0.0
 10
72.64857151935998
 20
42.2325248287977
 30
0.0
 10
72.66855307317944
 20
41.76399184268658
 30
0.0
 10
72.66855307317944
 20
41.76399184268658
 30
0.0
 10
72.66855307317944
 20
41.76399184268658
 30
0.0
 10
72.64409289522801
 20
41.76330282358935
 30
0.0
 10
72.64409289522801
 20
41.76330282358935
 30
0.0
 10
72.64409289522801
 20
41.76330282358935
 30
0.0
 10
67.97288792560998
 20
41.76330282358935
 30
0.0
 10
67.92672364609609
 20
41.76330282358935
 30
0.0
 10
67.92672364609609
 20
41.71920560136714
 30
0.0
 10
67.92672364609609
 20
40.63400052324214
 30
0.0
 10
67.92672364609609
 20
40.58990330101992
 30
0.0
 10
67.97288792560998
 20
40.58990330101992
 30
0.0
 10
72.71333931449887
 20
40.58990330101992
 30
0.0
 10
72.71333931449887
 20
40.58990330101992
 30
0.0
 10
72.71333931449887
 20
40.58990330101992
 30
0.0
 10
72.71540637179054
 20
40.54511705970047
 30
0.0
 10
72.71540637179054
 20
40.54511705970047
 30
0.0
 10
72.7698388804711
 20
39.22702352671436
 30
0.0
 10
72.87112468776277
 20
36.77411554060326
 30
0.0
 10
74.21333388915164
 20
35.44086358747826
 30
0.0
 10
74.44415528672109
 20
35.21004218990881
 30
0.0
 10
74.88133790390858
 20
34.97646471595048
 30
0.0
 10
75.33712403672109
 20
34.97646471595048
 30
0.0
 10
76.16050185790166
 20
34.97646471595048
 30
0.0
 10
76.64005914956831
 20
35.85393053626297
 30
0.0
 10
76.85503310790164
 20
36.38344171247825
 30
0.0
 10
76.84676487873497
 20
36.40135620900603
 30
0.0
 10
76.32104330755443
 20
37.58371297983936
 30
0.0
 10
76.28176921901277
 20
37.67259644338103
 30
0.0
 10
76.0533593882836
 20
37.11449097463103
 30
0.0
 10
75.56966798203359
 20
36.56224216820742
 30
0.0
 10
75.2999170054711
 20
36.56224216820742
 30
0.0
 10
75.01294055147804
 20
36.56224216820742
 30
0.0
 10
74.7576589759572
 20
37.16754544511714
 30
0.0
 10
74.6611963023461
 20
37.42765015431853
 30
0.0
 10
74.25088542995027
 20
38.53455933400603
 30
0.0
 10
74.14512099852666
 20
39.68591024546436
 30
0.0
 10
74.09861220946416
 20
40.56509861351992
 30
0.0
 10
74.09861220946416
 20
40.56509861351992
 30
0.0
 10
74.0972341712697
 20
40.58990330101992
 30
0.0
 10
74.0972341712697
 20
40.58990330101992
 30
0.0
 10
74.0972341712697
 20
40.58990330101992
 30
0.0
 10
76.6521169837697
 20
40.58990330101992
 30
0.0
 10
76.69793675373495
 20
40.58990330101992
 30
0.0
 10
76.69793675373495
 20
40.63400052324214
 30
0.0
 10
76.69793675373495
 20
41.71920560136714
 30
0.0
 10
76.69793675373495
 20
41.76330282358935
 30
0.0
 10
76.65349502196416
 20
41.76330282358935
 30
0.0
 10
75.84217503498497
 20
41.76330282358935
 30
0.0
 10
75.84217503498497
 20
41.76330282358935
 30
0.0
 10
75.84217503498497
 20
41.76330282358935
 30
0.0
 10
75.83390680581832
 20
41.80843357445739
 30
0.0
 10
75.83390680581832
 20
41.80843357445739
 30
0.0
 10
75.83390680581832
 20
41.80843357445739
 30
0.0
 10
76.34929309054053
 20
42.01169420813797
 30
0.0
 10
76.40269207057524
 20
42.03270929060325
 30
0.0
 10
75.78636448810998
 20
42.81061185136714
 30
0.0
 10
75.65889595512387
 20
42.89639472897131
 30
0.0
 10
75.52625977890859
 20
42.98424466386713
 30
0.0
 10
75.52591526935998
 20
42.97976603973518
 30
0.0
 10
74.53579482665166
 20
42.6200980709852
 30
0.0
 10
74.36939671467247
 20
42.55980889997824
 30
0.0
  0
SPLINE
  5
E38
330
E1F
100
AcDbEntity
  8
WAKU
100
AcDbSpline
210
0.0
220
0.0
230
1.0
 70
     9
 71
     3
 72
   197
 73
   193
 74
     0
 42
0.000000001
 43
0.0000000001
 40
0.0
 40
0.0
 40
0.0
 40
0.0
 40
1.0
 40
1.0
 40
1.0
 40
2.0
 40
2.0
 40
2.0
 40
3.0
 40
3.0
 40
3.0
 40
4.0
 40
4.0
 40
4.0
 40
5.0
 40
5.0
 40
5.0
 40
6.0
 40
6.0
 40
6.0
 40
7.0
 40
7.0
 40
7.0
 40
8.0
 40
8.0
 40
8.0
 40
9.0
 40
9.0
 40
9.0
 40
10.0
 40
10.0
 40
10.0
 40
11.0
 40
11.0
 40
11.0
 40
12.0
 40
12.0
 40
12.0
 40
13.0
 40
13.0
 40
13.0
 40
14.0
 40
14.0
 40
14.0
 40
15.0
 40
15.0
 40
15.0
 40
16.0
 40
16.0
 40
16.0
 40
17.0
 40
17.0
 40
17.0
 40
18.0
 40
18.0
 40
18.0
 40
19.0
 40
19.0
 40
19.0
 40
20.0
 40
20.0
 40
20.0
 40
21.0
 40
21.0
 40
21.0
 40
22.0
 40
22.0
 40
22.0
 40
23.0
 40
23.0
 40
23.0
 40
24.0
 40
24.0
 40
24.0
 40
25.0
 40
25.0
 40
25.0
 40
26.0
 40
26.0
 40
26.0
 40
27.0
 40
27.0
 40
27.0
 40
28.0
 40
28.0
 40
28.0
 40
29.0
 40
29.0
 40
29.0
 40
30.0
 40
30.0
 40
30.0
 40
31.0
 40
31.0
 40
31.0
 40
32.0
 40
32.0
 40
32.0
 40
33.0
 40
33.0
 40
33.0
 40
34.0
 40
34.0
 40
34.0
 40
35.0
 40
35.0
 40
35.0
 40
36.0
 40
36.0
 40
36.0
 40
37.0
 40
37.0
 40
37.0
 40
38.0
 40
38.0
 40
38.0
 40
39.0
 40
39.0
 40
39.0
 40
40.0
 40
40.0
 40
40.0
 40
41.0
 40
41.0
 40
41.0
 40
42.0
 40
42.0
 40
42.0
 40
43.0
 40
43.0
 40
43.0
 40
44.0
 40
44.0
 40
44.0
 40
45.0
 40
45.0
 40
45.0
 40
46.0
 40
46.0
 40
46.0
 40
47.0
 40
47.0
 40
47.0
 40
48.0
 40
48.0
 40
48.0
 40
49.0
 40
49.0
 40
49.0
 40
50.0
 40
50.0
 40
50.0
 40
51.0
 40
51.0
 40
51.0
 40
52.0
 40
52.0
 40
52.0
 40
53.0
 40
53.0
 40
53.0
 40
54.0
 40
54.0
 40
54.0
 40
55.0
 40
55.0
 40
55.0
 40
56.0
 40
56.0
 40
56.0
 40
57.0
 40
57.0
 40
57.0
 40
58.0
 40
58.0
 40
58.0
 40
59.0
 40
59.0
 40
59.0
 40
60.0
 40
60.0
 40
60.0
 40
61.0
 40
61.0
 40
61.0
 40
62.0
 40
62.0
 40
62.0
 40
63.0
 40
63.0
 40
63.0
 40
64.0
 40
64.0
 40
64.0
 40
64.0
 10
64.0265310462697
 20
42.91637628279075
 30
0.0
 10
64.0265310462697
 20
42.87193455101991
 30
0.0
 10
64.0265310462697
 20
41.85563138261714
 30
0.0
 10
64.0265310462697
 20
41.85563138261714
 30
0.0
 10
64.0265310462697
 20
41.85563138261714
 30
0.0
 10
63.48737360269332
 20
41.85563138261714
 30
0.0
 10
63.48737360269332
 20
41.85563138261714
 30
0.0
 10
63.48737360269332
 20
41.85563138261714
 30
0.0
 10
63.66341798203359
 20
42.60872925588103
 30
0.0
 10
63.67478679713776
 20
42.65730510223519
 30
0.0
 10
63.6237993839433
 20
42.66143921681853
 30
0.0
 10
62.49966472682526
 20
42.75170071855463
 30
0.0
 10
62.4603906382836
 20
42.75480130449214
 30
0.0
 10
62.36013835963776
 20
42.10781237220047
 30
0.0
 10
62.1599783118947
 20
41.52317966820739
 30
0.0
 10
61.86301108099192
 20
41.01778416039493
 30
0.0
 10
61.86301108099192
 20
41.01778416039493
 30
0.0
 10
61.81960287786693
 20
40.94337009789492
 30
0.0
 10
61.81960287786693
 20
40.94337009789492
 30
0.0
 10
61.81960287786693
 20
40.94337009789492
 30
0.0
 10
61.81960287786693
 20
41.48493910831159
 30
0.0
 10
61.81960287786693
 20
41.52765829233937
 30
0.0
 10
61.77516114609609
 20
41.52765829233937
 30
0.0
 10
60.93145726154748
 20
41.52765829233937
 30
0.0
 10
60.93145726154748
 20
41.52765829233937
 30
0.0
 10
60.93145726154748
 20
41.52765829233937
 30
0.0
 10
60.93145726154748
 20
42.8712455319227
 30
0.0
 10
60.93145726154748
 20
42.91637628279075
 30
0.0
 10
60.88736003932526
 20
42.91637628279075
 30
0.0
 10
59.73187501328361
 20
42.91637628279075
 30
0.0
 10
59.68777779106137
 20
42.91637628279075
 30
0.0
 10
59.68777779106137
 20
42.8712455319227
 30
0.0
 10
59.68777779106137
 20
41.52765829233937
 30
0.0
 10
59.68777779106137
 20
41.52765829233937
 30
0.0
 10
59.68777779106137
 20
41.52765829233937
 30
0.0
 10
58.59154840738082
 20
41.52765829233937
 30
0.0
 10
58.54710667560998
 20
41.52765829233937
 30
0.0
 10
58.54710667560998
 20
41.48390557966575
 30
0.0
 10
58.54710667560998
 20
40.45692261525603
 30
0.0
 10
58.54710667560998
 20
40.41282539303379
 30
0.0
 10
58.59154840738082
 20
40.41282539303379
 30
0.0
 10
59.59372668429054
 20
40.41282539303379
 30
0.0
 10
59.59372668429054
 20
40.41282539303379
 30
0.0
 10
59.59372668429054
 20
40.41282539303379
 30
0.0
 10
59.58373590738081
 20
40.38250855275602
 30
0.0
 10
59.58373590738081
 20
40.38250855275602
 30
0.0
 10
59.15378799071415
 20
39.0327201412977
 30
0.0
 10
58.73314183185998
 20
38.4835719208116
 30
0.0
 10
58.37140680581832
 20
38.0777396725477
 30
0.0
 10
58.3776079776933
 20
38.05500204233937
 30
0.0
 10
58.77276042995024
 20
36.56534275414492
 30
0.0
 10
58.7958425697072
 20
36.47818183834632
 30
0.0
 10
58.99462457925581
 20
36.74035360483936
 30
0.0
 10
59.3350000132836
 20
37.21164266733936
 30
0.0
 10
59.64230253064471
 20
38.16662313608937
 30
0.0
 10
59.64230253064471
 20
38.16662313608937
 30
0.0
 10
59.68777779106137
 20
38.15973294511714
 30
0.0
 10
59.68777779106137
 20
38.15973294511714
 30
0.0
 10
59.68777779106137
 20
38.15973294511714
 30
0.0
 10
59.68777779106137
 20
35.0391654537977
 30
0.0
 10
59.68777779106137
 20
34.99334568383242
 30
0.0
 10
59.73187501328361
 20
34.99334568383242
 30
0.0
 10
60.88736003932526
 20
34.99334568383242
 30
0.0
 10
60.93145726154748
 20
34.99334568383242
 30
0.0
 10
60.93145726154748
 20
35.0391654537977
 30
0.0
 10
60.93145726154748
 20
38.47943780622826
 30
0.0
 10
60.93145726154748
 20
38.47943780622826
 30
0.0
 10
60.93145726154748
 20
38.47943780622826
 30
0.0
 10
60.97899957925581
 20
38.47943780622826
 30
0.0
 10
60.97899957925581
 20
38.47943780622826
 30
0.0
 10
61.07063911918636
 20
38.14112942949214
 30
0.0
 10
61.11921496554053
 20
37.96611857879771
 30
0.0
 10
61.49128527804053
 20
37.34152276716576
 30
0.0
 10
61.5305593665822
 20
37.38872057532547
 30
0.0
 10
62.2312917884572
 20
38.22450074025603
 30
0.0
 10
62.2591970618947
 20
38.25791816647131
 30
0.0
 10
62.13689617213774
 20
38.36092652150603
 30
0.0
 10
62.03044272161693
 20
38.45601115692272
 30
0.0
 10
61.84440756536693
 20
38.66581747202687
 30
0.0
 10
61.84440756536693
 20
38.66581747202687
 30
0.0
 10
61.8099566105058
 20
38.70474705101992
 30
0.0
 10
61.8099566105058
 20
38.70474705101992
 30
0.0
 10
61.8099566105058
 20
38.70474705101992
 30
0.0
 10
61.81719131102664
 20
38.70474705101992
 30
0.0
 10
61.82098091606136
 20
38.70474705101992
 30
0.0
 10
61.5832693275197
 20
38.98207723765187
 30
0.0
 10
61.15642199679054
 20
39.51572252845048
 30
0.0
 10
60.93386882838776
 20
40.00974922115879
 30
0.0
 10
60.93386882838776
 20
40.00974922115879
 30
0.0
 10
60.93145726154748
 20
40.01422784529075
 30
0.0
 10
60.93145726154748
 20
40.01422784529075
 30
0.0
 10
60.93145726154748
 20
40.01422784529075
 30
0.0
 10
60.93145726154748
 20
40.41282539303379
 30
0.0
 10
60.93145726154748
 20
40.41282539303379
 30
0.0
 10
60.93145726154748
 20
40.41282539303379
 30
0.0
 10
61.81512425373497
 20
40.41282539303379
 30
0.0
 10
61.81512425373497
 20
40.41282539303379
 30
0.0
 10
61.82856012613082
 20
40.40869127845048
 30
0.0
 10
62.54824057317943
 20
39.90364028018659
 30
0.0
 10
62.54824057317943
 20
39.90364028018659
 30
0.0
 10
62.54824057317943
 20
39.90364028018659
 30
0.0
 10
62.5940603431447
 20
39.87228991126297
 30
0.0
 10
62.6033621009572
 20
39.86574422983937
 30
0.0
 10
62.60818523463774
 20
39.87194540171437
 30
0.0
 10
62.62885580755442
 20
39.89916165605464
 30
0.0
 10
62.62885580755442
 20
39.89916165605464
 30
0.0
 10
62.74323297769331
 20
40.05040134789489
 30
0.0
 10
62.91721029974192
 20
40.31085056664492
 30
0.0
 10
63.09359918863082
 20
40.69394518470047
 30
0.0
 10
63.09359918863082
 20
40.69394518470047
 30
0.0
 10
63.10014487005442
 20
40.70738105709629
 30
0.0
 10
63.10014487005442
 20
40.70738105709629
 30
0.0
 10
63.10014487005442
 20
40.70738105709629
 30
0.0
 10
64.0265310462697
 20
40.70738105709629
 30
0.0
 10
64.0265310462697
 20
40.70738105709629
 30
0.0
 10
64.0265310462697
 20
40.70738105709629
 30
0.0
 10
64.0265310462697
 20
39.86161011525604
 30
0.0
 10
64.0265310462697
 20
39.86161011525604
 30
0.0
 10
64.0265310462697
 20
39.86161011525604
 30
0.0
 10
61.90986437960305
 20
39.86161011525604
 30
0.0
 10
61.86645617647805
 20
39.86161011525604
 30
0.0
 10
61.86645617647805
 20
39.8168238739366
 30
0.0
 10
61.86645617647805
 20
38.70750312740881
 30
0.0
 10
61.86645617647805
 20
38.70474705101992
 30
0.0
 10
61.87506891519332
 20
38.70474705101992
 30
0.0
 10
63.55868707925582
 20
38.70474705101992
 30
0.0
 10
63.55868707925582
 20
38.70474705101992
 30
0.0
 10
63.55868707925582
 20
38.70474705101992
 30
0.0
 10
63.53698297769331
 20
38.66891805796436
 30
0.0
 10
63.53698297769331
 20
38.66891805796436
 30
0.0
 10
63.00816082057526
 20
37.8045436004991
 30
0.0
 10
62.30398330321413
 20
37.1165580319227
 30
0.0
 10
61.44581001762386
 20
36.62184232011714
 30
0.0
 10
61.47130372422109
 20
36.58429077931854
 30
0.0
 10
62.21096572508916
 20
35.51768921681853
 30
0.0
 10
62.23956001762386
 20
35.4763480709852
 30
0.0
 10
62.98749024765861
 20
36.09474271074214
 30
0.0
 10
63.5583425697072
 20
36.7940970944227
 30
0.0
 10
63.98208931449886
 20
37.61471883921436
 30
0.0
 10
63.98208931449886
 20
37.61471883921436
 30
0.0
 10
64.0265310462697
 20
37.60403904320742
 30
0.0
 10
64.0265310462697
 20
37.60403904320742
 30
0.0
 10
64.0265310462697
 20
37.60403904320742
 30
0.0
 10
64.0265310462697
 20
35.0391654537977
 30
0.0
 10
64.0265310462697
 20
34.99334568383242
 30
0.0
 10
64.07062826849193
 20
34.99334568383242
 30
0.0
 10
65.27262208359609
 20
34.99334568383242
 30
0.0
 10
65.31671930581831
 20
34.99334568383242
 30
0.0
 10
65.31671930581831
 20
35.0391654537977
 30
0.0
 10
65.31671930581831
 20
37.41042467688798
 30
0.0
 10
65.31671930581831
 20
37.41042467688798
 30
0.0
 10
65.31671930581831
 20
37.41042467688798
 30
0.0
 10
65.36081652804054
 20
37.42144898244354
 30
0.0
 10
65.36081652804054
 20
37.42144898244354
 30
0.0
 10
65.78800836831831
 20
36.60668389997825
 30
0.0
 10
66.33474502196415
 20
35.96038398678382
 30
0.0
 10
66.9848345401933
 20
35.49632962480465
 30
0.0
 10
67.00688315130442
 20
35.55248468122825
 30
0.0
 10
67.50504395859609
 20
36.83612725935326
 30
0.0
 10
67.51813532144331
 20
36.87092272376297
 30
0.0
 10
67.1488210853322
 20
37.09761000674909
 30
0.0
 10
66.40399144123498
 20
37.56373142601992
 30
0.0
 10
65.7039480384572
 20
38.66891805796436
 30
0.0
 10
65.7039480384572
 20
38.66891805796436
 30
0.0
 10
65.68121040824888
 20
38.70474705101992
 30
0.0
 10
65.68121040824888
 20
38.70474705101992
 30
0.0
 10
65.68121040824888
 20
38.70474705101992
 30
0.0
 10
67.31005155408221
 20
38.70474705101992
 30
0.0
 10
67.35552681449886
 20
38.70474705101992
 30
0.0
 10
67.35552681449886
 20
38.74884427324214
 30
0.0
 10
67.35552681449886
 20
39.81751289303382
 30
0.0
 10
67.35552681449886
 20
39.86161011525604
 30
0.0
 10
67.30970704453359
 20
39.86161011525604
 30
0.0
 10
65.31671930581831
 20
39.86161011525604
 30
0.0
 10
65.31671930581831
 20
39.86161011525604
 30
0.0
 10
65.31671930581831
 20
39.86161011525604
 30
0.0
 10
65.31671930581831
 20
40.70738105709629
 30
0.0
 10
65.31671930581831
 20
40.70738105709629
 30
0.0
 10
65.31671930581831
 20
40.70738105709629
 30
0.0
 10
67.16949165824885
 20
40.70738105709629
 30
0.0
 10
67.21496691866554
 20
40.70738105709629
 30
0.0
 10
67.21496691866554
 20
40.75147827931853
 30
0.0
 10
67.21496691866554
 20
41.81187866994353
 30
0.0
 10
67.21496691866554
 20
41.85563138261714
 30
0.0
 10
67.16949165824885
 20
41.85563138261714
 30
0.0
 10
65.31671930581831
 20
41.85563138261714
 30
0.0
 10
65.31671930581831
 20
41.85563138261714
 30
0.0
 10
65.31671930581831
 20
41.85563138261714
 30
0.0
 10
65.31671930581831
 20
42.87193455101991
 30
0.0
 10
65.31671930581831
 20
42.91637628279075
 30
0.0
 10
65.27262208359609
 20
42.91637628279075
 30
0.0
 10
64.07062826849193
 20
42.91637628279075
 30
0.0
 10
64.0265310462697
 20
42.91637628279075
 30
0.0
  0
SPLINE
  5
E39
330
E1F
100
AcDbEntity
  8
WAKU
100
AcDbSpline
210
0.0
220
0.0
230
1.0
 70
     9
 71
     3
 72
    29
 73
    25
 74
     0
 42
0.000000001
 43
0.0000000001
 40
0.0
 40
0.0
 40
0.0
 40
0.0
 40
1.0
 40
1.0
 40
1.0
 40
2.0
 40
2.0
 40
2.0
 40
3.0
 40
3.0
 40
3.0
 40
4.0
 40
4.0
 40
4.0
 40
5.0
 40
5.0
 40
5.0
 40
6.0
 40
6.0
 40
6.0
 40
7.0
 40
7.0
 40
7.0
 40
8.0
 40
8.0
 40
8.0
 40
8.0
 10
52.86201010442942
 20
40.47552613088103
 30
0.0
 10
52.84340658880442
 20
40.53271471595047
 30
0.0
 10
52.72213922769331
 20
40.83450508053378
 30
0.0
 10
52.68596572508915
 20
40.89996189476992
 30
0.0
 10
52.68596572508915
 20
40.89996189476992
 30
0.0
 10
52.66632868081831
 20
40.93475735917964
 30
0.0
 10
52.66632868081831
 20
40.93475735917964
 30
0.0
 10
52.66632868081831
 20
40.93475735917964
 30
0.0
 10
54.5883474525197
 20
40.93475735917964
 30
0.0
 10
54.5883474525197
 20
40.93475735917964
 30
0.0
 10
54.5883474525197
 20
40.93475735917964
 30
0.0
 10
54.58042373290165
 20
40.9054740475477
 30
0.0
 10
54.58042373290165
 20
40.9054740475477
 30
0.0
 10
54.5015310462697
 20
40.61401896942268
 30
0.0
 10
54.46329048637386
 20
40.53374824459631
 30
0.0
 10
54.42815051241554
 20
40.47104750674907
 30
0.0
 10
54.42815051241554
 20
40.47104750674907
 30
0.0
 10
54.42126032144331
 20
40.45898967254768
 30
0.0
 10
54.42126032144331
 20
40.45898967254768
 30
0.0
 10
54.42126032144331
 20
40.45898967254768
 30
0.0
 10
52.86683323810998
 20
40.45898967254768
 30
0.0
 10
52.86683323810998
 20
40.45898967254768
 30
0.0
 10
52.86683323810998
 20
40.45898967254768
 30
0.0
 10
52.86201010442942
 20
40.47552613088103
 30
0.0
 10
52.86201010442942
 20
40.47552613088103
 30
0.0
  0
SPLINE
  5
E3A
330
E1F
100
AcDbEntity
  8
WAKU
100
AcDbSpline
210
0.0
220
0.0
230
1.0
 70
     9
 71
     3
 72
   203
 73
   199
 74
     0
 42
0.000000001
 43
0.0000000001
 40
0.0
 40
0.0
 40
0.0
 40
0.0
 40
1.0
 40
1.0
 40
1.0
 40
2.0
 40
2.0
 40
2.0
 40
3.0
 40
3.0
 40
3.0
 40
4.0
 40
4.0
 40
4.0
 40
5.0
 40
5.0
 40
5.0
 40
6.0
 40
6.0
 40
6.0
 40
7.0
 40
7.0
 40
7.0
 40
8.0
 40
8.0
 40
8.0
 40
9.0
 40
9.0
 40
9.0
 40
10.0
 40
10.0
 40
10.0
 40
11.0
 40
11.0
 40
11.0
 40
12.0
 40
12.0
 40
12.0
 40
13.0
 40
13.0
 40
13.0
 40
14.0
 40
14.0
 40
14.0
 40
15.0
 40
15.0
 40
15.0
 40
16.0
 40
16.0
 40
16.0
 40
17.0
 40
17.0
 40
17.0
 40
18.0
 40
18.0
 40
18.0
 40
19.0
 40
19.0
 40
19.0
 40
20.0
 40
20.0
 40
20.0
 40
21.0
 40
21.0
 40
21.0
 40
22.0
 40
22.0
 40
22.0
 40
23.0
 40
23.0
 40
23.0
 40
24.0
 40
24.0
 40
24.0
 40
25.0
 40
25.0
 40
25.0
 40
26.0
 40
26.0
 40
26.0
 40
27.0
 40
27.0
 40
27.0
 40
28.0
 40
28.0
 40
28.0
 40
29.0
 40
29.0
 40
29.0
 40
30.0
 40
30.0
 40
30.0
 40
31.0
 40
31.0
 40
31.0
 40
32.0
 40
32.0
 40
32.0
 40
33.0
 40
33.0
 40
33.0
 40
34.0
 40
34.0
 40
34.0
 40
35.0
 40
35.0
 40
35.0
 40
36.0
 40
36.0
 40
36.0
 40
37.0
 40
37.0
 40
37.0
 40
38.0
 40
38.0
 40
38.0
 40
39.0
 40
39.0
 40
39.0
 40
40.0
 40
40.0
 40
40.0
 40
41.0
 40
41.0
 40
41.0
 40
42.0
 40
42.0
 40
42.0
 40
43.0
 40
43.0
 40
43.0
 40
44.0
 40
44.0
 40
44.0
 40
45.0
 40
45.0
 40
45.0
 40
46.0
 40
46.0
 40
46.0
 40
47.0
 40
47.0
 40
47.0
 40
48.0
 40
48.0
 40
48.0
 40
49.0
 40
49.0
 40
49.0
 40
50.0
 40
50.0
 40
50.0
 40
51.0
 40
51.0
 40
51.0
 40
52.0
 40
52.0
 40
52.0
 40
53.0
 40
53.0
 40
53.0
 40
54.0
 40
54.0
 40
54.0
 40
55.0
 40
55.0
 40
55.0
 40
56.0
 40
56.0
 40
56.0
 40
57.0
 40
57.0
 40
57.0
 40
58.0
 40
58.0
 40
58.0
 40
59.0
 40
59.0
 40
59.0
 40
60.0
 40
60.0
 40
60.0
 40
61.0
 40
61.0
 40
61.0
 40
62.0
 40
62.0
 40
62.0
 40
63.0
 40
63.0
 40
63.0
 40
64.0
 40
64.0
 40
64.0
 40
65.0
 40
65.0
 40
65.0
 40
66.0
 40
66.0
 40
66.0
 40
66.0
 10
50.02221789522804
 20
42.70346938174909
 30
0.0
 10
50.17380209661692
 20
42.45611152584632
 30
0.0
 10
50.30471572508915
 20
42.2077201412977
 30
0.0
 10
50.40841309922109
 20
41.96449639997825
 30
0.0
 10
50.40841309922109
 20
41.96449639997825
 30
0.0
 10
50.42253799071414
 20
41.93176799286018
 30
0.0
 10
50.42253799071414
 20
41.93176799286018
 30
0.0
 10
50.42253799071414
 20
41.93176799286018
 30
0.0
 10
49.28669000894331
 20
41.93176799286018
 30
0.0
 10
49.24190376762386
 20
41.93176799286018
 30
0.0
 10
49.24190376762386
 20
41.88801528018657
 30
0.0
 10
49.24190376762386
 20
40.97816556230464
 30
0.0
 10
49.24190376762386
 20
40.93475735917964
 30
0.0
 10
49.28737902804054
 20
40.93475735917964
 30
0.0
 10
51.28829048637386
 20
40.93475735917964
 30
0.0
 10
51.28829048637386
 20
40.93475735917964
 30
0.0
 10
51.28829048637386
 20
40.93475735917964
 30
0.0
 10
51.29518067734609
 20
40.9237330536241
 30
0.0
 10
51.29518067734609
 20
40.9237330536241
 30
0.0
 10
51.38130806449886
 20
40.78661825327685
 30
0.0
 10
51.40921333793636
 20
40.7104816430338
 30
0.0
 10
51.48500543863081
 20
40.4899955319227
 30
0.0
 10
51.48500543863081
 20
40.4899955319227
 30
0.0
 10
51.49568523463774
 20
40.45898967254768
 30
0.0
 10
51.49568523463774
 20
40.45898967254768
 30
0.0
 10
51.49568523463774
 20
40.45898967254768
 30
0.0
 10
49.6518701304711
 20
40.45898967254768
 30
0.0
 10
49.60639487005442
 20
40.45898967254768
 30
0.0
 10
49.60639487005442
 20
40.41558146942271
 30
0.0
 10
49.60639487005442
 20
39.6063285397352
 30
0.0
 10
49.60639487005442
 20
39.56326484615882
 30
0.0
 10
49.65255914956832
 20
39.56326484615882
 30
0.0
 10
52.95399415390861
 20
39.56326484615882
 30
0.0
 10
52.95399415390861
 20
39.56326484615882
 30
0.0
 10
52.95399415390861
 20
39.56326484615882
 30
0.0
 10
52.95399415390861
 20
39.17982571855464
 30
0.0
 10
52.95399415390861
 20
39.17982571855464
 30
0.0
 10
52.95399415390861
 20
39.17982571855464
 30
0.0
 10
49.89578289088774
 20
39.17982571855464
 30
0.0
 10
49.84961861137386
 20
39.17982571855464
 30
0.0
 10
49.84961861137386
 20
39.13676202497825
 30
0.0
 10
49.84961861137386
 20
38.46117880015187
 30
0.0
 10
49.84961861137386
 20
38.4184596161241
 30
0.0
 10
49.89578289088774
 20
38.4184596161241
 30
0.0
 10
52.95399415390861
 20
38.4184596161241
 30
0.0
 10
52.95399415390861
 20
38.4184596161241
 30
0.0
 10
52.95399415390861
 20
38.4184596161241
 30
0.0
 10
52.95399415390861
 20
38.03502048851992
 30
0.0
 10
52.95399415390861
 20
38.03502048851992
 30
0.0
 10
52.95399415390861
 20
38.03502048851992
 30
0.0
 10
49.28806804713776
 20
38.03502048851992
 30
0.0
 10
49.24190376762386
 20
38.03502048851992
 30
0.0
 10
49.24190376762386
 20
37.99161228539492
 30
0.0
 10
49.24190376762386
 20
37.14067370032547
 30
0.0
 10
49.24190376762386
 20
37.09726549720048
 30
0.0
 10
49.28772353758915
 20
37.09726549720048
 30
0.0
 10
51.88325847682524
 20
37.09726549720048
 30
0.0
 10
51.88325847682524
 20
37.09726549720048
 30
0.0
 10
51.88325847682524
 20
37.09726549720048
 30
0.0
 10
51.8935937632836
 20
37.05316827497826
 30
0.0
 10
51.8935937632836
 20
37.05316827497826
 30
0.0
 10
50.77669380668638
 20
36.51573337914492
 30
0.0
 10
49.73799751762386
 20
36.26286337046437
 30
0.0
 10
49.19884007404748
 20
36.15709893904075
 30
0.0
 10
49.22915691432526
 20
36.10438897810325
 30
0.0
 10
49.8103445228322
 20
35.10358873938797
 30
0.0
 10
49.82791450981136
 20
35.0732718991102
 30
0.0
 10
51.74442112873498
 20
35.62276462914493
 30
0.0
 10
52.36109322074886
 20
36.04582235483937
 30
0.0
 10
52.91575359401274
 20
36.50264201629771
 30
0.0
 10
52.91575359401274
 20
36.50264201629771
 30
0.0
 10
52.95399415390861
 20
36.53433689476992
 30
0.0
 10
52.95399415390861
 20
36.53433689476992
 30
0.0
 10
52.95399415390861
 20
36.53433689476992
 30
0.0
 10
52.95399415390861
 20
35.04674466386715
 30
0.0
 10
52.95399415390861
 20
35.00161391299909
 30
0.0
 10
52.99809137613081
 20
35.00161391299909
 30
0.0
 10
54.24659398029748
 20
35.00161391299909
 30
0.0
 10
54.2910357120683
 20
35.00161391299909
 30
0.0
 10
54.2910357120683
 20
35.04674466386715
 30
0.0
 10
54.2910357120683
 20
36.5674098114366
 30
0.0
 10
54.2910357120683
 20
36.5674098114366
 30
0.0
 10
54.2910357120683
 20
36.5674098114366
 30
0.0
 10
54.32927627196415
 20
36.5367484616102
 30
0.0
 10
54.32927627196415
 20
36.5367484616102
 30
0.0
 10
55.1619558509572
 20
35.86116523678381
 30
0.0
 10
55.75451227456831
 20
35.53663724199215
 30
0.0
 10
57.39920085963776
 20
35.0732718991102
 30
0.0
 10
57.41642633706831
 20
35.10255521074215
 30
0.0
 10
58.03998862005443
 20
36.13505032792964
 30
0.0
 10
58.07306153672111
 20
36.18982734615882
 30
0.0
 10
57.60142796467248
 20
36.27113159963104
 30
0.0
 10
56.43422961397804
 20
36.47887085744353
 30
0.0
 10
55.3324880775197
 20
37.05316827497826
 30
0.0
 10
55.3324880775197
 20
37.05316827497826
 30
0.0
 10
55.34316787352665
 20
37.09726549720048
 30
0.0
 10
55.34316787352665
 20
37.09726549720048
 30
0.0
 10
55.34316787352665
 20
37.09726549720048
 30
0.0
 10
57.93870281276276
 20
37.09726549720048
 30
0.0
 10
57.98486709227663
 20
37.09726549720048
 30
0.0
 10
57.98486709227663
 20
37.14067370032547
 30
0.0
 10
57.98486709227663
 20
37.99161228539492
 30
0.0
 10
57.98486709227663
 20
38.03502048851992
 30
0.0
 10
57.93870281276276
 20
38.03502048851992
 30
0.0
 10
54.2910357120683
 20
38.03502048851992
 30
0.0
 10
54.2910357120683
 20
38.03502048851992
 30
0.0
 10
54.2910357120683
 20
38.03502048851992
 30
0.0
 10
54.2910357120683
 20
38.4184596161241
 30
0.0
 10
54.2910357120683
 20
38.4184596161241
 30
0.0
 10
54.2910357120683
 20
38.4184596161241
 30
0.0
 10
57.36819500026276
 20
38.4184596161241
 30
0.0
 10
57.41435927977665
 20
38.4184596161241
 30
0.0
 10
57.41435927977665
 20
38.46117880015187
 30
0.0
 10
57.41435927977665
 20
39.13676202497825
 30
0.0
 10
57.41435927977665
 20
39.17982571855464
 30
0.0
 10
57.36819500026276
 20
39.17982571855464
 30
0.0
 10
54.2910357120683
 20
39.17982571855464
 30
0.0
 10
54.2910357120683
 20
39.17982571855464
 30
0.0
 10
54.2910357120683
 20
39.17982571855464
 30
0.0
 10
54.2910357120683
 20
39.56326484615882
 30
0.0
 10
54.2910357120683
 20
39.56326484615882
 30
0.0
 10
54.2910357120683
 20
39.56326484615882
 30
0.0
 10
57.62037598984609
 20
39.56326484615882
 30
0.0
 10
57.66654026935999
 20
39.56326484615882
 30
0.0
 10
57.66654026935999
 20
39.6063285397352
 30
0.0
 10
57.66654026935999
 20
40.41558146942271
 30
0.0
 10
57.66654026935999
 20
40.45898967254768
 30
0.0
 10
57.62140951849192
 20
40.45898967254768
 30
0.0
 10
55.77759441432526
 20
40.45898967254768
 30
0.0
 10
55.77759441432526
 20
40.45898967254768
 30
0.0
 10
55.77759441432526
 20
40.45898967254768
 30
0.0
 10
55.77759441432526
 20
40.48241632185325
 30
0.0
 10
55.77759441432526
 20
40.48241632185325
 30
0.0
 10
55.77759441432526
 20
40.50033081838103
 30
0.0
 10
55.94605958359609
 20
40.91684286265186
 30
0.0
 10
55.94812664088776
 20
40.92097697723519
 30
0.0
 10
55.94812664088776
 20
40.92097697723519
 30
0.0
 10
55.95432781276276
 20
40.93475735917964
 30
0.0
 10
55.95432781276276
 20
40.93475735917964
 30
0.0
 10
55.95432781276276
 20
40.93475735917964
 30
0.0
 10
57.93904732231136
 20
40.93475735917964
 30
0.0
 10
57.98452258272803
 20
40.93475735917964
 30
0.0
 10
57.98452258272803
 20
40.97816556230464
 30
0.0
 10
57.98452258272803
 20
41.88801528018657
 30
0.0
 10
57.98452258272803
 20
41.93176799286018
 30
0.0
 10
57.9400808509572
 20
41.93176799286018
 30
0.0
 10
56.83489421901274
 20
41.93176799286018
 30
0.0
 10
56.83489421901274
 20
41.93176799286018
 30
0.0
 10
56.83489421901274
 20
41.93176799286018
 30
0.0
 10
56.85659832057526
 20
41.96725247636714
 30
0.0
 10
56.85659832057526
 20
41.96725247636714
 30
0.0
 10
57.00645997422109
 20
42.21254327497825
 30
0.0
 10
57.1370290931447
 20
42.49883070987407
 30
0.0
 10
57.22625706623498
 20
42.70243585310325
 30
0.0
 10
57.17044651935998
 20
42.71208212046436
 30
0.0
 10
55.96707466606137
 20
42.91534275414489
 30
0.0
 10
55.92952312526275
 20
42.92154392601992
 30
0.0
 10
55.85993219644332
 20
42.69141154754769
 30
0.0
 10
55.69697917995025
 20
42.24079305796435
 30
0.0
 10
55.53195910616555
 20
41.94382582706157
 30
0.0
 10
55.53195910616555
 20
41.94382582706157
 30
0.0
 10
55.52506891519332
 20
41.93176799286018
 30
0.0
 10
55.52506891519332
 20
41.93176799286018
 30
0.0
 10
55.52506891519332
 20
41.93176799286018
 30
0.0
 10
55.11372451415165
 20
41.93176799286018
 30
0.0
 10
55.11372451415165
 20
41.93176799286018
 30
0.0
 10
55.11372451415165
 20
41.93176799286018
 30
0.0
 10
55.11372451415165
 20
42.85470907358936
 30
0.0
 10
55.11372451415165
 20
42.89949531490881
 30
0.0
 10
55.06997180147804
 20
42.89949531490881
 30
0.0
 10
53.96168458359611
 20
42.89949531490881
 30
0.0
 10
53.91724285182526
 20
42.89949531490881
 30
0.0
 10
53.91724285182526
 20
42.85470907358936
 30
0.0
 10
53.91724285182526
 20
41.93176799286018
 30
0.0
 10
53.91724285182526
 20
41.93176799286018
 30
0.0
 10
53.91724285182526
 20
41.93176799286018
 30
0.0
 10
53.34639052977665
 20
41.93176799286018
 30
0.0
 10
53.34639052977665
 20
41.93176799286018
 30
0.0
 10
53.34639052977665
 20
41.93176799286018
 30
0.0
 10
53.34639052977665
 20
42.85470907358936
 30
0.0
 10
53.34639052977665
 20
42.89949531490881
 30
0.0
 10
53.30229330755443
 20
42.89949531490881
 30
0.0
 10
52.20330784748497
 20
42.89949531490881
 30
0.0
 10
52.15921062526276
 20
42.89949531490881
 30
0.0
 10
52.15921062526276
 20
42.85470907358936
 30
0.0
 10
52.15921062526276
 20
41.93176799286018
 30
0.0
 10
52.15921062526276
 20
41.93176799286018
 30
0.0
 10
52.15921062526276
 20
41.93176799286018
 30
0.0
 10
51.72616212265859
 20
41.93176799286018
 30
0.0
 10
51.72616212265859
 20
41.93176799286018
 30
0.0
 10
51.72616212265859
 20
41.93176799286018
 30
0.0
 10
51.72099447942943
 20
41.94795994164493
 30
0.0
 10
51.72099447942943
 20
41.94795994164493
 30
0.0
 10
51.57836752630442
 20
42.40064548851992
 30
0.0
 10
51.46467937526274
 20
42.65007040171435
 30
0.0
 10
51.31860732665165
 20
42.92188843556853
 30
0.0
 10
51.28691244817943
 20
42.91672079233936
 30
0.0
 10
50.08422961397805
 20
42.7138046682074
 30
0.0
 10
50.02221789522804
 20
42.70346938174909
 30
0.0
  0
SPLINE
  5
E3B
330
E1F
100
AcDbEntity
  8
WAKU
100
AcDbSpline
210
0.0
220
0.0
230
1.0
 70
     9
 71
     3
 72
    41
 73
    37
 74
     0
 42
0.000000001
 43
0.0000000001
 40
0.0
 40
0.0
 40
0.0
 40
0.0
 40
1.0
 40
1.0
 40
1.0
 40
2.0
 40
2.0
 40
2.0
 40
3.0
 40
3.0
 40
3.0
 40
4.0
 40
4.0
 40
4.0
 40
5.0
 40
5.0
 40
5.0
 40
6.0
 40
6.0
 40
6.0
 40
7.0
 40
7.0
 40
7.0
 40
8.0
 40
8.0
 40
8.0
 40
9.0
 40
9.0
 40
9.0
 40
10.0
 40
10.0
 40
10.0
 40
11.0
 40
11.0
 40
11.0
 40
12.0
 40
12.0
 40
12.0
 40
12.0
 10
40.24538141519331
 20
42.52087932098517
 30
0.0
 10
40.24538141519331
 20
42.47678209876297
 30
0.0
 10
40.24538141519331
 20
41.33232137827685
 30
0.0
 10
40.24538141519331
 20
41.28822415605464
 30
0.0
 10
40.2912011851586
 20
41.28822415605464
 30
0.0
 10
43.54647190998497
 20
41.28822415605464
 30
0.0
 10
43.54647190998497
 20
41.28822415605464
 30
0.0
 10
43.54647190998497
 20
41.28822415605464
 30
0.0
 10
43.54647190998497
 20
36.63011054928381
 30
0.0
 10
43.54647190998497
 20
36.63011054928381
 30
0.0
 10
43.54647190998497
 20
36.63011054928381
 30
0.0
 10
39.91740832491553
 20
36.63011054928381
 30
0.0
 10
39.87124404540166
 20
36.63011054928381
 30
0.0
 10
39.87124404540166
 20
36.58566881751298
 30
0.0
 10
39.87124404540166
 20
35.43293986786022
 30
0.0
 10
39.87124404540166
 20
35.38884264563797
 30
0.0
 10
39.91775283446415
 20
35.38884264563797
 30
0.0
 10
48.60525012179054
 20
35.38884264563797
 30
0.0
 10
48.65141440130443
 20
35.38884264563797
 30
0.0
 10
48.65141440130443
 20
35.43293986786022
 30
0.0
 10
48.65141440130443
 20
36.58566881751298
 30
0.0
 10
48.65141440130443
 20
36.63011054928381
 30
0.0
 10
48.60525012179054
 20
36.63011054928381
 30
0.0
 10
44.9765310462697
 20
36.63011054928381
 30
0.0
 10
44.9765310462697
 20
36.63011054928381
 30
0.0
 10
44.9765310462697
 20
36.63011054928381
 30
0.0
 10
44.9765310462697
 20
41.28822415605464
 30
0.0
 10
44.9765310462697
 20
41.28822415605464
 30
0.0
 10
44.9765310462697
 20
41.28822415605464
 30
0.0
 10
48.24075901935998
 20
41.28822415605464
 30
0.0
 10
48.28692329887386
 20
41.28822415605464
 30
0.0
 10
48.28692329887386
 20
41.33232137827685
 30
0.0
 10
48.28692329887386
 20
42.47678209876297
 30
0.0
 10
48.28692329887386
 20
42.52087932098517
 30
0.0
 10
48.24041450981138
 20
42.52087932098517
 30
0.0
 10
40.29154569470721
 20
42.52087932098517
 30
0.0
 10
40.24538141519331
 20
42.52087932098517
 30
0.0
  0
SPLINE
  5
E3C
330
E1F
100
AcDbEntity
  8
WAKU
100
AcDbSpline
210
0.0
220
0.0
230
1.0
 70
     9
 71
     3
 72
    17
 73
    13
 74
     0
 42
0.000000001
 43
0.0000000001
 40
0.0
 40
0.0
 40
0.0
 40
0.0
 40
1.0
 40
1.0
 40
1.0
 40
2.0
 40
2.0
 40
2.0
 40
3.0
 40
3.0
 40
3.0
 40
4.0
 40
4.0
 40
4.0
 40
4.0
 10
22.23166613741554
 20
36.78789592254771
 30
0.0
 10
25.25198135008916
 20
37.05695788001297
 30
0.0
 10
27.22498753498499
 20
37.56200887827687
 30
0.0
 10
28.49691678845721
 20
41.30717218122825
 30
0.0
 10
28.49691678845721
 20
41.30717218122825
 30
0.0
 10
29.86186362005443
 20
40.66741794945742
 30
0.0
 10
29.86186362005443
 20
40.66741794945742
 30
0.0
 10
28.41251194904748
 20
36.82992608747826
 30
0.0
 10
26.33684191866554
 20
35.7860621551866
 30
0.0
 10
22.65265680581832
 20
35.3488795379991
 30
0.0
 10
22.65265680581832
 20
35.3488795379991
 30
0.0
 10
22.23166613741554
 20
36.78789592254771
 30
0.0
 10
22.23166613741554
 20
36.78789592254771
 30
0.0
  0
SPLINE
  5
E3D
330
E1F
100
AcDbEntity
  8
WAKU
100
AcDbSpline
210
0.0
220
0.0
230
1.0
 70
     9
 71
     3
 72
    17
 73
    13
 74
     0
 42
0.000000001
 43
0.0000000001
 40
0.0
 40
0.0
 40
0.0
 40
0.0
 40
1.0
 40
1.0
 40
1.0
 40
2.0
 40
2.0
 40
2.0
 40
3.0
 40
3.0
 40
3.0
 40
4.0
 40
4.0
 40
4.0
 40
4.0
 10
24.45719782144332
 20
38.40364570553381
 30
0.0
 10
23.34443197942943
 20
38.92523316213104
 30
0.0
 10
22.37188152370026
 20
39.2029078583116
 30
0.0
 10
21.70801162352665
 20
39.3799857662977
 30
0.0
 10
21.70801162352665
 20
39.3799857662977
 30
0.0
 10
22.20341635442943
 20
40.52444648678378
 30
0.0
 10
22.20341635442943
 20
40.52444648678378
 30
0.0
 10
22.75532065130443
 20
40.40662422115882
 30
0.0
 10
24.08306045165165
 20
40.06969388261715
 30
0.0
 10
25.00875760876971
 20
39.63216675588103
 30
0.0
 10
25.00875760876971
 20
39.63216675588103
 30
0.0
 10
24.45719782144332
 20
38.40364570553381
 30
0.0
 10
24.45719782144332
 20
38.40364570553381
 30
0.0
  0
SPLINE
  5
E3E
330
E1F
100
AcDbEntity
  8
WAKU
100
AcDbSpline
210
0.0
220
0.0
230
1.0
 70
     9
 71
     3
 72
    17
 73
    13
 74
     0
 42
0.000000001
 43
0.0000000001
 40
0.0
 40
0.0
 40
0.0
 40
0.0
 40
1.0
 40
1.0
 40
1.0
 40
2.0
 40
2.0
 40
2.0
 40
3.0
 40
3.0
 40
3.0
 40
4.0
 40
4.0
 40
4.0
 40
4.0
 10
29.31960559054054
 20
41.70266914303382
 30
0.0
 10
29.24484701849193
 20
42.03925497202686
 30
0.0
 10
29.09532987439471
 20
42.53569323157547
 30
0.0
 10
28.90826118949887
 20
42.92292196421437
 30
0.0
 10
28.90826118949887
 20
42.92292196421437
 30
0.0
 10
29.72130372422109
 20
43.04074422983936
 30
0.0
 10
29.72130372422109
 20
43.04074422983936
 30
0.0
 10
29.96487197508915
 20
42.56945516733935
 30
0.0
 10
30.13299263481137
 20
41.92970093556853
 30
0.0
 10
30.15159615043637
 20
41.85425334442268
 30
0.0
 10
30.15159615043637
 20
41.85425334442268
 30
0.0
 10
29.31960559054054
 20
41.70266914303382
 30
0.0
 10
29.31960559054054
 20
41.70266914303382
 30
0.0
  0
SPLINE
  5
E3F
330
E1F
100
AcDbEntity
  8
WAKU
100
AcDbSpline
210
0.0
220
0.0
230
1.0
 70
     9
 71
     3
 72
    17
 73
    13
 74
     0
 42
0.000000001
 43
0.0000000001
 40
0.0
 40
0.0
 40
0.0
 40
0.0
 40
1.0
 40
1.0
 40
1.0
 40
2.0
 40
2.0
 40
2.0
 40
3.0
 40
3.0
 40
3.0
 40
4.0
 40
4.0
 40
4.0
 40
4.0
 10
27.95431424939471
 20
41.50905477671435
 30
0.0
 10
27.91710721814471
 20
41.70266914303382
 30
0.0
 10
27.78584908012387
 20
42.36722806230464
 30
0.0
 10
27.58982314696415
 20
42.83851712480464
 30
0.0
 10
27.58982314696415
 20
42.83851712480464
 30
0.0
 10
28.42181370685999
 20
42.94772665171436
 30
0.0
 10
28.42181370685999
 20
42.94772665171436
 30
0.0
 10
28.5058740367211
 20
42.75445679494352
 30
0.0
 10
28.63678766519332
 20
42.48505032792964
 30
0.0
 10
28.83315810790165
 20
41.66890720726992
 30
0.0
 10
28.83315810790165
 20
41.66890720726992
 30
0.0
 10
27.95431424939471
 20
41.50905477671435
 30
0.0
 10
27.95431424939471
 20
41.50905477671435
 30
0.0
  0
SPLINE
  5
E40
330
E1F
100
AcDbEntity
  8
WAKU
100
AcDbSpline
210
0.0
220
0.0
230
1.0
 70
     9
 71
     3
 72
    17
 73
    13
 74
     0
 42
0.000000001
 43
0.0000000001
 40
0.0
 40
0.0
 40
0.0
 40
0.0
 40
1.0
 40
1.0
 40
1.0
 40
2.0
 40
2.0
 40
2.0
 40
3.0
 40
3.0
 40
3.0
 40
4.0
 40
4.0
 40
4.0
 40
4.0
 10
25.27988662352665
 20
40.4403861569227
 30
0.0
 10
24.27012913654749
 20
40.88618151282547
 30
0.0
 10
23.50359539088776
 20
41.11355781490881
 30
0.0
 10
22.45594185356138
 20
41.35747057532547
 30
0.0
 10
22.45594185356138
 20
41.35747057532547
 30
0.0
 10
22.98924263481137
 20
42.49366306664492
 30
0.0
 10
22.98924263481137
 20
42.49366306664492
 30
0.0
 10
24.05481066866554
 20
42.28316773244353
 30
0.0
 10
24.84993870685999
 20
42.06440416907547
 30
0.0
 10
25.86899795165165
 20
41.66890720726992
 30
0.0
 10
25.86899795165165
 20
41.66890720726992
 30
0.0
 10
25.27988662352665
 20
40.4403861569227
 30
0.0
 10
25.27988662352665
 20
40.4403861569227
 30
0.0
  0
SPLINE
  5
E41
330
E1F
100
AcDbEntity
  8
WAKU
100
AcDbSpline
210
0.0
220
0.0
230
1.0
 70
    11
 71
     3
 72
    32
 73
    28
 74
     0
 42
0.000000001
 43
0.0000000001
 40
0.0
 40
0.0
 40
0.0
 40
0.0
 40
1.0
 40
1.0
 40
1.0
 40
2.0
 40
2.0
 40
2.0
 40
3.0
 40
3.0
 40
3.0
 40
4.0
 40
4.0
 40
4.0
 40
5.0
 40
5.0
 40
5.0
 40
6.0
 40
6.0
 40
6.0
 40
7.0
 40
7.0
 40
7.0
 40
8.0
 40
8.0
 40
8.0
 40
9.0
 40
9.0
 40
9.0
 40
9.0
 10
17.82917861571415
 20
35.36541599633242
 30
0.0
 10
17.82917861571415
 20
35.36541599633242
 30
0.0
 10
16.24891331623498
 20
35.36541599633242
 30
0.0
 10
16.24891331623498
 20
35.36541599633242
 30
0.0
 10
16.24891331623498
 20
35.36541599633242
 30
0.0
 10
16.24891331623498
 20
38.79914266733937
 30
0.0
 10
16.24891331623498
 20
38.79914266733937
 30
0.0
 10
14.98663033012387
 20
38.13423923851992
 30
0.0
 10
13.86421822074886
 20
37.77250421247825
 30
0.0
 10
13.12558974852665
 20
37.54512791039493
 30
0.0
 10
13.12558974852665
 20
37.54512791039493
 30
0.0
 10
12.30290094644331
 20
38.68132040171437
 30
0.0
 10
12.30290094644331
 20
38.68132040171437
 30
0.0
 10
13.72400283446415
 20
39.04305542775603
 30
0.0
 10
15.06138890217249
 20
39.64077949459632
 30
0.0
 10
16.2864648570336
 20
40.3811305145616
 30
0.0
 10
17.63280817300582
 20
41.19761814476992
 30
0.0
 10
18.52129829887387
 20
42.06440416907547
 30
0.0
 10
19.20377171467248
 20
42.77133776282545
 30
0.0
 10
19.20377171467248
 20
42.77133776282545
 30
0.0
 10
20.54081327283221
 20
41.93831367428381
 30
0.0
 10
20.54081327283221
 20
41.93831367428381
 30
0.0
 10
19.74602974418637
 20
41.16385620900604
 30
0.0
 10
19.02600478758914
 20
40.5582084225477
 30
0.0
 10
17.82917861571415
 20
39.74998902150603
 30
0.0
 10
17.82917861571415
 20
39.74998902150603
 30
0.0
 10
17.82917861571415
 20
35.36541599633242
 30
0.0
 10
17.82917861571415
 20
35.36541599633242
 30
0.0
  0
SPLINE
  5
E42
330
E1F
100
AcDbEntity
  8
WAKU
100
AcDbSpline
210
0.0
220
0.0
230
1.0
 70
     9
 71
     3
 72
    41
 73
    37
 74
     0
 42
0.000000001
 43
0.0000000001
 40
0.0
 40
0.0
 40
0.0
 40
0.0
 40
1.0
 40
1.0
 40
1.0
 40
2.0
 40
2.0
 40
2.0
 40
3.0
 40
3.0
 40
3.0
 40
4.0
 40
4.0
 40
4.0
 40
5.0
 40
5.0
 40
5.0
 40
6.0
 40
6.0
 40
6.0
 40
7.0
 40
7.0
 40
7.0
 40
8.0
 40
8.0
 40
8.0
 40
9.0
 40
9.0
 40
9.0
 40
10.0
 40
10.0
 40
10.0
 40
11.0
 40
11.0
 40
11.0
 40
12.0
 40
12.0
 40
12.0
 40
12.0
 10
3.74907336397804
 20
36.2914576629991
 30
0.0
 10
4.515951619186372
 20
36.56051962046436
 30
0.0
 10
6.133423949915536
 20
37.12448175154076
 30
0.0
 10
6.526509344880821
 20
38.98448880449215
 30
0.0
 10
6.666724731165542
 20
39.62389852671437
 30
0.0
 10
6.657078463804432
 20
40.14548598331159
 30
0.0
 10
6.648121215540541
 20
40.58335761959629
 30
0.0
 10
6.648121215540541
 20
40.58335761959629
 30
0.0
 10
8.2094384898461
 20
40.57508939042963
 30
0.0
 10
8.2094384898461
 20
40.57508939042963
 30
0.0
 10
8.200136732033596
 20
40.21300985483935
 30
0.0
 10
8.190834974221097
 20
39.94360338782548
 30
0.0
 10
8.134335408248871
 20
39.48919529320742
 30
0.0
 10
8.836101358769711
 20
39.78375095726992
 30
0.0
 10
9.54682455755443
 20
40.21300985483935
 30
0.0
 10
9.9767724742211
 20
41.1473197506727
 30
0.0
 10
9.9767724742211
 20
41.1473197506727
 30
0.0
 10
3.67431479192943
 20
41.1473197506727
 30
0.0
 10
3.67431479192943
 20
41.1473197506727
 30
0.0
 10
3.67431479192943
 20
41.1473197506727
 30
0.0
 10
3.67431479192943
 20
42.43440742428381
 30
0.0
 10
3.67431479192943
 20
42.43440742428381
 30
0.0
 10
3.67431479192943
 20
42.43440742428381
 30
0.0
 10
11.88432184488082
 20
42.43440742428381
 30
0.0
 10
11.88432184488082
 20
42.43440742428381
 30
0.0
 10
11.59458931449887
 20
40.36424954667963
 30
0.0
 10
10.65924589001971
 20
39.27869995900604
 30
0.0
 10
9.097928615714151
 20
38.46255683834632
 30
0.0
 10
9.097928615714151
 20
38.46255683834632
 30
0.0
 10
8.115731892623877
 20
39.3799857662977
 30
0.0
 10
8.115731892623877
 20
39.3799857662977
 30
0.0
 10
7.86355090304054
 20
37.67121840518659
 30
0.0
 10
7.246189791929432
 20
36.34175605709631
 30
0.0
 10
4.721623819707209
 20
35.22244453365882
 30
0.0
 10
4.721623819707209
 20
35.22244453365882
 30
0.0
 10
3.74907336397804
 20
36.2914576629991
 30
0.0
 10
3.74907336397804
 20
36.2914576629991
 30
0.0
  0
ENDBLK
  5
E43
330
E1F
100
AcDbEntity
  8
0
100
AcDbBlockEnd
  0
BLOCK
  5
14C6
330
14C3
100
AcDbEntity
  8
0
100
AcDbBlockBegin
  2
_DotBlank
 70
     0
 10
0.0
 20
0.0
 30
0.0
  3
_DotBlank
  1

  0
CIRCLE
  5
14C4
330
14C3
100
AcDbEntity
  8
0
  6
ByBlock
 62
     0
370
    -2
100
AcDbCircle
 10
0.0
 20
0.0
 30
0.0
 40
0.5
  0
LINE
  5
14C5
330
14C3
100
AcDbEntity
  8
0
  6
ByBlock
 62
     0
370
    -2
100
AcDbLine
 10
-0.5
 20
0.0
 30
0.0
 11
-1.0
 21
0.0
 31
0.0
  0
ENDBLK
  5
14C7
330
14C3
100
AcDbEntity
  8
0
100
AcDbBlockEnd
  0
BLOCK
  5
382E
330
382D
100
AcDbEntity
  8
0
100
AcDbBlockBegin
  2
*D3
 70
     1
 10
0.0
 20
0.0
 30
0.0
  3
*D3
  1

  0
LINE
  5
41E9
330
382D
100
AcDbEntity
  8
SUNPOU
 62
     0
440
 16777216
370
    -2
100
AcDbLine
 10
341.8665225536606
 20
215.8427198658715
 30
0.0
 11
341.8665225536606
 21
255.3867258707673
 31
0.0
  0
LINE
  5
41EA
330
382D
100
AcDbEntity
  8
SUNPOU
 62
     0
440
 16777216
370
    -2
100
AcDbLine
 10
343.3665225536606
 20
255.3867258707673
 30
0.0
 11
354.3665225536586
 21
255.3867258707673
 31
0.0
  0
INSERT
  5
41EB
330
382D
100
AcDbEntity
  8
SUNPOU
 62
     0
440
 16777216
370
    -2
100
AcDbBlockReference
  2
_DotBlank
 10
341.8665225536606
 20
255.3867258707673
 30
0.0
 41
1.5
 42
1.5
 43
1.5
 50
180.0
  0
INSERT
  5
41EC
330
382D
100
AcDbEntity
  8
SUNPOU
 62
     0
440
 16777216
370
    -2
100
AcDbBlockReference
  2
_DotBlank
 10
355.8665225536586
 20
255.3867258707673
 30
0.0
 41
1.5
 42
1.5
 43
1.5
  0
MTEXT
  5
41ED
330
382D
100
AcDbEntity
  8
SUNPOU
 62
     0
440
 16777216
100
AcDbMText
 10
348.8665225536596
 20
258.5117258707673
 30
0.0
 40
5.0
 41
0.0
 46
0.0
 71
     5
 72
     1
  1
\A1;15
 73
     1
 44
1.0
  0
POINT
  5
41EE
330
382D
100
AcDbEntity
  8
DEFPOINTS
 62
     0
440
 16777216
100
AcDbPoint
 10
341.8665225536606
 20
210.8427198658715
 30
-0.0000000000033418
  0
POINT
  5
41EF
330
382D
100
AcDbEntity
  8
DEFPOINTS
 62
     0
440
 16777216
100
AcDbPoint
 10
355.8665225536586
 20
255.3867258707673
 30
0.0
  0
POINT
  5
41F0
330
382D
100
AcDbEntity
  8
DEFPOINTS
 62
     0
440
 16777216
100
AcDbPoint
 10
355.8665225536586
 20
255.3867258707673
 30
0.0
  0
ENDBLK
  5
382F
330
382D
100
AcDbEntity
  8
0
100
AcDbBlockEnd
  0
BLOCK
  5
3839
330
3838
100
AcDbEntity
  8
0
100
AcDbBlockBegin
  2
*D4
 70
     1
 10
0.0
 20
0.0
 30
0.0
  3
*D4
  1

  0
LINE
  5
4157
330
3838
100
AcDbEntity
  8
SUNPOU
 62
     0
440
 16777216
370
    -2
100
AcDbLine
 10
337.8665225536606
 20
170.8427198658714
 30
0.0
 11
306.8284545938209
 21
170.8427198658714
 31
0.0
  0
LINE
  5
4158
330
3838
100
AcDbEntity
  8
SUNPOU
 62
     0
440
 16777216
370
    -2
100
AcDbLine
 10
336.8665225536606
 20
210.8427198658715
 30
0.0
 11
306.8284545938209
 21
210.8427198658715
 31
0.0
  0
LINE
  5
4159
330
3838
100
AcDbEntity
  8
SUNPOU
 62
     0
440
 16777216
370
    -2
100
AcDbLine
 10
306.8284545938209
 20
172.3427198658714
 30
0.0
 11
306.8284545938209
 21
209.3427198658715
 31
0.0
  0
INSERT
  5
415A
330
3838
100
AcDbEntity
  8
SUNPOU
 62
     0
440
 16777216
370
    -2
100
AcDbBlockReference
  2
_DotBlank
 10
306.8284545938209
 20
170.8427198658714
 30
0.0
 41
1.5
 42
1.5
 43
1.5
 50
270.0
  0
INSERT
  5
415B
330
3838
100
AcDbEntity
  8
SUNPOU
 62
     0
440
 16777216
370
    -2
100
AcDbBlockReference
  2
_DotBlank
 10
306.8284545938209
 20
210.8427198658715
 30
0.0
 41
1.5
 42
1.5
 43
1.5
 50
90.0
  0
MTEXT
  5
415C
330
3838
100
AcDbEntity
  8
SUNPOU
 62
     0
440
 16777216
100
AcDbMText
 10
303.7034545938208
 20
190.8427198658715
 30
0.0
 40
5.0
 41
0.0
 46
0.0
 71
     5
 72
     1
  1
\A1;40
 11
0.0000000000000001
 21
1.0
 31
0.0
 73
     1
 44
1.0
  0
POINT
  5
415D
330
3838
100
AcDbEntity
  8
DEFPOINTS
 62
     0
440
 16777216
100
AcDbPoint
 10
342.8665225536606
 20
170.8427198658714
 30
0.0
  0
POINT
  5
415E
330
3838
100
AcDbEntity
  8
DEFPOINTS
 62
     0
440
 16777216
100
AcDbPoint
 10
341.8665225536606
 20
210.8427198658715
 30
0.0
  0
POINT
  5
415F
330
3838
100
AcDbEntity
  8
DEFPOINTS
 62
     0
440
 16777216
100
AcDbPoint
 10
306.8284545938209
 20
210.8427198658715
 30
0.0
  0
ENDBLK
  5
383A
330
3838
100
AcDbEntity
  8
0
100
AcDbBlockEnd
  0
BLOCK
  5
3845
330
3844
100
AcDbEntity
  8
0
100
AcDbBlockBegin
  2
*D5
 70
     1
 10
0.0
 20
0.0
 30
0.0
  3
*D5
  1

  0
LINE
  5
4241
330
3844
100
AcDbEntity
  8
SUNPOU
 62
     0
440
 16777216
370
    -2
100
AcDbLine
 10
407.3665225536606
 20
202.3260491328208
 30
0.0
 11
407.3665225536606
 21
74.90818478498977
 31
0.0
  0
LINE
  5
4242
330
3844
100
AcDbEntity
  8
SUNPOU
 62
     0
440
 16777216
370
    -2
100
AcDbLine
 10
341.8665225536606
 20
166.8427198658714
 30
0.0
 11
341.8665225536606
 21
74.90818478498977
 31
0.0
  0
LINE
  5
4243
330
3844
100
AcDbEntity
  8
SUNPOU
 62
     0
440
 16777216
370
    -2
100
AcDbLine
 10
405.8665225536606
 20
74.90818478498977
 30
0.0
 11
343.3665225536606
 21
74.90818478498977
 31
0.0
  0
INSERT
  5
4244
330
3844
100
AcDbEntity
  8
SUNPOU
 62
     0
440
 16777216
370
    -2
100
AcDbBlockReference
  2
_DotBlank
 10
407.3665225536606
 20
74.90818478498977
 30
0.0
 41
1.5
 42
1.5
 43
1.5
  0
INSERT
  5
4245
330
3844
100
AcDbEntity
  8
SUNPOU
 62
     0
440
 16777216
370
    -2
100
AcDbBlockReference
  2
_DotBlank
 10
341.8665225536606
 20
74.90818478498977
 30
0.0
 41
1.5
 42
1.5
 43
1.5
 50
180.0
  0
MTEXT
  5
4246
330
3844
100
AcDbEntity
  8
SUNPOU
 62
     0
440
 16777216
100
AcDbMText
 10
374.8162061552394
 20
78.03318478498977
 30
0.0
 40
5.0
 41
0.0
 46
0.0
 71
     5
 72
     1
  1
\A1;65
 73
     1
 44
1.0
  0
POINT
  5
4247
330
3844
100
AcDbEntity
  8
DEFPOINTS
 62
     0
440
 16777216
100
AcDbPoint
 10
407.3665225536606
 20
207.3260491328208
 30
0.0
  0
POINT
  5
4248
330
3844
100
AcDbEntity
  8
DEFPOINTS
 62
     0
440
 16777216
100
AcDbPoint
 10
341.8665225536606
 20
171.8427198658714
 30
0.0
  0
POINT
  5
4249
330
3844
100
AcDbEntity
  8
DEFPOINTS
 62
     0
440
 16777216
100
AcDbPoint
 10
341.8665225536606
 20
74.90818478498977
 30
0.0
  0
ENDBLK
  5
3846
330
3844
100
AcDbEntity
  8
0
100
AcDbBlockEnd
  0
BLOCK
  5
3883
330
3882
100
AcDbEntity
  8
0
100
AcDbBlockBegin
  2
*D6
 70
     1
 10
0.0
 20
0.0
 30
0.0
  3
*D6
  1

  0
LINE
  5
490B
330
3882
100
AcDbEntity
  8
SUNPOU
 62
     0
440
 16777216
370
    -2
100
AcDbLine
 10
411.8665225536608
 20
247.3260527658718
 30
0.0
 11
449.6642600556
 21
247.3260527658719
 31
0.0
  0
LINE
  5
490C
330
3882
100
AcDbEntity
  8
SUNPOU
 62
     0
440
 16777216
370
    -2
100
AcDbLine
 10
411.1831381751231
 20
222.3260527658718
 30
0.0
 11
449.6642600556
 21
222.3260527658719
 31
0.0
  0
LINE
  5
490D
330
3882
100
AcDbEntity
  8
SUNPOU
 62
     0
440
 16777216
370
    -2
100
AcDbLine
 10
449.6642600556
 20
245.8260527658719
 30
0.0
 11
449.6642600556
 21
223.8260527658718
 31
0.0
  0
INSERT
  5
490E
330
3882
100
AcDbEntity
  8
SUNPOU
 62
     0
440
 16777216
370
    -2
100
AcDbBlockReference
  2
_DotBlank
 10
449.6642600556
 20
247.3260527658719
 30
0.0
 41
1.5
 42
1.5
 43
1.5
 50
90.0
  0
INSERT
  5
490F
330
3882
100
AcDbEntity
  8
SUNPOU
 62
     0
440
 16777216
370
    -2
100
AcDbBlockReference
  2
_DotBlank
 10
449.6642600556
 20
222.3260527658719
 30
0.0
 41
1.5
 42
1.5
 43
1.5
 50
270.0
  0
MTEXT
  5
4910
330
3882
100
AcDbEntity
  8
SUNPOU
 62
     0
440
 16777216
100
AcDbMText
 10
446.5392600556
 20
234.5760527658709
 30
0.0
 40
5.0
 41
0.0
 46
0.0
 71
     5
 72
     1
  1
\A1;25
 11
0.0000000000000001
 21
1.0
 31
0.0
 73
     1
 44
1.0
  0
POINT
  5
4911
330
3882
100
AcDbEntity
  8
DEFPOINTS
 62
     0
440
 16777216
100
AcDbPoint
 10
406.8665225536609
 20
247.3260527658718
 30
0.0
  0
POINT
  5
4912
330
3882
100
AcDbEntity
  8
DEFPOINTS
 62
     0
440
 16777216
100
AcDbPoint
 10
406.1831381751231
 20
222.3260527658718
 30
0.0
  0
POINT
  5
4913
330
3882
100
AcDbEntity
  8
DEFPOINTS
 62
     0
440
 16777216
100
AcDbPoint
 10
449.6642600556
 20
222.3260527658719
 30
0.0
  0
ENDBLK
  5
3884
330
3882
100
AcDbEntity
  8
0
100
AcDbBlockEnd
  0
BLOCK
  5
388F
330
388E
100
AcDbEntity
  8
0
100
AcDbBlockBegin
  2
*D7
 70
     1
 10
0.0
 20
0.0
 30
0.0
  3
*D7
  1

  0
LINE
  5
417B
330
388E
100
AcDbEntity
  8
SUNPOU
 62
     0
440
 16777216
370
    -2
100
AcDbLine
 10
411.6165225536606
 20
302.3260527658717
 30
0.0
 11
479.6274413586251
 21
302.3260527658717
 31
0.0
  0
LINE
  5
417C
330
388E
100
AcDbEntity
  8
SUNPOU
 62
     0
440
 16777216
370
    -2
100
AcDbLine
 10
411.8665225536607
 20
222.3260527658717
 30
0.0
 11
479.6274413586251
 21
222.3260527658717
 31
0.0
  0
LINE
  5
417D
330
388E
100
AcDbEntity
  8
SUNPOU
 62
     0
440
 16777216
370
    -2
100
AcDbLine
 10
479.6274413586251
 20
300.8260527658717
 30
0.0
 11
479.6274413586251
 21
223.8260527658717
 31
0.0
  0
INSERT
  5
417E
330
388E
100
AcDbEntity
  8
SUNPOU
 62
     0
440
 16777216
370
    -2
100
AcDbBlockReference
  2
_DotBlank
 10
479.6274413586251
 20
302.3260527658717
 30
0.0
 41
1.5
 42
1.5
 43
1.5
 50
90.0
  0
INSERT
  5
417F
330
388E
100
AcDbEntity
  8
SUNPOU
 62
     0
440
 16777216
370
    -2
100
AcDbBlockReference
  2
_DotBlank
 10
479.6274413586251
 20
222.3260527658717
 30
0.0
 41
1.5
 42
1.5
 43
1.5
 50
270.0
  0
MTEXT
  5
4180
330
388E
100
AcDbEntity
  8
SUNPOU
 62
     0
440
 16777216
100
AcDbMText
 10
476.502441358625
 20
262.3260527658727
 30
0.0
 40
5.0
 41
0.0
 46
0.0
 71
     5
 72
     1
  1
\A1;80
 11
0.0000000000000001
 21
1.0
 31
0.0
 73
     1
 44
1.0
  0
POINT
  5
4181
330
388E
100
AcDbEntity
  8
DEFPOINTS
 62
     0
440
 16777216
100
AcDbPoint
 10
406.6165225536606
 20
302.3260527658717
 30
0.0
  0
POINT
  5
4182
330
388E
100
AcDbEntity
  8
DEFPOINTS
 62
     0
440
 16777216
100
AcDbPoint
 10
406.8665225536606
 20
222.3260527658717
 30
0.0
  0
POINT
  5
4183
330
388E
100
AcDbEntity
  8
DEFPOINTS
 62
     0
440
 16777216
100
AcDbPoint
 10
479.6274413586251
 20
222.3260527658717
 30
0.0
  0
ENDBLK
  5
3890
330
388E
100
AcDbEntity
  8
0
100
AcDbBlockEnd
  0
BLOCK
  5
39AD
330
39AC
100
AcDbEntity
  8
0
 62
     2
100
AcDbBlockBegin
  2
*D8
 70
     1
 10
0.0
 20
0.0
 30
0.0
  3
*D8
  1

  0
LINE
  5
42F3
330
39AC
100
AcDbEntity
  8
SUNPOU
 62
     0
440
 16777216
370
    -2
100
AcDbLine
 10
355.8665225536553
 20
431.8260527658719
 30
0.0
 11
355.8665225536553
 21
456.8260527658719
 31
0.0
  0
LINE
  5
42F4
330
39AC
100
AcDbEntity
  8
SUNPOU
 62
     0
440
 16777216
370
    -2
100
AcDbLine
 10
405.8665225536588
 20
431.8260527658719
 30
0.0
 11
405.8665225536588
 21
456.8260527658719
 31
0.0
  0
LINE
  5
42F5
330
39AC
100
AcDbEntity
  8
SUNPOU
 62
     0
440
 16777216
370
    -2
100
AcDbLine
 10
357.3665225536553
 20
456.8260527658719
 30
0.0
 11
404.3665225536588
 21
456.8260527658719
 31
0.0
  0
INSERT
  5
42F6
330
39AC
100
AcDbEntity
  8
SUNPOU
 62
     0
440
 16777216
370
    -2
100
AcDbBlockReference
  2
_DotBlank
 10
355.8665225536553
 20
456.8260527658719
 30
0.0
 41
1.5
 42
1.5
 43
1.5
 50
180.0
  0
INSERT
  5
42F7
330
39AC
100
AcDbEntity
  8
SUNPOU
 62
     0
440
 16777216
370
    -2
100
AcDbBlockReference
  2
_DotBlank
 10
405.8665225536588
 20
456.8260527658719
 30
0.0
 41
1.5
 42
1.5
 43
1.5
  0
MTEXT
  5
42F8
330
39AC
100
AcDbEntity
  8
SUNPOU
 62
     0
440
 16777216
100
AcDbMText
 10
380.8665225536572
 20
459.9510527658719
 30
0.0
 40
5.0
 41
0.0
 46
0.0
 71
     5
 72
     1
  1
\A1;50
 73
     1
 44
1.0
  0
POINT
  5
42F9
330
39AC
100
AcDbEntity
  8
DEFPOINTS
 62
     0
440
 16777216
100
AcDbPoint
 10
355.8665225536553
 20
426.8260527658719
 30
-0.000000000000307
  0
POINT
  5
42FA
330
39AC
100
AcDbEntity
  8
DEFPOINTS
 62
     0
440
 16777216
100
AcDbPoint
 10
405.8665225536588
 20
426.8260527658719
 30
0.0000000000000015
  0
POINT
  5
42FB
330
39AC
100
AcDbEntity
  8
DEFPOINTS
 62
     0
440
 16777216
100
AcDbPoint
 10
405.8665225536588
 20
456.8260527658719
 30
0.0
  0
ENDBLK
  5
39AE
330
39AC
100
AcDbEntity
  8
0
 62
     2
100
AcDbBlockEnd
  0
BLOCK
  5
39B9
330
39B8
100
AcDbEntity
  8
0
 62
     2
100
AcDbBlockBegin
  2
*D9
 70
     1
 10
0.0
 20
0.0
 30
0.0
  3
*D9
  1

  0
LINE
  5
42FC
330
39B8
100
AcDbEntity
  8
SUNPOU
 62
     0
440
 16777216
370
    -2
100
AcDbLine
 10
407.3665225536589
 20
431.8260527658719
 30
0.0
 11
407.3665225536589
 21
456.8260527658719
 31
0.0
  0
LINE
  5
42FD
330
39B8
100
AcDbEntity
  8
SUNPOU
 62
     0
440
 16777216
370
    -2
100
AcDbLine
 10
507.3665225536588
 20
431.8260527658719
 30
0.0
 11
507.3665225536588
 21
456.8260527658719
 31
0.0
  0
LINE
  5
42FE
330
39B8
100
AcDbEntity
  8
SUNPOU
 62
     0
440
 16777216
370
    -2
100
AcDbLine
 10
408.8665225536589
 20
456.8260527658719
 30
0.0
 11
505.8665225536588
 21
456.8260527658719
 31
0.0
  0
INSERT
  5
42FF
330
39B8
100
AcDbEntity
  8
SUNPOU
 62
     0
440
 16777216
370
    -2
100
AcDbBlockReference
  2
_DotBlank
 10
407.3665225536589
 20
456.8260527658719
 30
0.0
 41
1.5
 42
1.5
 43
1.5
 50
180.0
  0
INSERT
  5
4300
330
39B8
100
AcDbEntity
  8
SUNPOU
 62
     0
440
 16777216
370
    -2
100
AcDbBlockReference
  2
_DotBlank
 10
507.3665225536588
 20
456.8260527658719
 30
0.0
 41
1.5
 42
1.5
 43
1.5
  0
MTEXT
  5
4301
330
39B8
100
AcDbEntity
  8
SUNPOU
 62
     0
440
 16777216
100
AcDbMText
 10
457.3665225536589
 20
459.9510527658719
 30
0.0
 40
5.0
 41
0.0
 46
0.0
 71
     5
 72
     1
  1
\A1;100
 73
     1
 44
1.0
  0
POINT
  5
4302
330
39B8
100
AcDbEntity
  8
DEFPOINTS
 62
     0
440
 16777216
100
AcDbPoint
 10
407.3665225536589
 20
426.8260527658719
 30
0.0
  0
POINT
  5
4303
330
39B8
100
AcDbEntity
  8
DEFPOINTS
 62
     0
440
 16777216
100
AcDbPoint
 10
507.3665225536588
 20
426.8260527658719
 30
0.0
  0
POINT
  5
4304
330
39B8
100
AcDbEntity
  8
DEFPOINTS
 62
     0
440
 16777216
100
AcDbPoint
 10
507.3665225536588
 20
456.8260527658719
 30
0.0
  0
ENDBLK
  5
39BA
330
39B8
100
AcDbEntity
  8
0
 62
     2
100
AcDbBlockEnd
  0
BLOCK
  5
4141
330
4140
100
AcDbEntity
  8
0
100
AcDbBlockBegin
  2
*D10
 70
     1
 10
0.0
 20
0.0
 30
0.0
  3
*D10
  1

  0
LINE
  5
41A9
330
4140
100
AcDbEntity
  8
SUNPOU
 62
     0
440
 16777216
370
    -2
100
AcDbLine
 10
336.8665225536606
 20
210.8427198658715
 30
0.0
 11
306.8284545938209
 21
210.8427198658715
 31
0.0
  0
LINE
  5
41AA
330
4140
100
AcDbEntity
  8
SUNPOU
 62
     0
440
 16777216
370
    -2
100
AcDbLine
 10
388.3635473451893
 20
222.3260527658717
 30
0.0
 11
306.8284545938209
 21
222.3260527658717
 31
0.0
  0
LINE
  5
41AB
330
4140
100
AcDbEntity
  8
SUNPOU
 62
     0
440
 16777216
370
    -2
100
AcDbLine
 10
306.8284545938209
 20
212.3427198658716
 30
0.0
 11
306.8284545938209
 21
220.8260527658717
 31
0.0
  0
INSERT
  5
41AC
330
4140
100
AcDbEntity
  8
SUNPOU
 62
     0
440
 16777216
370
    -2
100
AcDbBlockReference
  2
_DotBlank
 10
306.8284545938209
 20
210.8427198658715
 30
0.0
 41
1.5
 42
1.5
 43
1.5
 50
270.0
  0
INSERT
  5
41AD
330
4140
100
AcDbEntity
  8
SUNPOU
 62
     0
440
 16777216
370
    -2
100
AcDbBlockReference
  2
_DotBlank
 10
306.8284545938209
 20
222.3260527658717
 30
0.0
 41
1.5
 42
1.5
 43
1.5
 50
90.0
  0
MTEXT
  5
41AE
330
4140
100
AcDbEntity
  8
SUNPOU
 62
     0
440
 16777216
100
AcDbMText
 10
303.7034545938208
 20
216.5843863158717
 30
0.0
 40
5.0
 41
0.0
 46
0.0
 71
     5
 72
     1
  1
\A1;11
 11
0.0000000000000001
 21
1.0
 31
0.0
 73
     1
 44
1.0
  0
POINT
  5
41AF
330
4140
100
AcDbEntity
  8
DEFPOINTS
 62
     0
440
 16777216
100
AcDbPoint
 10
341.8665225536606
 20
210.8427198658715
 30
0.0
  0
POINT
  5
41B0
330
4140
100
AcDbEntity
  8
DEFPOINTS
 62
     0
440
 16777216
100
AcDbPoint
 10
393.3635473451893
 20
222.3260527658717
 30
0.0
  0
POINT
  5
41B1
330
4140
100
AcDbEntity
  8
DEFPOINTS
 62
     0
440
 16777216
100
AcDbPoint
 10
306.8284545938209
 20
222.3260527658717
 30
0.0
  0
ENDBLK
  5
4142
330
4140
100
AcDbEntity
  8
0
100
AcDbBlockEnd
  0
BLOCK
  5
41F4
330
41F3
100
AcDbEntity
  8
0
100
AcDbBlockBegin
  2
*D11
 70
     1
 10
0.0
 20
0.0
 30
0.0
  3
*D11
  1

  0
LINE
  5
4914
330
41F3
100
AcDbEntity
  8
SUNPOU
 62
     0
440
 16777216
370
    -2
100
AcDbLine
 10
401.1831381751231
 20
222.3260527658718
 30
0.0
 11
306.828454593821
 21
222.3260527658718
 31
0.0
  0
LINE
  5
4915
330
41F3
100
AcDbEntity
  8
SUNPOU
 62
     0
440
 16777216
370
    -2
100
AcDbLine
 10
352.0665225536579
 20
226.8260527658694
 30
0.0
 11
306.828454593821
 21
226.8260527658694
 31
0.0
  0
LINE
  5
4916
330
41F3
100
AcDbEntity
  8
SUNPOU
 62
     0
440
 16777216
370
    -2
100
AcDbLine
 10
306.828454593821
 20
223.8260527658718
 30
0.0
 11
306.828454593821
 21
225.3260527658694
 31
0.0
  0
LINE
  5
4917
330
41F3
100
AcDbEntity
  8
SUNPOU
 62
     0
440
 16777216
370
    -2
100
AcDbLine
 10
306.828454593821
 20
226.8260527658694
 30
0.0
 11
306.828454593821
 21
232.9093860992028
 31
0.0
  0
INSERT
  5
4918
330
41F3
100
AcDbEntity
  8
SUNPOU
 62
     0
440
 16777216
370
    -2
100
AcDbBlockReference
  2
_DotBlank
 10
306.828454593821
 20
222.3260527658718
 30
0.0
 41
1.5
 42
1.5
 43
1.5
 50
270.0
  0
INSERT
  5
4919
330
41F3
100
AcDbEntity
  8
SUNPOU
 62
     0
440
 16777216
370
    -2
100
AcDbBlockReference
  2
_DotBlank
 10
306.828454593821
 20
226.8260527658694
 30
0.0
 41
1.5
 42
1.5
 43
1.5
 50
90.0
  0
MTEXT
  5
491A
330
41F3
100
AcDbEntity
  8
SUNPOU
 62
     0
440
 16777216
100
AcDbMText
 10
303.703454593821
 20
230.6177194325359
 30
0.0
 40
5.0
 41
0.0
 46
0.0
 71
     5
 72
     1
  1
\A1;5
 11
0.0000000000000001
 21
1.0
 31
0.0
 73
     1
 44
1.0
  0
POINT
  5
491B
330
41F3
100
AcDbEntity
  8
DEFPOINTS
 62
     0
440
 16777216
100
AcDbPoint
 10
406.1831381751231
 20
222.3260527658718
 30
0.0
  0
POINT
  5
491C
330
41F3
100
AcDbEntity
  8
DEFPOINTS
 62
     0
440
 16777216
100
AcDbPoint
 10
357.066522553658
 20
226.8260527658694
 30
0.0000000000016786
  0
POINT
  5
491D
330
41F3
100
AcDbEntity
  8
DEFPOINTS
 62
     0
440
 16777216
100
AcDbPoint
 10
306.828454593821
 20
226.8260527658694
 30
0.0
  0
ENDBLK
  5
41F5
330
41F3
100
AcDbEntity
  8
0
100
AcDbBlockEnd
  0
ENDSEC
  0
SECTION
  2
ENTITIES
  0
LINE
  5
E15
330
1A
100
AcDbEntity
  8
WAKU
100
AcDbLine
 10
20.0
 20
10.0
 30
0.0
 11
800.0
 21
10.0
 31
0.0
  0
LINE
  5
E16
330
1A
100
AcDbEntity
  8
WAKU
100
AcDbLine
 10
800.0
 20
10.0
 30
0.0
 11
800.0
 21
560.0
 31
0.0
  0
LINE
  5
E17
330
1A
100
AcDbEntity
  8
WAKU
100
AcDbLine
 10
800.0
 20
560.0
 30
0.0
 11
20.0
 21
560.0
 31
0.0
  0
LINE
  5
E18
330
1A
100
AcDbEntity
  8
WAKU
100
AcDbLine
 10
20.0
 20
560.0
 30
0.0
 11
20.0
 21
10.0
 31
0.0
  0
LINE
  5
E1D
330
1A
100
AcDbEntity
  8
WAKU
100
AcDbLine
 10
20.0
 20
30.0
 30
0.0
 11
800.0
 21
30.0
 31
0.0
  0
LINE
  5
E1E
330
1A
100
AcDbEntity
  8
WAKU
100
AcDbLine
 10
120.0
 20
30.0
 30
0.0
 11
120.0
 21
10.0
 31
0.0
  0
LINE
  5
E4F
330
1A
100
AcDbEntity
  8
WAKU
100
AcDbLine
 10
22.0
 20
28.0
 30
0.0
 11
118.0
 21
28.0
 31
0.0
  0
LINE
  5
E50
330
1A
100
AcDbEntity
  8
WAKU
100
AcDbLine
 10
22.0
 20
28.0
 30
0.0
 11
22.0
 21
12.0
 31
0.0
  0
LINE
  5
E51
330
1A
100
AcDbEntity
  8
WAKU
100
AcDbLine
 10
22.0
 20
12.0
 30
0.0
 11
118.0
 21
12.0
 31
0.0
  0
LINE
  5
E52
330
1A
100
AcDbEntity
  8
WAKU
100
AcDbLine
 10
118.0
 20
28.0
 30
0.0
 11
118.0
 21
12.0
 31
0.0
  0
LINE
  5
E59
330
1A
100
AcDbEntity
  8
WAKU
100
AcDbLine
 10
260.0
 20
30.0
 30
0.0
 11
260.0
 21
10.0
 31
0.0
  0
LINE
  5
E5A
330
1A
100
AcDbEntity
  8
WAKU
100
AcDbLine
 10
270.0
 20
30.0
 30
0.0
 11
270.0
 21
10.0
 31
0.0
  0
MTEXT
  5
E5B
330
1A
100
AcDbEntity
  8
WAKU
100
AcDbMText
 10
261.8186178625299
 20
27.72724847366113
 30
0.0
 40
5.0
 41
10.0
 46
0.0
 71
     1
 72
     5
  1
名称
  7
WAKU
 73
     1
 44
1.0
  0
LINE
  5
E5C
330
1A
100
AcDbEntity
  8
WAKU
100
AcDbLine
 10
20.0
 20
30.0
 30
0.0
 11
20.0
 21
10.0
 31
0.0
  0
LINE
  5
E5E
330
1A
100
AcDbEntity
  8
WAKU
100
AcDbLine
 10
520.0
 20
30.0
 30
0.0
 11
520.0
 21
10.0
 31
0.0
  0
LINE
  5
E6C
330
1A
100
AcDbEntity
  8
WAKU
100
AcDbLine
 10
530.0
 20
30.0
 30
0.0
 11
530.0
 21
10.0
 31
0.0
  0
MTEXT
  5
E6D
330
1A
100
AcDbEntity
  8
WAKU
100
AcDbMText
 10
521.8186178625296
 20
27.72724847366113
 30
0.0
 40
5.0
 41
10.0
 46
0.0
 71
     1
 72
     5
  1
縮尺
  7
WAKU
 73
     1
 44
1.0
  0
MTEXT
  5
E6F
330
1A
100
AcDbEntity
  8
WAKU
100
AcDbMText
 10
539.3245405690056
 20
23.21985646788335
 30
0.0
 40
5.0
 41
190.5002997985425
 46
0.0
 71
     1
 72
     5
  1
1/2（A3）
  7
WAKU
 73
     1
 44
1.0
  0
MTEXT
  5
E71
330
1A
100
AcDbEntity
  8
WAKU
100
AcDbMText
 10
581.8186178625299
 20
27.72724847366113
 30
0.0
 40
5.0
 41
10.0
 46
0.0
 71
     1
 72
     5
  1
図番
  7
WAKU
 73
     1
 44
1.0
  0
LINE
  5
E72
330
1A
100
AcDbEntity
  8
WAKU
100
AcDbLine
 10
590.0
 20
30.0
 30
0.0
 11
590.0
 21
10.0
 31
0.0
  0
LINE
  5
E73
330
1A
100
AcDbEntity
  8
WAKU
100
AcDbLine
 10
580.0
 20
30.0
 30
0.0
 11
580.0
 21
10.0
 31
0.0
  0
LINE
  5
E78
330
1A
100
AcDbEntity
  8
WAKU
100
AcDbLine
 10
660.0
 20
30.0
 30
0.0
 11
660.0
 21
10.0
 31
0.0
  0
LINE
  5
E79
330
1A
100
AcDbEntity
  8
WAKU
100
AcDbLine
 10
670.0
 20
30.0
 30
0.0
 11
670.0
 21
10.0
 31
0.0
  0
MTEXT
  5
E7A
330
1A
100
AcDbEntity
  8
WAKU
100
AcDbMText
 10
661.8186178625299
 20
27.72724847366113
 30
0.0
 40
5.0
 41
10.0
 46
0.0
 71
     1
 72
     5
  1
特記
  7
WAKU
 73
     1
 44
1.0
  0
LINE
  5
E7B
330
1A
100
AcDbEntity
  8
WAKU
  6
DASHED2
 48
0.5
100
AcDbLine
 10
670.0
 20
20.0
 30
0.0
 11
800.0
 21
20.0
 31
0.0
  0
LINE
  5
E8B
330
1A
100
AcDbEntity
  8
WAKU
100
AcDbLine
 10
470.0
 20
10.0
 30
0.0
 11
470.0
 21
30.0
 31
0.0
  0
MTEXT
  5
E8C
330
1A
100
AcDbEntity
  8
WAKU
100
AcDbMText
 10
496.3674469153243
 20
23.21985646788335
 30
0.0
 40
5.0
 41
190.5002997985425
 46
0.0
 71
     1
 72
     5
  1
mm
  7
WAKU
 73
     1
 44
1.0
  0
MTEXT
  5
E8D
330
1A
100
AcDbEntity
  8
WAKU
100
AcDbMText
 10
471.8186178625298
 20
27.72724847366113
 30
0.0
 40
5.0
 41
10.0
 46
0.0
 71
     1
 72
     5
  1
単位
  7
WAKU
 73
     1
 44
1.0
  0
LINE
  5
E8E
330
1A
100
AcDbEntity
  8
WAKU
100
AcDbLine
 10
480.0
 20
30.0
 30
0.0
 11
480.0
 21
10.0
 31
0.0
  0
MTEXT
  5
200C
102
{ACAD_XDICTIONARY
360
4737
102
}
330
1A
100
AcDbEntity
  8
WAKU
100
AcDbMText
 10
274.1098844514211
 20
23.57013593501529
 30
0.0
 40
5.0
 41
190.5003
 46
0.0
 71
     1
 72
     5
  1
\pi27.9532;耐火ヴァンドＲＺ５０Ｖ　水切部・一般納まり
  7
WAKU
 73
     1
 44
1.0
  0
MTEXT
  5
2016
330
1A
100
AcDbEntity
  8
WAKU
100
AcDbMText
 10
604.349248471226
 20
23.24824116690911
 30
0.0
 40
5.0
 41
190.5003
 46
0.0
 71
     1
 72
     5
  1
IGRZV5001_01
  7
WAKU
 73
     1
 44
1.0
  0
LINE
  5
3760
330
1A
100
AcDbEntity
  8
0
100
AcDbLine
 10
407.3665225536606
 20
207.3260491328208
 30
0.0
 11
407.3665225536606
 21
227.3260527658716
 31
0.0
  0
LINE
  5
3761
330
1A
100
AcDbEntity
  8
SUNPOU
  6
CENTER2
100
AcDbLine
 10
220.3994328953554
 20
222.3260527658717
 30
0.0
 11
566.3276617950232
 21
222.3260527658717
 31
0.0
  0
LINE
  5
3762
330
1A
100
AcDbEntity
  8
SITAJI
 62
     0
100
AcDbLine
 10
407.3665225536606
 20
317.3260527658716
 30
0.0
 11
407.3665225536606
 21
227.3260527658716
 31
0.0
  0
LINE
  5
3764
330
1A
100
AcDbEntity
  8
YAKUMONO
100
AcDbLine
 10
341.8665225536606
 20
209.1650818825233
 30
0.0
 11
341.8665225536606
 21
171.8427198658714
 31
0.0
  0
ARC
  5
3765
330
1A
100
AcDbEntity
  8
YAKUMONO
100
AcDbCircle
 10
343.8665225536642
 20
209.1650818825224
 30
0.0
 40
1.5
100
AcDbArc
 50
100.0188742359617
 51
180.0
  0
ARC
  5
3766
330
1A
100
AcDbEntity
  8
YAKUMONO
100
AcDbCircle
 10
343.8665225536607
 20
209.1650818825233
 30
0.0
 40
2.0
100
AcDbArc
 50
100.0188742359617
 51
180.0
  0
LINE
  5
3767
330
1A
100
AcDbEntity
  8
YAKUMONO
100
AcDbLine
 10
343.3665225536606
 20
177.8427198658714
 30
0.0
 11
343.8665225536607
 21
177.8427198658714
 31
0.0
  0
LINE
  5
3768
330
1A
100
AcDbEntity
  8
YAKUMONO
100
AcDbLine
 10
405.866522553657
 20
296.2842795835362
 30
0.0
 11
406.366522553657
 21
296.2842795835362
 31
0.0
  0
ARC
  5
3769
330
1A
100
AcDbEntity
  8
YAKUMONO
100
AcDbCircle
 10
342.8665225536606
 20
171.8427198658714
 30
0.0
 40
1.0
100
AcDbArc
 50
180.0
 51
0.0
  0
ARC
  5
376A
330
1A
100
AcDbEntity
  8
YAKUMONO
100
AcDbCircle
 10
342.8665225536606
 20
171.8427198658714
 30
0.0
 40
0.5
100
AcDbArc
 50
180.0
 51
0.0
  0
LINE
  5
376B
330
1A
100
AcDbEntity
  8
YAKUMONO
100
AcDbLine
 10
343.8665225536607
 20
177.8427198658714
 30
0.0
 11
343.8665225536607
 21
171.8427198658714
 31
0.0
  0
LINE
  5
376C
330
1A
100
AcDbEntity
  8
YAKUMONO
100
AcDbLine
 10
343.3665225536606
 20
177.8427198658714
 30
0.0
 11
343.3665225536606
 21
171.8427198658714
 31
0.0
  0
ARC
  5
376D
330
1A
100
AcDbEntity
  8
YAKUMONO
100
AcDbCircle
 10
406.6165225536606
 20
301.5760527658717
 30
0.0
 40
0.25
100
AcDbArc
 50
0.0
 51
180.0
  0
ARC
  5
376E
330
1A
100
AcDbEntity
  8
YAKUMONO
100
AcDbCircle
 10
406.6165225536606
 20
301.5760527658717
 30
0.0
 40
0.75
100
AcDbArc
 50
0.0
 51
180.0
  0
LINE
  5
376F
330
1A
100
AcDbEntity
  8
YAKUMONO
100
AcDbLine
 10
405.8665225536603
 20
301.5760527658721
 30
0.0
 11
405.8665225536603
 21
296.2842795835362
 31
0.0
  0
LINE
  5
3770
330
1A
100
AcDbEntity
  8
YAKUMONO
100
AcDbLine
 10
406.3665225536606
 20
301.5759496363187
 30
0.0
 11
406.3665225536606
 21
296.2842795835362
 31
0.0
  0
ARC
  5
3771
330
1A
100
AcDbEntity
  8
YAKUMONO
100
AcDbCircle
 10
405.3665225536605
 20
223.5842812533824
 30
0.0
 40
1.5
100
AcDbArc
 50
280.0188742359623
 51
0.0
  0
ARC
  5
3772
330
1A
100
AcDbEntity
  8
YAKUMONO
100
AcDbCircle
 10
405.3665225536605
 20
223.5842812533824
 30
0.0
 40
2.0
100
AcDbArc
 50
280.0188742359623
 51
0.0
  0
LINE
  5
3773
330
1A
100
AcDbEntity
  8
YAKUMONO
100
AcDbLine
 10
343.5185773912473
 20
211.1345828761646
 30
0.0
 11
405.6274814254703
 21
222.1071555081516
 31
0.0
  0
LINE
  5
3774
330
1A
100
AcDbEntity
  8
YAKUMONO
100
AcDbLine
 10
406.8665225536606
 20
301.5760527658717
 30
0.0
 11
406.8665225536606
 21
223.5842812533824
 31
0.0
  0
LINE
  5
3775
330
1A
100
AcDbEntity
  8
YAKUMONO
100
AcDbLine
 10
343.6055636818546
 20
210.6422076277545
 30
0.0
 11
405.7144677160758
 21
221.6147802597417
 31
0.0
  0
LINE
  5
3776
330
1A
100
AcDbEntity
  8
YAKUMONO
100
AcDbLine
 10
407.3665225536606
 20
301.5760527658717
 30
0.0
 11
407.3665225536606
 21
223.5842812533824
 31
0.0
  0
LINE
  5
3777
330
1A
100
AcDbEntity
  8
YAKUMONO
100
AcDbLine
 10
342.3665225536642
 20
209.1650818825224
 30
0.0
 11
342.3665225536606
 21
171.8427198658714
 31
0.0
  0
DIMENSION
  5
3778
330
1A
100
AcDbEntity
  8
SUNPOU
100
AcDbDimension
280
     0
  2
*D3
 10
355.8665225536586
 20
255.3867258707673
 30
0.0000000000033418
 11
348.8665225536596
 21
258.5117258707673
 31
0.0000000000033418
 70
    32
  1
15
 71
     5
 42
13.99999999999801
 73
     0
 74
     0
 75
     0
  3
STANDARD
100
AcDbAlignedDimension
 13
341.8665225536606
 23
210.8427198658715
 33
0.0
 14
355.8665225536586
 24
255.3867258707673
 34
0.0000000000033418
100
AcDbRotatedDimension
1001
ACAD
1000
DSTYLE
1002
{
1070
    76
1070
     1
1002
}
  0
DIMENSION
  5
3779
330
1A
100
AcDbEntity
  8
SUNPOU
100
AcDbDimension
280
     0
  2
*D4
 10
306.8284545938209
 20
210.8427198658715
 30
0.0
 11
303.7034545938208
 21
190.8427198658715
 31
0.0
 70
    32
 71
     5
 42
40.0000000000001
 73
     0
 74
     0
 75
     0
  3
STANDARD
100
AcDbAlignedDimension
 13
342.8665225536606
 23
170.8427198658714
 33
0.0
 14
341.8665225536606
 24
210.8427198658715
 34
0.0
 50
90.0
100
AcDbRotatedDimension
1001
ACAD
1000
DSTYLE
1002
{
1070
   271
1070
     1
1002
}
  0
DIMENSION
  5
377A
330
1A
100
AcDbEntity
  8
SUNPOU
100
AcDbDimension
280
     0
  2
*D5
 10
341.8665225536606
 20
74.90818478498977
 30
0.0
 11
374.8162061552394
 21
74.90818478498977
 31
0.0
 70
   160
  1
65
 71
     5
 42
65.50000000000007
 73
     0
 74
     0
 75
     0
  3
STANDARD
100
AcDbAlignedDimension
 13
407.3665225536606
 23
207.3260491328208
 33
0.0
 14
341.8665225536606
 24
171.8427198658714
 34
0.0
100
AcDbRotatedDimension
  0
LINE
  5
378F
330
1A
100
AcDbEntity
  8
YAKUMONO
100
AcDbLine
 10
381.8665225536607
 20
247.3260527658717
 30
0.0
 11
406.8665225536607
 21
247.3260527658717
 31
0.0
  0
LINE
  5
3790
330
1A
100
AcDbEntity
  8
YAKUMONO
100
AcDbLine
 10
406.8665225536607
 20
247.3260527658717
 30
0.0
 11
406.8665225536607
 21
222.3260527658717
 31
0.0
  0
LINE
  5
3791
330
1A
100
AcDbEntity
  8
YAKUMONO
100
AcDbLine
 10
403.8665225536607
 20
242.3260527658717
 30
0.0
 11
403.8665225536607
 21
234.6260527658728
 31
0.0
  0
LINE
  5
3792
330
1A
100
AcDbEntity
  8
YAKUMONO
100
AcDbLine
 10
381.8665225536607
 20
247.3260527658717
 30
0.0
 11
381.8665225536607
 21
244.3260527658717
 31
0.0
  0
LINE
  5
3793
330
1A
100
AcDbEntity
  8
YAKUMONO
100
AcDbLine
 10
403.8665225536607
 20
222.3260527658717
 30
0.0
 11
406.8665225536607
 21
222.3260527658717
 31
0.0
  0
ARC
  5
3794
330
1A
100
AcDbEntity
  8
YAKUMONO
100
AcDbCircle
 10
401.8665225536607
 20
242.3260527658717
 30
0.0
 40
2.0
100
AcDbArc
 50
0.0
 51
90.0
  0
LINE
  5
3795
330
1A
100
AcDbEntity
  8
YAKUMONO
100
AcDbLine
 10
403.8665225536607
 20
234.6260527658728
 30
0.0
 11
404.1665225536601
 21
234.3260527658717
 31
0.0
  0
LINE
  5
3796
330
1A
100
AcDbEntity
  8
YAKUMONO
100
AcDbLine
 10
404.1665225536601
 20
234.3260527658717
 30
0.0
 11
403.8665225536607
 21
234.0260527658725
 31
0.0
  0
LINE
  5
3797
330
1A
100
AcDbEntity
  8
YAKUMONO
100
AcDbLine
 10
403.8665225536607
 20
234.0260527658725
 30
0.0
 11
403.8665225536607
 21
222.3260527658717
 31
0.0
  0
LINE
  5
3798
330
1A
100
AcDbEntity
  8
YAKUMONO
100
AcDbLine
 10
401.8665225536607
 20
244.3260527658717
 30
0.0
 11
394.1665225536599
 21
244.3260527658717
 31
0.0
  0
LINE
  5
3799
330
1A
100
AcDbEntity
  8
YAKUMONO
100
AcDbLine
 10
394.1665225536599
 20
244.3260527658717
 30
0.0
 11
393.8665225536608
 21
244.6260527658728
 31
0.0
  0
LINE
  5
379A
330
1A
100
AcDbEntity
  8
YAKUMONO
100
AcDbLine
 10
393.8665225536608
 20
244.6260527658728
 30
0.0
 11
393.5665225536596
 21
244.3260527658717
 31
0.0
  0
LINE
  5
379B
330
1A
100
AcDbEntity
  8
YAKUMONO
100
AcDbLine
 10
393.5665225536596
 20
244.3260527658717
 30
0.0
 11
381.8665225536607
 21
244.3260527658717
 31
0.0
  0
LINE
  5
379C
330
1A
100
AcDbEntity
  8
SITAJI
 62
     0
370
     9
100
AcDbLine
 10
507.3665225536607
 20
232.774637162322
 30
0.0
 11
505.0665225536577
 21
230.4746371623227
 31
0.0
  0
LINE
  5
379D
330
1A
100
AcDbEntity
  8
SITAJI
 62
     0
370
     9
100
AcDbLine
 10
507.3665225536607
 20
235.6030642870686
 30
0.0
 11
505.0665225536577
 21
233.3030642870693
 31
0.0
  0
LINE
  5
379E
330
1A
100
AcDbEntity
  8
SITAJI
 62
     0
370
     9
100
AcDbLine
 10
506.7112450363346
 20
319.8006005121355
 30
0.0
 11
504.9661253509984
 21
318.0554808267992
 31
0.0
  0
LINE
  5
379F
330
1A
100
AcDbEntity
  8
SITAJI
 62
     0
370
     9
100
AcDbLine
 10
507.3579410322635
 20
317.618869383314
 30
0.0
 11
505.0665225536577
 21
315.3274509047081
 31
0.0
  0
ARC
  5
37A0
330
1A
100
AcDbEntity
  8
SITAJI
 62
     0
100
AcDbCircle
 10
502.3665225536606
 20
317.3260527658716
 30
0.000000000000739
 40
2.7
100
AcDbArc
 50
0.0
 51
90.0
  0
ARC
  5
37A1
330
1A
100
AcDbEntity
  8
SITAJI
 62
     0
100
AcDbCircle
 10
502.3665225536606
 20
317.3260527658716
 30
0.000000000000739
 40
5.0
100
AcDbArc
 50
0.0
 51
90.0
  0
LINE
  5
37A2
330
1A
100
AcDbEntity
  8
SITAJI
 62
     0
100
AcDbLine
 10
507.3665225536607
 20
317.3260527658716
 30
0.0
 11
507.3665225536607
 21
227.3260527658716
 31
0.0
  0
LINE
  5
37A3
330
1A
100
AcDbEntity
  8
SITAJI
 62
     0
100
AcDbLine
 10
505.0665225536577
 20
317.3260527658716
 30
0.0
 11
505.0665225536577
 21
227.3260527658716
 31
0.0
  0
LINE
  5
37A4
330
1A
100
AcDbEntity
  8
SITAJI
 62
     0
370
     9
100
AcDbLine
 10
432.2123106724355
 20
322.3260527658772
 30
0.0
 11
429.9123106724326
 21
320.0260527658742
 31
0.0
  0
LINE
  5
37A5
330
1A
100
AcDbEntity
  8
SITAJI
 62
     0
370
     9
100
AcDbLine
 10
429.3838835476816
 20
322.3260527658772
 30
0.0
 11
427.0838835476788
 21
320.0260527658742
 31
0.0
  0
LINE
  5
37A6
330
1A
100
AcDbEntity
  8
SITAJI
 62
     0
370
     9
100
AcDbLine
 10
409.6665225536561
 20
307.6086917718461
 30
0.0
 11
407.3665225536606
 21
305.3086917718468
 31
0.0
  0
LINE
  5
37A7
330
1A
100
AcDbEntity
  8
SITAJI
 62
     0
370
     9
100
AcDbLine
 10
409.6665225536561
 20
304.7802646470958
 30
0.0
 11
407.3665225536606
 21
302.4802646470929
 31
0.0
  0
ARC
  5
37A8
330
1A
100
AcDbEntity
  8
SITAJI
 62
     0
100
AcDbCircle
 10
412.3665225536607
 20
317.3260527658716
 30
0.000000000000739
 40
2.7
100
AcDbArc
 50
90.0
 51
180.0
  0
ARC
  5
37A9
330
1A
100
AcDbEntity
  8
SITAJI
 62
     0
100
AcDbCircle
 10
412.3665225536607
 20
317.3260527658716
 30
0.000000000000739
 40
5.0
100
AcDbArc
 50
90.0
 51
180.0
  0
LINE
  5
37AA
330
1A
100
AcDbEntity
  8
SITAJI
 62
     0
100
AcDbLine
 10
409.6665225536561
 20
317.3260527658716
 30
0.0
 11
409.6665225536561
 21
227.3260527658716
 31
0.0
  0
LINE
  5
37AB
330
1A
100
AcDbEntity
  8
SITAJI
 62
     0
370
     9
100
AcDbLine
 10
469.6387175434812
 20
322.3260527658716
 30
0.0
 11
467.3387175434855
 21
320.0260527658719
 31
0.0
  0
LINE
  5
37AC
330
1A
100
AcDbEntity
  8
SITAJI
 62
     0
370
     9
100
AcDbLine
 10
409.6665225536561
 20
261.5094274644322
 30
-0.0000000000016632
 11
407.3665225536606
 21
259.2094274644302
 31
-0.0000000000016632
  0
LINE
  5
37AD
330
1A
100
AcDbEntity
  8
SITAJI
 62
     0
370
     9
100
AcDbLine
 10
466.8102904187871
 20
322.3260527658716
 30
0.0
 11
464.5102904187933
 21
320.0260527658719
 31
0.0
  0
LINE
  5
37AE
330
1A
100
AcDbEntity
  8
SITAJI
 62
     0
370
     9
100
AcDbLine
 10
409.6665225536561
 20
264.3378545891766
 30
-0.0000000000016632
 11
407.3665225536606
 21
262.0378545891786
 31
-0.0000000000016632
  0
LINE
  5
37AF
330
1A
100
AcDbEntity
  8
SITAJI
 62
     0
370
     9
100
AcDbLine
 10
411.6370944927366
 20
224.7264499685319
 30
0.0
 11
409.8919748073965
 21
222.9813302831939
 31
0.0
  0
LINE
  5
37B0
330
1A
100
AcDbEntity
  8
SITAJI
 62
     0
370
     9
100
AcDbLine
 10
414.3651244148204
 20
224.6260527658709
 30
0.0
 11
412.0737059362181
 21
222.3346342872686
 31
0.0
  0
ARC
  5
37B1
330
1A
100
AcDbEntity
  8
SITAJI
 62
     0
100
AcDbCircle
 10
412.3665225536607
 20
227.3260527658716
 30
0.0000000000003979
 40
2.7
100
AcDbArc
 50
180.0
 51
270.0
  0
ARC
  5
37B2
330
1A
100
AcDbEntity
  8
SITAJI
 62
     0
100
AcDbCircle
 10
412.3665225536607
 20
227.3260527658716
 30
0.0000000000003979
 40
5.0
100
AcDbArc
 50
180.0
 51
270.0
  0
LINE
  5
37B3
330
1A
100
AcDbEntity
  8
SITAJI
 62
     0
100
AcDbLine
 10
412.3665225536607
 20
224.6260527658709
 30
0.0
 11
502.3665225536606
 21
224.6260527658718
 31
0.0000000000003979
  0
LINE
  5
37B4
330
1A
100
AcDbEntity
  8
SITAJI
 62
     0
100
AcDbLine
 10
412.3665225536607
 20
222.3260527658716
 30
0.0
 11
502.3665225536606
 21
222.3260527658716
 31
0.0
  0
ARC
  5
37B5
330
1A
100
AcDbEntity
  8
SITAJI
 62
     0
100
AcDbCircle
 10
502.3665225536606
 20
227.3260527658716
 30
0.0000000000003979
 40
2.7
100
AcDbArc
 50
270.0
 51
0.0
  0
ARC
  5
37B6
330
1A
100
AcDbEntity
  8
SITAJI
 62
     0
100
AcDbCircle
 10
502.3665225536606
 20
227.3260527658716
 30
0.0000000000003979
 40
5.0
100
AcDbArc
 50
270.0
 51
0.0
  0
LINE
  5
37B7
330
1A
100
AcDbEntity
  8
SITAJI
 62
     0
370
     9
100
AcDbLine
 10
507.3665225536607
 20
275.2010440335988
 30
0.0
 11
505.0665225536577
 21
272.9010440335918
 31
0.0
  0
LINE
  5
37B8
330
1A
100
AcDbEntity
  8
SITAJI
 62
     0
370
     9
100
AcDbLine
 10
456.7915312860129
 20
224.6260527658709
 30
0.0
 11
454.4915312860175
 21
222.3260527658716
 31
0.0
  0
LINE
  5
37B9
330
1A
100
AcDbEntity
  8
SITAJI
 62
     0
370
     9
100
AcDbLine
 10
507.3665225536607
 20
278.02947115835
 30
0.0
 11
505.0665225536577
 21
275.7294711583421
 31
0.0
  0
LINE
  5
37BA
330
1A
100
AcDbEntity
  8
SITAJI
 62
     0
370
     9
100
AcDbLine
 10
453.9631041612683
 20
224.6260527658709
 30
0.0
 11
451.6631041612709
 21
222.3260527658716
 31
0.0
  0
LINE
  5
37BB
330
1A
100
AcDbEntity
  8
SITAJI
 62
     0
370
     9
100
AcDbLine
 10
499.2179381572058
 20
224.6260527658709
 30
0.0
 11
496.9179381572103
 21
222.3260527658716
 31
0.0
  0
LINE
  5
37BC
330
1A
100
AcDbEntity
  8
SITAJI
 62
     0
370
     9
100
AcDbLine
 10
496.3895110324592
 20
224.6260527658709
 30
0.0
 11
494.0895110324636
 21
222.3260527658716
 31
0.0
  0
LINE
  5
37BD
330
1A
100
AcDbEntity
  8
SITAJI
 62
     0
100
AcDbLine
 10
412.3665225536607
 20
320.0260527658723
 30
0.0
 11
502.3665225536606
 21
320.0260527658715
 31
0.000000000000739
  0
LINE
  5
37BE
330
1A
100
AcDbEntity
  8
SITAJI
 62
     0
100
AcDbLine
 10
412.3665225536607
 20
322.3260527658716
 30
0.0
 11
502.3665225536606
 21
322.3260527658716
 31
0.0
  0
LEADER
  5
37C1
330
1A
100
AcDbEntity
  8
HIKIDASI
100
AcDbLeader
  3
STANDARD
 71
     0
 73
     0
 75
     1
 40
5.0
 41
63.99999999999999
 76
     3
 10
355.8665225536558
 20
382.9980461929226
 30
0.0000000000033273
 10
343.3237216127841
 20
404.7228146917349
 30
0.0000000000033273
 10
341.8237216127841
 20
404.7228146917349
 30
0.0000000000033273
340
37C2
213
0.0
223
2.5
233
0.0
1001
ACAD
1000
DSTYLE
1002
{
1070
   147
1040
0.625
1070
    77
1070
     0
1002
}
  0
MTEXT
  5
37C2
102
{ACAD_REACTORS
330
37C1
102
}
330
1A
100
AcDbEntity
  8
HIKIDASI
100
AcDbMText
 10
341.1987216127841
 20
402.2228146917349
 30
0.0000000000033273
 40
5.0
 41
0.0
 46
0.0
 71
     9
 72
     1
  1
耐火ヴァンドＲＺ５０Ｖ
 73
     1
 44
1.0
  0
LINE
  5
37FD
330
1A
100
AcDbEntity
  8
0
100
AcDbLine
 10
355.8665225536588
 20
207.3260491328208
 30
0.000000000000199
 11
527.3665225536606
 21
207.3260491328208
 31
0.000000000000199
  0
LINE
  5
37FE
330
1A
100
AcDbEntity
  8
0
370
     9
100
AcDbLine
 10
355.8665225536588
 20
145.0594482125154
 30
0.000000000000199
 11
418.1331234739643
 21
207.3260491328208
 31
0.000000000000199
  0
LINE
  5
37FF
330
1A
100
AcDbEntity
  8
0
370
     9
100
AcDbLine
 10
355.8665225536588
 20
141.4673457640878
 30
0.000000000000199
 11
421.7252259223912
 21
207.3260491328208
 31
0.000000000000199
  0
LINE
  5
3800
330
1A
100
AcDbEntity
  8
0
370
     9
100
AcDbLine
 10
355.8665225536588
 20
137.8752433156599
 30
0.000000000000199
 11
425.3173283708218
 21
207.3260491328208
 31
0.000000000000199
  0
LINE
  5
3801
330
1A
100
AcDbEntity
  8
0
100
AcDbLine
 10
355.8665225536588
 20
107.3260491328208
 30
0.000000000000199
 11
355.8665225536588
 21
207.3260491328208
 31
0.000000000000199
  0
CIRCLE
  5
3802
330
1A
100
AcDbEntity
  8
0
370
     9
100
AcDbCircle
 10
463.8578393538063
 20
212.5786747581849
 30
0.000000000000199
 40
0.6919338479992803
  0
CIRCLE
  5
3803
330
1A
100
AcDbEntity
  8
0
370
     9
100
AcDbCircle
 10
464.7839487519231
 20
218.1304083309405
 30
0.000000000000199
 40
0.3084494234993473
  0
LINE
  5
3804
330
1A
100
AcDbEntity
  8
0
370
     9
100
AcDbLine
 10
411.5277871330853
 20
107.3260491328208
 30
0.000000000000199
 11
511.5277871330802
 21
207.3260491328208
 31
0.000000000000199
  0
LINE
  5
3805
330
1A
100
AcDbEntity
  8
0
370
     9
100
AcDbLine
 10
415.1198895815126
 20
107.3260491328208
 30
0.000000000000199
 11
515.1198895815086
 21
207.3260491328208
 31
0.000000000000199
  0
LINE
  5
3806
330
1A
100
AcDbEntity
  8
0
370
     9
100
AcDbLine
 10
418.7119920299396
 20
107.3260491328208
 30
0.000000000000199
 11
518.7119920299371
 21
207.3260491328208
 31
0.000000000000199
  0
LINE
  5
3807
330
1A
100
AcDbEntity
  8
0
370
     9
100
AcDbLine
 10
504.9224507922049
 20
107.3260491328208
 30
0.000000000000199
 11
527.3665225536606
 21
129.7701208942747
 31
0.000000000000199
  0
LINE
  5
3808
330
1A
100
AcDbEntity
  8
0
370
     9
100
AcDbLine
 10
508.5145532406317
 20
107.3260491328208
 30
0.000000000000199
 11
527.3665225536606
 21
126.1780184458482
 31
0.000000000000199
  0
LINE
  5
3809
330
1A
100
AcDbEntity
  8
0
370
     9
100
AcDbLine
 10
512.1066556890601
 20
107.3260491328208
 30
0.000000000000199
 11
527.3665225536606
 21
122.5859159974216
 31
0.000000000000199
  0
CIRCLE
  5
380A
330
1A
100
AcDbEntity
  8
0
370
     9
100
AcDbCircle
 10
472.8126190313596
 20
212.809212813954
 30
0.000000000000199
 40
0.6919338479992803
  0
CIRCLE
  5
380B
330
1A
100
AcDbEntity
  8
0
370
     9
100
AcDbCircle
 10
442.1902174803726
 20
219.5683079423563
 30
0.000000000000199
 40
0.3084494234993473
  0
CIRCLE
  5
380C
330
1A
100
AcDbEntity
  8
0
370
     9
100
AcDbCircle
 10
412.6140851115924
 20
218.1115773017753
 30
0.000000000000199
 40
0.6919338479992803
  0
CIRCLE
  5
380D
330
1A
100
AcDbEntity
  8
0
370
     9
100
AcDbCircle
 10
412.5271701410201
 20
213.4340040043956
 30
0.000000000000199
 40
0.3084494234993473
  0
CIRCLE
  5
380E
330
1A
100
AcDbEntity
  8
0
370
     9
100
AcDbCircle
 10
425.0689530424461
 20
215.8061994428001
 30
0.000000000000199
 40
0.6919338479992803
  0
CIRCLE
  5
380F
330
1A
100
AcDbEntity
  8
0
370
     9
100
AcDbCircle
 10
420.3691247994245
 20
218.2051283899034
 30
0.000000000000199
 40
0.3084494234993473
  0
CIRCLE
  5
3810
330
1A
100
AcDbEntity
  8
0
370
     9
100
AcDbCircle
 10
425.4834428727116
 20
209.5716650876172
 30
0.000000000000199
 40
0.3084494234993473
  0
CIRCLE
  5
3811
330
1A
100
AcDbEntity
  8
0
370
     9
100
AcDbCircle
 10
419.3007507780166
 20
209.7644750541897
 30
0.000000000000199
 40
0.3084494234993473
  0
CIRCLE
  5
3812
330
1A
100
AcDbEntity
  8
0
370
     9
100
AcDbCircle
 10
433.5527023259126
 20
216.2739575821545
 30
0.000000000000199
 40
0.3084494234993473
  0
CIRCLE
  5
3813
330
1A
100
AcDbEntity
  8
0
370
     9
100
AcDbCircle
 10
437.7544697797857
 20
211.8870632895953
 30
0.000000000000199
 40
0.6919338479992803
  0
CIRCLE
  5
3814
330
1A
100
AcDbEntity
  8
0
370
     9
100
AcDbCircle
 10
447.2109451311696
 20
218.5726507145953
 30
0.000000000000199
 40
0.6919338479992803
  0
CIRCLE
  5
3815
330
1A
100
AcDbEntity
  8
0
370
     9
100
AcDbCircle
 10
444.6167672984191
 20
213.8936012180177
 30
0.000000000000199
 40
0.3084494234993473
  0
CIRCLE
  5
3816
330
1A
100
AcDbEntity
  8
0
370
     9
100
AcDbCircle
 10
454.5578191933854
 20
217.1894250786979
 30
0.000000000000199
 40
0.6919338479992803
  0
CIRCLE
  5
3817
330
1A
100
AcDbEntity
  8
0
370
     9
100
AcDbCircle
 10
451.1841003571025
 20
210.7173494923902
 30
0.000000000000199
 40
0.3084494234993473
  0
CIRCLE
  5
3818
330
1A
100
AcDbEntity
  8
0
370
     9
100
AcDbCircle
 10
469.6150063267231
 20
211.7761000675994
 30
0.000000000000199
 40
0.3084494234993473
  0
CIRCLE
  5
3819
330
1A
100
AcDbEntity
  8
0
370
     9
100
AcDbCircle
 10
470.1446298929004
 20
219.5049798063694
 30
0.000000000000199
 40
0.3084494234993473
  0
CIRCLE
  5
381A
330
1A
100
AcDbEntity
  8
0
370
     9
100
AcDbCircle
 10
477.8868257262947
 20
218.3421126588262
 30
0.000000000000199
 40
0.6919338479992803
  0
CIRCLE
  5
381B
330
1A
100
AcDbEntity
  8
0
370
     9
100
AcDbCircle
 10
477.0297362531928
 20
210.3997237800838
 30
0.000000000000199
 40
0.3084494234993473
  0
CIRCLE
  5
381C
330
1A
100
AcDbEntity
  8
0
370
     9
100
AcDbCircle
 10
482.0384497667437
 20
210.2732995979283
 30
0.000000000000199
 40
0.6919338479992803
  0
CIRCLE
  5
381D
330
1A
100
AcDbEntity
  8
0
370
     9
100
AcDbCircle
 10
482.1141258408751
 20
215.7993527931378
 30
0.000000000000199
 40
0.3084494234993473
  0
CIRCLE
  5
381E
330
1A
100
AcDbEntity
  8
0
370
     9
100
AcDbCircle
 10
487.4103615026397
 20
219.9284789569654
 30
0.000000000000199
 40
0.3084494234993473
  0
CIRCLE
  5
381F
330
1A
100
AcDbEntity
  8
0
370
     9
100
AcDbCircle
 10
491.0336316956345
 20
217.1894250786979
 30
0.000000000000199
 40
0.6919338479992803
  0
CIRCLE
  5
3820
330
1A
100
AcDbEntity
  8
0
370
     9
100
AcDbCircle
 10
490.482179862658
 20
209.6585989171815
 30
0.000000000000199
 40
0.3084494234993473
  0
CIRCLE
  5
3821
330
1A
100
AcDbEntity
  8
0
370
     9
100
AcDbCircle
 10
499.062084149009
 20
215.1641013685246
 30
0.000000000000199
 40
0.3084494234993473
  0
CIRCLE
  5
3822
330
1A
100
AcDbEntity
  8
0
370
     9
100
AcDbCircle
 10
502.4516758106329
 20
209.5527227801729
 30
0.000000000000199
 40
0.3084494234993473
  0
CIRCLE
  5
3823
330
1A
100
AcDbEntity
  8
0
370
     9
100
AcDbCircle
 10
505.0997936415151
 20
219.5049798063694
 30
0.000000000000199
 40
0.3084494234993473
  0
CIRCLE
  5
3824
330
1A
100
AcDbEntity
  8
0
370
     9
100
AcDbCircle
 10
459.2941503405436
 20
214.2987399314313
 30
0.000000000000199
 40
0.6919338479992803
  0
LINE
  5
3825
330
1A
100
AcDbEntity
  8
0
100
AcDbLine
 10
527.3665225536606
 20
207.3260491328207
 30
0.000000000000199
 11
527.3665225536606
 21
107.3260491328208
 31
0.000000000000199
  0
LINE
  5
3826
330
1A
100
AcDbEntity
  8
0
100
AcDbLine
 10
507.3665225536607
 20
227.3260491328208
 30
0.000000000000199
 11
507.3665225536607
 21
207.3260491328208
 31
0.000000000000199
  0
DIMENSION
  5
3827
330
1A
100
AcDbEntity
  8
SUNPOU
100
AcDbDimension
280
     0
  2
*D6
 10
449.6642600556
 20
222.3260527658719
 30
0.0
 11
449.6642600556
 21
234.5760527658709
 31
0.0
 70
   160
 71
     5
 42
25.0
 73
     0
 74
     0
 75
     0
  3
STANDARD
100
AcDbAlignedDimension
 13
406.8665225536606
 23
247.3260527658717
 33
0.0
 14
406.1831381751229
 24
222.3260527658717
 34
0.0
 50
90.0
100
AcDbRotatedDimension
  0
DIMENSION
  5
3828
330
1A
100
AcDbEntity
  8
SUNPOU
100
AcDbDimension
280
     0
  2
*D7
 10
479.6274413586251
 20
222.3260527658717
 30
0.0
 11
479.627441358625
 21
262.3260527658727
 31
0.0
 70
   160
 71
     5
 42
80.0
 73
     0
 74
     0
 75
     0
  3
STANDARD
100
AcDbAlignedDimension
 13
406.6165225536606
 23
302.3260527658717
 33
0.0
 14
406.8665225536606
 24
222.3260527658717
 34
0.0
 50
90.0
100
AcDbRotatedDimension
  0
MTEXT
  5
3829
330
1A
100
AcDbEntity
  8
HIKIDASI
100
AcDbMText
 10
226.218503094075
 20
220.3858491538672
 30
0.0
 40
5.0
 41
38.22365966422694
 46
0.0
 71
     1
 72
     1
  1
\A1;▲胴縁下端
 73
     1
 44
1.0
  0
LINE
  5
397F
330
1A
100
AcDbEntity
  8
SEIHIN
100
AcDbLine
 10
356.3665225536608
 20
426.8260527658712
 30
-0.0000000000019281
 11
356.3665225536572
 21
228.0260527658684
 31
0.0
  0
LINE
  5
3980
330
1A
100
AcDbEntity
  8
SEIHIN
  6
DASHED2
100
AcDbLine
 10
401.8665225536589
 20
426.8260527658712
 30
-0.0000000000016759
 11
401.8665225536588
 21
247.3260527658735
 31
-0.0000000000016632
  0
LINE
  5
3981
330
1A
100
AcDbEntity
  8
SEIHIN
100
AcDbLine
 10
357.0665225536579
 20
227.3260527658722
 30
-0.0000000000016777
 11
372.3665225536572
 21
227.3260527658722
 31
-0.0000000000016786
  0
LINE
  5
3982
330
1A
100
AcDbEntity
  8
SEIHIN
100
AcDbLine
 10
357.0665225536579
 20
226.8260527658722
 30
-0.0000000000016777
 11
372.3665225536572
 21
226.8260527658731
 31
-0.0000000000016786
  0
ARC
  5
3983
330
1A
100
AcDbEntity
  8
SEIHIN
100
AcDbCircle
 10
357.0665225536579
 20
228.0260527658693
 30
0.0
 40
1.199999999999999
100
AcDbArc
 50
180.0
 51
270.0
  0
ARC
  5
3984
330
1A
100
AcDbEntity
  8
SEIHIN
100
AcDbCircle
 10
357.0665225536579
 20
228.0260527658693
 30
0.0
 40
0.7
100
AcDbArc
 50
180.0
 51
270.0
  0
LINE
  5
3985
330
1A
100
AcDbEntity
  8
SEIHIN
100
AcDbLine
 10
355.8665225536556
 20
426.8260527658712
 30
-0.0000000000019281
 11
355.8665225536572
 21
228.0260527658674
 31
0.0
  0
LINE
  5
3986
330
1A
100
AcDbEntity
  8
SEIHIN
100
AcDbLine
 10
372.3665225536572
 20
227.3260527658722
 30
-0.0000000000016786
 11
372.3665225536572
 21
226.8260527658731
 31
-0.0000000000016786
  0
HATCH
  5
39A5
330
1A
100
AcDbEntity
  8
SEIHIN
370
     9
100
AcDbHatch
 10
0.0
 20
0.0
 30
-0.0000000000016632
210
0.0
220
0.0
230
1.0
  2
ANSI35
 70
     0
 71
     0
 91
        1
 92
        1
 93
        4
 72
     1
 10
405.3665225536589
 20
247.3260527658716
 11
405.3665225536589
 21
426.8260527658715
 72
     1
 10
405.3665225536589
 20
426.8260527658715
 11
356.3665225536608
 21
426.8260527658709
 72
     1
 10
356.3665225536608
 20
426.8260527658709
 11
356.3665225536576
 21
247.3260527658726
 72
     1
 10
356.3665225536576
 20
247.3260527658726
 11
405.3665225536589
 21
247.3260527658716
 97
        0
 75
     0
 76
     1
 52
0.0
 41
5.0
 77
     0
 78
     2
 53
45.0
 43
-0.0000000000015917
 44
-4.842094250418227
 45
-22.45064030267288
 46
22.45064030267288
 79
     0
 53
45.0
 43
22.45064999999841
 44
-4.842094250418227
 45
-22.45064030267288
 46
22.45064030267288
 79
     4
 49
39.6875
 49
-7.9375
 49
0.0
 49
-7.9375
 98
        3
 10
379.6276307354034
 20
380.4692739916971
 10
364.4208802878977
 20
283.6075438852676
 10
359.193560609741
 20
288.8304800735715
  0
LINE
  5
39A6
330
1A
100
AcDbEntity
  8
SEIHIN
100
AcDbLine
 10
356.3665225536572
 20
247.3260527658726
 30
-0.0000000000002259
 11
405.8665225536588
 21
247.3260527658735
 31
-0.0000000000016632
  0
LINE
  5
39A7
330
1A
100
AcDbEntity
  8
SEIHIN
100
AcDbLine
 10
405.866522553659
 20
426.8260527658712
 30
-0.0000000000016759
 11
405.8665225536588
 21
247.3260527658735
 31
-0.0000000000016632
  0
LINE
  5
39A8
330
1A
100
AcDbEntity
  8
SEIHIN
100
AcDbLine
 10
405.3665225536589
 20
426.8260527658712
 30
-0.0000000000016759
 11
405.3665225536589
 21
247.3260527658735
 31
-0.0000000000016632
  0
LINE
  5
39A9
330
1A
100
AcDbEntity
  8
SEIHIN
  6
DASHED2
100
AcDbLine
 10
365.3665225536553
 20
426.8260527658712
 30
-0.0000000000019579
 11
365.3665225536554
 21
247.3260527658725
 31
-0.0000000000011339
  0
DIMENSION
  5
39AA
330
1A
100
AcDbEntity
  8
SUNPOU
100
AcDbDimension
280
     0
  2
*D8
 10
405.8665225536588
 20
456.8260527658719
 30
-0.0000000000016517
 11
380.8665225536572
 21
456.8260527658719
 31
-0.0000000000016517
 70
   160
 71
     5
 42
50.00000000000351
 73
     0
 74
     0
 75
     0
  3
STANDARD
100
AcDbAlignedDimension
 13
355.8665225536553
 23
426.8260527658719
 33
-0.0000000000019587
 14
405.8665225536588
 24
426.8260527658719
 34
-0.0000000000016502
100
AcDbRotatedDimension
1001
ACAD
1000
DSTYLE
1002
{
1070
    76
1070
     0
1002
}
  0
DIMENSION
  5
39AB
330
1A
100
AcDbEntity
  8
SUNPOU
100
AcDbDimension
280
     0
  2
*D9
 10
507.3665225536588
 20
456.8260527658719
 30
-0.0000000000016372
 11
457.3665225536589
 21
456.8260527658719
 31
-0.0000000000016372
 70
   160
 71
     5
 42
99.99999999999994
 73
     0
 74
     0
 75
     0
  3
STANDARD
100
AcDbAlignedDimension
 13
407.3665225536589
 23
426.8260527658719
 33
-0.0000000000016372
 14
507.3665225536588
 24
426.8260527658719
 34
-0.0000000000016372
100
AcDbRotatedDimension
1001
ACAD
1000
DSTYLE
1002
{
1070
    76
1070
     0
1002
}
  0
DIMENSION
  5
413F
330
1A
100
AcDbEntity
  8
SUNPOU
100
AcDbDimension
280
     0
  2
*D10
 10
306.8284545938209
 20
222.3260527658717
 30
0.0
 11
303.7034545938208
 21
216.5843863158717
 31
0.0
 70
    32
 71
     5
 42
11.48333290000019
 73
     0
 74
     0
 75
     0
  3
STANDARD
100
AcDbAlignedDimension
 13
341.8665225536606
 23
210.8427198658715
 33
0.0
 14
393.3635473451893
 24
222.3260527658717
 34
0.0
 50
90.0
100
AcDbRotatedDimension
  0
LINE
  5
41B2
330
1A
100
AcDbEntity
  8
SUNPOU
  6
CENTER2
100
AcDbLine
 10
220.3994328953555
 20
226.8260527658693
 30
-0.0000000000016786
 11
566.3276617950232
 21
226.8260527658693
 31
-0.0000000000016786
  0
MTEXT
  5
41F1
330
1A
100
AcDbEntity
  8
HIKIDASI
100
AcDbMText
 10
226.218503094075
 20
232.8918459723476
 30
-0.0000000000016786
 40
5.0
 41
38.22365966422694
 46
0.0
 71
     1
 72
     1
  1
\A1;▼パネル下端
 73
     1
 44
1.0
  0
DIMENSION
  5
41F2
330
1A
100
AcDbEntity
  8
SUNPOU
100
AcDbDimension
280
     0
  2
*D11
 10
306.828454593821
 20
226.8260527658694
 30
0.0
 11
303.703454593821
 21
230.6177194325359
 31
0.0
 70
    32
 71
     5
 42
4.499999999997612
 73
     0
 74
     0
 75
     0
  3
STANDARD
100
AcDbAlignedDimension
 13
406.1831381751229
 23
222.3260527658717
 33
0.0
 14
357.0665225536578
 24
226.8260527658693
 34
0.0000000000016786
 50
90.0
100
AcDbRotatedDimension
  0
MULTILEADER
  5
41FF
330
1A
100
AcDbEntity
  8
HIKIDASI
160
               576
310
40020000150000000C00000016000000000000C00C00000033000000000000000C00000013000000993A0000E8000000260000005DA29440F8368040F50FB75777E67140000000000000000000000000000000000000000000000000000000000000F03F000000000000F03F00000000000000000000000000000000A12531
310
0030003000D700310030003000D70032002E003300E54E0A4E000010400E000000010000000000000000001440000000000000F03F0000000000000000000000000000F03F000000000000000000000000000000000000000000000000000000000100000000000000000000007400780074002E0073006800780000006500
310
7800740066006F006E0074002E0073006800780000000C00000033000000000000000C00000010000000070000000C00000016000000000000C00C00000012000000FF7F00000C00000013000000010000000C00000013000000891300003C000000060000000200000081D3C046DDB57F4005E31A83370571400000000000
310
000000E52A1DC980278040F50FB757770E724000000000000000000C00000013000000112700003C0000000600000002000000E52A1DC980278040F50FB757770E72400000000000000000B2F7E9954D2C8040F50FB757770E724000000000000000000C00000016000000000000C00C00000012000000FF7F00000C000000
310
17000000000000000C000000130000009A3A00000C00000016000000000000C00C00000012000000FF7F00000C00000017000000FFFFFFFF0C0000003300000000000000
100
AcDbMLeader
270
     2
300
CONTEXT_DATA{
 40
1.0
 10
517.5378835943904
 20
288.9041363860009
 30
0.0
 41
5.0
140
0.0
145
2.0
174
     1
175
     3
176
     0
177
     0
290
     1
304
□100×100×2.3以上
 11
0.0
 21
0.0
 31
1.0
340
10
 12
519.5378835943905
 22
291.4041363860008
 32
0.0
 13
1.0
 23
0.0
 33
0.0
 42
0.0
 43
0.0
 44
0.0
 45
1.0
170
     1
 90
-1073741824
171
     1
172
     5
 91
-1073741824
141
0.0
 92
        0
291
     0
292
     0
173
     0
293
     0
142
0.0
143
0.0
294
     0
295
     0
296
     0
110
507.3665225536607
120
272.3260527658716
130
0.0
111
1.0
121
0.0
131
0.0
112
0.0
122
1.0
132
0.0
297
     0
302
LEADER{
290
     1
291
     1
 10
516.9378835943904
 20
288.9041363860009
 30
0.0
 11
1.0
 21
0.0
 31
0.0
 90
        0
 40
0.6
304
LEADER_LINE{
 10
507.3665225536607
 20
272.3260527658716
 30
0.0
 91
        0
305
}
271
     0
303
}
272
     9
273
     9
301
}
340
2703
 90
   279552
170
     1
 91
-1056964608
341
14
171
    -2
290
     1
291
     1
 41
0.6
342
B0
 42
0.0
172
     2
343
10
173
     1
 95
        3
174
     1
175
     0
 92
-1056964608
292
     0
 93
-1056964608
 10
1.0
 20
1.0
 30
1.0
 43
0.0
176
     0
293
     0
294
     0
178
     0
179
     1
 45
1.0
271
     0
272
     9
273
     9
  0
MULTILEADER
  5
4200
330
1A
100
AcDbEntity
  8
HIKIDASI
160
               564
310
34020000150000000C00000016000000000000C00C00000033000000000000000C00000013000000993A0000DC0000002600000034A7E0FA3C0171400A1A376994FE7540DD51A209BE877DBD00000000000000000000000000000000000000000000F03F000000000000F03F00000000000000000000000000000000B930BF
310
30FC30BF30FC3032FF3AFF2D0036FF000009000000010000000000000000001440000000000000F03F0000000000000000000000000000F03F000000000000000000000000000000000000000000000000000000000100000000000000000000007400780074002E00730068007800000065007800740066006F006E007400
310
2E0073006800780000000C00000033000000000000000C00000010000000070000000C00000016000000000000C00C00000012000000FF7F00000C00000013000000010000000C00000013000000891300003C0000000600000002000000D9B4A688584B78407A39BD2796A76E40DD51A209BE877DBDCF407A94D65A74400A
310
1A376994267640DD51A209BE877DBD0C00000013000000112700003C0000000600000002000000CF407A94D65A74400A1A376994267640DD51A209BE877DBD35A7E0FA3C5174400A1A376994267640DD51A209BE877DBD0C00000016000000000000C00C00000012000000FF7F00000C00000017000000000000000C000000
310
130000009A3A00000C00000016000000000000C00C00000012000000FF7F00000C00000017000000FFFFFFFF0C0000003300000000000000
100
AcDbMLeader
270
     2
300
CONTEXT_DATA{
 40
1.0
 10
270.744054359644
 20
354.4112331535731
 30
-0.0000000000016786
 41
5.0
140
0.0
145
2.0
174
     1
175
     3
176
     2
177
     0
290
     1
304
スターターＲＺ-Ｖ
 11
0.0
 21
0.0
 31
1.0
340
10
 12
323.0773876929772
 22
356.9112331535731
 32
-0.0000000000016786
 13
1.0
 23
0.0
 33
0.0
 42
0.0
 43
0.0
 44
0.0
 45
1.0
170
     1
 90
-1073741824
171
     3
172
     5
 91
-1073741824
141
0.0
 92
        0
291
     0
292
     0
173
     0
293
     0
142
0.0
143
0.0
294
     0
295
     0
296
     0
110
388.7091146957369
120
245.2370794959823
130
-0.0000000000016786
111
1.0
121
0.0
131
0.0
112
0.0
122
1.0
132
0.0
297
     0
302
LEADER{
290
     1
291
     1
 10
325.6773876929774
 20
354.4112331535731
 30
-0.0000000000016786
 11
-1.0
 21
0.0
 31
0.0
 90
        0
 40
0.6
304
LEADER_LINE{
 10
388.7091146957369
 20
245.2370794959823
 30
-0.0000000000016786
 91
        0
305
}
271
     0
303
}
272
     9
273
     9
301
}
340
2703
 90
   279552
170
     1
 91
-1056964608
341
14
171
    -2
290
     1
291
     1
 41
0.6
342
B0
 42
0.0
172
     2
343
10
173
     1
 95
        3
174
     1
175
     2
 92
-1056964608
292
     0
 93
-1056964608
 10
1.0
 20
1.0
 30
1.0
 43
0.0
176
     0
293
     0
294
     0
178
     0
179
     3
 45
1.0
271
     0
272
     9
273
     9
  0
MULTILEADER
  5
4201
330
1A
100
AcDbEntity
  8
HIKIDASI
160
               556
310
2C020000150000000C00000016000000000000C00C00000033000000000000000C00000013000000993A0000D4000000260000001A8BDD759DC87A40EACDBDBEF6077040DD51A209BE877DBD00000000000000000000000000000000000000000000F03F000000000000F03F0000000000000000000000000000000026FF28
310
FF15FF11FF19FF000005000000010000000000000000001440000000000000F03F0000000000000000000000000000F03F000000000000000000000000000000000000000000000000000000000100000000000000000000007400780074002E00730068007800000065007800740066006F006E0074002E00730068007800
310
00000C00000033000000000000000C00000010000000070000000C00000016000000000000C00C00000012000000FF7F00000C00000013000000010000000C00000013000000891300003C000000060000000200000038CEA865ADD0794059598BCD33706D40DD51A209BE877DBD2B9CEE86AEA97A40EACDBDBEF62F7040DD
310
51A209BE877DBD0C00000013000000112700003C00000006000000020000002B9CEE86AEA97A40EACDBDBEF62F7040DD51A209BE877DBDC535882048B37A40EACDBDBEF62F7040DD51A209BE877DBD0C00000016000000000000C00C00000012000000FF7F00000C00000017000000000000000C000000130000009A3A0000
310
0C00000016000000000000C00C00000012000000FF7F00000C00000017000000FFFFFFFF0C0000003300000000000000
100
AcDbMLeader
270
     2
300
CONTEXT_DATA{
 40
1.0
 10
427.20510915
 20
258.9977404989464
 30
-0.0000000000016786
 41
5.0
140
0.0
145
2.0
174
     1
175
     3
176
     0
177
     0
290
     1
304
ＦＨ５１９
 11
0.0
 21
0.0
 31
1.0
340
10
 12
429.20510915
 22
261.4977404989464
 32
-0.0000000000016786
 13
1.0
 23
0.0
 33
0.0
 42
0.0
 43
0.0
 44
0.0
 45
1.0
170
     1
 90
-1073741824
171
     1
172
     5
 91
-1073741824
141
0.0
 92
        0
291
     0
292
     0
173
     0
293
     0
142
0.0
143
0.0
294
     0
295
     0
296
     0
110
413.0423332780805
120
235.5063235971127
130
-0.0000000000016786
111
1.0
121
0.0
131
0.0
112
0.0
122
1.0
132
0.0
297
     0
302
LEADER{
290
     1
291
     1
 10
426.60510915
 20
258.9977404989464
 30
-0.0000000000016786
 11
1.0
 21
0.0
 31
0.0
 90
        0
 40
0.6
304
LEADER_LINE{
 10
413.0423332780805
 20
235.5063235971127
 30
-0.0000000000016786
 91
        0
305
}
271
     0
303
}
272
     9
273
     9
301
}
340
2703
 90
   279552
170
     1
 91
-1056964608
341
14
171
    -2
290
     1
291
     1
 41
0.6
342
B0
 42
0.0
172
     2
343
10
173
     1
 95
        3
174
     1
175
     0
 92
-1056964608
292
     0
 93
-1056964608
 10
1.0
 20
1.0
 30
1.0
 43
0.0
176
     0
293
     0
294
     0
178
     0
179
     1
 45
1.0
271
     0
272
     9
273
     9
  0
MULTILEADER
  5
4202
330
1A
100
AcDbEntity
  8
HIKIDASI
160
               572
310
3C020000150000000C00000016000000000000C00C00000033000000000000000C00000013000000993A0000E40000002600000071C6DEF7004F7C40043139F4B7297540DD51A209BE877DBD00000000000000000000000000000000000000000000F03F000000000000F03F00000000000000000000000000000000025C28
310
75D330B930003034FF37FF2CFF16FF16FF15FF2EFF000000000C000000010000000000000000001440000000000000F03F0000000000000000000000000000F03F000000000000000000000000000000000000000000000000000000000100000000000000000000007400780074002E007300680078000000650078007400
310
66006F006E0074002E0073006800780000000C00000033000000000000000C00000010000000070000000C00000016000000000000C00C00000012000000FF7F00000C00000013000000010000000C00000013000000891300003C00000006000000020000009FFBD1D76FFD794036A3AE11AF957140DD51A209BE877DBDD7
310
2C455E67257C40043139F4B7517540DD51A209BE877DBD0C00000013000000112700003C0000000600000002000000D72C455E67257C40043139F4B7517540DD51A209BE877DBD71C6DEF7002F7C40043139F4B7517540DD51A209BE877DBD0C00000016000000000000C00C00000012000000FF7F00000C00000017000000
310
000000000C000000130000009A3A00000C00000016000000000000C00C00000012000000FF7F00000C00000017000000FFFFFFFF0C0000003300000000000000
100
AcDbMLeader
270
     2
300
CONTEXT_DATA{
 40
1.0
 10
450.9377363874583
 20
341.107410643963
 30
-0.0000000000016786
 41
5.0
140
0.0
145
2.0
174
     1
175
     3
176
     0
177
     0
290
     1
304
専用ビス　ＴＷＬ６６５Ｎ
 11
0.0
 21
0.0
 31
1.0
340
10
 12
452.9377363874583
 22
343.607410643963
 32
-0.0000000000016786
 13
1.0
 23
0.0
 33
0.0
 42
0.0
 43
0.0
 44
0.0
 45
1.0
170
     1
 90
-1073741824
171
     1
172
     5
 91
-1073741824
141
0.0
 92
        0
291
     0
292
     0
173
     0
293
     0
142
0.0
143
0.0
294
     0
295
     0
296
     0
110
415.8398054316002
120
281.3552414724139
130
-0.0000000000016786
111
1.0
121
0.0
131
0.0
112
0.0
122
1.0
132
0.0
297
     0
302
LEADER{
290
     1
291
     1
 10
450.3377363874583
 20
341.107410643963
 30
-0.0000000000016786
 11
1.0
 21
0.0
 31
0.0
 90
        0
 40
0.6
304
LEADER_LINE{
 10
415.8398054316002
 20
281.3552414724139
 30
-0.0000000000016786
 91
        0
305
}
271
     0
303
}
272
     9
273
     9
301
}
340
2703
 90
   279552
170
     1
 91
-1056964608
341
14
171
    -2
290
     1
291
     1
 41
0.6
342
B0
 42
0.0
172
     2
343
10
173
     1
 95
        3
174
     1
175
     0
 92
-1056964608
292
     0
 93
-1056964608
 10
1.0
 20
1.0
 30
1.0
 43
0.0
176
     0
293
     0
294
     0
178
     0
179
     1
 45
1.0
271
     0
272
     9
273
     9
  0
MULTILEADER
  5
4203
330
1A
100
AcDbEntity
  8
HIKIDASI
160
               560
310
30020000150000000C00000016000000000000C00C00000033000000000000000C00000013000000993A0000D800000026000000E9EBF174AF63714020E5D9ED26936140000000000000000000000000000000000000000000000000000000000000F03F000000000000F03F0000000000000000000000000000000027FF2C
310
FF346C075216FF15FF0000000006000000010000000000000000001440000000000000F03F0000000000000000000000000000F03F000000000000000000000000000000000000000000000000000000000100000000000000000000007400780074002E00730068007800000065007800740066006F006E0074002E007300
310
6800780000000C00000033000000000000000C00000010000000070000000C00000016000000000000C00C00000012000000FF7F00000C00000013000000010000000C00000013000000891300003C000000060000000200000080D3C046DD5D75404EE3B9F41FD0674000000000000000002E3036B9F3A7734020E5D9ED26
310
E3614000000000000000000C00000013000000112700003C00000006000000020000002E3036B9F3A7734020E5D9ED26E36140000000000000000094969C1F5A9E734020E5D9ED26E3614000000000000000000C00000016000000000000C00C00000012000000FF7F00000C00000017000000000000000C00000013000000
310
9A3A00000C00000016000000000000C00C00000012000000FF7F00000C00000017000000FFFFFFFF0C0000003300000000000000
100
AcDbMLeader
270
     2
300
CONTEXT_DATA{
 40
1.0
 10
276.8970028034903
 20
143.0985020881426
 30
0.0
 41
5.0
140
0.0
145
2.0
174
     1
175
     3
176
     2
177
     0
290
     1
304
ＧＬ水切６５
 11
0.0
 21
0.0
 31
1.0
340
10
 12
311.8970028034903
 22
145.5985020881426
 32
0.0
 13
1.0
 23
0.0
 33
0.0
 42
0.0
 43
0.0
 44
0.0
 45
1.0
170
     1
 90
-1073741824
171
     3
172
     5
 91
-1073741824
141
0.0
 92
        0
291
     0
292
     0
173
     0
293
     0
142
0.0
143
0.0
294
     0
295
     0
296
     0
110
341.8665225536606
120
190.5039008741973
130
0.0
111
1.0
121
0.0
131
0.0
112
0.0
122
1.0
132
0.0
297
     0
302
LEADER{
290
     1
291
     1
 10
314.4970028034903
 20
143.0985020881426
 30
0.0
 11
-1.0
 21
0.0
 31
0.0
 90
        0
 40
0.6
304
LEADER_LINE{
 10
341.8665225536606
 20
190.5039008741973
 30
0.0
 91
        0
305
}
271
     0
303
}
272
     9
273
     9
301
}
340
2703
 90
   279552
170
     1
 91
-1056964608
341
14
171
    -2
290
     1
291
     1
 41
0.6
342
B0
 42
0.0
172
     2
343
10
173
     1
 95
        3
174
     1
175
     2
 92
-1056964608
292
     0
 93
-1056964608
 10
1.0
 20
1.0
 30
1.0
 43
0.0
176
     0
293
     0
294
     0
178
     0
179
     3
 45
1.0
271
     0
272
     9
273
     9
  0
MTEXT
  5
464D
102
{ACAD_XDICTIONARY
360
464E
102
}
330
1A
100
AcDbEntity
  8
WAKU
100
AcDbMText
 10
124.3245405690059
 20
23.21985646788335
 30
0.0
 40
5.0
 41
130.7517663064795
 46
0.0
 71
     1
 72
     5
  1
\pi17.11446;アイジーヴァンド参考ディテール
  7
WAKU
 73
     1
 44
1.0
  0
MTEXT
  5
464F
102
{ACAD_XDICTIONARY
360
4650
102
}
330
1A
100
AcDbEntity
  8
WAKU
100
AcDbMText
 10
34.05004475349506
 20
23.21985646788335
 30
0.0
 40
5.0
 41
71.82723587241572
 46
0.0
 71
     1
 72
     5
  1
\pi3.9593;アイジー工業株式会社
  7
WAKU
 73
     1
 44
1.0
  0
LWPOLYLINE
  5
4696
330
1A
100
AcDbEntity
  8
TEKUSU
  6
DASHED2
 48
0.5
100
AcDbPolyline
 90
        5
 70
     0
 43
0.0
 10
364.8665225536554
 20
287.3964036894307
 10
365.3665225536554
 20
287.3964036894307
 10
365.3665225536554
 20
272.3964036894305
 10
364.8665225536554
 20
272.3964036894305
 10
364.8665225536554
 20
286.3964036894287
  0
ARC
  5
4697
330
1A
100
AcDbEntity
  8
TEKUSU
  6
DASHED2
 48
0.5
100
AcDbCircle
 10
363.6165225536554
 20
272.3964036894305
 30
-0.0000000000012834
 40
0.5
100
AcDbArc
 50
180.0
 51
270.0
1001
GENIUS_GENODEF_13
1002
{
1000
HIER
1070
     0
1002
}
1002
{
1000
MANEDIT
1070
     0
1002
}
1002
{
1000
NOSEL
1070
     0
1002
}
1002
{
1000
BEHIND
1070
     0
1002
}
1002
{
1000
OTHER
1070
     0
1002
}
1002
{
1000
REACTOR
1002
}
1001
GENIUS_GENOBJ-N-FIL_13
1002
{
1000
OWNER
1000
GEN
1002
}
  0
ARC
  5
4698
330
1A
100
AcDbEntity
  8
TEKUSU
  6
DASHED2
 48
0.5
100
AcDbCircle
 10
364.3665225536554
 20
272.3964036894305
 30
-0.0000000000012834
 40
0.5
100
AcDbArc
 50
270.0
 51
0.0
1001
GENIUS_GENOBJ-N-FIL_13
1002
{
1000
OWNER
1000
GEN
1002
}
1001
GENIUS_GENODEF_13
1002
{
1000
HIER
1070
     0
1002
}
1002
{
1000
MANEDIT
1070
     0
1002
}
1002
{
1000
NOSEL
1070
     0
1002
}
1002
{
1000
BEHIND
1070
     0
1002
}
1002
{
1000
OTHER
1070
     0
1002
}
1002
{
1000
REACTOR
1002
}
  0
ARC
  5
4699
330
1A
100
AcDbEntity
  8
TEKUSU
  6
DASHED2
 48
0.5
100
AcDbCircle
 10
374.8053156571042
 20
279.8964036894286
 30
-0.0000000000012834
 40
13.13879310344826
100
AcDbArc
 50
152.8280175842511
 51
207.1719824157488
  0
LINE
  5
469A
330
1A
100
AcDbEntity
  8
TEKUSU
  6
DASHED2
 48
0.5
100
AcDbLine
 10
364.3665225536554
 20
271.8964036894305
 30
-0.0000000000012834
 11
363.6165225536554
 21
271.8964036894305
 31
-0.0000000000012834
  0
LINE
  5
469B
330
1A
100
AcDbEntity
  8
TEKUSU
  6
DASHED2
 48
0.5
100
AcDbLine
 10
363.1165225536554
 20
272.3964036894305
 30
-0.0000000000012834
 11
363.1165225536554
 21
287.3964036894305
 31
-0.0000000000012834
  0
ARC
  5
469C
330
1A
100
AcDbEntity
  8
TEKUSU
  6
DASHED2
 48
0.5
100
AcDbCircle
 10
363.6165225536554
 20
287.3964036894305
 30
-0.0000000000012834
 40
0.5
100
AcDbArc
 50
90.0
 51
180.0
1001
GENIUS_GENOBJ-N-FIL_13
1002
{
1000
OWNER
1000
GEN
1002
}
1001
GENIUS_GENODEF_13
1002
{
1000
HIER
1070
     0
1002
}
1002
{
1000
MANEDIT
1070
     0
1002
}
1002
{
1000
NOSEL
1070
     0
1002
}
1002
{
1000
BEHIND
1070
     0
1002
}
1002
{
1000
OTHER
1070
     0
1002
}
1002
{
1000
REACTOR
1002
}
  0
ARC
  5
469D
330
1A
100
AcDbEntity
  8
TEKUSU
  6
DASHED2
 48
0.5
100
AcDbCircle
 10
364.3665225536554
 20
287.3964036894305
 30
-0.0000000000012834
 40
0.5
100
AcDbArc
 50
0.0
 51
90.0
1001
GENIUS_GENOBJ-N-FIL_13
1002
{
1000
OWNER
1000
GEN
1002
}
1001
GENIUS_GENODEF_13
1002
{
1000
HIER
1070
     0
1002
}
1002
{
1000
MANEDIT
1070
     0
1002
}
1002
{
1000
NOSEL
1070
     0
1002
}
1002
{
1000
BEHIND
1070
     0
1002
}
1002
{
1000
OTHER
1070
     0
1002
}
1002
{
1000
REACTOR
1002
}
  0
LINE
  5
469E
330
1A
100
AcDbEntity
  8
TEKUSU
  6
DASHED2
 48
0.5
100
AcDbLine
 10
364.3665225536554
 20
287.8964036894286
 30
-0.0000000000012834
 11
363.6165225536554
 21
287.8964036894286
 31
-0.0000000000012834
  0
LINE
  5
469F
330
1A
100
AcDbEntity
  8
TEKUSU
  6
DASHED2
 48
0.5
100
AcDbLine
 10
364.8665225536554
 20
272.3964036894305
 30
-0.0000000000012834
 11
364.8665225536554
 21
287.3964036894305
 31
-0.0000000000012834
  0
LINE
  5
46A0
330
1A
100
AcDbEntity
  8
TEKUSU
  6
CENTER2
370
     5
100
AcDbLine
 10
356.9636223730652
 20
279.8964036894286
 30
-0.0000000000046765
 11
439.8665225536554
 21
279.8964036894286
 31
-0.0000000000046765
  0
LINE
  5
46A1
330
1A
100
AcDbEntity
  8
TEKUSU
 48
0.5
100
AcDbLine
 10
422.8665225536554
 20
276.6464036894303
 30
-0.0000000000046765
 11
422.8665225536554
 21
283.1464036894303
 31
-0.0000000000046765
  0
LINE
  5
46A2
330
1A
100
AcDbEntity
  8
TEKUSU
  6
DASHED2
 48
0.5
100
AcDbLine
 10
392.8665225536545
 20
276.6464036894305
 30
-0.0000000000012834
 11
392.8665225536545
 21
283.1464036894305
 31
-0.0000000000012834
  0
LINE
  5
46A3
330
1A
100
AcDbEntity
  8
TEKUSU
 48
0.5
100
AcDbLine
 10
427.7663894473691
 20
282.3964036894305
 30
-0.0000000000046765
 11
422.8665225536562
 21
282.3964036894305
 31
-0.0000000000046765
  0
LINE
  5
46A4
330
1A
100
AcDbEntity
  8
TEKUSU
 48
0.5
100
AcDbLine
 10
429.8665225536553
 20
279.8964036894286
 30
-0.0000000000046765
 11
427.7663894473691
 21
282.3964036894305
 31
-0.0000000000046765
  0
LINE
  5
46A5
330
1A
100
AcDbEntity
  8
TEKUSU
 48
0.5
100
AcDbLine
 10
427.7663894473691
 20
277.3964036894305
 30
-0.0000000000046765
 11
422.8665225536562
 21
277.3964036894303
 31
-0.0000000000046765
  0
LINE
  5
46A6
330
1A
100
AcDbEntity
  8
TEKUSU
 48
0.5
100
AcDbLine
 10
427.7663894473691
 20
277.3964036894305
 30
-0.0000000000046765
 11
429.8665225536553
 21
279.8964036894286
 31
-0.0000000000046765
  0
LINE
  5
46A7
330
1A
100
AcDbEntity
  8
TEKUSU
 48
0.5
100
AcDbLine
 10
422.8665225536562
 20
281.4177621100865
 30
-0.0000000000046765
 11
429.8665225536553
 21
279.8964036894286
 31
-0.0000000000046765
  0
LINE
  5
46A8
330
1A
100
AcDbEntity
  8
TEKUSU
  6
DASHED2
 48
0.5
100
AcDbLine
 10
392.8665225536554
 20
283.1464036894305
 30
-0.0000000000046765
 11
409.6665225536561
 21
283.1464036894303
 31
-0.0000000000046765
  0
LINE
  5
46A9
330
1A
100
AcDbEntity
  8
TEKUSU
  6
DASHED2
 48
0.5
100
AcDbLine
 10
392.8665225536554
 20
276.6464057304773
 30
-0.0000000000046765
 11
409.6665225536561
 21
276.6464046062286
 31
-0.0000000000046765
  0
LINE
  5
46AA
330
1A
100
AcDbEntity
  8
TEKUSU
  6
DASHED2
 48
0.5
100
AcDbLine
 10
365.8665225536554
 20
277.3964036894305
 30
-0.0000000000046765
 11
392.8665225536554
 21
277.3964036894305
 31
-0.0000000000046765
  0
LINE
  5
46AB
330
1A
100
AcDbEntity
  8
TEKUSU
  6
DASHED2
 48
0.5
100
AcDbLine
 10
365.8665225536554
 20
282.3964036894305
 30
-0.0000000000046765
 11
392.8665225536554
 21
282.3964036894305
 31
-0.0000000000046765
  0
LINE
  5
46AC
330
1A
100
AcDbEntity
  8
TEKUSU
  6
DASHED2
 48
0.5
100
AcDbLine
 10
365.8665225536554
 20
282.3964036894305
 30
-0.0000000000046765
 11
365.8665225536554
 21
277.3964036894305
 31
-0.0000000000046765
  0
ARC
  5
46AD
330
1A
100
AcDbEntity
  8
TEKUSU
 48
0.5
100
AcDbCircle
 10
365.8665225536554
 20
276.3964036894305
 30
-0.0000000000046765
 40
1.0
100
AcDbArc
 50
90.0
 51
180.0
  0
ARC
  5
46AE
330
1A
100
AcDbEntity
  8
TEKUSU
 48
0.5
100
AcDbCircle
 10
365.8665225536554
 20
283.3964036894305
 30
-0.0000000000046765
 40
1.0
100
AcDbArc
 50
180.0
 51
270.0
  0
LINE
  5
46C4
330
1A
100
AcDbEntity
  8
TEKUSU
 48
0.5
100
AcDbLine
 10
409.6665225536561
 20
283.1464036894304
 30
-0.0000000000046765
 11
422.8665225536554
 21
283.1464036894303
 31
-0.0000000000046765
  0
LINE
  5
46C5
330
1A
100
AcDbEntity
  8
TEKUSU
 48
0.5
100
AcDbLine
 10
409.6665225536561
 20
276.6464046062286
 30
-0.0000000000046765
 11
422.8665225536554
 21
276.6464037228902
 31
-0.0000000000046765
  0
LINE
  5
48B2
330
1A
100
AcDbEntity
  8
TEKUSU
100
AcDbLine
 10
402.91652255367
 20
239.3260527658729
 30
0.0
 11
402.91652255367
 21
229.3260527658726
 31
0.0
  0
LINE
  5
48B3
330
1A
100
AcDbEntity
  8
TEKUSU
100
AcDbLine
 10
403.8665225536607
 20
239.3260527658729
 30
0.0
 11
403.8665225536607
 21
229.3260527658726
 31
0.0
  0
LINE
  5
48B4
330
1A
100
AcDbEntity
  8
TEKUSU
  6
CENTER2
 48
0.5
370
     5
100
AcDbLine
 10
425.8665225536602
 20
234.3260527658727
 30
0.0
 11
399.9165225536702
 21
234.3260527658726
 31
0.0
  0
LINE
  5
48B5
330
1A
100
AcDbEntity
  8
TEKUSU
100
AcDbLine
 10
420.7665225536617
 20
232.2260527658727
 30
0.0
 11
416.8665225536607
 21
232.2260527658727
 31
0.0
  0
LINE
  5
48B6
330
1A
100
AcDbEntity
  8
TEKUSU
100
AcDbLine
 10
420.7665225536612
 20
236.4260527658727
 30
0.0
 11
416.8665225536607
 21
236.4260527658727
 31
0.0
  0
LINE
  5
48B7
330
1A
100
AcDbEntity
  8
TEKUSU
100
AcDbLine
 10
403.8665225536607
 20
229.3260527658726
 30
0.0
 11
402.91652255367
 21
229.3260527658726
 31
0.0
  0
LINE
  5
48B8
330
1A
100
AcDbEntity
  8
TEKUSU
100
AcDbLine
 10
403.8665225536607
 20
239.3260527658727
 30
0.0
 11
402.91652255367
 21
239.3260527658727
 31
0.0
  0
LINE
  5
48B9
330
1A
100
AcDbEntity
  8
TEKUSU
100
AcDbLine
 10
416.8665225536605
 20
231.8260527658728
 30
0.0
 11
403.8665225536607
 21
231.8260527658728
 31
0.0
  0
LINE
  5
48BA
330
1A
100
AcDbEntity
  8
TEKUSU
100
AcDbLine
 10
416.8665225536605
 20
236.8260527658727
 30
0.0
 11
403.8665225536607
 21
236.8260527658727
 31
0.0
  0
LINE
  5
48BB
330
1A
100
AcDbEntity
  8
TEKUSU
100
AcDbLine
 10
416.8665225536607
 20
236.8260527658727
 30
0.0
 11
416.8665225536607
 21
231.8260527658728
 31
0.0
  0
LINE
  5
48BC
330
1A
100
AcDbEntity
  8
TEKUSU
100
AcDbLine
 10
422.8665225536614
 20
234.3260527658725
 30
0.0
 11
420.7665225536617
 21
232.2260527658727
 31
0.0
  0
LINE
  5
48BD
330
1A
100
AcDbEntity
  8
TEKUSU
100
AcDbLine
 10
422.8665225536616
 20
234.3260527658725
 30
0.0
 11
420.7665225536612
 21
236.4260527658727
 31
0.0
  0
LINE
  5
48BE
330
1A
100
AcDbEntity
  8
TEKUSU
100
AcDbLine
 10
416.8665225536607
 20
235.2550994584767
 30
0.0
 11
422.8665225536616
 21
234.3260527658725
 31
0.0
  0
VIEWPORT
  5
22
330
17
100
AcDbEntity
 67
     1
  8
0
348
26D3
100
AcDbViewport
 10
261.5176991150442
 20
154.7242978687078
 30
0.0
 40
523.0353982300885
 41
309.4485957374157
 68
     1
 69
     1
 12
261.5176991150442
 22
154.7242978687078
 13
0.0
 23
0.0
 14
1.0
 24
1.0
 15
10.0
 25
10.0
 16
0.0
 26
0.0
 36
1.0
 17
0.0
 27
0.0
 37
0.0
 42
50.0
 43
0.0
 44
0.0
 45
309.4485957374157
 50
0.0
 51
0.0
 72
   100
 90
    32768
  1

281
     0
 71
     1
 74
     0
110
0.0
120
0.0
130
0.0
111
1.0
121
0.0
131
0.0
112
0.0
122
1.0
132
0.0
 79
     0
146
0.0
170
     0
 61
     5
292
     1
282
     1
141
0.0
142
0.0
 63
   250
421
  3355443
  0
ENDSEC
  0
SECTION
  2
OBJECTS
  0
DICTIONARY
  5
C
330
0
100
AcDbDictionary
281
     1
  3
ACAD_CIP_PREVIOUS_PRODUCT_INFO
350
284A
  3
ACAD_COLOR
350
3B0
  3
ACAD_DETAILVIEWSTYLE
350
2CCB
  3
ACAD_GROUP
350
D
  3
ACAD_LAYOUT
350
3B1
  3
ACAD_MATERIAL
350
3AF
  3
ACAD_MLEADERSTYLE
350
2702
  3
ACAD_MLINESTYLE
350
E
  3
ACAD_PLOTSETTINGS
350
3B2
  3
ACAD_PLOTSTYLENAME
350
3AD
  3
ACAD_SCALELIST
350
26E0
  3
ACAD_SECTIONVIEWSTYLE
350
2CC9
  3
ACAD_TABLESTYLE
350
26DE
  3
ACAD_VISUALSTYLE
350
26CD
  3
AcadDim
350
D85
  3
ACDB_RECOMPOSE_DATA
350
4932
  3
AcDbVariableDictionary
350
16B3
  3
AcDsDecomposeData
350
4938
  0
DICTIONARY
  5
2732
330
8
100
AcDbDictionary
280
     1
281
     1
  0
DICTIONARY
  5
16FF
330
2
100
AcDbDictionary
280
     1
281
     1
  3
ACAD_LAYERFILTERS
360
2004
  3
ACAD_LAYERSTATES
360
1700
  0
DICTIONARY
  5
2726
330
F
100
AcDbDictionary
280
     1
281
     1
  3
ADSK_XREC_LAYER_RECONCILED
360
2727
  0
DICTIONARY
  5
2728
330
87
100
AcDbDictionary
280
     1
281
     1
  3
ADSK_XREC_LAYER_RECONCILED
360
2729
  0
DICTIONARY
  5
272A
330
1502
100
AcDbDictionary
280
     1
281
     1
  3
ADSK_XREC_LAYER_RECONCILED
360
272B
  0
DICTIONARY
  5
22B8
330
22B7
100
AcDbDictionary
280
     1
281
     1
  3
ADSK_XREC_LAYER_RECONCILED
360
22BA
  0
DICTIONARY
  5
2341
330
2340
100
AcDbDictionary
280
     1
281
     1
  3
ADSK_XREC_LAYER_RECONCILED
360
2343
  0
DICTIONARY
  5
2345
330
2344
100
AcDbDictionary
280
     1
281
     1
  3
ADSK_XREC_LAYER_RECONCILED
360
2347
  0
DICTIONARY
  5
2349
330
2348
100
AcDbDictionary
280
     1
281
     1
  3
ADSK_XREC_LAYER_RECONCILED
360
234B
  0
DICTIONARY
  5
272C
330
234C
100
AcDbDictionary
280
     1
281
     1
  3
ADSK_XREC_LAYER_RECONCILED
360
272D
  0
DICTIONARY
  5
4359
330
4358
100
AcDbDictionary
280
     1
281
     1
  0
DICTIONARY
  5
435B
330
435A
100
AcDbDictionary
280
     1
281
     1
  0
DICTIONARY
  5
2C3B
330
1A
100
AcDbDictionary
280
     1
281
     1
  3
ACAD_SORTENTS
360
2C3C
  0
DICTIONARY
  5
4737
330
200C
100
AcDbDictionary
280
     1
281
     1
  3
ACAD_MTEXT_2008_RT
360
492E
  0
DICTIONARY
  5
464E
330
464D
100
AcDbDictionary
280
     1
281
     1
  3
ACAD_MTEXT_2008_RT
360
4930
  0
DICTIONARY
  5
4650
330
464F
100
AcDbDictionary
280
     1
281
     1
  3
ACAD_MTEXT_2008_RT
360
4931
  0
XRECORD
  5
284A
102
{ACAD_REACTORS
330
C
102
}
330
C
100
AcDbXrecord
280
     1
300
ACDLT
300
2017
300
86604ACDLT_2017_0F
  0
DICTIONARY
  5
3B0
102
{ACAD_REACTORS
330
C
102
}
330
C
100
AcDbDictionary
281
     1
  0
DICTIONARY
  5
2CCB
102
{ACAD_REACTORS
330
C
102
}
330
C
100
AcDbDictionary
281
     1
  3
Metric50
350
2CCC
  0
DICTIONARY
  5
D
102
{ACAD_REACTORS
330
C
102
}
330
C
100
AcDbDictionary
281
     1
  0
DICTIONARY
  5
3B1
102
{ACAD_REACTORS
330
C
102
}
330
C
100
AcDbDictionary
281
     1
  3
Model
350
3B3
  3
レイアウト1
350
3B4
  0
DICTIONARY
  5
3AF
102
{ACAD_REACTORS
330
C
102
}
330
C
100
AcDbDictionary
281
     1
  3
ByBlock
350
26C5
  3
ByLayer
350
26BD
  3
Global
350
16FC
  0
DICTIONARY
  5
2702
102
{ACAD_REACTORS
330
C
102
}
330
C
100
AcDbDictionary
281
     1
  3
Standard
350
2703
  0
DICTIONARY
  5
E
102
{ACAD_REACTORS
330
C
102
}
330
C
100
AcDbDictionary
281
     1
  3
STANDARD
350
13
  0
DICTIONARY
  5
3B2
102
{ACAD_REACTORS
330
C
102
}
330
C
100
AcDbDictionary
281
     1
  0
ACDBDICTIONARYWDFLT
  5
3AD
102
{ACAD_REACTORS
330
C
102
}
330
C
100
AcDbDictionary
281
     1
  3
Normal
350
3AE
100
AcDbDictionaryWithDefault
340
3AE
  0
DICTIONARY
  5
26E0
102
{ACAD_REACTORS
330
C
102
}
330
C
100
AcDbDictionary
281
     1
  3
A0
350
26E1
  3
A1
350
26E2
  3
A2
350
26E3
  3
A3
350
26E4
  3
A4
350
26E5
  3
A5
350
26E6
  3
A6
350
26E7
  3
A7
350
26E8
  3
A8
350
26E9
  3
A9
350
26EA
  3
B0
350
26EB
  3
B1
350
26EC
  3
B2
350
26ED
  3
B3
350
26EE
  3
B4
350
26EF
  3
B5
350
26F0
  3
B6
350
26F1
  3
B7
350
26F2
  3
B8
350
26F3
  3
B9
350
26F4
  3
C0
350
26F5
  3
C1
350
26F6
  3
C2
350
26F7
  3
C3
350
26F8
  3
C4
350
26F9
  3
C5
350
26FA
  3
C6
350
26FB
  3
C7
350
26FC
  3
C8
350
26FD
  3
C9
350
26FE
  3
D0
350
26FF
  3
D1
350
2700
  3
D2
350
2701
  0
DICTIONARY
  5
2CC9
102
{ACAD_REACTORS
330
C
102
}
330
C
100
AcDbDictionary
281
     1
  3
Metric50
350
2CCA
  0
DICTIONARY
  5
26DE
102
{ACAD_REACTORS
330
C
102
}
330
C
100
AcDbDictionary
281
     1
  3
Standard
350
26DF
  0
DICTIONARY
  5
26CD
102
{ACAD_REACTORS
330
C
102
}
330
C
100
AcDbDictionary
281
     1
  3
2dWireframe
350
26D3
  3
3D Hidden
350
26D5
  3
3dWireframe
350
26D4
  3
Basic
350
26D2
  3
Brighten
350
26D9
  3
ColorChange
350
26DD
  3
Conceptual
350
26D6
  3
Dim
350
26D8
  3
EdgeColorOff
350
2844
  3
Facepattern
350
26DC
  3
Flat
350
26CE
  3
FlatWithEdges
350
26CF
  3
Gouraud
350
26D0
  3
GouraudWithEdges
350
26D1
  3
Hidden
350
283C
  3
JitterOff
350
2842
  3
Linepattern
350
26DB
  3
OverhangOff
350
2843
  3
Realistic
350
26D7
  3
Shaded
350
2841
  3
Shaded with edges
350
2840
  3
Shades of Gray
350
283D
  3
Sketchy
350
283E
  3
Thicken
350
26DA
  3
Wireframe
350
283B
  3
X-Ray
350
283F
  0
XRECORD
  5
D85
102
{ACAD_REACTORS
330
C
102
}
330
C
100
AcDbXrecord
280
     1
 90
   990106
  3
NONE
 60
     0
 61
     0
 62
     1
 63
     3
 64
     0
 65
     0
 66
     0
 67
     3
 68
     1
 69
     0
 70
     4
 71
     4
 72
     0
 40
0.0
170
     1
340
0
  0
XRECORD
  5
4932
102
{ACAD_REACTORS
330
C
102
}
330
C
100
AcDbXrecord
280
     1
 90
        1
330
200C
330
26DF
330
464D
330
464F
  0
DICTIONARY
  5
16B3
102
{ACAD_REACTORS
330
C
102
}
330
C
100
AcDbDictionary
281
     1
  3
CANNOSCALE
350
274B
  3
CMLEADERSTYLE
350
274A
  3
CTABLESTYLE
350
2749
  3
CVIEWDETAILSTYLE
350
2D1E
  3
CVIEWSECTIONSTYLE
350
2D1F
  3
DIMASSOC
350
16B4
  3
INDEXCTL
350
274D
  3
LAYEREVAL
350
2C60
  3
LAYERNOTIFY
350
2C61
  3
LIGHTINGUNITS
350
2C5F
  3
MSLTSCALE
350
2C5E
  3
PROJECTNAME
350
16B5
  3
SORTENTS
350
274C
  3
XCLIPFRAME
350
4271
  0
DICTIONARY
  5
4938
102
{ACAD_REACTORS
330
C
102
}
330
C
100
AcDbDictionary
281
     1
  3
AcDsRecords
350
493A
  3
AcDsSchemas
350
4939
1001
ACAD
1070
     2
  0
DICTIONARY
  5
2004
102
{ACAD_REACTORS
330
16FF
102
}
330
16FF
100
AcDbDictionary
281
     1
  0
DICTIONARY
  5
1700
102
{ACAD_REACTORS
330
16FF
102
}
330
16FF
100
AcDbDictionary
281
     1
  0
XRECORD
  5
2727
102
{ACAD_REACTORS
330
2726
102
}
330
2726
100
AcDbXrecord
280
     1
290
     1
  0
XRECORD
  5
2729
102
{ACAD_REACTORS
330
2728
102
}
330
2728
100
AcDbXrecord
280
     1
290
     1
  0
XRECORD
  5
272B
102
{ACAD_REACTORS
330
272A
102
}
330
272A
100
AcDbXrecord
280
     1
290
     1
  0
XRECORD
  5
22BA
102
{ACAD_REACTORS
330
22B8
102
}
330
22B8
100
AcDbXrecord
280
     1
290
     1
  0
XRECORD
  5
2343
102
{ACAD_REACTORS
330
2341
102
}
330
2341
100
AcDbXrecord
280
     1
290
     1
  0
XRECORD
  5
2347
102
{ACAD_REACTORS
330
2345
102
}
330
2345
100
AcDbXrecord
280
     1
290
     1
  0
XRECORD
  5
234B
102
{ACAD_REACTORS
330
2349
102
}
330
2349
100
AcDbXrecord
280
     1
290
     1
  0
XRECORD
  5
272D
102
{ACAD_REACTORS
330
272C
102
}
330
272C
100
AcDbXrecord
280
     1
290
     1
  0
SORTENTSTABLE
  5
2C3C
102
{ACAD_REACTORS
330
2C3B
102
}
330
2C3B
100
AcDbSortentsTable
330
1A
331
3769
  5
379E
331
37B0
  5
3809
331
3819
  5
39A9
331
376D
  5
37A2
331
37B4
  5
380D
331
3771
  5
37A5
331
381D
  5
4084
331
3775
  5
37A9
331
3821
  5
413F
331
3825
  5
41FF
331
E72
  5
3775
331
48B3
  5
48B3
331
48B7
  5
48B7
331
48BB
  5
48BB
331
41FF
  5
46A6
331
3778
  5
37AC
331
37B9
  5
3812
331
3828
  5
4202
331
37BD
  5
3816
331
3981
  5
4696
331
37C1
  5
3818
331
3985
  5
469A
331
39A5
  5
469C
331
E79
  5
3778
331
E8D
  5
3791
331
4203
  5
46AA
331
4698
  5
E50
331
469C
  5
E5A
331
3790
  5
37AF
331
3794
  5
37B2
331
37FD
  5
381A
331
39A9
  5
469E
331
3798
  5
37B5
331
3801
  5
381E
331
379C
  5
37B9
331
3805
  5
3822
331
46A1
  5
E6F
331
46A5
  5
E78
331
46A9
  5
E8B
331
46AD
  5
200C
331
380A
  5
3827
331
37A1
  5
37BE
331
3762
  5
3798
331
380E
  5
382B
331
37A5
  5
37C4
331
3766
  5
379B
331
3812
  5
3984
331
37A9
  5
3802
331
3816
  5
3988
331
37AD
  5
3806
331
E1D
  5
3766
331
E5B
  5
376E
331
46C5
  5
375F
331
376A
  5
379F
331
376E
  5
37A3
331
381A
  5
39AA
331
37B1
  5
380A
331
3772
  5
37A6
331
381E
  5
4085
331
37B5
  5
380E
331
3776
  5
37AA
331
3822
  5
41B2
331
3826
  5
4200
331
E6F
  5
3773
331
E73
  5
3776
331
464D
  5
46C4
331
48B4
  5
48B4
331
48B8
  5
48B8
331
48BC
  5
48BC
331
37BA
  5
3813
331
3779
  5
37AD
331
3829
  5
4203
331
37BE
  5
3817
331
3982
  5
4697
331
37C2
  5
3819
331
3986
  5
469B
331
39A6
  5
46AD
331
E7A
  5
3779
331
E8E
  5
3792
331
4200
  5
46A7
331
4699
  5
E51
331
469D
  5
E5B
331
3791
  5
46A1
331
39AA
  5
469F
331
37FE
  5
381B
331
3795
  5
37B3
331
3802
  5
381F
331
3799
  5
37B6
331
3806
  5
3823
331
379D
  5
37BA
331
2016
  5
3794
331
E15
  5
3760
331
E4F
  5
3768
331
46A2
  5
E71
331
46A6
  5
E79
331
46AA
  5
E8C
331
46AE
  5
2016
331
37A2
  5
37C1
331
37A6
  5
37C5
331
380B
  5
3828
331
37AA
  5
3803
331
380F
  5
382C
331
37AE
  5
3807
331
3767
  5
379C
331
3813
  5
3985
331
41B2
  5
3797
331
E1E
  5
3767
331
3817
  5
39A7
331
413F
  5
46A3
331
E50
  5
3769
331
E5C
  5
376F
331
37B2
  5
380B
331
376B
  5
37A0
331
37B6
  5
380F
331
376F
  5
46AC
331
381B
  5
39AB
331
3773
  5
37A7
331
381F
  5
4086
331
3777
  5
37AB
331
3823
  5
41F1
331
3827
  5
4201
331
E6C
  5
3771
331
48B5
  5
48B5
331
41F1
  5
46A4
331
48B9
  5
48B9
331
48BD
  5
48BD
331
377A
  5
37AE
331
37BB
  5
3814
331
3983
  5
4698
331
39A7
  5
46AE
331
E7B
  5
377A
331
E8B
  5
378F
331
4696
  5
E4C
331
4201
  5
46A8
331
469A
  5
E52
331
469E
  5
E5C
331
3792
  5
37B0
331
3796
  5
37B4
331
379A
  5
37B7
331
37FF
  5
381C
331
39AB
  5
46A0
331
379E
  5
37BB
331
3803
  5
3820
331
3807
  5
3824
331
E16
  5
3761
331
46A3
  5
E72
331
46A7
  5
E7A
331
46AB
  5
E8D
331
37A3
  5
37C2
331
3808
  5
3825
331
37A7
  5
37C6
331
380C
  5
3829
331
37AB
  5
3804
331
3760
  5
3795
331
3810
  5
397F
331
37AF
  5
3808
331
3764
  5
3799
331
3814
  5
3986
331
E51
  5
376A
331
E59
  5
376C
331
37B3
  5
380C
331
3768
  5
379D
331
3818
  5
39A8
331
37B7
  5
3810
331
376C
  5
37A1
331
381C
  5
4083
331
397F
  5
464D
331
3770
  5
37A4
331
3820
  5
4087
331
3774
  5
37A8
331
3824
  5
41F2
331
E6D
  5
3772
331
E71
  5
3774
331
48B2
  5
48B2
331
48B6
  5
48B6
331
41F2
  5
46A5
331
464F
  5
46C5
331
48BA
  5
48BA
331
48BE
  5
48BE
331
37B8
  5
3811
331
37BC
  5
3815
331
3980
  5
464F
331
3984
  5
4699
331
378F
  5
46AB
331
E78
  5
3777
331
E8C
  5
3790
331
4202
  5
46A9
331
4697
  5
E4F
331
469B
  5
E58
331
469F
  5
E5E
331
3793
  5
37B1
331
3797
  5
46A2
331
39A8
  5
469D
331
379B
  5
37B8
331
3800
  5
381D
331
379F
  5
37BC
331
3804
  5
3821
331
200C
  5
3793
331
E17
  5
3762
331
46A0
  5
E6D
331
46A4
  5
E73
331
46A8
  5
E7B
331
46AC
  5
E8E
331
37A0
  5
37BD
331
3809
  5
3826
331
37A4
  5
37C3
331
380D
  5
382A
331
3761
  5
3796
331
37A8
  5
3801
331
E18
  5
3764
331
3811
  5
3983
331
3765
  5
379A
331
37AC
  5
3805
331
3815
  5
3987
331
E52
  5
376B
331
E5A
  5
376D
331
E5E
  5
3770
331
46C4
  5
2470
  0
XRECORD
  5
492E
102
{ACAD_REACTORS
330
4737
102
}
330
4737
100
AcDbXrecord
280
     1
 40
14122090.0
  1
\pxqc;耐火ヴァンドＲＺ５０Ｖ　水切部・一般納まり
  0
XRECORD
  5
4930
102
{ACAD_REACTORS
330
464E
102
}
330
464E
100
AcDbXrecord
280
     1
 40
4386876.0
  1
\pxqc;アイジーヴァンド参考ディテール
  0
XRECORD
  5
4931
102
{ACAD_REACTORS
330
4650
102
}
330
4650
100
AcDbXrecord
280
     1
 40
3316594.0
  1
\pxqc;アイジー工業株式会社
  0
ACDBDETAILVIEWSTYLE
  5
2CCC
102
{ACAD_XDICTIONARY
360
48C4
102
}
102
{ACAD_REACTORS
330
2CCB
102
}
330
2CCB
100
AcDbModelDocViewStyle
 70
     0
  3
Metric50
290
     0
100
AcDbDetailViewStyle
 70
     0
 71
     0
 90
        3
 71
     1
340
10
 62
   256
 40
5.0
340
0
 62
   256
 40
5.0
300

 40
0.0
280
     1
 71
     2
340
16
 90
       25
 62
   256
 71
     3
340
10
 62
   256
 40
5.0
 90
        0
 40
15.0
 90
        1
300
%<\AcVar ViewDetailId>% (%<\AcVar ViewScale \f "%sn">%)
 71
     4
340
16
 90
       25
 62
   256
340
16
 90
       25
 62
   256
280
     0
1001
ACAD
1000
AcRTDxfName
1000
ACDBDETAILVIEWSTYLE
1000
AcRTDxfName
1000
ACDBDETAILVIEWSTYLE
1000
AcRTDxfName
1000
ACDBDETAILVIEWSTYLE
1000
AcRTDxfName
1000
ACDBDETAILVIEWSTYLE
1000
AcRTDxfName
1000
ACDBDETAILVIEWSTYLE
1000
AcRTDxfName
1000
ACDBDETAILVIEWSTYLE
1000
AcRTDxfName
1000
ACDBDETAILVIEWSTYLE
1000
AcRTDxfName
1000
ACDBDETAILVIEWSTYLE
1000
AcRTDxfName
1000
ACDBDETAILVIEWSTYLE
1000
AcRTDxfName
1000
ACDBDETAILVIEWSTYLE
  0
LAYOUT
  5
3B3
102
{ACAD_XDICTIONARY
360
2C5C
102
}
102
{ACAD_REACTORS
330
3B1
102
}
330
3B1
100
AcDbPlotSettings
  1

  2
none_device
  4
ISO_A3_(420.00_x_297.00_MM)
  6

 40
7.5
 41
20.0
 42
7.5
 43
20.0
 44
420.0
 45
297.0
 46
0.0
 47
0.0
 48
0.0
 49
0.0
140
0.0
141
0.0
142
1.0
143
2.0
 70
 11904
 72
     1
 73
     0
 74
     2
  7

 75
     0
147
0.4326599326599327
 76
     0
 77
     2
 78
   300
148
0.0
149
0.0
100
AcDbLayout
  1
Model
 70
     1
 71
     0
 10
0.0
 20
0.0
 11
12.0
 21
9.0
 12
0.0
 22
0.0
 32
0.0
 14
0.0
 24
0.0
 34
0.0
 15
0.0
 25
0.0
 35
0.0
146
0.0
 13
0.0
 23
0.0
 33
0.0
 16
1.0
 26
0.0
 36
0.0
 17
0.0
 27
1.0
 37
0.0
 76
     0
330
1A
331
2A6D
1001
ACAD_PSEXT
1000
なし
1000
なし
1000
適切ではありません
1000
新しいプロッタ環境設定名を選択しない限り、レイアウトは印刷されません。
1070
     0
  0
LAYOUT
  5
3B4
102
{ACAD_REACTORS
330
3B1
102
}
330
3B1
100
AcDbPlotSettings
  1

  2
DocuCentre Color 400 (FAX)
  4

  6

 40
0.0
 41
0.0
 42
0.0
 43
0.0
 44
0.0
 45
0.0
 46
0.0
 47
0.0
 48
0.0
 49
0.0
140
0.0
141
0.0
142
1.0
143
1.0
 70
   688
 72
     0
 73
     0
 74
     5
  7
monochrome.ctb
 75
    16
147
1.0
 76
     0
 77
     2
 78
   300
148
0.0
149
0.0
100
AcDbLayout
  1
レイアウト1
 70
     1
 71
     1
 10
0.0
 20
0.0
 11
420.0
 21
297.0
 12
0.0
 22
0.0
 32
0.0
 14
1.000000000000000E+20
 24
1.000000000000000E+20
 34
1.000000000000000E+20
 15
-1.000000000000000E+20
 25
-1.000000000000000E+20
 35
-1.000000000000000E+20
146
0.0
 13
0.0
 23
0.0
 33
0.0
 16
1.0
 26
0.0
 36
0.0
 17
0.0
 27
1.0
 37
0.0
 76
     0
330
17
331
22
  0
MATERIAL
  5
26C5
102
{ACAD_XDICTIONARY
360
26C6
102
}
102
{ACAD_REACTORS
330
3AF
102
}
330
3AF
100
AcDbMaterial
  1
ByBlock
 72
     0
 43
0.0208333333333333
 43
0.0
 43
0.0
 43
0.0
 43
0.0
 43
0.0208333333333333
 43
0.0
 43
0.0
 43
0.0
 43
0.0
 43
1.0
 43
0.0
 43
0.0
 43
0.0
 43
0.0
 43
1.0
 77
     0
 47
0.0208333333333333
 47
0.0
 47
0.0
 47
0.0
 47
0.0
 47
0.0208333333333333
 47
0.0
 47
0.0
 47
0.0
 47
0.0
 47
1.0
 47
0.0
 47
0.0
 47
0.0
 47
0.0
 47
1.0
171
     0
 49
0.0208333333333333
 49
0.0
 49
0.0
 49
0.0
 49
0.0
 49
0.0208333333333333
 49
0.0
 49
0.0
 49
0.0
 49
0.0
 49
1.0
 49
0.0
 49
0.0
 49
0.0
 49
0.0
 49
1.0
175
     0
142
0.0208333333333333
142
0.0
142
0.0
142
0.0
142
0.0
142
0.0208333333333333
142
0.0
142
0.0
142
0.0
142
0.0
142
1.0
142
0.0
142
0.0
142
0.0
142
0.0
142
1.0
179
     0
144
0.0208333333333333
144
0.0
144
0.0
144
0.0
144
0.0
144
0.0208333333333333
144
0.0
144
0.0
144
0.0
144
0.0
144
1.0
144
0.0
144
0.0
144
0.0
144
0.0
144
1.0
147
0.0208333333333333
147
0.0
147
0.0
147
0.0
147
0.0
147
0.0208333333333333
147
0.0
147
0.0
147
0.0
147
0.0
147
1.0
147
0.0
147
0.0
147
0.0
147
0.0
147
1.0
  0
MATERIAL
  5
26BD
102
{ACAD_XDICTIONARY
360
26BE
102
}
102
{ACAD_REACTORS
330
3AF
102
}
330
3AF
100
AcDbMaterial
  1
ByLayer
 72
     0
 43
0.0208333333333333
 43
0.0
 43
0.0
 43
0.0
 43
0.0
 43
0.0208333333333333
 43
0.0
 43
0.0
 43
0.0
 43
0.0
 43
1.0
 43
0.0
 43
0.0
 43
0.0
 43
0.0
 43
1.0
 77
     0
 47
0.0208333333333333
 47
0.0
 47
0.0
 47
0.0
 47
0.0
 47
0.0208333333333333
 47
0.0
 47
0.0
 47
0.0
 47
0.0
 47
1.0
 47
0.0
 47
0.0
 47
0.0
 47
0.0
 47
1.0
171
     0
 49
0.0208333333333333
 49
0.0
 49
0.0
 49
0.0
 49
0.0
 49
0.0208333333333333
 49
0.0
 49
0.0
 49
0.0
 49
0.0
 49
1.0
 49
0.0
 49
0.0
 49
0.0
 49
0.0
 49
1.0
175
     0
142
0.0208333333333333
142
0.0
142
0.0
142
0.0
142
0.0
142
0.0208333333333333
142
0.0
142
0.0
142
0.0
142
0.0
142
1.0
142
0.0
142
0.0
142
0.0
142
0.0
142
1.0
179
     0
144
0.0208333333333333
144
0.0
144
0.0
144
0.0
144
0.0
144
0.0208333333333333
144
0.0
144
0.0
144
0.0
144
0.0
144
1.0
144
0.0
144
0.0
144
0.0
144
0.0
144
1.0
147
0.0208333333333333
147
0.0
147
0.0
147
0.0
147
0.0
147
0.0208333333333333
147
0.0
147
0.0
147
0.0
147
0.0
147
1.0
147
0.0
147
0.0
147
0.0
147
0.0
147
1.0
  0
MATERIAL
  5
16FC
102
{ACAD_XDICTIONARY
360
40F9
102
}
102
{ACAD_REACTORS
330
3AF
102
}
330
3AF
100
AcDbMaterial
  1
Global
 73
     1
 78
     1
172
     1
176
     1
270
     1
274
     1
  0
MLEADERSTYLE
  5
2703
102
{ACAD_REACTORS
330
2702
330
41FF
330
4200
330
4201
330
4202
330
4203
102
}
330
2702
100
AcDbMLeaderStyle
179
     2
170
     2
171
     1
172
     0
 90
        2
 40
0.5235987755982988
 41
0.0
173
     1
 91
-1056964608
340
14
 92
       -2
290
     1
 42
2.0
291
     1
 43
0.6
  3
Standard
341
B0
 44
0.0
300

342
10
174
     1
178
     3
175
     1
176
     0
 93
-1056964608
 45
5.0
292
     0
297
     0
 46
4.0
 94
-1056964608
 47
1.0
 49
1.0
140
1.0
293
     1
141
0.0
294
     1
177
     0
142
1.0
295
     0
296
     0
143
0.2
271
     0
272
     9
273
     9
1001
ACAD
1000
AcRTDxfName
1000
MLEADERSTYLE
1000
AcRTDxfName
1000
MLEADERSTYLE
1001
ACAD_MLEADERVER
1070
     2
  0
MLINESTYLE
  5
13
102
{ACAD_REACTORS
330
E
102
}
330
E
100
AcDbMlineStyle
  2
STANDARD
 70
     0
  3

 62
     0
 51
90.0
 52
90.0
 71
     2
 49
0.5
 62
   256
  6
BYLAYER
 49
-0.5
 62
   256
  6
BYLAYER
  0
ACDBPLACEHOLDER
  5
3AE
102
{ACAD_REACTORS
330
3AD
102
}
330
3AD
  0
SCALE
  5
26E1
102
{ACAD_REACTORS
330
26E0
102
}
330
26E0
100
AcDbScale
 70
     0
300
1:1
140
1.0
141
1.0
290
     1
1001
ACAD
1000
AcRTDxfName
1000
SCALE
1000
AcRTDxfName
1000
SCALE
  0
SCALE
  5
26E2
102
{ACAD_REACTORS
330
26E0
102
}
330
26E0
100
AcDbScale
 70
     0
300
1:2
140
1.0
141
2.0
290
     0
1001
ACAD
1000
AcRTDxfName
1000
SCALE
1000
AcRTDxfName
1000
SCALE
  0
SCALE
  5
26E3
102
{ACAD_REACTORS
330
26E0
102
}
330
26E0
100
AcDbScale
 70
     0
300
1:4
140
1.0
141
4.0
290
     0
1001
ACAD
1000
AcRTDxfName
1000
SCALE
1000
AcRTDxfName
1000
SCALE
  0
SCALE
  5
26E4
102
{ACAD_REACTORS
330
26E0
102
}
330
26E0
100
AcDbScale
 70
     0
300
1:5
140
1.0
141
5.0
290
     0
1001
ACAD
1000
AcRTDxfName
1000
SCALE
1000
AcRTDxfName
1000
SCALE
  0
SCALE
  5
26E5
102
{ACAD_REACTORS
330
26E0
102
}
330
26E0
100
AcDbScale
 70
     0
300
1:8
140
1.0
141
8.0
290
     0
1001
ACAD
1000
AcRTDxfName
1000
SCALE
1000
AcRTDxfName
1000
SCALE
  0
SCALE
  5
26E6
102
{ACAD_REACTORS
330
26E0
102
}
330
26E0
100
AcDbScale
 70
     0
300
1:10
140
1.0
141
10.0
290
     0
1001
ACAD
1000
AcRTDxfName
1000
SCALE
1000
AcRTDxfName
1000
SCALE
  0
SCALE
  5
26E7
102
{ACAD_REACTORS
330
26E0
102
}
330
26E0
100
AcDbScale
 70
     0
300
1:16
140
1.0
141
16.0
290
     0
1001
ACAD
1000
AcRTDxfName
1000
SCALE
1000
AcRTDxfName
1000
SCALE
  0
SCALE
  5
26E8
102
{ACAD_REACTORS
330
26E0
102
}
330
26E0
100
AcDbScale
 70
     0
300
1:20
140
1.0
141
20.0
290
     0
1001
ACAD
1000
AcRTDxfName
1000
SCALE
1000
AcRTDxfName
1000
SCALE
  0
SCALE
  5
26E9
102
{ACAD_REACTORS
330
26E0
102
}
330
26E0
100
AcDbScale
 70
     0
300
1:30
140
1.0
141
30.0
290
     0
1001
ACAD
1000
AcRTDxfName
1000
SCALE
1000
AcRTDxfName
1000
SCALE
  0
SCALE
  5
26EA
102
{ACAD_REACTORS
330
26E0
102
}
330
26E0
100
AcDbScale
 70
     0
300
1:40
140
1.0
141
40.0
290
     0
1001
ACAD
1000
AcRTDxfName
1000
SCALE
1000
AcRTDxfName
1000
SCALE
  0
SCALE
  5
26EB
102
{ACAD_REACTORS
330
26E0
102
}
330
26E0
100
AcDbScale
 70
     0
300
1:50
140
1.0
141
50.0
290
     0
1001
ACAD
1000
AcRTDxfName
1000
SCALE
1000
AcRTDxfName
1000
SCALE
  0
SCALE
  5
26EC
102
{ACAD_REACTORS
330
26E0
102
}
330
26E0
100
AcDbScale
 70
     0
300
1:100
140
1.0
141
100.0
290
     0
1001
ACAD
1000
AcRTDxfName
1000
SCALE
1000
AcRTDxfName
1000
SCALE
  0
SCALE
  5
26ED
102
{ACAD_REACTORS
330
26E0
102
}
330
26E0
100
AcDbScale
 70
     0
300
2:1
140
2.0
141
1.0
290
     0
1001
ACAD
1000
AcRTDxfName
1000
SCALE
1000
AcRTDxfName
1000
SCALE
  0
SCALE
  5
26EE
102
{ACAD_REACTORS
330
26E0
102
}
330
26E0
100
AcDbScale
 70
     0
300
4:1
140
4.0
141
1.0
290
     0
1001
ACAD
1000
AcRTDxfName
1000
SCALE
1000
AcRTDxfName
1000
SCALE
  0
SCALE
  5
26EF
102
{ACAD_REACTORS
330
26E0
102
}
330
26E0
100
AcDbScale
 70
     0
300
8:1
140
8.0
141
1.0
290
     0
1001
ACAD
1000
AcRTDxfName
1000
SCALE
1000
AcRTDxfName
1000
SCALE
  0
SCALE
  5
26F0
102
{ACAD_REACTORS
330
26E0
102
}
330
26E0
100
AcDbScale
 70
     0
300
10:1
140
10.0
141
1.0
290
     0
1001
ACAD
1000
AcRTDxfName
1000
SCALE
1000
AcRTDxfName
1000
SCALE
  0
SCALE
  5
26F1
102
{ACAD_REACTORS
330
26E0
102
}
330
26E0
100
AcDbScale
 70
     0
300
100:1
140
100.0
141
1.0
290
     0
1001
ACAD
1000
AcRTDxfName
1000
SCALE
1000
AcRTDxfName
1000
SCALE
  0
SCALE
  5
26F2
102
{ACAD_REACTORS
330
26E0
102
}
330
26E0
100
AcDbScale
 70
     0
300
1/128" = 1'-0"
140
0.0078125
141
12.0
290
     0
1001
ACAD
1000
AcRTDxfName
1000
SCALE
1000
AcRTDxfName
1000
SCALE
  0
SCALE
  5
26F3
102
{ACAD_REACTORS
330
26E0
102
}
330
26E0
100
AcDbScale
 70
     0
300
1/64" = 1'-0"
140
0.015625
141
12.0
290
     0
1001
ACAD
1000
AcRTDxfName
1000
SCALE
1000
AcRTDxfName
1000
SCALE
  0
SCALE
  5
26F4
102
{ACAD_REACTORS
330
26E0
102
}
330
26E0
100
AcDbScale
 70
     0
300
1/32" = 1'-0"
140
0.03125
141
12.0
290
     0
1001
ACAD
1000
AcRTDxfName
1000
SCALE
1000
AcRTDxfName
1000
SCALE
  0
SCALE
  5
26F5
102
{ACAD_REACTORS
330
26E0
102
}
330
26E0
100
AcDbScale
 70
     0
300
1/16" = 1'-0"
140
0.0625
141
12.0
290
     0
1001
ACAD
1000
AcRTDxfName
1000
SCALE
1000
AcRTDxfName
1000
SCALE
  0
SCALE
  5
26F6
102
{ACAD_REACTORS
330
26E0
102
}
330
26E0
100
AcDbScale
 70
     0
300
3/32" = 1'-0"
140
0.09375
141
12.0
290
     0
1001
ACAD
1000
AcRTDxfName
1000
SCALE
1000
AcRTDxfName
1000
SCALE
  0
SCALE
  5
26F7
102
{ACAD_REACTORS
330
26E0
102
}
330
26E0
100
AcDbScale
 70
     0
300
1/8" = 1'-0"
140
0.125
141
12.0
290
     0
1001
ACAD
1000
AcRTDxfName
1000
SCALE
1000
AcRTDxfName
1000
SCALE
  0
SCALE
  5
26F8
102
{ACAD_REACTORS
330
26E0
102
}
330
26E0
100
AcDbScale
 70
     0
300
3/16" = 1'-0"
140
0.1875
141
12.0
290
     0
1001
ACAD
1000
AcRTDxfName
1000
SCALE
1000
AcRTDxfName
1000
SCALE
  0
SCALE
  5
26F9
102
{ACAD_REACTORS
330
26E0
102
}
330
26E0
100
AcDbScale
 70
     0
300
1/4" = 1'-0"
140
0.25
141
12.0
290
     0
1001
ACAD
1000
AcRTDxfName
1000
SCALE
1000
AcRTDxfName
1000
SCALE
  0
SCALE
  5
26FA
102
{ACAD_REACTORS
330
26E0
102
}
330
26E0
100
AcDbScale
 70
     0
300
3/8" = 1'-0"
140
0.375
141
12.0
290
     0
1001
ACAD
1000
AcRTDxfName
1000
SCALE
1000
AcRTDxfName
1000
SCALE
  0
SCALE
  5
26FB
102
{ACAD_REACTORS
330
26E0
102
}
330
26E0
100
AcDbScale
 70
     0
300
1/2" = 1'-0"
140
0.5
141
12.0
290
     0
1001
ACAD
1000
AcRTDxfName
1000
SCALE
1000
AcRTDxfName
1000
SCALE
  0
SCALE
  5
26FC
102
{ACAD_REACTORS
330
26E0
102
}
330
26E0
100
AcDbScale
 70
     0
300
3/4" = 1'-0"
140
0.75
141
12.0
290
     0
1001
ACAD
1000
AcRTDxfName
1000
SCALE
1000
AcRTDxfName
1000
SCALE
  0
SCALE
  5
26FD
102
{ACAD_REACTORS
330
26E0
102
}
330
26E0
100
AcDbScale
 70
     0
300
1" = 1'-0"
140
1.0
141
12.0
290
     0
1001
ACAD
1000
AcRTDxfName
1000
SCALE
1000
AcRTDxfName
1000
SCALE
  0
SCALE
  5
26FE
102
{ACAD_REACTORS
330
26E0
102
}
330
26E0
100
AcDbScale
 70
     0
300
1-1/2" = 1'-0"
140
1.5
141
12.0
290
     0
1001
ACAD
1000
AcRTDxfName
1000
SCALE
1000
AcRTDxfName
1000
SCALE
  0
SCALE
  5
26FF
102
{ACAD_REACTORS
330
26E0
102
}
330
26E0
100
AcDbScale
 70
     0
300
3" = 1'-0"
140
3.0
141
12.0
290
     0
1001
ACAD
1000
AcRTDxfName
1000
SCALE
1000
AcRTDxfName
1000
SCALE
  0
SCALE
  5
2700
102
{ACAD_REACTORS
330
26E0
102
}
330
26E0
100
AcDbScale
 70
     0
300
6" = 1'-0"
140
6.0
141
12.0
290
     0
1001
ACAD
1000
AcRTDxfName
1000
SCALE
1000
AcRTDxfName
1000
SCALE
  0
SCALE
  5
2701
102
{ACAD_REACTORS
330
26E0
102
}
330
26E0
100
AcDbScale
 70
     0
300
1'-0" = 1'-0"
140
12.0
141
12.0
290
     0
1001
ACAD
1000
AcRTDxfName
1000
SCALE
1000
AcRTDxfName
1000
SCALE
  0
ACDBSECTIONVIEWSTYLE
  5
2CCA
102
{ACAD_XDICTIONARY
360
48C2
102
}
102
{ACAD_REACTORS
330
2CC9
102
}
330
2CC9
100
AcDbModelDocViewStyle
 70
     0
  3
Metric50
290
     0
100
AcDbSectionViewStyle
 70
     0
 71
     0
 90
      102
 71
     1
340
10
 62
   256
 40
5.0
340
0
340
0
 62
   256
 40
5.0
300
I, O, Q, S, X, Z
 40
10.0
 90
        0
 40
2.5
 90
        0
 71
     2
340
16
 90
       25
 62
   256
340
16
 90
       50
 62
   256
 40
5.0
 40
2.5
 40
5.0
 71
     3
340
10
 62
   256
 40
5.0
 90
        0
 40
15.0
 90
        1
300
%<\AcVar ViewSectionStartId>%-%<\AcVar ViewSectionEndId>% (%<\AcVar ViewScale \f "%sn">%)
 71
     4
 62
   256
 62
   257
300
ANSI31
 40
1.0
 90
        0
290
     0
290
     0
 90
        6
 40
0.0
 40
1.570796326794896
 40
0.2617993877991494
 40
1.308996938995747
 40
-0.2617993877991494
 40
1.832595714594044
1001
ACAD
1000
AcRTDxfName
1000
ACDBSECTIONVIEWSTYLE
1000
AcRTDxfName
1000
ACDBSECTIONVIEWSTYLE
1000
AcRTDxfName
1000
ACDBSECTIONVIEWSTYLE
1000
AcRTDxfName
1000
ACDBSECTIONVIEWSTYLE
1000
AcRTDxfName
1000
ACDBSECTIONVIEWSTYLE
1000
AcRTDxfName
1000
ACDBSECTIONVIEWSTYLE
1000
AcRTDxfName
1000
ACDBSECTIONVIEWSTYLE
1000
AcRTDxfName
1000
ACDBSECTIONVIEWSTYLE
1000
AcRTDxfName
1000
ACDBSECTIONVIEWSTYLE
1000
AcRTDxfName
1000
ACDBSECTIONVIEWSTYLE
  0
TABLESTYLE
  5
26DF
102
{ACAD_XDICTIONARY
360
272E
102
}
102
{ACAD_REACTORS
330
26DE
102
}
330
26DE
100
AcDbTableStyle
280
     0
  3
Standard
 70
     0
 71
     0
 40
1.5
 41
1.5
280
     0
281
     0
  7
STANDARD
140
4.5
170
     2
 62
     0
 63
     7
283
     0
 90
      512
 91
        0
  1

274
    -2
284
     1
 64
     0
275
    -2
285
     1
 65
     0
276
    -2
286
     1
 66
     0
277
    -2
287
     1
 67
     0
278
    -2
288
     1
 68
     0
279
    -2
289
     1
 69
     0
  7
STANDARD
140
6.0
170
     5
 62
     0
 63
     7
283
     0
 90
      512
 91
        0
  1

274
    -2
284
     1
 64
     0
275
    -2
285
     1
 65
     0
276
    -2
286
     1
 66
     0
277
    -2
287
     1
 67
     0
278
    -2
288
     1
 68
     0
279
    -2
289
     1
 69
     0
  7
STANDARD
140
4.5
170
     5
 62
     0
 63
     7
283
     0
 90
      512
 91
        0
  1

274
    -2
284
     1
 64
     0
275
    -2
285
     1
 65
     0
276
    -2
286
     1
 66
     0
277
    -2
287
     1
 67
     0
278
    -2
288
     1
 68
     0
279
    -2
289
     1
 69
     0
1001
ACAD
1000
AcRTDxfName
1000
TABLESTYLE
1000
AcRTDxfName
1000
TABLESTYLE
  0
VISUALSTYLE
  5
26D3
102
{ACAD_XDICTIONARY
360
4945
102
}
102
{ACAD_REACTORS
330
26CD
102
}
330
26CD
100
AcDbVisualStyle
  2

 70
     4
177
     2
291
     0
 71
     0
176
     1
 72
     2
176
     1
 73
     0
176
     1
 90
        0
176
     1
 40
0.6
176
     1
 41
30.0
176
     1
 63
     7
176
     1
 74
     1
176
     1
 91
        4
176
     1
 64
     7
176
     1
 65
   257
176
     1
 75
     1
176
     1
175
     1
176
     1
 42
1.0
176
     1
 92
        0
176
     1
 66
   257
176
     1
 43
1.0
176
     1
 76
     1
176
     1
 77
     6
176
     1
 78
     2
176
     1
 67
     7
176
     1
 79
     5
176
     1
170
     0
176
     1
171
     0
176
     1
290
     0
176
     1
 93
        1
176
     1
 44
0.0
176
     1
173
     0
176
     1
1001
ACAD
1000
AcRTDxfName
1000
VISUALSTYLE
1000
AcRTDxfName
1000
VISUALSTYLE
1000
AcDbSavedByObjectVersion
1070
     0
  0
VISUALSTYLE
  5
26D5
102
{ACAD_XDICTIONARY
360
4949
102
}
102
{ACAD_REACTORS
330
26CD
102
}
330
26CD
100
AcDbVisualStyle
  2

 70
     6
177
     2
291
     0
 71
     1
176
     1
 72
     2
176
     1
 73
     2
176
     1
 90
        0
176
     1
 40
0.6
176
     1
 41
30.0
176
     1
 63
     7
176
     1
 74
     2
176
     1
 91
        2
176
     1
 64
     7
176
     1
 65
   257
176
     1
 75
     2
176
     1
175
     1
176
     1
 42
40.0
176
     1
 92
        0
176
     1
 66
   257
176
     1
 43
1.0
176
     1
 76
     1
176
     1
 77
     6
176
     1
 78
     2
176
     1
 67
     7
176
     1
 79
     3
176
     1
170
     0
176
     1
171
     0
176
     1
290
     0
176
     1
 93
        1
176
     1
 44
0.0
176
     1
173
     0
176
     1
1001
ACAD
1000
AcRTDxfName
1000
VISUALSTYLE
1000
AcRTDxfName
1000
VISUALSTYLE
1000
AcDbSavedByObjectVersion
1070
     0
  0
VISUALSTYLE
  5
26D4
102
{ACAD_XDICTIONARY
360
4947
102
}
102
{ACAD_REACTORS
330
26CD
102
}
330
26CD
100
AcDbVisualStyle
  2

 70
     5
177
     2
291
     0
 71
     0
176
     1
 72
     2
176
     1
 73
     0
176
     1
 90
        0
176
     1
 40
0.6
176
     1
 41
30.0
176
     1
 63
     7
176
     1
 74
     1
176
     1
 91
        4
176
     1
 64
     7
176
     1
 65
   257
176
     1
 75
     1
176
     1
175
     1
176
     1
 42
1.0
176
     1
 92
        0
176
     1
 66
   257
176
     1
 43
1.0
176
     1
 76
     1
176
     1
 77
     6
176
     1
 78
     2
176
     1
 67
     7
176
     1
 79
     5
176
     1
170
     0
176
     1
171
     0
176
     1
290
     0
176
     1
 93
        1
176
     1
 44
0.0
176
     1
173
     0
176
     1
1001
ACAD
1000
AcRTDxfName
1000
VISUALSTYLE
1000
AcRTDxfName
1000
VISUALSTYLE
1000
AcDbSavedByObjectVersion
1070
     0
  0
VISUALSTYLE
  5
26D2
102
{ACAD_XDICTIONARY
360
4943
102
}
102
{ACAD_REACTORS
330
26CD
102
}
330
26CD
100
AcDbVisualStyle
  2

 70
     7
177
     2
291
     1
 71
     1
176
     1
 72
     0
176
     1
 73
     1
176
     1
 90
        0
176
     1
 40
0.6
176
     1
 41
30.0
176
     1
 63
     7
176
     1
 74
     0
176
     1
 91
        4
176
     1
 64
     7
176
     1
 65
   257
176
     1
 75
     1
176
     1
175
     1
176
     1
 42
1.0
176
     1
 92
        8
176
     1
 66
     7
176
     1
 43
1.0
176
     1
 76
     1
176
     1
 77
     6
176
     1
 78
     2
176
     1
 67
     7
176
     1
 79
     5
176
     1
170
     0
176
     1
171
     0
176
     1
290
     0
176
     1
 93
        1
176
     1
 44
0.0
176
     1
173
     0
176
     1
1001
ACAD
1000
AcRTDxfName
1000
VISUALSTYLE
1000
AcRTDxfName
1000
VISUALSTYLE
1000
AcDbSavedByObjectVersion
1070
     0
  0
VISUALSTYLE
  5
26D9
102
{ACAD_XDICTIONARY
360
4951
102
}
102
{ACAD_REACTORS
330
26CD
102
}
330
26CD
100
AcDbVisualStyle
  2

 70
    12
177
     2
291
     1
 71
     2
176
     1
 72
     2
176
     1
 73
     0
176
     1
 90
        0
176
     1
 40
0.6
176
     1
 41
30.0
176
     1
 63
     7
176
     1
 74
     1
176
     1
 91
        4
176
     1
 64
     7
176
     1
 65
   257
176
     1
 75
     1
176
     1
175
     1
176
     1
 42
1.0
176
     1
 92
        8
176
     1
 66
     7
176
     1
 43
1.0
176
     1
 76
     1
176
     1
 77
     6
176
     1
 78
     2
176
     1
 67
     7
176
     1
 79
     5
176
     1
170
     0
176
     1
171
     0
176
     1
290
     0
176
     1
 93
        1
176
     1
 44
50.0
176
     1
173
     0
176
     1
1001
ACAD
1000
AcRTDxfName
1000
VISUALSTYLE
1000
AcRTDxfName
1000
VISUALSTYLE
1000
AcDbSavedByObjectVersion
1070
     0
  0
VISUALSTYLE
  5
26DD
102
{ACAD_XDICTIONARY
360
4959
102
}
102
{ACAD_REACTORS
330
26CD
102
}
330
26CD
100
AcDbVisualStyle
  2

 70
    16
177
     2
291
     1
 71
     2
176
     1
 72
     2
176
     1
 73
     3
176
     1
 90
        0
176
     1
 40
0.6
176
     1
 41
30.0
176
     1
 63
     8
176
     1
 74
     1
176
     1
 91
        4
176
     1
 64
     7
176
     1
 65
   257
176
     1
 75
     1
176
     1
175
     1
176
     1
 42
1.0
176
     1
 92
        8
176
     1
 66
     8
176
     1
 43
1.0
176
     1
 76
     1
176
     1
 77
     6
176
     1
 78
     2
176
     1
 67
     7
176
     1
 79
     5
176
     1
170
     0
176
     1
171
     0
176
     1
290
     0
176
     1
 93
        1
176
     1
 44
0.0
176
     1
173
     0
176
     1
1001
ACAD
1000
AcRTDxfName
1000
VISUALSTYLE
1000
AcRTDxfName
1000
VISUALSTYLE
1000
AcDbSavedByObjectVersion
1070
     0
  0
VISUALSTYLE
  5
26D6
102
{ACAD_XDICTIONARY
360
494B
102
}
102
{ACAD_REACTORS
330
26CD
102
}
330
26CD
100
AcDbVisualStyle
  2

 70
     9
177
     2
291
     0
 71
     3
176
     1
 72
     2
176
     1
 73
     0
176
     1
 90
        0
176
     1
 40
0.6
176
     1
 41
30.0
176
     1
 63
     7
176
     1
 74
     2
176
     1
 91
        2
176
     1
 64
     7
176
     1
 65
   257
176
     1
 75
     1
176
     1
175
     1
176
     1
 42
40.0
176
     1
 92
        8
176
     1
 66
     7
176
     1
 43
1.0
176
     1
 76
     1
176
     1
 77
     6
176
     1
 78
     2
176
     1
 67
     7
176
     1
 79
     3
176
     1
170
     0
176
     1
171
     0
176
     1
290
     0
176
     1
 93
        1
176
     1
 44
0.0
176
     1
173
     0
176
     1
1001
ACAD
1000
AcRTDxfName
1000
VISUALSTYLE
1000
AcRTDxfName
1000
VISUALSTYLE
1000
AcDbSavedByObjectVersion
1070
     0
  0
VISUALSTYLE
  5
26D8
102
{ACAD_XDICTIONARY
360
494F
102
}
102
{ACAD_REACTORS
330
26CD
102
}
330
26CD
100
AcDbVisualStyle
  2

 70
    11
177
     2
291
     1
 71
     2
176
     1
 72
     2
176
     1
 73
     0
176
     1
 90
        0
176
     1
 40
0.6
176
     1
 41
30.0
176
     1
 63
     7
176
     1
 74
     1
176
     1
 91
        4
176
     1
 64
     7
176
     1
 65
   257
176
     1
 75
     1
176
     1
175
     1
176
     1
 42
1.0
176
     1
 92
        8
176
     1
 66
     7
176
     1
 43
1.0
176
     1
 76
     1
176
     1
 77
     6
176
     1
 78
     2
176
     1
 67
     7
176
     1
 79
     5
176
     1
170
     0
176
     1
171
     0
176
     1
290
     0
176
     1
 93
        1
176
     1
 44
-50.0
176
     1
173
     0
176
     1
1001
ACAD
1000
AcRTDxfName
1000
VISUALSTYLE
1000
AcRTDxfName
1000
VISUALSTYLE
1000
AcDbSavedByObjectVersion
1070
     0
  0
VISUALSTYLE
  5
2844
102
{ACAD_XDICTIONARY
360
496D
102
}
102
{ACAD_REACTORS
330
26CD
102
}
330
26CD
100
AcDbVisualStyle
  2

 70
    22
177
     2
291
     1
 71
     2
176
     0
 72
     2
176
     0
 73
     0
176
     0
 90
        0
176
     0
 40
0.6
176
     0
 41
30.0
176
     0
 63
     7
176
     0
 74
     1
176
     0
 91
        4
176
     0
 64
     7
176
     0
 65
   257
176
     0
 75
     1
176
     0
175
     1
176
     0
 42
1.0
176
     0
 92
        8
176
     2
 66
     7
176
     0
 43
1.0
176
     0
 76
     1
176
     0
 77
     6
176
     0
 78
     2
176
     0
 67
     7
176
     0
 79
     5
176
     0
170
     0
176
     0
171
     0
176
     0
290
     0
176
     0
 93
        1
176
     0
 44
0.0
176
     0
173
     0
176
     0
1001
ACAD
1000
AcDbSavedByObjectVersion
1070
     0
  0
VISUALSTYLE
  5
26DC
102
{ACAD_XDICTIONARY
360
4957
102
}
102
{ACAD_REACTORS
330
26CD
102
}
330
26CD
100
AcDbVisualStyle
  2

 70
    15
177
     2
291
     1
 71
     2
176
     1
 72
     2
176
     1
 73
     0
176
     1
 90
        0
176
     1
 40
0.6
176
     1
 41
30.0
176
     1
 63
     7
176
     1
 74
     1
176
     1
 91
        4
176
     1
 64
     7
176
     1
 65
   257
176
     1
 75
     1
176
     1
175
     1
176
     1
 42
1.0
176
     1
 92
        8
176
     1
 66
     7
176
     1
 43
1.0
176
     1
 76
     1
176
     1
 77
     6
176
     1
 78
     2
176
     1
 67
     7
176
     1
 79
     5
176
     1
170
     0
176
     1
171
     0
176
     1
290
     0
176
     1
 93
        1
176
     1
 44
0.0
176
     1
173
     0
176
     1
1001
ACAD
1000
AcRTDxfName
1000
VISUALSTYLE
1000
AcRTDxfName
1000
VISUALSTYLE
1000
AcDbSavedByObjectVersion
1070
     0
  0
VISUALSTYLE
  5
26CE
102
{ACAD_XDICTIONARY
360
493B
102
}
102
{ACAD_REACTORS
330
26CD
102
}
330
26CD
100
AcDbVisualStyle
  2

 70
     0
177
     2
291
     1
 71
     2
176
     1
 72
     1
176
     1
 73
     1
176
     1
 90
        2
176
     1
 40
0.6
176
     1
 41
30.0
176
     1
 63
     7
176
     1
 74
     0
176
     1
 91
        4
176
     1
 64
     7
176
     1
 65
   257
176
     1
 75
     1
176
     1
175
     1
176
     1
 42
1.0
176
     1
 92
        8
176
     1
 66
     7
176
     1
 43
1.0
176
     1
 76
     1
176
     1
 77
     6
176
     1
 78
     2
176
     1
 67
     7
176
     1
 79
     5
176
     1
170
     0
176
     1
171
     0
176
     1
290
     0
176
     1
 93
       13
176
     1
 44
0.0
176
     1
173
     0
176
     1
1001
ACAD
1000
AcRTDxfName
1000
VISUALSTYLE
1000
AcRTDxfName
1000
VISUALSTYLE
1000
AcDbSavedByObjectVersion
1070
     0
  0
VISUALSTYLE
  5
26CF
102
{ACAD_XDICTIONARY
360
493D
102
}
102
{ACAD_REACTORS
330
26CD
102
}
330
26CD
100
AcDbVisualStyle
  2

 70
     1
177
     2
291
     1
 71
     2
176
     1
 72
     1
176
     1
 73
     1
176
     1
 90
        2
176
     1
 40
0.6
176
     1
 41
30.0
176
     1
 63
     7
176
     1
 74
     1
176
     1
 91
        4
176
     1
 64
     7
176
     1
 65
   257
176
     1
 75
     1
176
     1
175
     1
176
     1
 42
1.0
176
     1
 92
        0
176
     1
 66
   257
176
     1
 43
1.0
176
     1
 76
     1
176
     1
 77
     6
176
     1
 78
     2
176
     1
 67
     7
176
     1
 79
     5
176
     1
170
     0
176
     1
171
     0
176
     1
290
     0
176
     1
 93
       13
176
     1
 44
0.0
176
     1
173
     0
176
     1
1001
ACAD
1000
AcRTDxfName
1000
VISUALSTYLE
1000
AcRTDxfName
1000
VISUALSTYLE
1000
AcDbSavedByObjectVersion
1070
     0
  0
VISUALSTYLE
  5
26D0
102
{ACAD_XDICTIONARY
360
493F
102
}
102
{ACAD_REACTORS
330
26CD
102
}
330
26CD
100
AcDbVisualStyle
  2

 70
     2
177
     2
291
     1
 71
     2
176
     1
 72
     2
176
     1
 73
     1
176
     1
 90
        2
176
     1
 40
0.6
176
     1
 41
30.0
176
     1
 63
     7
176
     1
 74
     0
176
     1
 91
        4
176
     1
 64
     7
176
     1
 65
   257
176
     1
 75
     1
176
     1
175
     1
176
     1
 42
1.0
176
     1
 92
        0
176
     1
 66
     7
176
     1
 43
1.0
176
     1
 76
     1
176
     1
 77
     6
176
     1
 78
     2
176
     1
 67
     7
176
     1
 79
     5
176
     1
170
     0
176
     1
171
     0
176
     1
290
     0
176
     1
 93
       13
176
     1
 44
0.0
176
     1
173
     0
176
     1
1001
ACAD
1000
AcRTDxfName
1000
VISUALSTYLE
1000
AcRTDxfName
1000
VISUALSTYLE
1000
AcDbSavedByObjectVersion
1070
     0
  0
VISUALSTYLE
  5
26D1
102
{ACAD_XDICTIONARY
360
4941
102
}
102
{ACAD_REACTORS
330
26CD
102
}
330
26CD
100
AcDbVisualStyle
  2

 70
     3
177
     2
291
     1
 71
     2
176
     1
 72
     2
176
     1
 73
     1
176
     1
 90
        2
176
     1
 40
0.6
176
     1
 41
30.0
176
     1
 63
     7
176
     1
 74
     1
176
     1
 91
        4
176
     1
 64
     7
176
     1
 65
   257
176
     1
 75
     1
176
     1
175
     1
176
     1
 42
1.0
176
     1
 92
        0
176
     1
 66
   257
176
     1
 43
1.0
176
     1
 76
     1
176
     1
 77
     6
176
     1
 78
     2
176
     1
 67
     7
176
     1
 79
     5
176
     1
170
     0
176
     1
171
     0
176
     1
290
     0
176
     1
 93
       13
176
     1
 44
0.0
176
     1
173
     0
176
     1
1001
ACAD
1000
AcRTDxfName
1000
VISUALSTYLE
1000
AcRTDxfName
1000
VISUALSTYLE
1000
AcDbSavedByObjectVersion
1070
     0
  0
VISUALSTYLE
  5
283C
102
{ACAD_XDICTIONARY
360
495D
102
}
102
{ACAD_REACTORS
330
26CD
102
}
330
26CD
100
AcDbVisualStyle
  2

 70
     6
177
     2
291
     0
 71
     1
176
     1
 72
     2
176
     1
 73
     2
176
     1
 90
        0
176
     1
 40
0.6
176
     1
 41
30.0
176
     1
 63
     7
176
     1
 74
     2
176
     1
 91
        2
176
     1
 64
     7
176
     1
 65
   257
176
     1
 75
     2
176
     1
175
     1
176
     1
 42
40.0
176
     1
 92
        0
176
     1
 66
   257
176
     1
 43
1.0
176
     1
 76
     1
176
     1
 77
     6
176
     1
 78
     2
176
     1
 67
     7
176
     1
 79
     3
176
     1
170
     0
176
     1
171
     0
176
     1
290
     0
176
     1
 93
        1
176
     1
 44
0.0
176
     1
173
     0
176
     1
1001
ACAD
1000
AcDbSavedByObjectVersion
1070
     0
  0
VISUALSTYLE
  5
2842
102
{ACAD_XDICTIONARY
360
4969
102
}
102
{ACAD_REACTORS
330
26CD
102
}
330
26CD
100
AcDbVisualStyle
  2

 70
    20
177
     2
291
     1
 71
     2
176
     0
 72
     2
176
     0
 73
     0
176
     0
 90
        0
176
     0
 40
0.6
176
     0
 41
30.0
176
     0
 63
     7
176
     0
 74
     1
176
     0
 91
        4
176
     0
 64
     7
176
     0
 65
   257
176
     0
 75
     1
176
     0
175
     1
176
     0
 42
1.0
176
     0
 92
       10
176
     2
 66
     7
176
     0
 43
1.0
176
     0
 76
     1
176
     0
 77
     6
176
     0
 78
     2
176
     0
 67
     7
176
     0
 79
     5
176
     0
170
     0
176
     0
171
     0
176
     0
290
     0
176
     0
 93
        1
176
     0
 44
0.0
176
     0
173
     0
176
     0
1001
ACAD
1000
AcDbSavedByObjectVersion
1070
     0
  0
VISUALSTYLE
  5
26DB
102
{ACAD_XDICTIONARY
360
4955
102
}
102
{ACAD_REACTORS
330
26CD
102
}
330
26CD
100
AcDbVisualStyle
  2

 70
    14
177
     2
291
     1
 71
     2
176
     1
 72
     2
176
     1
 73
     0
176
     1
 90
        0
176
     1
 40
0.6
176
     1
 41
30.0
176
     1
 63
     7
176
     1
 74
     1
176
     1
 91
        4
176
     1
 64
     7
176
     1
 65
   257
176
     1
 75
     7
176
     1
175
     7
176
     1
 42
1.0
176
     1
 92
        8
176
     1
 66
     7
176
     1
 43
1.0
176
     1
 76
     1
176
     1
 77
     6
176
     1
 78
     2
176
     1
 67
     7
176
     1
 79
     5
176
     1
170
     0
176
     1
171
     0
176
     1
290
     0
176
     1
 93
        1
176
     1
 44
0.0
176
     1
173
     0
176
     1
1001
ACAD
1000
AcRTDxfName
1000
VISUALSTYLE
1000
AcRTDxfName
1000
VISUALSTYLE
1000
AcDbSavedByObjectVersion
1070
     0
  0
VISUALSTYLE
  5
2843
102
{ACAD_XDICTIONARY
360
496B
102
}
102
{ACAD_REACTORS
330
26CD
102
}
330
26CD
100
AcDbVisualStyle
  2

 70
    21
177
     2
291
     1
 71
     2
176
     0
 72
     2
176
     0
 73
     0
176
     0
 90
        0
176
     0
 40
0.6
176
     0
 41
30.0
176
     0
 63
     7
176
     0
 74
     1
176
     0
 91
        4
176
     0
 64
     7
176
     0
 65
   257
176
     0
 75
     1
176
     0
175
     1
176
     0
 42
1.0
176
     0
 92
        9
176
     2
 66
     7
176
     0
 43
1.0
176
     0
 76
     1
176
     0
 77
     6
176
     0
 78
     2
176
     0
 67
     7
176
     0
 79
     5
176
     0
170
     0
176
     0
171
     0
176
     0
290
     0
176
     0
 93
        1
176
     0
 44
0.0
176
     0
173
     0
176
     0
1001
ACAD
1000
AcDbSavedByObjectVersion
1070
     0
  0
VISUALSTYLE
  5
26D7
102
{ACAD_XDICTIONARY
360
494D
102
}
102
{ACAD_REACTORS
330
26CD
102
}
330
26CD
100
AcDbVisualStyle
  2

 70
     8
177
     2
291
     0
 71
     2
176
     1
 72
     2
176
     1
 73
     0
176
     1
 90
        0
176
     1
 40
0.6
176
     1
 41
30.0
176
     1
 63
     7
176
     1
 74
     1
176
     1
 91
        0
176
     1
 64
     7
176
     1
 65
   257
176
     1
 75
     1
176
     1
175
     1
176
     1
 42
1.0
176
     1
 92
        8
176
     1
 66
     8
176
     1
 43
1.0
176
     1
 76
     1
176
     1
 77
     6
176
     1
 78
     2
176
     1
 67
     7
176
     1
 79
     5
176
     1
170
     0
176
     1
171
     0
176
     1
290
     0
176
     1
 93
       13
176
     1
 44
0.0
176
     1
173
     0
176
     1
1001
ACAD
1000
AcRTDxfName
1000
VISUALSTYLE
1000
AcRTDxfName
1000
VISUALSTYLE
1000
AcDbSavedByObjectVersion
1070
     0
  0
VISUALSTYLE
  5
2841
102
{ACAD_XDICTIONARY
360
4967
102
}
102
{ACAD_REACTORS
330
26CD
102
}
330
26CD
100
AcDbVisualStyle
  2

 70
    27
177
     2
291
     0
 71
     2
176
     1
 72
     2
176
     1
 73
     1
176
     1
 90
        2
176
     1
 40
0.6
176
     1
 41
30.0
176
     1
 63
     7
176
     1
 74
     0
176
     1
 91
        4
176
     1
 64
     7
176
     1
 65
   257
176
     1
 75
     1
176
     1
175
     1
176
     1
 42
1.0
176
     1
 92
        8
176
     1
 66
   257
176
     1
 43
1.0
176
     1
 76
     1
176
     1
 77
     6
176
     1
 78
     2
176
     1
 67
     8
176
     1
 79
     3
176
     1
170
     0
176
     1
171
     0
176
     1
290
     0
176
     1
 93
        5
176
     1
 44
0.0
176
     1
173
     0
176
     1
1001
ACAD
1000
AcDbSavedByObjectVersion
1070
     0
  0
VISUALSTYLE
  5
2840
102
{ACAD_XDICTIONARY
360
4965
102
}
102
{ACAD_REACTORS
330
26CD
102
}
330
26CD
100
AcDbVisualStyle
  2

 70
    26
177
     2
291
     0
 71
     2
176
     1
 72
     2
176
     1
 73
     1
176
     1
 90
        2
176
     1
 40
0.6
176
     1
 41
30.0
176
     1
 63
     7
176
     1
 74
     1
176
     1
 91
        2
176
     1
 64
     7
176
     1
 65
   257
176
     1
 75
     2
176
     1
175
     1
176
     1
 42
1.0
176
     1
 92
        8
176
     1
 66
   257
176
     1
 43
1.0
176
     1
 76
     1
176
     1
 77
     6
176
     1
 78
     2
176
     1
 67
     7
176
     1
 79
     3
176
     1
170
     0
176
     1
171
     0
176
     1
290
     0
176
     1
 93
        5
176
     1
 44
0.0
176
     1
173
     0
176
     1
1001
ACAD
1000
AcDbSavedByObjectVersion
1070
     0
  0
VISUALSTYLE
  5
283D
102
{ACAD_XDICTIONARY
360
495F
102
}
102
{ACAD_REACTORS
330
26CD
102
}
330
26CD
100
AcDbVisualStyle
  2

 70
    23
177
     2
291
     0
 71
     2
176
     1
 72
     2
176
     1
 73
     3
176
     1
 90
        0
176
     1
 40
0.6
176
     1
 41
30.0
176
     1
 63
     7
176
     1
 74
     2
176
     1
 91
        2
176
     1
 64
     7
176
     1
 65
     7
176
     1
 75
     1
176
     1
175
     1
176
     1
 42
40.0
176
     1
 92
        8
176
     1
 66
     7
176
     1
 43
1.0
176
     1
 76
     1
176
     1
 77
     6
176
     1
 78
     2
176
     1
 67
     7
176
     1
 79
     3
176
     1
170
     0
176
     1
171
     0
176
     1
290
     0
176
     1
 93
        1
176
     1
 44
0.0
176
     1
173
     0
176
     1
1001
ACAD
1000
AcDbSavedByObjectVersion
1070
     0
  0
VISUALSTYLE
  5
283E
102
{ACAD_XDICTIONARY
360
4961
102
}
102
{ACAD_REACTORS
330
26CD
102
}
330
26CD
100
AcDbVisualStyle
  2

 70
    24
177
     2
291
     0
 71
     1
176
     1
 72
     2
176
     1
 73
     2
176
     1
 90
        0
176
     1
 40
0.6
176
     1
 41
30.0
176
     1
 63
     7
176
     1
 74
     2
176
     1
 91
        2
176
     1
 64
     7
176
     1
 65
     7
176
     1
 75
     1
176
     1
175
     1
176
     1
 42
40.0
176
     1
 92
       11
176
     1
 66
     7
176
     1
 43
1.0
176
     1
 76
     1
176
     1
 77
     6
176
     1
 78
     2
176
     1
 67
     7
176
     1
 79
     6
176
     1
170
     0
176
     1
171
     0
176
     1
290
     0
176
     1
 93
        1
176
     1
 44
0.0
176
     1
173
     0
176
     1
1001
ACAD
1000
AcDbSavedByObjectVersion
1070
     0
  0
VISUALSTYLE
  5
26DA
102
{ACAD_XDICTIONARY
360
4953
102
}
102
{ACAD_REACTORS
330
26CD
102
}
330
26CD
100
AcDbVisualStyle
  2

 70
    13
177
     2
291
     1
 71
     2
176
     1
 72
     2
176
     1
 73
     0
176
     1
 90
        0
176
     1
 40
0.6
176
     1
 41
30.0
176
     1
 63
     7
176
     1
 74
     1
176
     1
 91
        4
176
     1
 64
     7
176
     1
 65
   257
176
     1
 75
     1
176
     1
175
     1
176
     1
 42
1.0
176
     1
 92
       12
176
     1
 66
     7
176
     1
 43
1.0
176
     1
 76
     1
176
     1
 77
     6
176
     1
 78
     2
176
     1
 67
     7
176
     1
 79
     5
176
     1
170
     0
176
     1
171
     0
176
     1
290
     0
176
     1
 93
        1
176
     1
 44
0.0
176
     1
173
     0
176
     1
1001
ACAD
1000
AcRTDxfName
1000
VISUALSTYLE
1000
AcRTDxfName
1000
VISUALSTYLE
1000
AcDbSavedByObjectVersion
1070
     0
  0
VISUALSTYLE
  5
283B
102
{ACAD_XDICTIONARY
360
495B
102
}
102
{ACAD_REACTORS
330
26CD
102
}
330
26CD
100
AcDbVisualStyle
  2

 70
     5
177
     2
291
     0
 71
     0
176
     1
 72
     2
176
     1
 73
     0
176
     1
 90
        0
176
     1
 40
0.6
176
     1
 41
30.0
176
     1
 63
     7
176
     1
 74
     1
176
     1
 91
        4
176
     1
 64
     7
176
     1
 65
   257
176
     1
 75
     1
176
     1
175
     1
176
     1
 42
1.0
176
     1
 92
        0
176
     1
 66
   257
176
     1
 43
1.0
176
     1
 76
     1
176
     1
 77
     6
176
     1
 78
     2
176
     1
 67
     7
176
     1
 79
     3
176
     1
170
     0
176
     1
171
     0
176
     1
290
     0
176
     1
 93
        1
176
     1
 44
0.0
176
     1
173
     0
176
     1
1001
ACAD
1000
AcDbSavedByObjectVersion
1070
     0
  0
VISUALSTYLE
  5
283F
102
{ACAD_XDICTIONARY
360
4963
102
}
102
{ACAD_REACTORS
330
26CD
102
}
330
26CD
100
AcDbVisualStyle
  2

 70
    25
177
     2
291
     0
 71
     2
176
     1
 72
     2
176
     1
 73
     1
176
     1
 90
        1
176
     1
 40
0.5
176
     1
 41
30.0
176
     1
 63
     7
176
     1
 74
     1
176
     1
 91
        0
176
     1
 64
     7
176
     1
 65
   257
176
     1
 75
     1
176
     1
175
     1
176
     1
 42
1.0
176
     1
 92
        8
176
     1
 66
     7
176
     1
 43
1.0
176
     1
 76
     1
176
     1
 77
     6
176
     1
 78
     2
176
     1
 67
     7
176
     1
 79
     3
176
     1
170
     0
176
     1
171
     0
176
     1
290
     0
176
     1
 93
       13
176
     1
 44
0.0
176
     1
173
     0
176
     1
1001
ACAD
1000
AcDbSavedByObjectVersion
1070
     0
  0
DICTIONARYVAR
  5
274B
102
{ACAD_REACTORS
330
16B3
102
}
330
16B3
100
DictionaryVariables
280
     0
  1
1:2
  0
DICTIONARYVAR
  5
274A
102
{ACAD_REACTORS
330
16B3
102
}
330
16B3
100
DictionaryVariables
280
     0
  1
STANDARD
  0
DICTIONARYVAR
  5
2749
102
{ACAD_REACTORS
330
16B3
102
}
330
16B3
100
DictionaryVariables
280
     0
  1
STANDARD
  0
DICTIONARYVAR
  5
2D1E
102
{ACAD_REACTORS
330
16B3
102
}
330
16B3
100
DictionaryVariables
280
     0
  1
Metric50
  0
DICTIONARYVAR
  5
2D1F
102
{ACAD_REACTORS
330
16B3
102
}
330
16B3
100
DictionaryVariables
280
     0
  1
Metric50
  0
DICTIONARYVAR
  5
16B4
102
{ACAD_REACTORS
330
16B3
102
}
330
16B3
100
DictionaryVariables
280
     0
  1
1
  0
DICTIONARYVAR
  5
274D
102
{ACAD_REACTORS
330
16B3
102
}
330
16B3
100
DictionaryVariables
280
     0
  1
0
  0
DICTIONARYVAR
  5
2C60
102
{ACAD_REACTORS
330
16B3
102
}
330
16B3
100
DictionaryVariables
280
     0
  1
1
  0
DICTIONARYVAR
  5
2C61
102
{ACAD_REACTORS
330
16B3
102
}
330
16B3
100
DictionaryVariables
280
     0
  1
15
  0
DICTIONARYVAR
  5
2C5F
102
{ACAD_REACTORS
330
16B3
102
}
330
16B3
100
DictionaryVariables
280
     0
  1
0
  0
DICTIONARYVAR
  5
2C5E
102
{ACAD_REACTORS
330
16B3
102
}
330
16B3
100
DictionaryVariables
280
     0
  1
0
  0
DICTIONARYVAR
  5
16B5
102
{ACAD_REACTORS
330
16B3
102
}
330
16B3
100
DictionaryVariables
280
     0
  1

  0
DICTIONARYVAR
  5
274C
102
{ACAD_REACTORS
330
16B3
102
}
330
16B3
100
DictionaryVariables
280
     0
  1
127
  0
DICTIONARYVAR
  5
4271
102
{ACAD_REACTORS
330
16B3
102
}
330
16B3
100
DictionaryVariables
280
     0
  1
2
  0
DICTIONARY
  5
493A
102
{ACAD_REACTORS
330
4938
102
}
330
4938
100
AcDbDictionary
281
     1
  0
DICTIONARY
  5
4939
102
{ACAD_REACTORS
330
4938
102
}
330
4938
100
AcDbDictionary
281
     1
  3
2395771104176
350
4933
  3
2395771104192
350
4934
  3
2395771104208
350
4935
  3
2395771104224
350
4936
  3
2395771104240
350
4937
  0
DICTIONARY
  5
48C4
330
2CCC
100
AcDbDictionary
280
     1
281
     1
  3
ACAD_XREC_ROUNDTRIP
360
4970
  0
DICTIONARY
  5
2C5C
330
3B3
100
AcDbDictionary
280
     1
281
     1
  0
DICTIONARY
  5
26C6
330
26C5
100
AcDbDictionary
280
     1
281
     1
  3
ACAD_XREC_ROUNDTRIP
360
40FC
  3
BUMPTILE
360
26C8
  3
DIFFUSETILE
360
26C7
  3
OPACITYTILE
360
26CB
  3
REFLECTIONTILE
360
26CA
  3
REFRACTIONTILE
360
26CC
  3
SPECULARTILE
360
26C9
  0
DICTIONARY
  5
26BE
330
26BD
100
AcDbDictionary
280
     1
281
     1
  3
ACAD_XREC_ROUNDTRIP
360
40FB
  3
BUMPTILE
360
26C0
  3
DIFFUSETILE
360
26BF
  3
OPACITYTILE
360
26C3
  3
REFLECTIONTILE
360
26C2
  3
REFRACTIONTILE
360
26C4
  3
SPECULARTILE
360
26C1
  0
DICTIONARY
  5
40F9
330
16FC
100
AcDbDictionary
280
     1
281
     1
  3
ACAD_XREC_ROUNDTRIP
360
40FA
  0
DICTIONARY
  5
48C2
330
2CCA
100
AcDbDictionary
280
     1
281
     1
  3
ACAD_XREC_ROUNDTRIP
360
496F
  0
DICTIONARY
  5
272E
330
26DF
100
AcDbDictionary
280
     1
281
     1
  3
ACAD_ROUNDTRIP_2008_TABLESTYLE_CELLSTYLEMAP
360
492F
  0
DICTIONARY
  5
4945
330
26D3
100
AcDbDictionary
280
     1
281
     1
  3
ACAD_XREC_ROUNDTRIP
360
4946
  0
DICTIONARY
  5
4949
330
26D5
100
AcDbDictionary
280
     1
281
     1
  3
ACAD_XREC_ROUNDTRIP
360
494A
  0
DICTIONARY
  5
4947
330
26D4
100
AcDbDictionary
280
     1
281
     1
  3
ACAD_XREC_ROUNDTRIP
360
4948
  0
DICTIONARY
  5
4943
330
26D2
100
AcDbDictionary
280
     1
281
     1
  3
ACAD_XREC_ROUNDTRIP
360
4944
  0
DICTIONARY
  5
4951
330
26D9
100
AcDbDictionary
280
     1
281
     1
  3
ACAD_XREC_ROUNDTRIP
360
4952
  0
DICTIONARY
  5
4959
330
26DD
100
AcDbDictionary
280
     1
281
     1
  3
ACAD_XREC_ROUNDTRIP
360
495A
  0
DICTIONARY
  5
494B
330
26D6
100
AcDbDictionary
280
     1
281
     1
  3
ACAD_XREC_ROUNDTRIP
360
494C
  0
DICTIONARY
  5
494F
330
26D8
100
AcDbDictionary
280
     1
281
     1
  3
ACAD_XREC_ROUNDTRIP
360
4950
  0
DICTIONARY
  5
496D
330
2844
100
AcDbDictionary
280
     1
281
     1
  3
ACAD_XREC_ROUNDTRIP
360
496E
  0
DICTIONARY
  5
4957
330
26DC
100
AcDbDictionary
280
     1
281
     1
  3
ACAD_XREC_ROUNDTRIP
360
4958
  0
DICTIONARY
  5
493B
330
26CE
100
AcDbDictionary
280
     1
281
     1
  3
ACAD_XREC_ROUNDTRIP
360
493C
  0
DICTIONARY
  5
493D
330
26CF
100
AcDbDictionary
280
     1
281
     1
  3
ACAD_XREC_ROUNDTRIP
360
493E
  0
DICTIONARY
  5
493F
330
26D0
100
AcDbDictionary
280
     1
281
     1
  3
ACAD_XREC_ROUNDTRIP
360
4940
  0
DICTIONARY
  5
4941
330
26D1
100
AcDbDictionary
280
     1
281
     1
  3
ACAD_XREC_ROUNDTRIP
360
4942
  0
DICTIONARY
  5
495D
330
283C
100
AcDbDictionary
280
     1
281
     1
  3
ACAD_XREC_ROUNDTRIP
360
495E
  0
DICTIONARY
  5
4969
330
2842
100
AcDbDictionary
280
     1
281
     1
  3
ACAD_XREC_ROUNDTRIP
360
496A
  0
DICTIONARY
  5
4955
330
26DB
100
AcDbDictionary
280
     1
281
     1
  3
ACAD_XREC_ROUNDTRIP
360
4956
  0
DICTIONARY
  5
496B
330
2843
100
AcDbDictionary
280
     1
281
     1
  3
ACAD_XREC_ROUNDTRIP
360
496C
  0
DICTIONARY
  5
494D
330
26D7
100
AcDbDictionary
280
     1
281
     1
  3
ACAD_XREC_ROUNDTRIP
360
494E
  0
DICTIONARY
  5
4967
330
2841
100
AcDbDictionary
280
     1
281
     1
  3
ACAD_XREC_ROUNDTRIP
360
4968
  0
DICTIONARY
  5
4965
330
2840
100
AcDbDictionary
280
     1
281
     1
  3
ACAD_XREC_ROUNDTRIP
360
4966
  0
DICTIONARY
  5
495F
330
283D
100
AcDbDictionary
280
     1
281
     1
  3
ACAD_XREC_ROUNDTRIP
360
4960
  0
DICTIONARY
  5
4961
330
283E
100
AcDbDictionary
280
     1
281
     1
  3
ACAD_XREC_ROUNDTRIP
360
4962
  0
DICTIONARY
  5
4953
330
26DA
100
AcDbDictionary
280
     1
281
     1
  3
ACAD_XREC_ROUNDTRIP
360
4954
  0
DICTIONARY
  5
495B
330
283B
100
AcDbDictionary
280
     1
281
     1
  3
ACAD_XREC_ROUNDTRIP
360
495C
  0
DICTIONARY
  5
4963
330
283F
100
AcDbDictionary
280
     1
281
     1
  3
ACAD_XREC_ROUNDTRIP
360
4964
  0
XRECORD
  5
4933
102
{ACAD_REACTORS
330
4939
102
}
330
4939
100
AcDbXrecord
280
     1
  1
AcDb_Thumbnail_Schema
102
{ATTRRECORD
341
4934
  2
AcDbDs::TreatedAsObjectData
280
     1
291
     1
102
ATTRRECORD}
102
{ATTRRECORD
341
4935
  2
AcDbDs::Legacy
280
     1
291
     1
102
ATTRRECORD}
  2
AcDbDs::ID
280
    10
 91
        8
102
{ATTRRECORD
341
4936
  2
AcDs:Indexable
280
     1
291
     1
102
ATTRRECORD}
102
{ATTRRECORD
341
4937
  2
AcDbDs::HandleAttribute
280
     7
282
     1
102
ATTRRECORD}
  2
Thumbnail_Data
280
    15
 91
        0
  0
XRECORD
  5
4934
102
{ACAD_REACTORS
330
4939
102
}
330
4939
100
AcDbXrecord
280
     1
  1
AcDbDs::TreatedAsObjectDataSchema
  2
AcDbDs::TreatedAsObjectData
280
     1
 91
        0
  0
XRECORD
  5
4935
102
{ACAD_REACTORS
330
4939
102
}
330
4939
100
AcDbXrecord
280
     1
  1
AcDbDs::LegacySchema
  2
AcDbDs::Legacy
280
     1
 91
        0
  0
XRECORD
  5
4936
102
{ACAD_REACTORS
330
4939
102
}
330
4939
100
AcDbXrecord
280
     1
  1
AcDbDs::IndexedPropertySchema
  2
AcDs:Indexable
280
     1
 91
        0
  0
XRECORD
  5
4937
102
{ACAD_REACTORS
330
4939
102
}
330
4939
100
AcDbXrecord
280
     1
  1
AcDbDs::HandleAttributeSchema
  2
AcDbDs::HandleAttribute
280
     7
 91
        1
284
     1
  0
XRECORD
  5
4970
102
{ACAD_REACTORS
330
48C4
102
}
330
48C4
100
AcDbXrecord
280
     1
102
DISPLAYNAME
  1
Metric50
102
FLAGS
 90
        0
  0
XRECORD
  5
40FC
102
{ACAD_REACTORS
330
26C6
102
}
330
26C6
100
AcDbXrecord
280
     1
102
MATERIAL
148
0.0
149
0.0
149
0.0
 93
        0
 94
      127
282
     0
 72
     0
 77
     0
171
     0
175
     0
179
     0
273
     0
  0
XRECORD
  5
26C8
102
{ACAD_REACTORS
330
26C6
102
}
330
26C6
100
AcDbXrecord
280
     1
270
     1
271
     1
  0
XRECORD
  5
26C7
102
{ACAD_REACTORS
330
26C6
102
}
330
26C6
100
AcDbXrecord
280
     1
270
     1
271
     1
  0
XRECORD
  5
26CB
102
{ACAD_REACTORS
330
26C6
102
}
330
26C6
100
AcDbXrecord
280
     1
270
     1
271
     1
  0
XRECORD
  5
26CA
102
{ACAD_REACTORS
330
26C6
102
}
330
26C6
100
AcDbXrecord
280
     1
270
     1
271
     1
  0
XRECORD
  5
26CC
102
{ACAD_REACTORS
330
26C6
102
}
330
26C6
100
AcDbXrecord
280
     1
270
     1
271
     1
  0
XRECORD
  5
26C9
102
{ACAD_REACTORS
330
26C6
102
}
330
26C6
100
AcDbXrecord
280
     1
270
     1
271
     1
  0
XRECORD
  5
40FB
102
{ACAD_REACTORS
330
26BE
102
}
330
26BE
100
AcDbXrecord
280
     1
102
MATERIAL
148
0.0
149
0.0
149
0.0
 93
        0
 94
      127
282
     0
 72
     0
 77
     0
171
     0
175
     0
179
     0
273
     0
  0
XRECORD
  5
26C0
102
{ACAD_REACTORS
330
26BE
102
}
330
26BE
100
AcDbXrecord
280
     1
270
     1
271
     1
  0
XRECORD
  5
26BF
102
{ACAD_REACTORS
330
26BE
102
}
330
26BE
100
AcDbXrecord
280
     1
270
     1
271
     1
  0
XRECORD
  5
26C3
102
{ACAD_REACTORS
330
26BE
102
}
330
26BE
100
AcDbXrecord
280
     1
270
     1
271
     1
  0
XRECORD
  5
26C2
102
{ACAD_REACTORS
330
26BE
102
}
330
26BE
100
AcDbXrecord
280
     1
270
     1
271
     1
  0
XRECORD
  5
26C4
102
{ACAD_REACTORS
330
26BE
102
}
330
26BE
100
AcDbXrecord
280
     1
270
     1
271
     1
  0
XRECORD
  5
26C1
102
{ACAD_REACTORS
330
26BE
102
}
330
26BE
100
AcDbXrecord
280
     1
270
     1
271
     1
  0
XRECORD
  5
40FA
102
{ACAD_REACTORS
330
40F9
102
}
330
40F9
100
AcDbXrecord
280
     1
102
MATERIAL
148
0.0
149
0.0
149
0.0
 93
        0
 94
       63
282
     0
 72
     1
 77
     1
171
     1
175
     1
179
     1
273
     0
  0
XRECORD
  5
496F
102
{ACAD_REACTORS
330
48C2
102
}
330
48C2
100
AcDbXrecord
280
     1
102
DISPLAYNAME
  1
Metric50
102
FLAGS
 90
        0
  0
CELLSTYLEMAP
  5
492F
102
{ACAD_REACTORS
330
272E
102
}
330
272E
100
AcDbCellStyleMap
 90
        3
300
CELLSTYLE
  1
TABLEFORMAT_BEGIN
 90
        5
170
     1
 91
        0
 92
    32768
 62
   257
 93
        1
300
CONTENTFORMAT
  1
CONTENTFORMAT_BEGIN
 90
        0
 91
        0
 92
      512
 93
        0
300

 40
0.0
140
1.0
 94
        5
 62
     0
340
10
144
6.0
309
CONTENTFORMAT_END
171
     1
301
MARGIN
  1
CELLMARGIN_BEGIN
 40
1.5
 40
1.5
 40
1.5
 40
1.5
 40
0.18
 40
0.18
309
CELLMARGIN_END
 94
        6
 95
        1
302
GRIDFORMAT
  1
GRIDFORMAT_BEGIN
 90
        0
 91
        1
 62
     0
 92
       -2
340
0
 93
        0
 40
1.125
309
GRIDFORMAT_END
 95
        2
302
GRIDFORMAT
  1
GRIDFORMAT_BEGIN
 90
        0
 91
        1
 62
     0
 92
       -2
340
0
 93
        0
 40
1.125
309
GRIDFORMAT_END
 95
        4
302
GRIDFORMAT
  1
GRIDFORMAT_BEGIN
 90
        0
 91
        1
 62
     0
 92
       -2
340
0
 93
        0
 40
1.125
309
GRIDFORMAT_END
 95
        8
302
GRIDFORMAT
  1
GRIDFORMAT_BEGIN
 90
        0
 91
        1
 62
     0
 92
       -2
340
0
 93
        0
 40
1.125
309
GRIDFORMAT_END
 95
       16
302
GRIDFORMAT
  1
GRIDFORMAT_BEGIN
 90
        0
 91
        1
 62
     0
 92
       -2
340
0
 93
        0
 40
1.125
309
GRIDFORMAT_END
 95
       32
302
GRIDFORMAT
  1
GRIDFORMAT_BEGIN
 90
        0
 91
        1
 62
     0
 92
       -2
340
0
 93
        0
 40
1.125
309
GRIDFORMAT_END
309
TABLEFORMAT_END
  1
CELLSTYLE_BEGIN
 90
        1
 91
        1
300
_TITLE
309
CELLSTYLE_END
300
CELLSTYLE
  1
TABLEFORMAT_BEGIN
 90
        5
170
     1
 91
        0
 92
        0
 62
   257
 93
        1
300
CONTENTFORMAT
  1
CONTENTFORMAT_BEGIN
 90
        0
 91
        0
 92
      512
 93
        0
300

 40
0.0
140
1.0
 94
        5
 62
     0
340
10
144
4.5
309
CONTENTFORMAT_END
171
     1
301
MARGIN
  1
CELLMARGIN_BEGIN
 40
1.5
 40
1.5
 40
1.5
 40
1.5
 40
0.18
 40
0.18
309
CELLMARGIN_END
 94
        6
 95
        1
302
GRIDFORMAT
  1
GRIDFORMAT_BEGIN
 90
        0
 91
        1
 62
     0
 92
       -2
340
0
 93
        0
 40
1.125
309
GRIDFORMAT_END
 95
        2
302
GRIDFORMAT
  1
GRIDFORMAT_BEGIN
 90
        0
 91
        1
 62
     0
 92
       -2
340
0
 93
        0
 40
1.125
309
GRIDFORMAT_END
 95
        4
302
GRIDFORMAT
  1
GRIDFORMAT_BEGIN
 90
        0
 91
        1
 62
     0
 92
       -2
340
0
 93
        0
 40
1.125
309
GRIDFORMAT_END
 95
        8
302
GRIDFORMAT
  1
GRIDFORMAT_BEGIN
 90
        0
 91
        1
 62
     0
 92
       -2
340
0
 93
        0
 40
1.125
309
GRIDFORMAT_END
 95
       16
302
GRIDFORMAT
  1
GRIDFORMAT_BEGIN
 90
        0
 91
        1
 62
     0
 92
       -2
340
0
 93
        0
 40
1.125
309
GRIDFORMAT_END
 95
       32
302
GRIDFORMAT
  1
GRIDFORMAT_BEGIN
 90
        0
 91
        1
 62
     0
 92
       -2
340
0
 93
        0
 40
1.125
309
GRIDFORMAT_END
309
TABLEFORMAT_END
  1
CELLSTYLE_BEGIN
 90
        2
 91
        1
300
_HEADER
309
CELLSTYLE_END
300
CELLSTYLE
  1
TABLEFORMAT_BEGIN
 90
        5
170
     1
 91
        0
 92
        0
 62
   257
 93
        1
300
CONTENTFORMAT
  1
CONTENTFORMAT_BEGIN
 90
        0
 91
        0
 92
      512
 93
        0
300

 40
0.0
140
1.0
 94
        2
 62
     0
340
10
144
4.5
309
CONTENTFORMAT_END
171
     1
301
MARGIN
  1
CELLMARGIN_BEGIN
 40
1.5
 40
1.5
 40
1.5
 40
1.5
 40
0.18
 40
0.18
309
CELLMARGIN_END
 94
        6
 95
        1
302
GRIDFORMAT
  1
GRIDFORMAT_BEGIN
 90
        0
 91
        1
 62
     0
 92
       -2
340
0
 93
        0
 40
1.125
309
GRIDFORMAT_END
 95
        2
302
GRIDFORMAT
  1
GRIDFORMAT_BEGIN
 90
        0
 91
        1
 62
     0
 92
       -2
340
0
 93
        0
 40
1.125
309
GRIDFORMAT_END
 95
        4
302
GRIDFORMAT
  1
GRIDFORMAT_BEGIN
 90
        0
 91
        1
 62
     0
 92
       -2
340
0
 93
        0
 40
1.125
309
GRIDFORMAT_END
 95
        8
302
GRIDFORMAT
  1
GRIDFORMAT_BEGIN
 90
        0
 91
        1
 62
     0
 92
       -2
340
0
 93
        0
 40
1.125
309
GRIDFORMAT_END
 95
       16
302
GRIDFORMAT
  1
GRIDFORMAT_BEGIN
 90
        0
 91
        1
 62
     0
 92
       -2
340
0
 93
        0
 40
1.125
309
GRIDFORMAT_END
 95
       32
302
GRIDFORMAT
  1
GRIDFORMAT_BEGIN
 90
        0
 91
        1
 62
     0
 92
       -2
340
0
 93
        0
 40
1.125
309
GRIDFORMAT_END
309
TABLEFORMAT_END
  1
CELLSTYLE_BEGIN
 90
        3
 91
        2
300
_DATA
309
CELLSTYLE_END
  0
XRECORD
  5
4946
102
{ACAD_REACTORS
330
4945
102
}
330
4945
100
AcDbXrecord
280
     1
102
RTVSPost2010Prop28
280
     1
102
RTVSPost2010PropOp28
 70
     1
102
RTVSPost2010Prop29
280
     1
102
RTVSPost2010PropOp29
 70
     1
102
RTVSPost2010Prop30
280
     0
102
RTVSPost2010PropOp30
 70
     1
102
RTVSPost2010Prop31
280
     0
102
RTVSPost2010PropOp31
 70
     1
102
RTVSPost2010Prop32
280
     0
102
RTVSPost2010PropOp32
 70
     1
102
RTVSPost2010Prop33
280
     0
102
RTVSPost2010PropOp33
 70
     1
102
RTVSPost2010Prop34
280
     0
102
RTVSPost2010PropOp34
 70
     1
102
RTVSPost2010Prop35
280
     0
102
RTVSPost2010PropOp35
 70
     1
102
RTVSPost2010Prop36
280
     0
102
RTVSPost2010PropOp36
 70
     1
102
RTVSPost2010Prop37
 90
       50
102
RTVSPost2010PropOp37
 70
     1
102
RTVSPost2010Prop38
140
0.0
102
RTVSPost2010PropOp38
 70
     1
102
RTVSPost2010Prop39
140
1.0
102
RTVSPost2010PropOp39
 70
     1
102
RTVSPost2010Prop40
 90
        0
102
RTVSPost2010PropOp40
 70
     1
102
RTVSPost2010Prop41ColorIndex
 90
       18
102
RTVSPost2010Prop41ColorRGB
 90
        0
102
RTVSPost2010PropOp41
 70
     1
102
RTVSPost2010Prop42
 90
       50
102
RTVSPost2010PropOp42
 70
     1
102
RTVSPost2010Prop43
 90
        3
102
RTVSPost2010PropOp43
 70
     1
102
RTVSPost2010Prop44ColorIndex
 90
        5
102
RTVSPost2010Prop44ColorRGB
 90
      255
102
RTVSPost2010PropOp44
 70
     1
102
RTVSPost2010Prop45
280
     0
102
RTVSPost2010PropOp45
 70
     1
102
RTVSPost2010Prop46
 90
       50
102
RTVSPost2010PropOp46
 70
     1
102
RTVSPost2010Prop47
 90
       50
102
RTVSPost2010PropOp47
 70
     1
102
RTVSPost2010Prop48
 90
       50
102
RTVSPost2010PropOp48
 70
     1
102
RTVSPost2010Prop49
280
     0
102
RTVSPost2010PropOp49
 70
     1
102
RTVSPost2010Prop50
 90
       50
102
RTVSPost2010PropOp50
 70
     1
102
RTVSPost2010Prop51ColorIndex
 90
      256
102
RTVSPost2010Prop51ColorRGB
 90
-16777216
102
RTVSPost2010PropOp51
 70
     0
102
RTVSPost2010Prop52
140
1.0
102
RTVSPost2010PropOp52
 70
     0
102
RTVSPost2010Prop53
 90
        2
102
RTVSPost2010PropOp53
 70
     1
102
RTVSPost2010Prop54
  1
strokes_ogs.tif
102
RTVSPost2010PropOp54
 70
     1
102
RTVSPost2010Prop55
280
     0
102
RTVSPost2010PropOp55
 70
     1
102
RTVSPost2010Prop56
140
1.0
102
RTVSPost2010PropOp56
 70
     1
102
RTVSPost2010Prop57
140
1.0
102
RTVSPost2010PropOp57
 70
     1
  0
XRECORD
  5
494A
102
{ACAD_REACTORS
330
4949
102
}
330
4949
100
AcDbXrecord
280
     1
102
RTVSPost2010Prop28
280
     0
102
RTVSPost2010PropOp28
 70
     1
102
RTVSPost2010Prop29
280
     1
102
RTVSPost2010PropOp29
 70
     1
102
RTVSPost2010Prop30
280
     1
102
RTVSPost2010PropOp30
 70
     1
102
RTVSPost2010Prop31
280
     0
102
RTVSPost2010PropOp31
 70
     1
102
RTVSPost2010Prop32
280
     0
102
RTVSPost2010PropOp32
 70
     1
102
RTVSPost2010Prop33
280
     0
102
RTVSPost2010PropOp33
 70
     1
102
RTVSPost2010Prop34
280
     0
102
RTVSPost2010PropOp34
 70
     1
102
RTVSPost2010Prop35
280
     0
102
RTVSPost2010PropOp35
 70
     1
102
RTVSPost2010Prop36
280
     0
102
RTVSPost2010PropOp36
 70
     1
102
RTVSPost2010Prop37
 90
       50
102
RTVSPost2010PropOp37
 70
     1
102
RTVSPost2010Prop38
140
0.0
102
RTVSPost2010PropOp38
 70
     1
102
RTVSPost2010Prop39
140
1.0
102
RTVSPost2010PropOp39
 70
     1
102
RTVSPost2010Prop40
 90
        0
102
RTVSPost2010PropOp40
 70
     1
102
RTVSPost2010Prop41ColorIndex
 90
       18
102
RTVSPost2010Prop41ColorRGB
 90
        0
102
RTVSPost2010PropOp41
 70
     1
102
RTVSPost2010Prop42
 90
       50
102
RTVSPost2010PropOp42
 70
     1
102
RTVSPost2010Prop43
 90
        3
102
RTVSPost2010PropOp43
 70
     1
102
RTVSPost2010Prop44ColorIndex
 90
        5
102
RTVSPost2010Prop44ColorRGB
 90
      255
102
RTVSPost2010PropOp44
 70
     1
102
RTVSPost2010Prop45
280
     0
102
RTVSPost2010PropOp45
 70
     1
102
RTVSPost2010Prop46
 90
       50
102
RTVSPost2010PropOp46
 70
     1
102
RTVSPost2010Prop47
 90
       50
102
RTVSPost2010PropOp47
 70
     1
102
RTVSPost2010Prop48
 90
       50
102
RTVSPost2010PropOp48
 70
     1
102
RTVSPost2010Prop49
280
     0
102
RTVSPost2010PropOp49
 70
     1
102
RTVSPost2010Prop50
 90
       50
102
RTVSPost2010PropOp50
 70
     1
102
RTVSPost2010Prop51ColorIndex
 90
      256
102
RTVSPost2010Prop51ColorRGB
 90
-16777216
102
RTVSPost2010PropOp51
 70
     0
102
RTVSPost2010Prop52
140
1.0
102
RTVSPost2010PropOp52
 70
     0
102
RTVSPost2010Prop53
 90
        2
102
RTVSPost2010PropOp53
 70
     1
102
RTVSPost2010Prop54
  1
strokes_ogs.tif
102
RTVSPost2010PropOp54
 70
     1
102
RTVSPost2010Prop55
280
     0
102
RTVSPost2010PropOp55
 70
     1
102
RTVSPost2010Prop56
140
1.0
102
RTVSPost2010PropOp56
 70
     1
102
RTVSPost2010Prop57
140
1.0
102
RTVSPost2010PropOp57
 70
     1
  0
XRECORD
  5
4948
102
{ACAD_REACTORS
330
4947
102
}
330
4947
100
AcDbXrecord
280
     1
102
RTVSPost2010Prop28
280
     0
102
RTVSPost2010PropOp28
 70
     1
102
RTVSPost2010Prop29
280
     1
102
RTVSPost2010PropOp29
 70
     1
102
RTVSPost2010Prop30
280
     1
102
RTVSPost2010PropOp30
 70
     1
102
RTVSPost2010Prop31
280
     0
102
RTVSPost2010PropOp31
 70
     1
102
RTVSPost2010Prop32
280
     0
102
RTVSPost2010PropOp32
 70
     1
102
RTVSPost2010Prop33
280
     0
102
RTVSPost2010PropOp33
 70
     1
102
RTVSPost2010Prop34
280
     0
102
RTVSPost2010PropOp34
 70
     1
102
RTVSPost2010Prop35
280
     0
102
RTVSPost2010PropOp35
 70
     1
102
RTVSPost2010Prop36
280
     0
102
RTVSPost2010PropOp36
 70
     1
102
RTVSPost2010Prop37
 90
       50
102
RTVSPost2010PropOp37
 70
     1
102
RTVSPost2010Prop38
140
0.0
102
RTVSPost2010PropOp38
 70
     1
102
RTVSPost2010Prop39
140
1.0
102
RTVSPost2010PropOp39
 70
     1
102
RTVSPost2010Prop40
 90
        0
102
RTVSPost2010PropOp40
 70
     1
102
RTVSPost2010Prop41ColorIndex
 90
       18
102
RTVSPost2010Prop41ColorRGB
 90
        0
102
RTVSPost2010PropOp41
 70
     1
102
RTVSPost2010Prop42
 90
       50
102
RTVSPost2010PropOp42
 70
     1
102
RTVSPost2010Prop43
 90
        3
102
RTVSPost2010PropOp43
 70
     1
102
RTVSPost2010Prop44ColorIndex
 90
        5
102
RTVSPost2010Prop44ColorRGB
 90
      255
102
RTVSPost2010PropOp44
 70
     1
102
RTVSPost2010Prop45
280
     0
102
RTVSPost2010PropOp45
 70
     1
102
RTVSPost2010Prop46
 90
       50
102
RTVSPost2010PropOp46
 70
     1
102
RTVSPost2010Prop47
 90
       50
102
RTVSPost2010PropOp47
 70
     1
102
RTVSPost2010Prop48
 90
       50
102
RTVSPost2010PropOp48
 70
     1
102
RTVSPost2010Prop49
280
     0
102
RTVSPost2010PropOp49
 70
     1
102
RTVSPost2010Prop50
 90
       50
102
RTVSPost2010PropOp50
 70
     1
102
RTVSPost2010Prop51ColorIndex
 90
      256
102
RTVSPost2010Prop51ColorRGB
 90
-16777216
102
RTVSPost2010PropOp51
 70
     0
102
RTVSPost2010Prop52
140
1.0
102
RTVSPost2010PropOp52
 70
     0
102
RTVSPost2010Prop53
 90
        2
102
RTVSPost2010PropOp53
 70
     1
102
RTVSPost2010Prop54
  1
strokes_ogs.tif
102
RTVSPost2010PropOp54
 70
     1
102
RTVSPost2010Prop55
280
     0
102
RTVSPost2010PropOp55
 70
     1
102
RTVSPost2010Prop56
140
1.0
102
RTVSPost2010PropOp56
 70
     1
102
RTVSPost2010Prop57
140
1.0
102
RTVSPost2010PropOp57
 70
     1
  0
XRECORD
  5
4944
102
{ACAD_REACTORS
330
4943
102
}
330
4943
100
AcDbXrecord
280
     1
102
RTVSPost2010Prop28
280
     0
102
RTVSPost2010PropOp28
 70
     1
102
RTVSPost2010Prop29
280
     1
102
RTVSPost2010PropOp29
 70
     1
102
RTVSPost2010Prop30
280
     1
102
RTVSPost2010PropOp30
 70
     1
102
RTVSPost2010Prop31
280
     0
102
RTVSPost2010PropOp31
 70
     1
102
RTVSPost2010Prop32
280
     0
102
RTVSPost2010PropOp32
 70
     1
102
RTVSPost2010Prop33
280
     0
102
RTVSPost2010PropOp33
 70
     1
102
RTVSPost2010Prop34
280
     0
102
RTVSPost2010PropOp34
 70
     1
102
RTVSPost2010Prop35
280
     0
102
RTVSPost2010PropOp35
 70
     1
102
RTVSPost2010Prop36
280
     0
102
RTVSPost2010PropOp36
 70
     1
102
RTVSPost2010Prop37
 90
       50
102
RTVSPost2010PropOp37
 70
     1
102
RTVSPost2010Prop38
140
0.0
102
RTVSPost2010PropOp38
 70
     1
102
RTVSPost2010Prop39
140
1.0
102
RTVSPost2010PropOp39
 70
     1
102
RTVSPost2010Prop40
 90
        0
102
RTVSPost2010PropOp40
 70
     1
102
RTVSPost2010Prop41ColorIndex
 90
       18
102
RTVSPost2010Prop41ColorRGB
 90
        0
102
RTVSPost2010PropOp41
 70
     1
102
RTVSPost2010Prop42
 90
       50
102
RTVSPost2010PropOp42
 70
     1
102
RTVSPost2010Prop43
 90
        3
102
RTVSPost2010PropOp43
 70
     1
102
RTVSPost2010Prop44ColorIndex
 90
        5
102
RTVSPost2010Prop44ColorRGB
 90
      255
102
RTVSPost2010PropOp44
 70
     1
102
RTVSPost2010Prop45
280
     0
102
RTVSPost2010PropOp45
 70
     1
102
RTVSPost2010Prop46
 90
       50
102
RTVSPost2010PropOp46
 70
     1
102
RTVSPost2010Prop47
 90
       50
102
RTVSPost2010PropOp47
 70
     1
102
RTVSPost2010Prop48
 90
       50
102
RTVSPost2010PropOp48
 70
     1
102
RTVSPost2010Prop49
280
     0
102
RTVSPost2010PropOp49
 70
     1
102
RTVSPost2010Prop50
 90
       50
102
RTVSPost2010PropOp50
 70
     1
102
RTVSPost2010Prop51ColorIndex
 90
      256
102
RTVSPost2010Prop51ColorRGB
 90
-16777216
102
RTVSPost2010PropOp51
 70
     0
102
RTVSPost2010Prop52
140
1.0
102
RTVSPost2010PropOp52
 70
     0
102
RTVSPost2010Prop53
 90
        2
102
RTVSPost2010PropOp53
 70
     1
102
RTVSPost2010Prop54
  1
strokes_ogs.tif
102
RTVSPost2010PropOp54
 70
     1
102
RTVSPost2010Prop55
280
     0
102
RTVSPost2010PropOp55
 70
     1
102
RTVSPost2010Prop56
140
1.0
102
RTVSPost2010PropOp56
 70
     1
102
RTVSPost2010Prop57
140
1.0
102
RTVSPost2010PropOp57
 70
     1
  0
XRECORD
  5
4952
102
{ACAD_REACTORS
330
4951
102
}
330
4951
100
AcDbXrecord
280
     1
102
RTVSPost2010Prop28
280
     0
102
RTVSPost2010PropOp28
 70
     1
102
RTVSPost2010Prop29
280
     1
102
RTVSPost2010PropOp29
 70
     1
102
RTVSPost2010Prop30
280
     1
102
RTVSPost2010PropOp30
 70
     1
102
RTVSPost2010Prop31
280
     0
102
RTVSPost2010PropOp31
 70
     1
102
RTVSPost2010Prop32
280
     0
102
RTVSPost2010PropOp32
 70
     1
102
RTVSPost2010Prop33
280
     0
102
RTVSPost2010PropOp33
 70
     1
102
RTVSPost2010Prop34
280
     0
102
RTVSPost2010PropOp34
 70
     1
102
RTVSPost2010Prop35
280
     0
102
RTVSPost2010PropOp35
 70
     1
102
RTVSPost2010Prop36
280
     0
102
RTVSPost2010PropOp36
 70
     1
102
RTVSPost2010Prop37
 90
       50
102
RTVSPost2010PropOp37
 70
     1
102
RTVSPost2010Prop38
140
0.0
102
RTVSPost2010PropOp38
 70
     1
102
RTVSPost2010Prop39
140
1.0
102
RTVSPost2010PropOp39
 70
     1
102
RTVSPost2010Prop40
 90
        0
102
RTVSPost2010PropOp40
 70
     1
102
RTVSPost2010Prop41ColorIndex
 90
       18
102
RTVSPost2010Prop41ColorRGB
 90
        0
102
RTVSPost2010PropOp41
 70
     1
102
RTVSPost2010Prop42
 90
       50
102
RTVSPost2010PropOp42
 70
     1
102
RTVSPost2010Prop43
 90
        3
102
RTVSPost2010PropOp43
 70
     1
102
RTVSPost2010Prop44ColorIndex
 90
        5
102
RTVSPost2010Prop44ColorRGB
 90
      255
102
RTVSPost2010PropOp44
 70
     1
102
RTVSPost2010Prop45
280
     0
102
RTVSPost2010PropOp45
 70
     1
102
RTVSPost2010Prop46
 90
       50
102
RTVSPost2010PropOp46
 70
     1
102
RTVSPost2010Prop47
 90
       50
102
RTVSPost2010PropOp47
 70
     1
102
RTVSPost2010Prop48
 90
       50
102
RTVSPost2010PropOp48
 70
     1
102
RTVSPost2010Prop49
280
     0
102
RTVSPost2010PropOp49
 70
     1
102
RTVSPost2010Prop50
 90
       50
102
RTVSPost2010PropOp50
 70
     1
102
RTVSPost2010Prop51ColorIndex
 90
      256
102
RTVSPost2010Prop51ColorRGB
 90
-16777216
102
RTVSPost2010PropOp51
 70
     0
102
RTVSPost2010Prop52
140
1.0
102
RTVSPost2010PropOp52
 70
     0
102
RTVSPost2010Prop53
 90
        2
102
RTVSPost2010PropOp53
 70
     1
102
RTVSPost2010Prop54
  1
strokes_ogs.tif
102
RTVSPost2010PropOp54
 70
     1
102
RTVSPost2010Prop55
280
     0
102
RTVSPost2010PropOp55
 70
     1
102
RTVSPost2010Prop56
140
1.0
102
RTVSPost2010PropOp56
 70
     1
102
RTVSPost2010Prop57
140
1.0
102
RTVSPost2010PropOp57
 70
     1
  0
XRECORD
  5
495A
102
{ACAD_REACTORS
330
4959
102
}
330
4959
100
AcDbXrecord
280
     1
102
RTVSPost2010Prop28
280
     0
102
RTVSPost2010PropOp28
 70
     1
102
RTVSPost2010Prop29
280
     1
102
RTVSPost2010PropOp29
 70
     1
102
RTVSPost2010Prop30
280
     1
102
RTVSPost2010PropOp30
 70
     1
102
RTVSPost2010Prop31
280
     0
102
RTVSPost2010PropOp31
 70
     1
102
RTVSPost2010Prop32
280
     0
102
RTVSPost2010PropOp32
 70
     1
102
RTVSPost2010Prop33
280
     0
102
RTVSPost2010PropOp33
 70
     1
102
RTVSPost2010Prop34
280
     0
102
RTVSPost2010PropOp34
 70
     1
102
RTVSPost2010Prop35
280
     0
102
RTVSPost2010PropOp35
 70
     1
102
RTVSPost2010Prop36
280
     0
102
RTVSPost2010PropOp36
 70
     1
102
RTVSPost2010Prop37
 90
       50
102
RTVSPost2010PropOp37
 70
     1
102
RTVSPost2010Prop38
140
0.0
102
RTVSPost2010PropOp38
 70
     1
102
RTVSPost2010Prop39
140
1.0
102
RTVSPost2010PropOp39
 70
     1
102
RTVSPost2010Prop40
 90
        0
102
RTVSPost2010PropOp40
 70
     1
102
RTVSPost2010Prop41ColorIndex
 90
       18
102
RTVSPost2010Prop41ColorRGB
 90
        0
102
RTVSPost2010PropOp41
 70
     1
102
RTVSPost2010Prop42
 90
       50
102
RTVSPost2010PropOp42
 70
     1
102
RTVSPost2010Prop43
 90
        3
102
RTVSPost2010PropOp43
 70
     1
102
RTVSPost2010Prop44ColorIndex
 90
        5
102
RTVSPost2010Prop44ColorRGB
 90
      255
102
RTVSPost2010PropOp44
 70
     1
102
RTVSPost2010Prop45
280
     0
102
RTVSPost2010PropOp45
 70
     1
102
RTVSPost2010Prop46
 90
       50
102
RTVSPost2010PropOp46
 70
     1
102
RTVSPost2010Prop47
 90
       50
102
RTVSPost2010PropOp47
 70
     1
102
RTVSPost2010Prop48
 90
       50
102
RTVSPost2010PropOp48
 70
     1
102
RTVSPost2010Prop49
280
     0
102
RTVSPost2010PropOp49
 70
     1
102
RTVSPost2010Prop50
 90
       50
102
RTVSPost2010PropOp50
 70
     1
102
RTVSPost2010Prop51ColorIndex
 90
      256
102
RTVSPost2010Prop51ColorRGB
 90
-16777216
102
RTVSPost2010PropOp51
 70
     0
102
RTVSPost2010Prop52
140
1.0
102
RTVSPost2010PropOp52
 70
     0
102
RTVSPost2010Prop53
 90
        2
102
RTVSPost2010PropOp53
 70
     1
102
RTVSPost2010Prop54
  1
strokes_ogs.tif
102
RTVSPost2010PropOp54
 70
     1
102
RTVSPost2010Prop55
280
     0
102
RTVSPost2010PropOp55
 70
     1
102
RTVSPost2010Prop56
140
1.0
102
RTVSPost2010PropOp56
 70
     1
102
RTVSPost2010Prop57
140
1.0
102
RTVSPost2010PropOp57
 70
     1
  0
XRECORD
  5
494C
102
{ACAD_REACTORS
330
494B
102
}
330
494B
100
AcDbXrecord
280
     1
102
RTVSPost2010Prop28
280
     0
102
RTVSPost2010PropOp28
 70
     1
102
RTVSPost2010Prop29
280
     1
102
RTVSPost2010PropOp29
 70
     1
102
RTVSPost2010Prop30
280
     1
102
RTVSPost2010PropOp30
 70
     1
102
RTVSPost2010Prop31
280
     0
102
RTVSPost2010PropOp31
 70
     1
102
RTVSPost2010Prop32
280
     0
102
RTVSPost2010PropOp32
 70
     1
102
RTVSPost2010Prop33
280
     0
102
RTVSPost2010PropOp33
 70
     1
102
RTVSPost2010Prop34
280
     0
102
RTVSPost2010PropOp34
 70
     1
102
RTVSPost2010Prop35
280
     0
102
RTVSPost2010PropOp35
 70
     1
102
RTVSPost2010Prop36
280
     0
102
RTVSPost2010PropOp36
 70
     1
102
RTVSPost2010Prop37
 90
       50
102
RTVSPost2010PropOp37
 70
     1
102
RTVSPost2010Prop38
140
0.0
102
RTVSPost2010PropOp38
 70
     1
102
RTVSPost2010Prop39
140
1.0
102
RTVSPost2010PropOp39
 70
     1
102
RTVSPost2010Prop40
 90
        0
102
RTVSPost2010PropOp40
 70
     1
102
RTVSPost2010Prop41ColorIndex
 90
       18
102
RTVSPost2010Prop41ColorRGB
 90
        0
102
RTVSPost2010PropOp41
 70
     1
102
RTVSPost2010Prop42
 90
       50
102
RTVSPost2010PropOp42
 70
     1
102
RTVSPost2010Prop43
 90
        3
102
RTVSPost2010PropOp43
 70
     1
102
RTVSPost2010Prop44ColorIndex
 90
        5
102
RTVSPost2010Prop44ColorRGB
 90
      255
102
RTVSPost2010PropOp44
 70
     1
102
RTVSPost2010Prop45
280
     0
102
RTVSPost2010PropOp45
 70
     1
102
RTVSPost2010Prop46
 90
       50
102
RTVSPost2010PropOp46
 70
     1
102
RTVSPost2010Prop47
 90
       50
102
RTVSPost2010PropOp47
 70
     1
102
RTVSPost2010Prop48
 90
       50
102
RTVSPost2010PropOp48
 70
     1
102
RTVSPost2010Prop49
280
     0
102
RTVSPost2010PropOp49
 70
     1
102
RTVSPost2010Prop50
 90
       50
102
RTVSPost2010PropOp50
 70
     1
102
RTVSPost2010Prop51ColorIndex
 90
      256
102
RTVSPost2010Prop51ColorRGB
 90
-16777216
102
RTVSPost2010PropOp51
 70
     0
102
RTVSPost2010Prop52
140
1.0
102
RTVSPost2010PropOp52
 70
     0
102
RTVSPost2010Prop53
 90
        2
102
RTVSPost2010PropOp53
 70
     1
102
RTVSPost2010Prop54
  1
strokes_ogs.tif
102
RTVSPost2010PropOp54
 70
     1
102
RTVSPost2010Prop55
280
     0
102
RTVSPost2010PropOp55
 70
     1
102
RTVSPost2010Prop56
140
1.0
102
RTVSPost2010PropOp56
 70
     1
102
RTVSPost2010Prop57
140
1.0
102
RTVSPost2010PropOp57
 70
     1
  0
XRECORD
  5
4950
102
{ACAD_REACTORS
330
494F
102
}
330
494F
100
AcDbXrecord
280
     1
102
RTVSPost2010Prop28
280
     0
102
RTVSPost2010PropOp28
 70
     1
102
RTVSPost2010Prop29
280
     1
102
RTVSPost2010PropOp29
 70
     1
102
RTVSPost2010Prop30
280
     1
102
RTVSPost2010PropOp30
 70
     1
102
RTVSPost2010Prop31
280
     0
102
RTVSPost2010PropOp31
 70
     1
102
RTVSPost2010Prop32
280
     0
102
RTVSPost2010PropOp32
 70
     1
102
RTVSPost2010Prop33
280
     0
102
RTVSPost2010PropOp33
 70
     1
102
RTVSPost2010Prop34
280
     0
102
RTVSPost2010PropOp34
 70
     1
102
RTVSPost2010Prop35
280
     0
102
RTVSPost2010PropOp35
 70
     1
102
RTVSPost2010Prop36
280
     0
102
RTVSPost2010PropOp36
 70
     1
102
RTVSPost2010Prop37
 90
       50
102
RTVSPost2010PropOp37
 70
     1
102
RTVSPost2010Prop38
140
0.0
102
RTVSPost2010PropOp38
 70
     1
102
RTVSPost2010Prop39
140
1.0
102
RTVSPost2010PropOp39
 70
     1
102
RTVSPost2010Prop40
 90
        0
102
RTVSPost2010PropOp40
 70
     1
102
RTVSPost2010Prop41ColorIndex
 90
       18
102
RTVSPost2010Prop41ColorRGB
 90
        0
102
RTVSPost2010PropOp41
 70
     1
102
RTVSPost2010Prop42
 90
       50
102
RTVSPost2010PropOp42
 70
     1
102
RTVSPost2010Prop43
 90
        3
102
RTVSPost2010PropOp43
 70
     1
102
RTVSPost2010Prop44ColorIndex
 90
        5
102
RTVSPost2010Prop44ColorRGB
 90
      255
102
RTVSPost2010PropOp44
 70
     1
102
RTVSPost2010Prop45
280
     0
102
RTVSPost2010PropOp45
 70
     1
102
RTVSPost2010Prop46
 90
       50
102
RTVSPost2010PropOp46
 70
     1
102
RTVSPost2010Prop47
 90
       50
102
RTVSPost2010PropOp47
 70
     1
102
RTVSPost2010Prop48
 90
       50
102
RTVSPost2010PropOp48
 70
     1
102
RTVSPost2010Prop49
280
     0
102
RTVSPost2010PropOp49
 70
     1
102
RTVSPost2010Prop50
 90
       50
102
RTVSPost2010PropOp50
 70
     1
102
RTVSPost2010Prop51ColorIndex
 90
      256
102
RTVSPost2010Prop51ColorRGB
 90
-16777216
102
RTVSPost2010PropOp51
 70
     0
102
RTVSPost2010Prop52
140
1.0
102
RTVSPost2010PropOp52
 70
     0
102
RTVSPost2010Prop53
 90
        2
102
RTVSPost2010PropOp53
 70
     1
102
RTVSPost2010Prop54
  1
strokes_ogs.tif
102
RTVSPost2010PropOp54
 70
     1
102
RTVSPost2010Prop55
280
     0
102
RTVSPost2010PropOp55
 70
     1
102
RTVSPost2010Prop56
140
1.0
102
RTVSPost2010PropOp56
 70
     1
102
RTVSPost2010Prop57
140
1.0
102
RTVSPost2010PropOp57
 70
     1
  0
XRECORD
  5
496E
102
{ACAD_REACTORS
330
496D
102
}
330
496D
100
AcDbXrecord
280
     1
102
RTVSPost2010Prop28
280
     0
102
RTVSPost2010PropOp28
 70
     1
102
RTVSPost2010Prop29
280
     1
102
RTVSPost2010PropOp29
 70
     1
102
RTVSPost2010Prop30
280
     1
102
RTVSPost2010PropOp30
 70
     1
102
RTVSPost2010Prop31
280
     0
102
RTVSPost2010PropOp31
 70
     1
102
RTVSPost2010Prop32
280
     0
102
RTVSPost2010PropOp32
 70
     1
102
RTVSPost2010Prop33
280
     0
102
RTVSPost2010PropOp33
 70
     1
102
RTVSPost2010Prop34
280
     0
102
RTVSPost2010PropOp34
 70
     1
102
RTVSPost2010Prop35
280
     0
102
RTVSPost2010PropOp35
 70
     1
102
RTVSPost2010Prop36
280
     0
102
RTVSPost2010PropOp36
 70
     1
102
RTVSPost2010Prop37
 90
       50
102
RTVSPost2010PropOp37
 70
     1
102
RTVSPost2010Prop38
140
0.0
102
RTVSPost2010PropOp38
 70
     1
102
RTVSPost2010Prop39
140
1.0
102
RTVSPost2010PropOp39
 70
     1
102
RTVSPost2010Prop40
 90
        0
102
RTVSPost2010PropOp40
 70
     1
102
RTVSPost2010Prop41ColorIndex
 90
       18
102
RTVSPost2010Prop41ColorRGB
 90
        0
102
RTVSPost2010PropOp41
 70
     1
102
RTVSPost2010Prop42
 90
       50
102
RTVSPost2010PropOp42
 70
     1
102
RTVSPost2010Prop43
 90
        3
102
RTVSPost2010PropOp43
 70
     1
102
RTVSPost2010Prop44ColorIndex
 90
        5
102
RTVSPost2010Prop44ColorRGB
 90
      255
102
RTVSPost2010PropOp44
 70
     1
102
RTVSPost2010Prop45
280
     0
102
RTVSPost2010PropOp45
 70
     1
102
RTVSPost2010Prop46
 90
       50
102
RTVSPost2010PropOp46
 70
     1
102
RTVSPost2010Prop47
 90
       50
102
RTVSPost2010PropOp47
 70
     1
102
RTVSPost2010Prop48
 90
       50
102
RTVSPost2010PropOp48
 70
     1
102
RTVSPost2010Prop49
280
     0
102
RTVSPost2010PropOp49
 70
     1
102
RTVSPost2010Prop50
 90
       50
102
RTVSPost2010PropOp50
 70
     1
102
RTVSPost2010Prop51ColorIndex
 90
      256
102
RTVSPost2010Prop51ColorRGB
 90
-16777216
102
RTVSPost2010PropOp51
 70
     0
102
RTVSPost2010Prop52
140
1.0
102
RTVSPost2010PropOp52
 70
     0
102
RTVSPost2010Prop53
 90
        2
102
RTVSPost2010PropOp53
 70
     1
102
RTVSPost2010Prop54
  1
strokes_ogs.tif
102
RTVSPost2010PropOp54
 70
     1
102
RTVSPost2010Prop55
280
     0
102
RTVSPost2010PropOp55
 70
     1
102
RTVSPost2010Prop56
140
1.0
102
RTVSPost2010PropOp56
 70
     1
102
RTVSPost2010Prop57
140
1.0
102
RTVSPost2010PropOp57
 70
     1
  0
XRECORD
  5
4958
102
{ACAD_REACTORS
330
4957
102
}
330
4957
100
AcDbXrecord
280
     1
102
RTVSPost2010Prop28
280
     0
102
RTVSPost2010PropOp28
 70
     1
102
RTVSPost2010Prop29
280
     1
102
RTVSPost2010PropOp29
 70
     1
102
RTVSPost2010Prop30
280
     1
102
RTVSPost2010PropOp30
 70
     1
102
RTVSPost2010Prop31
280
     0
102
RTVSPost2010PropOp31
 70
     1
102
RTVSPost2010Prop32
280
     0
102
RTVSPost2010PropOp32
 70
     1
102
RTVSPost2010Prop33
280
     0
102
RTVSPost2010PropOp33
 70
     1
102
RTVSPost2010Prop34
280
     0
102
RTVSPost2010PropOp34
 70
     1
102
RTVSPost2010Prop35
280
     0
102
RTVSPost2010PropOp35
 70
     1
102
RTVSPost2010Prop36
280
     0
102
RTVSPost2010PropOp36
 70
     1
102
RTVSPost2010Prop37
 90
       50
102
RTVSPost2010PropOp37
 70
     1
102
RTVSPost2010Prop38
140
0.0
102
RTVSPost2010PropOp38
 70
     1
102
RTVSPost2010Prop39
140
1.0
102
RTVSPost2010PropOp39
 70
     1
102
RTVSPost2010Prop40
 90
        0
102
RTVSPost2010PropOp40
 70
     1
102
RTVSPost2010Prop41ColorIndex
 90
       18
102
RTVSPost2010Prop41ColorRGB
 90
        0
102
RTVSPost2010PropOp41
 70
     1
102
RTVSPost2010Prop42
 90
       50
102
RTVSPost2010PropOp42
 70
     1
102
RTVSPost2010Prop43
 90
        3
102
RTVSPost2010PropOp43
 70
     1
102
RTVSPost2010Prop44ColorIndex
 90
        5
102
RTVSPost2010Prop44ColorRGB
 90
      255
102
RTVSPost2010PropOp44
 70
     1
102
RTVSPost2010Prop45
280
     0
102
RTVSPost2010PropOp45
 70
     1
102
RTVSPost2010Prop46
 90
       50
102
RTVSPost2010PropOp46
 70
     1
102
RTVSPost2010Prop47
 90
       50
102
RTVSPost2010PropOp47
 70
     1
102
RTVSPost2010Prop48
 90
       50
102
RTVSPost2010PropOp48
 70
     1
102
RTVSPost2010Prop49
280
     0
102
RTVSPost2010PropOp49
 70
     1
102
RTVSPost2010Prop50
 90
       50
102
RTVSPost2010PropOp50
 70
     1
102
RTVSPost2010Prop51ColorIndex
 90
      256
102
RTVSPost2010Prop51ColorRGB
 90
-16777216
102
RTVSPost2010PropOp51
 70
     0
102
RTVSPost2010Prop52
140
1.0
102
RTVSPost2010PropOp52
 70
     0
102
RTVSPost2010Prop53
 90
        2
102
RTVSPost2010PropOp53
 70
     1
102
RTVSPost2010Prop54
  1
strokes_ogs.tif
102
RTVSPost2010PropOp54
 70
     1
102
RTVSPost2010Prop55
280
     0
102
RTVSPost2010PropOp55
 70
     1
102
RTVSPost2010Prop56
140
1.0
102
RTVSPost2010PropOp56
 70
     1
102
RTVSPost2010Prop57
140
1.0
102
RTVSPost2010PropOp57
 70
     1
  0
XRECORD
  5
493C
102
{ACAD_REACTORS
330
493B
102
}
330
493B
100
AcDbXrecord
280
     1
102
RTVSPost2010Prop28
280
     0
102
RTVSPost2010PropOp28
 70
     1
102
RTVSPost2010Prop29
280
     1
102
RTVSPost2010PropOp29
 70
     1
102
RTVSPost2010Prop30
280
     1
102
RTVSPost2010PropOp30
 70
     1
102
RTVSPost2010Prop31
280
     0
102
RTVSPost2010PropOp31
 70
     1
102
RTVSPost2010Prop32
280
     0
102
RTVSPost2010PropOp32
 70
     1
102
RTVSPost2010Prop33
280
     0
102
RTVSPost2010PropOp33
 70
     1
102
RTVSPost2010Prop34
280
     0
102
RTVSPost2010PropOp34
 70
     1
102
RTVSPost2010Prop35
280
     0
102
RTVSPost2010PropOp35
 70
     1
102
RTVSPost2010Prop36
280
     0
102
RTVSPost2010PropOp36
 70
     1
102
RTVSPost2010Prop37
 90
       50
102
RTVSPost2010PropOp37
 70
     1
102
RTVSPost2010Prop38
140
0.0
102
RTVSPost2010PropOp38
 70
     1
102
RTVSPost2010Prop39
140
1.0
102
RTVSPost2010PropOp39
 70
     1
102
RTVSPost2010Prop40
 90
        0
102
RTVSPost2010PropOp40
 70
     1
102
RTVSPost2010Prop41ColorIndex
 90
       18
102
RTVSPost2010Prop41ColorRGB
 90
        0
102
RTVSPost2010PropOp41
 70
     1
102
RTVSPost2010Prop42
 90
       50
102
RTVSPost2010PropOp42
 70
     1
102
RTVSPost2010Prop43
 90
        3
102
RTVSPost2010PropOp43
 70
     1
102
RTVSPost2010Prop44ColorIndex
 90
        5
102
RTVSPost2010Prop44ColorRGB
 90
      255
102
RTVSPost2010PropOp44
 70
     1
102
RTVSPost2010Prop45
280
     0
102
RTVSPost2010PropOp45
 70
     1
102
RTVSPost2010Prop46
 90
       50
102
RTVSPost2010PropOp46
 70
     1
102
RTVSPost2010Prop47
 90
       50
102
RTVSPost2010PropOp47
 70
     1
102
RTVSPost2010Prop48
 90
       50
102
RTVSPost2010PropOp48
 70
     1
102
RTVSPost2010Prop49
280
     0
102
RTVSPost2010PropOp49
 70
     1
102
RTVSPost2010Prop50
 90
       50
102
RTVSPost2010PropOp50
 70
     1
102
RTVSPost2010Prop51ColorIndex
 90
      256
102
RTVSPost2010Prop51ColorRGB
 90
-16777216
102
RTVSPost2010PropOp51
 70
     0
102
RTVSPost2010Prop52
140
1.0
102
RTVSPost2010PropOp52
 70
     0
102
RTVSPost2010Prop53
 90
        2
102
RTVSPost2010PropOp53
 70
     1
102
RTVSPost2010Prop54
  1
strokes_ogs.tif
102
RTVSPost2010PropOp54
 70
     1
102
RTVSPost2010Prop55
280
     0
102
RTVSPost2010PropOp55
 70
     1
102
RTVSPost2010Prop56
140
1.0
102
RTVSPost2010PropOp56
 70
     1
102
RTVSPost2010Prop57
140
1.0
102
RTVSPost2010PropOp57
 70
     1
  0
XRECORD
  5
493E
102
{ACAD_REACTORS
330
493D
102
}
330
493D
100
AcDbXrecord
280
     1
102
RTVSPost2010Prop28
280
     0
102
RTVSPost2010PropOp28
 70
     1
102
RTVSPost2010Prop29
280
     1
102
RTVSPost2010PropOp29
 70
     1
102
RTVSPost2010Prop30
280
     1
102
RTVSPost2010PropOp30
 70
     1
102
RTVSPost2010Prop31
280
     0
102
RTVSPost2010PropOp31
 70
     1
102
RTVSPost2010Prop32
280
     0
102
RTVSPost2010PropOp32
 70
     1
102
RTVSPost2010Prop33
280
     0
102
RTVSPost2010PropOp33
 70
     1
102
RTVSPost2010Prop34
280
     0
102
RTVSPost2010PropOp34
 70
     1
102
RTVSPost2010Prop35
280
     0
102
RTVSPost2010PropOp35
 70
     1
102
RTVSPost2010Prop36
280
     0
102
RTVSPost2010PropOp36
 70
     1
102
RTVSPost2010Prop37
 90
       50
102
RTVSPost2010PropOp37
 70
     1
102
RTVSPost2010Prop38
140
0.0
102
RTVSPost2010PropOp38
 70
     1
102
RTVSPost2010Prop39
140
1.0
102
RTVSPost2010PropOp39
 70
     1
102
RTVSPost2010Prop40
 90
        0
102
RTVSPost2010PropOp40
 70
     1
102
RTVSPost2010Prop41ColorIndex
 90
       18
102
RTVSPost2010Prop41ColorRGB
 90
        0
102
RTVSPost2010PropOp41
 70
     1
102
RTVSPost2010Prop42
 90
       50
102
RTVSPost2010PropOp42
 70
     1
102
RTVSPost2010Prop43
 90
        3
102
RTVSPost2010PropOp43
 70
     1
102
RTVSPost2010Prop44ColorIndex
 90
        5
102
RTVSPost2010Prop44ColorRGB
 90
      255
102
RTVSPost2010PropOp44
 70
     1
102
RTVSPost2010Prop45
280
     0
102
RTVSPost2010PropOp45
 70
     1
102
RTVSPost2010Prop46
 90
       50
102
RTVSPost2010PropOp46
 70
     1
102
RTVSPost2010Prop47
 90
       50
102
RTVSPost2010PropOp47
 70
     1
102
RTVSPost2010Prop48
 90
       50
102
RTVSPost2010PropOp48
 70
     1
102
RTVSPost2010Prop49
280
     0
102
RTVSPost2010PropOp49
 70
     1
102
RTVSPost2010Prop50
 90
       50
102
RTVSPost2010PropOp50
 70
     1
102
RTVSPost2010Prop51ColorIndex
 90
      256
102
RTVSPost2010Prop51ColorRGB
 90
-16777216
102
RTVSPost2010PropOp51
 70
     0
102
RTVSPost2010Prop52
140
1.0
102
RTVSPost2010PropOp52
 70
     0
102
RTVSPost2010Prop53
 90
        2
102
RTVSPost2010PropOp53
 70
     1
102
RTVSPost2010Prop54
  1
strokes_ogs.tif
102
RTVSPost2010PropOp54
 70
     1
102
RTVSPost2010Prop55
280
     0
102
RTVSPost2010PropOp55
 70
     1
102
RTVSPost2010Prop56
140
1.0
102
RTVSPost2010PropOp56
 70
     1
102
RTVSPost2010Prop57
140
1.0
102
RTVSPost2010PropOp57
 70
     1
  0
XRECORD
  5
4940
102
{ACAD_REACTORS
330
493F
102
}
330
493F
100
AcDbXrecord
280
     1
102
RTVSPost2010Prop28
280
     0
102
RTVSPost2010PropOp28
 70
     1
102
RTVSPost2010Prop29
280
     1
102
RTVSPost2010PropOp29
 70
     1
102
RTVSPost2010Prop30
280
     1
102
RTVSPost2010PropOp30
 70
     1
102
RTVSPost2010Prop31
280
     0
102
RTVSPost2010PropOp31
 70
     1
102
RTVSPost2010Prop32
280
     0
102
RTVSPost2010PropOp32
 70
     1
102
RTVSPost2010Prop33
280
     0
102
RTVSPost2010PropOp33
 70
     1
102
RTVSPost2010Prop34
280
     0
102
RTVSPost2010PropOp34
 70
     1
102
RTVSPost2010Prop35
280
     0
102
RTVSPost2010PropOp35
 70
     1
102
RTVSPost2010Prop36
280
     0
102
RTVSPost2010PropOp36
 70
     1
102
RTVSPost2010Prop37
 90
       50
102
RTVSPost2010PropOp37
 70
     1
102
RTVSPost2010Prop38
140
0.0
102
RTVSPost2010PropOp38
 70
     1
102
RTVSPost2010Prop39
140
1.0
102
RTVSPost2010PropOp39
 70
     1
102
RTVSPost2010Prop40
 90
        0
102
RTVSPost2010PropOp40
 70
     1
102
RTVSPost2010Prop41ColorIndex
 90
       18
102
RTVSPost2010Prop41ColorRGB
 90
        0
102
RTVSPost2010PropOp41
 70
     1
102
RTVSPost2010Prop42
 90
       50
102
RTVSPost2010PropOp42
 70
     1
102
RTVSPost2010Prop43
 90
        3
102
RTVSPost2010PropOp43
 70
     1
102
RTVSPost2010Prop44ColorIndex
 90
        5
102
RTVSPost2010Prop44ColorRGB
 90
      255
102
RTVSPost2010PropOp44
 70
     1
102
RTVSPost2010Prop45
280
     0
102
RTVSPost2010PropOp45
 70
     1
102
RTVSPost2010Prop46
 90
       50
102
RTVSPost2010PropOp46
 70
     1
102
RTVSPost2010Prop47
 90
       50
102
RTVSPost2010PropOp47
 70
     1
102
RTVSPost2010Prop48
 90
       50
102
RTVSPost2010PropOp48
 70
     1
102
RTVSPost2010Prop49
280
     0
102
RTVSPost2010PropOp49
 70
     1
102
RTVSPost2010Prop50
 90
       50
102
RTVSPost2010PropOp50
 70
     1
102
RTVSPost2010Prop51ColorIndex
 90
      256
102
RTVSPost2010Prop51ColorRGB
 90
-16777216
102
RTVSPost2010PropOp51
 70
     0
102
RTVSPost2010Prop52
140
1.0
102
RTVSPost2010PropOp52
 70
     0
102
RTVSPost2010Prop53
 90
        2
102
RTVSPost2010PropOp53
 70
     1
102
RTVSPost2010Prop54
  1
strokes_ogs.tif
102
RTVSPost2010PropOp54
 70
     1
102
RTVSPost2010Prop55
280
     0
102
RTVSPost2010PropOp55
 70
     1
102
RTVSPost2010Prop56
140
1.0
102
RTVSPost2010PropOp56
 70
     1
102
RTVSPost2010Prop57
140
1.0
102
RTVSPost2010PropOp57
 70
     1
  0
XRECORD
  5
4942
102
{ACAD_REACTORS
330
4941
102
}
330
4941
100
AcDbXrecord
280
     1
102
RTVSPost2010Prop28
280
     0
102
RTVSPost2010PropOp28
 70
     1
102
RTVSPost2010Prop29
280
     1
102
RTVSPost2010PropOp29
 70
     1
102
RTVSPost2010Prop30
280
     1
102
RTVSPost2010PropOp30
 70
     1
102
RTVSPost2010Prop31
280
     0
102
RTVSPost2010PropOp31
 70
     1
102
RTVSPost2010Prop32
280
     0
102
RTVSPost2010PropOp32
 70
     1
102
RTVSPost2010Prop33
280
     0
102
RTVSPost2010PropOp33
 70
     1
102
RTVSPost2010Prop34
280
     0
102
RTVSPost2010PropOp34
 70
     1
102
RTVSPost2010Prop35
280
     0
102
RTVSPost2010PropOp35
 70
     1
102
RTVSPost2010Prop36
280
     0
102
RTVSPost2010PropOp36
 70
     1
102
RTVSPost2010Prop37
 90
       50
102
RTVSPost2010PropOp37
 70
     1
102
RTVSPost2010Prop38
140
0.0
102
RTVSPost2010PropOp38
 70
     1
102
RTVSPost2010Prop39
140
1.0
102
RTVSPost2010PropOp39
 70
     1
102
RTVSPost2010Prop40
 90
        0
102
RTVSPost2010PropOp40
 70
     1
102
RTVSPost2010Prop41ColorIndex
 90
       18
102
RTVSPost2010Prop41ColorRGB
 90
        0
102
RTVSPost2010PropOp41
 70
     1
102
RTVSPost2010Prop42
 90
       50
102
RTVSPost2010PropOp42
 70
     1
102
RTVSPost2010Prop43
 90
        3
102
RTVSPost2010PropOp43
 70
     1
102
RTVSPost2010Prop44ColorIndex
 90
        5
102
RTVSPost2010Prop44ColorRGB
 90
      255
102
RTVSPost2010PropOp44
 70
     1
102
RTVSPost2010Prop45
280
     0
102
RTVSPost2010PropOp45
 70
     1
102
RTVSPost2010Prop46
 90
       50
102
RTVSPost2010PropOp46
 70
     1
102
RTVSPost2010Prop47
 90
       50
102
RTVSPost2010PropOp47
 70
     1
102
RTVSPost2010Prop48
 90
       50
102
RTVSPost2010PropOp48
 70
     1
102
RTVSPost2010Prop49
280
     0
102
RTVSPost2010PropOp49
 70
     1
102
RTVSPost2010Prop50
 90
       50
102
RTVSPost2010PropOp50
 70
     1
102
RTVSPost2010Prop51ColorIndex
 90
      256
102
RTVSPost2010Prop51ColorRGB
 90
-16777216
102
RTVSPost2010PropOp51
 70
     0
102
RTVSPost2010Prop52
140
1.0
102
RTVSPost2010PropOp52
 70
     0
102
RTVSPost2010Prop53
 90
        2
102
RTVSPost2010PropOp53
 70
     1
102
RTVSPost2010Prop54
  1
strokes_ogs.tif
102
RTVSPost2010PropOp54
 70
     1
102
RTVSPost2010Prop55
280
     0
102
RTVSPost2010PropOp55
 70
     1
102
RTVSPost2010Prop56
140
1.0
102
RTVSPost2010PropOp56
 70
     1
102
RTVSPost2010Prop57
140
1.0
102
RTVSPost2010PropOp57
 70
     1
  0
XRECORD
  5
495E
102
{ACAD_REACTORS
330
495D
102
}
330
495D
100
AcDbXrecord
280
     1
102
RTVSPost2010Prop28
280
     0
102
RTVSPost2010PropOp28
 70
     1
102
RTVSPost2010Prop29
280
     1
102
RTVSPost2010PropOp29
 70
     1
102
RTVSPost2010Prop30
280
     1
102
RTVSPost2010PropOp30
 70
     1
102
RTVSPost2010Prop31
280
     0
102
RTVSPost2010PropOp31
 70
     1
102
RTVSPost2010Prop32
280
     0
102
RTVSPost2010PropOp32
 70
     1
102
RTVSPost2010Prop33
280
     0
102
RTVSPost2010PropOp33
 70
     1
102
RTVSPost2010Prop34
280
     0
102
RTVSPost2010PropOp34
 70
     1
102
RTVSPost2010Prop35
280
     0
102
RTVSPost2010PropOp35
 70
     1
102
RTVSPost2010Prop36
280
     0
102
RTVSPost2010PropOp36
 70
     1
102
RTVSPost2010Prop37
 90
       50
102
RTVSPost2010PropOp37
 70
     1
102
RTVSPost2010Prop38
140
0.0
102
RTVSPost2010PropOp38
 70
     1
102
RTVSPost2010Prop39
140
1.0
102
RTVSPost2010PropOp39
 70
     1
102
RTVSPost2010Prop40
 90
        0
102
RTVSPost2010PropOp40
 70
     1
102
RTVSPost2010Prop41ColorIndex
 90
       18
102
RTVSPost2010Prop41ColorRGB
 90
        0
102
RTVSPost2010PropOp41
 70
     1
102
RTVSPost2010Prop42
 90
       50
102
RTVSPost2010PropOp42
 70
     1
102
RTVSPost2010Prop43
 90
        3
102
RTVSPost2010PropOp43
 70
     1
102
RTVSPost2010Prop44ColorIndex
 90
        5
102
RTVSPost2010Prop44ColorRGB
 90
      255
102
RTVSPost2010PropOp44
 70
     1
102
RTVSPost2010Prop45
280
     0
102
RTVSPost2010PropOp45
 70
     1
102
RTVSPost2010Prop46
 90
       50
102
RTVSPost2010PropOp46
 70
     1
102
RTVSPost2010Prop47
 90
       50
102
RTVSPost2010PropOp47
 70
     1
102
RTVSPost2010Prop48
 90
       50
102
RTVSPost2010PropOp48
 70
     1
102
RTVSPost2010Prop49
280
     0
102
RTVSPost2010PropOp49
 70
     1
102
RTVSPost2010Prop50
 90
       50
102
RTVSPost2010PropOp50
 70
     1
102
RTVSPost2010Prop51ColorIndex
 90
      256
102
RTVSPost2010Prop51ColorRGB
 90
-16777216
102
RTVSPost2010PropOp51
 70
     0
102
RTVSPost2010Prop52
140
1.0
102
RTVSPost2010PropOp52
 70
     0
102
RTVSPost2010Prop53
 90
        2
102
RTVSPost2010PropOp53
 70
     1
102
RTVSPost2010Prop54
  1
strokes_ogs.tif
102
RTVSPost2010PropOp54
 70
     1
102
RTVSPost2010Prop55
280
     0
102
RTVSPost2010PropOp55
 70
     1
102
RTVSPost2010Prop56
140
1.0
102
RTVSPost2010PropOp56
 70
     1
102
RTVSPost2010Prop57
140
1.0
102
RTVSPost2010PropOp57
 70
     1
  0
XRECORD
  5
496A
102
{ACAD_REACTORS
330
4969
102
}
330
4969
100
AcDbXrecord
280
     1
102
RTVSPost2010Prop28
280
     0
102
RTVSPost2010PropOp28
 70
     1
102
RTVSPost2010Prop29
280
     1
102
RTVSPost2010PropOp29
 70
     1
102
RTVSPost2010Prop30
280
     1
102
RTVSPost2010PropOp30
 70
     1
102
RTVSPost2010Prop31
280
     0
102
RTVSPost2010PropOp31
 70
     1
102
RTVSPost2010Prop32
280
     0
102
RTVSPost2010PropOp32
 70
     1
102
RTVSPost2010Prop33
280
     0
102
RTVSPost2010PropOp33
 70
     1
102
RTVSPost2010Prop34
280
     0
102
RTVSPost2010PropOp34
 70
     1
102
RTVSPost2010Prop35
280
     0
102
RTVSPost2010PropOp35
 70
     1
102
RTVSPost2010Prop36
280
     0
102
RTVSPost2010PropOp36
 70
     1
102
RTVSPost2010Prop37
 90
       50
102
RTVSPost2010PropOp37
 70
     1
102
RTVSPost2010Prop38
140
0.0
102
RTVSPost2010PropOp38
 70
     1
102
RTVSPost2010Prop39
140
1.0
102
RTVSPost2010PropOp39
 70
     1
102
RTVSPost2010Prop40
 90
        0
102
RTVSPost2010PropOp40
 70
     1
102
RTVSPost2010Prop41ColorIndex
 90
       18
102
RTVSPost2010Prop41ColorRGB
 90
        0
102
RTVSPost2010PropOp41
 70
     1
102
RTVSPost2010Prop42
 90
       50
102
RTVSPost2010PropOp42
 70
     1
102
RTVSPost2010Prop43
 90
        3
102
RTVSPost2010PropOp43
 70
     1
102
RTVSPost2010Prop44ColorIndex
 90
        5
102
RTVSPost2010Prop44ColorRGB
 90
      255
102
RTVSPost2010PropOp44
 70
     1
102
RTVSPost2010Prop45
280
     0
102
RTVSPost2010PropOp45
 70
     1
102
RTVSPost2010Prop46
 90
       50
102
RTVSPost2010PropOp46
 70
     1
102
RTVSPost2010Prop47
 90
       50
102
RTVSPost2010PropOp47
 70
     1
102
RTVSPost2010Prop48
 90
       50
102
RTVSPost2010PropOp48
 70
     1
102
RTVSPost2010Prop49
280
     0
102
RTVSPost2010PropOp49
 70
     1
102
RTVSPost2010Prop50
 90
       50
102
RTVSPost2010PropOp50
 70
     1
102
RTVSPost2010Prop51ColorIndex
 90
      256
102
RTVSPost2010Prop51ColorRGB
 90
-16777216
102
RTVSPost2010PropOp51
 70
     0
102
RTVSPost2010Prop52
140
1.0
102
RTVSPost2010PropOp52
 70
     0
102
RTVSPost2010Prop53
 90
        2
102
RTVSPost2010PropOp53
 70
     1
102
RTVSPost2010Prop54
  1
strokes_ogs.tif
102
RTVSPost2010PropOp54
 70
     1
102
RTVSPost2010Prop55
280
     0
102
RTVSPost2010PropOp55
 70
     1
102
RTVSPost2010Prop56
140
1.0
102
RTVSPost2010PropOp56
 70
     1
102
RTVSPost2010Prop57
140
1.0
102
RTVSPost2010PropOp57
 70
     1
  0
XRECORD
  5
4956
102
{ACAD_REACTORS
330
4955
102
}
330
4955
100
AcDbXrecord
280
     1
102
RTVSPost2010Prop28
280
     0
102
RTVSPost2010PropOp28
 70
     1
102
RTVSPost2010Prop29
280
     1
102
RTVSPost2010PropOp29
 70
     1
102
RTVSPost2010Prop30
280
     1
102
RTVSPost2010PropOp30
 70
     1
102
RTVSPost2010Prop31
280
     0
102
RTVSPost2010PropOp31
 70
     1
102
RTVSPost2010Prop32
280
     0
102
RTVSPost2010PropOp32
 70
     1
102
RTVSPost2010Prop33
280
     0
102
RTVSPost2010PropOp33
 70
     1
102
RTVSPost2010Prop34
280
     0
102
RTVSPost2010PropOp34
 70
     1
102
RTVSPost2010Prop35
280
     0
102
RTVSPost2010PropOp35
 70
     1
102
RTVSPost2010Prop36
280
     0
102
RTVSPost2010PropOp36
 70
     1
102
RTVSPost2010Prop37
 90
       50
102
RTVSPost2010PropOp37
 70
     1
102
RTVSPost2010Prop38
140
0.0
102
RTVSPost2010PropOp38
 70
     1
102
RTVSPost2010Prop39
140
1.0
102
RTVSPost2010PropOp39
 70
     1
102
RTVSPost2010Prop40
 90
        0
102
RTVSPost2010PropOp40
 70
     1
102
RTVSPost2010Prop41ColorIndex
 90
       18
102
RTVSPost2010Prop41ColorRGB
 90
        0
102
RTVSPost2010PropOp41
 70
     1
102
RTVSPost2010Prop42
 90
       50
102
RTVSPost2010PropOp42
 70
     1
102
RTVSPost2010Prop43
 90
        3
102
RTVSPost2010PropOp43
 70
     1
102
RTVSPost2010Prop44ColorIndex
 90
        5
102
RTVSPost2010Prop44ColorRGB
 90
      255
102
RTVSPost2010PropOp44
 70
     1
102
RTVSPost2010Prop45
280
     0
102
RTVSPost2010PropOp45
 70
     1
102
RTVSPost2010Prop46
 90
       50
102
RTVSPost2010PropOp46
 70
     1
102
RTVSPost2010Prop47
 90
       50
102
RTVSPost2010PropOp47
 70
     1
102
RTVSPost2010Prop48
 90
       50
102
RTVSPost2010PropOp48
 70
     1
102
RTVSPost2010Prop49
280
     0
102
RTVSPost2010PropOp49
 70
     1
102
RTVSPost2010Prop50
 90
       50
102
RTVSPost2010PropOp50
 70
     1
102
RTVSPost2010Prop51ColorIndex
 90
      256
102
RTVSPost2010Prop51ColorRGB
 90
-16777216
102
RTVSPost2010PropOp51
 70
     0
102
RTVSPost2010Prop52
140
1.0
102
RTVSPost2010PropOp52
 70
     0
102
RTVSPost2010Prop53
 90
        2
102
RTVSPost2010PropOp53
 70
     1
102
RTVSPost2010Prop54
  1
strokes_ogs.tif
102
RTVSPost2010PropOp54
 70
     1
102
RTVSPost2010Prop55
280
     0
102
RTVSPost2010PropOp55
 70
     1
102
RTVSPost2010Prop56
140
1.0
102
RTVSPost2010PropOp56
 70
     1
102
RTVSPost2010Prop57
140
1.0
102
RTVSPost2010PropOp57
 70
     1
  0
XRECORD
  5
496C
102
{ACAD_REACTORS
330
496B
102
}
330
496B
100
AcDbXrecord
280
     1
102
RTVSPost2010Prop28
280
     0
102
RTVSPost2010PropOp28
 70
     1
102
RTVSPost2010Prop29
280
     1
102
RTVSPost2010PropOp29
 70
     1
102
RTVSPost2010Prop30
280
     1
102
RTVSPost2010PropOp30
 70
     1
102
RTVSPost2010Prop31
280
     0
102
RTVSPost2010PropOp31
 70
     1
102
RTVSPost2010Prop32
280
     0
102
RTVSPost2010PropOp32
 70
     1
102
RTVSPost2010Prop33
280
     0
102
RTVSPost2010PropOp33
 70
     1
102
RTVSPost2010Prop34
280
     0
102
RTVSPost2010PropOp34
 70
     1
102
RTVSPost2010Prop35
280
     0
102
RTVSPost2010PropOp35
 70
     1
102
RTVSPost2010Prop36
280
     0
102
RTVSPost2010PropOp36
 70
     1
102
RTVSPost2010Prop37
 90
       50
102
RTVSPost2010PropOp37
 70
     1
102
RTVSPost2010Prop38
140
0.0
102
RTVSPost2010PropOp38
 70
     1
102
RTVSPost2010Prop39
140
1.0
102
RTVSPost2010PropOp39
 70
     1
102
RTVSPost2010Prop40
 90
        0
102
RTVSPost2010PropOp40
 70
     1
102
RTVSPost2010Prop41ColorIndex
 90
       18
102
RTVSPost2010Prop41ColorRGB
 90
        0
102
RTVSPost2010PropOp41
 70
     1
102
RTVSPost2010Prop42
 90
       50
102
RTVSPost2010PropOp42
 70
     1
102
RTVSPost2010Prop43
 90
        3
102
RTVSPost2010PropOp43
 70
     1
102
RTVSPost2010Prop44ColorIndex
 90
        5
102
RTVSPost2010Prop44ColorRGB
 90
      255
102
RTVSPost2010PropOp44
 70
     1
102
RTVSPost2010Prop45
280
     0
102
RTVSPost2010PropOp45
 70
     1
102
RTVSPost2010Prop46
 90
       50
102
RTVSPost2010PropOp46
 70
     1
102
RTVSPost2010Prop47
 90
       50
102
RTVSPost2010PropOp47
 70
     1
102
RTVSPost2010Prop48
 90
       50
102
RTVSPost2010PropOp48
 70
     1
102
RTVSPost2010Prop49
280
     0
102
RTVSPost2010PropOp49
 70
     1
102
RTVSPost2010Prop50
 90
       50
102
RTVSPost2010PropOp50
 70
     1
102
RTVSPost2010Prop51ColorIndex
 90
      256
102
RTVSPost2010Prop51ColorRGB
 90
-16777216
102
RTVSPost2010PropOp51
 70
     0
102
RTVSPost2010Prop52
140
1.0
102
RTVSPost2010PropOp52
 70
     0
102
RTVSPost2010Prop53
 90
        2
102
RTVSPost2010PropOp53
 70
     1
102
RTVSPost2010Prop54
  1
strokes_ogs.tif
102
RTVSPost2010PropOp54
 70
     1
102
RTVSPost2010Prop55
280
     0
102
RTVSPost2010PropOp55
 70
     1
102
RTVSPost2010Prop56
140
1.0
102
RTVSPost2010PropOp56
 70
     1
102
RTVSPost2010Prop57
140
1.0
102
RTVSPost2010PropOp57
 70
     1
  0
XRECORD
  5
494E
102
{ACAD_REACTORS
330
494D
102
}
330
494D
100
AcDbXrecord
280
     1
102
RTVSPost2010Prop28
280
     0
102
RTVSPost2010PropOp28
 70
     1
102
RTVSPost2010Prop29
280
     1
102
RTVSPost2010PropOp29
 70
     1
102
RTVSPost2010Prop30
280
     1
102
RTVSPost2010PropOp30
 70
     1
102
RTVSPost2010Prop31
280
     0
102
RTVSPost2010PropOp31
 70
     1
102
RTVSPost2010Prop32
280
     0
102
RTVSPost2010PropOp32
 70
     1
102
RTVSPost2010Prop33
280
     0
102
RTVSPost2010PropOp33
 70
     1
102
RTVSPost2010Prop34
280
     0
102
RTVSPost2010PropOp34
 70
     1
102
RTVSPost2010Prop35
280
     0
102
RTVSPost2010PropOp35
 70
     1
102
RTVSPost2010Prop36
280
     0
102
RTVSPost2010PropOp36
 70
     1
102
RTVSPost2010Prop37
 90
       50
102
RTVSPost2010PropOp37
 70
     1
102
RTVSPost2010Prop38
140
0.0
102
RTVSPost2010PropOp38
 70
     1
102
RTVSPost2010Prop39
140
1.0
102
RTVSPost2010PropOp39
 70
     1
102
RTVSPost2010Prop40
 90
        0
102
RTVSPost2010PropOp40
 70
     1
102
RTVSPost2010Prop41ColorIndex
 90
       18
102
RTVSPost2010Prop41ColorRGB
 90
        0
102
RTVSPost2010PropOp41
 70
     1
102
RTVSPost2010Prop42
 90
       50
102
RTVSPost2010PropOp42
 70
     1
102
RTVSPost2010Prop43
 90
        3
102
RTVSPost2010PropOp43
 70
     1
102
RTVSPost2010Prop44ColorIndex
 90
        5
102
RTVSPost2010Prop44ColorRGB
 90
      255
102
RTVSPost2010PropOp44
 70
     1
102
RTVSPost2010Prop45
280
     0
102
RTVSPost2010PropOp45
 70
     1
102
RTVSPost2010Prop46
 90
       50
102
RTVSPost2010PropOp46
 70
     1
102
RTVSPost2010Prop47
 90
       50
102
RTVSPost2010PropOp47
 70
     1
102
RTVSPost2010Prop48
 90
       50
102
RTVSPost2010PropOp48
 70
     1
102
RTVSPost2010Prop49
280
     0
102
RTVSPost2010PropOp49
 70
     1
102
RTVSPost2010Prop50
 90
       50
102
RTVSPost2010PropOp50
 70
     1
102
RTVSPost2010Prop51ColorIndex
 90
      256
102
RTVSPost2010Prop51ColorRGB
 90
-16777216
102
RTVSPost2010PropOp51
 70
     0
102
RTVSPost2010Prop52
140
1.0
102
RTVSPost2010PropOp52
 70
     0
102
RTVSPost2010Prop53
 90
        2
102
RTVSPost2010PropOp53
 70
     1
102
RTVSPost2010Prop54
  1
strokes_ogs.tif
102
RTVSPost2010PropOp54
 70
     1
102
RTVSPost2010Prop55
280
     0
102
RTVSPost2010PropOp55
 70
     1
102
RTVSPost2010Prop56
140
1.0
102
RTVSPost2010PropOp56
 70
     1
102
RTVSPost2010Prop57
140
1.0
102
RTVSPost2010PropOp57
 70
     1
  0
XRECORD
  5
4968
102
{ACAD_REACTORS
330
4967
102
}
330
4967
100
AcDbXrecord
280
     1
102
RTVSPost2010Prop28
280
     0
102
RTVSPost2010PropOp28
 70
     1
102
RTVSPost2010Prop29
280
     1
102
RTVSPost2010PropOp29
 70
     1
102
RTVSPost2010Prop30
280
     1
102
RTVSPost2010PropOp30
 70
     1
102
RTVSPost2010Prop31
280
     0
102
RTVSPost2010PropOp31
 70
     1
102
RTVSPost2010Prop32
280
     0
102
RTVSPost2010PropOp32
 70
     1
102
RTVSPost2010Prop33
280
     0
102
RTVSPost2010PropOp33
 70
     1
102
RTVSPost2010Prop34
280
     0
102
RTVSPost2010PropOp34
 70
     1
102
RTVSPost2010Prop35
280
     0
102
RTVSPost2010PropOp35
 70
     1
102
RTVSPost2010Prop36
280
     0
102
RTVSPost2010PropOp36
 70
     1
102
RTVSPost2010Prop37
 90
       50
102
RTVSPost2010PropOp37
 70
     1
102
RTVSPost2010Prop38
140
0.0
102
RTVSPost2010PropOp38
 70
     1
102
RTVSPost2010Prop39
140
1.0
102
RTVSPost2010PropOp39
 70
     1
102
RTVSPost2010Prop40
 90
        0
102
RTVSPost2010PropOp40
 70
     1
102
RTVSPost2010Prop41ColorIndex
 90
       18
102
RTVSPost2010Prop41ColorRGB
 90
        0
102
RTVSPost2010PropOp41
 70
     1
102
RTVSPost2010Prop42
 90
       50
102
RTVSPost2010PropOp42
 70
     1
102
RTVSPost2010Prop43
 90
        3
102
RTVSPost2010PropOp43
 70
     1
102
RTVSPost2010Prop44ColorIndex
 90
        5
102
RTVSPost2010Prop44ColorRGB
 90
      255
102
RTVSPost2010PropOp44
 70
     1
102
RTVSPost2010Prop45
280
     0
102
RTVSPost2010PropOp45
 70
     1
102
RTVSPost2010Prop46
 90
       50
102
RTVSPost2010PropOp46
 70
     1
102
RTVSPost2010Prop47
 90
       50
102
RTVSPost2010PropOp47
 70
     1
102
RTVSPost2010Prop48
 90
       50
102
RTVSPost2010PropOp48
 70
     1
102
RTVSPost2010Prop49
280
     0
102
RTVSPost2010PropOp49
 70
     1
102
RTVSPost2010Prop50
 90
       50
102
RTVSPost2010PropOp50
 70
     1
102
RTVSPost2010Prop51ColorIndex
 90
      256
102
RTVSPost2010Prop51ColorRGB
 90
-16777216
102
RTVSPost2010PropOp51
 70
     0
102
RTVSPost2010Prop52
140
1.0
102
RTVSPost2010PropOp52
 70
     0
102
RTVSPost2010Prop53
 90
        2
102
RTVSPost2010PropOp53
 70
     1
102
RTVSPost2010Prop54
  1
strokes_ogs.tif
102
RTVSPost2010PropOp54
 70
     1
102
RTVSPost2010Prop55
280
     0
102
RTVSPost2010PropOp55
 70
     1
102
RTVSPost2010Prop56
140
1.0
102
RTVSPost2010PropOp56
 70
     1
102
RTVSPost2010Prop57
140
1.0
102
RTVSPost2010PropOp57
 70
     1
  0
XRECORD
  5
4966
102
{ACAD_REACTORS
330
4965
102
}
330
4965
100
AcDbXrecord
280
     1
102
RTVSPost2010Prop28
280
     0
102
RTVSPost2010PropOp28
 70
     1
102
RTVSPost2010Prop29
280
     1
102
RTVSPost2010PropOp29
 70
     1
102
RTVSPost2010Prop30
280
     1
102
RTVSPost2010PropOp30
 70
     1
102
RTVSPost2010Prop31
280
     0
102
RTVSPost2010PropOp31
 70
     1
102
RTVSPost2010Prop32
280
     0
102
RTVSPost2010PropOp32
 70
     1
102
RTVSPost2010Prop33
280
     0
102
RTVSPost2010PropOp33
 70
     1
102
RTVSPost2010Prop34
280
     0
102
RTVSPost2010PropOp34
 70
     1
102
RTVSPost2010Prop35
280
     0
102
RTVSPost2010PropOp35
 70
     1
102
RTVSPost2010Prop36
280
     0
102
RTVSPost2010PropOp36
 70
     1
102
RTVSPost2010Prop37
 90
       50
102
RTVSPost2010PropOp37
 70
     1
102
RTVSPost2010Prop38
140
0.0
102
RTVSPost2010PropOp38
 70
     1
102
RTVSPost2010Prop39
140
1.0
102
RTVSPost2010PropOp39
 70
     1
102
RTVSPost2010Prop40
 90
        0
102
RTVSPost2010PropOp40
 70
     1
102
RTVSPost2010Prop41ColorIndex
 90
       18
102
RTVSPost2010Prop41ColorRGB
 90
        0
102
RTVSPost2010PropOp41
 70
     1
102
RTVSPost2010Prop42
 90
       50
102
RTVSPost2010PropOp42
 70
     1
102
RTVSPost2010Prop43
 90
        3
102
RTVSPost2010PropOp43
 70
     1
102
RTVSPost2010Prop44ColorIndex
 90
        5
102
RTVSPost2010Prop44ColorRGB
 90
      255
102
RTVSPost2010PropOp44
 70
     1
102
RTVSPost2010Prop45
280
     0
102
RTVSPost2010PropOp45
 70
     1
102
RTVSPost2010Prop46
 90
       50
102
RTVSPost2010PropOp46
 70
     1
102
RTVSPost2010Prop47
 90
       50
102
RTVSPost2010PropOp47
 70
     1
102
RTVSPost2010Prop48
 90
       50
102
RTVSPost2010PropOp48
 70
     1
102
RTVSPost2010Prop49
280
     0
102
RTVSPost2010PropOp49
 70
     1
102
RTVSPost2010Prop50
 90
       50
102
RTVSPost2010PropOp50
 70
     1
102
RTVSPost2010Prop51ColorIndex
 90
      256
102
RTVSPost2010Prop51ColorRGB
 90
-16777216
102
RTVSPost2010PropOp51
 70
     0
102
RTVSPost2010Prop52
140
1.0
102
RTVSPost2010PropOp52
 70
     0
102
RTVSPost2010Prop53
 90
        2
102
RTVSPost2010PropOp53
 70
     1
102
RTVSPost2010Prop54
  1
strokes_ogs.tif
102
RTVSPost2010PropOp54
 70
     1
102
RTVSPost2010Prop55
280
     0
102
RTVSPost2010PropOp55
 70
     1
102
RTVSPost2010Prop56
140
1.0
102
RTVSPost2010PropOp56
 70
     1
102
RTVSPost2010Prop57
140
1.0
102
RTVSPost2010PropOp57
 70
     1
  0
XRECORD
  5
4960
102
{ACAD_REACTORS
330
495F
102
}
330
495F
100
AcDbXrecord
280
     1
102
RTVSPost2010Prop28
280
     0
102
RTVSPost2010PropOp28
 70
     1
102
RTVSPost2010Prop29
280
     1
102
RTVSPost2010PropOp29
 70
     1
102
RTVSPost2010Prop30
280
     1
102
RTVSPost2010PropOp30
 70
     1
102
RTVSPost2010Prop31
280
     0
102
RTVSPost2010PropOp31
 70
     1
102
RTVSPost2010Prop32
280
     0
102
RTVSPost2010PropOp32
 70
     1
102
RTVSPost2010Prop33
280
     0
102
RTVSPost2010PropOp33
 70
     1
102
RTVSPost2010Prop34
280
     0
102
RTVSPost2010PropOp34
 70
     1
102
RTVSPost2010Prop35
280
     0
102
RTVSPost2010PropOp35
 70
     1
102
RTVSPost2010Prop36
280
     0
102
RTVSPost2010PropOp36
 70
     1
102
RTVSPost2010Prop37
 90
       50
102
RTVSPost2010PropOp37
 70
     1
102
RTVSPost2010Prop38
140
0.0
102
RTVSPost2010PropOp38
 70
     1
102
RTVSPost2010Prop39
140
1.0
102
RTVSPost2010PropOp39
 70
     1
102
RTVSPost2010Prop40
 90
        0
102
RTVSPost2010PropOp40
 70
     1
102
RTVSPost2010Prop41ColorIndex
 90
       18
102
RTVSPost2010Prop41ColorRGB
 90
        0
102
RTVSPost2010PropOp41
 70
     1
102
RTVSPost2010Prop42
 90
       50
102
RTVSPost2010PropOp42
 70
     1
102
RTVSPost2010Prop43
 90
        3
102
RTVSPost2010PropOp43
 70
     1
102
RTVSPost2010Prop44ColorIndex
 90
        5
102
RTVSPost2010Prop44ColorRGB
 90
      255
102
RTVSPost2010PropOp44
 70
     1
102
RTVSPost2010Prop45
280
     0
102
RTVSPost2010PropOp45
 70
     1
102
RTVSPost2010Prop46
 90
       50
102
RTVSPost2010PropOp46
 70
     1
102
RTVSPost2010Prop47
 90
       50
102
RTVSPost2010PropOp47
 70
     1
102
RTVSPost2010Prop48
 90
       50
102
RTVSPost2010PropOp48
 70
     1
102
RTVSPost2010Prop49
280
     0
102
RTVSPost2010PropOp49
 70
     1
102
RTVSPost2010Prop50
 90
       50
102
RTVSPost2010PropOp50
 70
     1
102
RTVSPost2010Prop51ColorIndex
 90
      256
102
RTVSPost2010Prop51ColorRGB
 90
-16777216
102
RTVSPost2010PropOp51
 70
     0
102
RTVSPost2010Prop52
140
1.0
102
RTVSPost2010PropOp52
 70
     0
102
RTVSPost2010Prop53
 90
        2
102
RTVSPost2010PropOp53
 70
     1
102
RTVSPost2010Prop54
  1
strokes_ogs.tif
102
RTVSPost2010PropOp54
 70
     1
102
RTVSPost2010Prop55
280
     0
102
RTVSPost2010PropOp55
 70
     1
102
RTVSPost2010Prop56
140
1.0
102
RTVSPost2010PropOp56
 70
     1
102
RTVSPost2010Prop57
140
1.0
102
RTVSPost2010PropOp57
 70
     1
  0
XRECORD
  5
4962
102
{ACAD_REACTORS
330
4961
102
}
330
4961
100
AcDbXrecord
280
     1
102
RTVSPost2010Prop28
280
     0
102
RTVSPost2010PropOp28
 70
     1
102
RTVSPost2010Prop29
280
     1
102
RTVSPost2010PropOp29
 70
     1
102
RTVSPost2010Prop30
280
     1
102
RTVSPost2010PropOp30
 70
     1
102
RTVSPost2010Prop31
280
     0
102
RTVSPost2010PropOp31
 70
     1
102
RTVSPost2010Prop32
280
     0
102
RTVSPost2010PropOp32
 70
     1
102
RTVSPost2010Prop33
280
     0
102
RTVSPost2010PropOp33
 70
     1
102
RTVSPost2010Prop34
280
     0
102
RTVSPost2010PropOp34
 70
     1
102
RTVSPost2010Prop35
280
     0
102
RTVSPost2010PropOp35
 70
     1
102
RTVSPost2010Prop36
280
     0
102
RTVSPost2010PropOp36
 70
     1
102
RTVSPost2010Prop37
 90
       50
102
RTVSPost2010PropOp37
 70
     1
102
RTVSPost2010Prop38
140
0.0
102
RTVSPost2010PropOp38
 70
     1
102
RTVSPost2010Prop39
140
1.0
102
RTVSPost2010PropOp39
 70
     1
102
RTVSPost2010Prop40
 90
        0
102
RTVSPost2010PropOp40
 70
     1
102
RTVSPost2010Prop41ColorIndex
 90
       18
102
RTVSPost2010Prop41ColorRGB
 90
        0
102
RTVSPost2010PropOp41
 70
     1
102
RTVSPost2010Prop42
 90
       50
102
RTVSPost2010PropOp42
 70
     1
102
RTVSPost2010Prop43
 90
        3
102
RTVSPost2010PropOp43
 70
     1
102
RTVSPost2010Prop44ColorIndex
 90
        5
102
RTVSPost2010Prop44ColorRGB
 90
      255
102
RTVSPost2010PropOp44
 70
     1
102
RTVSPost2010Prop45
280
     0
102
RTVSPost2010PropOp45
 70
     1
102
RTVSPost2010Prop46
 90
       50
102
RTVSPost2010PropOp46
 70
     1
102
RTVSPost2010Prop47
 90
       50
102
RTVSPost2010PropOp47
 70
     1
102
RTVSPost2010Prop48
 90
       50
102
RTVSPost2010PropOp48
 70
     1
102
RTVSPost2010Prop49
280
     0
102
RTVSPost2010PropOp49
 70
     1
102
RTVSPost2010Prop50
 90
       50
102
RTVSPost2010PropOp50
 70
     1
102
RTVSPost2010Prop51ColorIndex
 90
      256
102
RTVSPost2010Prop51ColorRGB
 90
-16777216
102
RTVSPost2010PropOp51
 70
     0
102
RTVSPost2010Prop52
140
1.0
102
RTVSPost2010PropOp52
 70
     0
102
RTVSPost2010Prop53
 90
        2
102
RTVSPost2010PropOp53
 70
     1
102
RTVSPost2010Prop54
  1
strokes_ogs.tif
102
RTVSPost2010PropOp54
 70
     1
102
RTVSPost2010Prop55
280
     0
102
RTVSPost2010PropOp55
 70
     1
102
RTVSPost2010Prop56
140
1.0
102
RTVSPost2010PropOp56
 70
     1
102
RTVSPost2010Prop57
140
1.0
102
RTVSPost2010PropOp57
 70
     1
  0
XRECORD
  5
4954
102
{ACAD_REACTORS
330
4953
102
}
330
4953
100
AcDbXrecord
280
     1
102
RTVSPost2010Prop28
280
     0
102
RTVSPost2010PropOp28
 70
     1
102
RTVSPost2010Prop29
280
     1
102
RTVSPost2010PropOp29
 70
     1
102
RTVSPost2010Prop30
280
     1
102
RTVSPost2010PropOp30
 70
     1
102
RTVSPost2010Prop31
280
     0
102
RTVSPost2010PropOp31
 70
     1
102
RTVSPost2010Prop32
280
     0
102
RTVSPost2010PropOp32
 70
     1
102
RTVSPost2010Prop33
280
     0
102
RTVSPost2010PropOp33
 70
     1
102
RTVSPost2010Prop34
280
     0
102
RTVSPost2010PropOp34
 70
     1
102
RTVSPost2010Prop35
280
     0
102
RTVSPost2010PropOp35
 70
     1
102
RTVSPost2010Prop36
280
     0
102
RTVSPost2010PropOp36
 70
     1
102
RTVSPost2010Prop37
 90
       50
102
RTVSPost2010PropOp37
 70
     1
102
RTVSPost2010Prop38
140
0.0
102
RTVSPost2010PropOp38
 70
     1
102
RTVSPost2010Prop39
140
1.0
102
RTVSPost2010PropOp39
 70
     1
102
RTVSPost2010Prop40
 90
        0
102
RTVSPost2010PropOp40
 70
     1
102
RTVSPost2010Prop41ColorIndex
 90
       18
102
RTVSPost2010Prop41ColorRGB
 90
        0
102
RTVSPost2010PropOp41
 70
     1
102
RTVSPost2010Prop42
 90
       50
102
RTVSPost2010PropOp42
 70
     1
102
RTVSPost2010Prop43
 90
        3
102
RTVSPost2010PropOp43
 70
     1
102
RTVSPost2010Prop44ColorIndex
 90
        5
102
RTVSPost2010Prop44ColorRGB
 90
      255
102
RTVSPost2010PropOp44
 70
     1
102
RTVSPost2010Prop45
280
     0
102
RTVSPost2010PropOp45
 70
     1
102
RTVSPost2010Prop46
 90
       50
102
RTVSPost2010PropOp46
 70
     1
102
RTVSPost2010Prop47
 90
       50
102
RTVSPost2010PropOp47
 70
     1
102
RTVSPost2010Prop48
 90
       50
102
RTVSPost2010PropOp48
 70
     1
102
RTVSPost2010Prop49
280
     0
102
RTVSPost2010PropOp49
 70
     1
102
RTVSPost2010Prop50
 90
       50
102
RTVSPost2010PropOp50
 70
     1
102
RTVSPost2010Prop51ColorIndex
 90
      256
102
RTVSPost2010Prop51ColorRGB
 90
-16777216
102
RTVSPost2010PropOp51
 70
     0
102
RTVSPost2010Prop52
140
1.0
102
RTVSPost2010PropOp52
 70
     0
102
RTVSPost2010Prop53
 90
        2
102
RTVSPost2010PropOp53
 70
     1
102
RTVSPost2010Prop54
  1
strokes_ogs.tif
102
RTVSPost2010PropOp54
 70
     1
102
RTVSPost2010Prop55
280
     0
102
RTVSPost2010PropOp55
 70
     1
102
RTVSPost2010Prop56
140
1.0
102
RTVSPost2010PropOp56
 70
     1
102
RTVSPost2010Prop57
140
1.0
102
RTVSPost2010PropOp57
 70
     1
  0
XRECORD
  5
495C
102
{ACAD_REACTORS
330
495B
102
}
330
495B
100
AcDbXrecord
280
     1
102
RTVSPost2010Prop28
280
     0
102
RTVSPost2010PropOp28
 70
     1
102
RTVSPost2010Prop29
280
     1
102
RTVSPost2010PropOp29
 70
     1
102
RTVSPost2010Prop30
280
     1
102
RTVSPost2010PropOp30
 70
     1
102
RTVSPost2010Prop31
280
     0
102
RTVSPost2010PropOp31
 70
     1
102
RTVSPost2010Prop32
280
     0
102
RTVSPost2010PropOp32
 70
     1
102
RTVSPost2010Prop33
280
     0
102
RTVSPost2010PropOp33
 70
     1
102
RTVSPost2010Prop34
280
     0
102
RTVSPost2010PropOp34
 70
     1
102
RTVSPost2010Prop35
280
     0
102
RTVSPost2010PropOp35
 70
     1
102
RTVSPost2010Prop36
280
     0
102
RTVSPost2010PropOp36
 70
     1
102
RTVSPost2010Prop37
 90
       50
102
RTVSPost2010PropOp37
 70
     1
102
RTVSPost2010Prop38
140
0.0
102
RTVSPost2010PropOp38
 70
     1
102
RTVSPost2010Prop39
140
1.0
102
RTVSPost2010PropOp39
 70
     1
102
RTVSPost2010Prop40
 90
        0
102
RTVSPost2010PropOp40
 70
     1
102
RTVSPost2010Prop41ColorIndex
 90
       18
102
RTVSPost2010Prop41ColorRGB
 90
        0
102
RTVSPost2010PropOp41
 70
     1
102
RTVSPost2010Prop42
 90
       50
102
RTVSPost2010PropOp42
 70
     1
102
RTVSPost2010Prop43
 90
        3
102
RTVSPost2010PropOp43
 70
     1
102
RTVSPost2010Prop44ColorIndex
 90
        5
102
RTVSPost2010Prop44ColorRGB
 90
      255
102
RTVSPost2010PropOp44
 70
     1
102
RTVSPost2010Prop45
280
     0
102
RTVSPost2010PropOp45
 70
     1
102
RTVSPost2010Prop46
 90
       50
102
RTVSPost2010PropOp46
 70
     1
102
RTVSPost2010Prop47
 90
       50
102
RTVSPost2010PropOp47
 70
     1
102
RTVSPost2010Prop48
 90
       50
102
RTVSPost2010PropOp48
 70
     1
102
RTVSPost2010Prop49
280
     0
102
RTVSPost2010PropOp49
 70
     1
102
RTVSPost2010Prop50
 90
       50
102
RTVSPost2010PropOp50
 70
     1
102
RTVSPost2010Prop51ColorIndex
 90
      256
102
RTVSPost2010Prop51ColorRGB
 90
-16777216
102
RTVSPost2010PropOp51
 70
     0
102
RTVSPost2010Prop52
140
1.0
102
RTVSPost2010PropOp52
 70
     0
102
RTVSPost2010Prop53
 90
        2
102
RTVSPost2010PropOp53
 70
     1
102
RTVSPost2010Prop54
  1
strokes_ogs.tif
102
RTVSPost2010PropOp54
 70
     1
102
RTVSPost2010Prop55
280
     0
102
RTVSPost2010PropOp55
 70
     1
102
RTVSPost2010Prop56
140
1.0
102
RTVSPost2010PropOp56
 70
     1
102
RTVSPost2010Prop57
140
1.0
102
RTVSPost2010PropOp57
 70
     1
  0
XRECORD
  5
4964
102
{ACAD_REACTORS
330
4963
102
}
330
4963
100
AcDbXrecord
280
     1
102
RTVSPost2010Prop28
280
     0
102
RTVSPost2010PropOp28
 70
     1
102
RTVSPost2010Prop29
280
     1
102
RTVSPost2010PropOp29
 70
     1
102
RTVSPost2010Prop30
280
     1
102
RTVSPost2010PropOp30
 70
     1
102
RTVSPost2010Prop31
280
     0
102
RTVSPost2010PropOp31
 70
     1
102
RTVSPost2010Prop32
280
     0
102
RTVSPost2010PropOp32
 70
     1
102
RTVSPost2010Prop33
280
     0
102
RTVSPost2010PropOp33
 70
     1
102
RTVSPost2010Prop34
280
     0
102
RTVSPost2010PropOp34
 70
     1
102
RTVSPost2010Prop35
280
     0
102
RTVSPost2010PropOp35
 70
     1
102
RTVSPost2010Prop36
280
     0
102
RTVSPost2010PropOp36
 70
     1
102
RTVSPost2010Prop37
 90
       50
102
RTVSPost2010PropOp37
 70
     1
102
RTVSPost2010Prop38
140
0.0
102
RTVSPost2010PropOp38
 70
     1
102
RTVSPost2010Prop39
140
1.0
102
RTVSPost2010PropOp39
 70
     1
102
RTVSPost2010Prop40
 90
        0
102
RTVSPost2010PropOp40
 70
     1
102
RTVSPost2010Prop41ColorIndex
 90
       18
102
RTVSPost2010Prop41ColorRGB
 90
        0
102
RTVSPost2010PropOp41
 70
     1
102
RTVSPost2010Prop42
 90
       50
102
RTVSPost2010PropOp42
 70
     1
102
RTVSPost2010Prop43
 90
        3
102
RTVSPost2010PropOp43
 70
     1
102
RTVSPost2010Prop44ColorIndex
 90
        5
102
RTVSPost2010Prop44ColorRGB
 90
      255
102
RTVSPost2010PropOp44
 70
     1
102
RTVSPost2010Prop45
280
     0
102
RTVSPost2010PropOp45
 70
     1
102
RTVSPost2010Prop46
 90
       50
102
RTVSPost2010PropOp46
 70
     1
102
RTVSPost2010Prop47
 90
       50
102
RTVSPost2010PropOp47
 70
     1
102
RTVSPost2010Prop48
 90
       50
102
RTVSPost2010PropOp48
 70
     1
102
RTVSPost2010Prop49
280
     0
102
RTVSPost2010PropOp49
 70
     1
102
RTVSPost2010Prop50
 90
       50
102
RTVSPost2010PropOp50
 70
     1
102
RTVSPost2010Prop51ColorIndex
 90
      256
102
RTVSPost2010Prop51ColorRGB
 90
-16777216
102
RTVSPost2010PropOp51
 70
     0
102
RTVSPost2010Prop52
140
1.0
102
RTVSPost2010PropOp52
 70
     0
102
RTVSPost2010Prop53
 90
        2
102
RTVSPost2010PropOp53
 70
     1
102
RTVSPost2010Prop54
  1
strokes_ogs.tif
102
RTVSPost2010PropOp54
 70
     1
102
RTVSPost2010Prop55
280
     0
102
RTVSPost2010PropOp55
 70
     1
102
RTVSPost2010Prop56
140
1.0
102
RTVSPost2010PropOp56
 70
     1
102
RTVSPost2010Prop57
140
1.0
102
RTVSPost2010PropOp57
 70
     1
  0
ENDSEC
  0
EOF
